<?xml version="1.0" standalone="no"?> <!DOCTYPE svg PUBLIC "-//W3C//DTD SVG 1.0//EN" "http://www.w3.org/TR/2001/REC-SVG-20010904/DTD/svg10.dtd" > <svg xmlns="http://www.w3.org/2000/svg" width="100%" height="100%">
<defs >
<font id="hoeflertextitalic" horiz-adv-x="743" ><font-face
    font-family="Hoefler Text"
    units-per-em="2000"
    panose-1="2 3 6 2 5 5 6 9 2 3"
    ascent="1442"
    descent="-558"
    alphabetic="0" />
<missing-glyph horiz-adv-x="1600" d="M100 0V1600H1500V0H100ZM1400 100V1500H200V100H1400Z" />
<glyph unicode=" " glyph-name="space" horiz-adv-x="410" />
<glyph unicode="!" glyph-name="exclam" horiz-adv-x="454" d="M492 1277L212 402Q205 378 182 378Q151 378 151 406Q151 411 152 416L290 1305Q299 1367 358 1367Q411 1367 452 1345T494 1291Q494 1284 492 1277ZM192 52Q192 13 164 -15T96 -44Q57 -44 29 -16T0
52Q0 91 28 119T96 148Q135 148 163 120T192 52Z" />
<glyph unicode="&quot;" glyph-name="quotedbl" horiz-adv-x="810" d="M849 1321L847 1309L667 854Q663 844 651 844Q636 844 624 850T611 868L663 1353Q666 1373 688 1387T741 1401Q786 1401 817 1376T849 1321ZM495 1321Q495 1313 493 1309L315 854Q311 844
299 844Q284 844 272 850T259 868L311 1353Q314 1373 336 1387T389 1401Q434 1401 464 1376T495 1321Z" />
<glyph unicode="#" glyph-name="numbersign" horiz-adv-x="1430" d="M1379 941Q1379 888 1355 888H1013L896 486H1203Q1229 486 1229 430Q1229 376 1203 376H862L740 -30Q734 -50 678 -50Q627 -50 628 -30L750 376H454L332 -30Q326 -50 270 -50Q219 -50 220 -30L342
376H54Q28 376 28 430Q28 486 52 486H374L494 888H204Q178 888 178 941Q178 995 204 995H526L652 1417Q657 1437 714 1437Q764 1437 764 1417L638 995H933L1059 1417Q1064 1437 1121 1437Q1172 1437 1171 1417L1045 995H1355Q1379 995 1379 941ZM902 888H606L486
486H784L902 888Z" />
<glyph unicode="$" glyph-name="dollar" horiz-adv-x="1026" d="M941 1221Q933 1103 933 1001V933Q933 919 906 919Q882 919 881 934Q862 1139 742 1181L628 722L655 695Q783 571 823 493T864 326Q864 165 744 62T438 -44L418 -126Q414 -140 395 -140Q354 -140
354 -114L372 -40Q319 -35 238 -11Q145 16 82 16Q97 212 100 332Q100 348 130 348Q151 348 154 332Q176 181 231 108T388 20L518 544Q507 554 484 576Q359 694 321 763T282 906Q282 1054 390 1154T668 1255H696L720 1353Q722 1368 742 1368Q782 1368 782 1341L758
1249Q779 1246 816 1238Q889 1221 941 1221ZM680 1195H658Q567 1195 520 1145T472 999Q472 886 576 776L680 1195ZM686 258Q686 371 572 492L454 16Q561 17 623 83T686 258Z" />
<glyph unicode="%" glyph-name="percent" horiz-adv-x="1696" d="M1555 512Q1555 383 1488 252T1314 39T1101 -44Q1009 -44 947 32T884 228Q884 357 951 488T1125 701T1337 784Q1430 784 1492 708T1555 512ZM1273 1235L422 -68Q416 -76 407 -76Q395 -76 375 -63T355
-36L358 -28L1105 1115Q978 1043 844 1043Q788 1043 724 1059Q732 1015 732 985Q732 857 665 727T490 514T278 432Q185 432 123 508T60 704Q60 833 127 963T301 1175T514 1257Q571 1257 620 1225T698 1135Q773 1105 848 1105Q944 1105 1040 1150T1211 1276Q1217
1283 1226 1283Q1238 1283 1257 1270T1276 1243L1273 1235ZM1403 624Q1403 678 1387 700T1333 722Q1274 722 1201 625T1082 388T1035 116Q1035 62 1051 40T1105 18Q1165 18 1238 115T1357 352T1403 624ZM580 1097Q580 1117 578 1127Q533 1158 502 1195Q442 1188
372 1091T257 856T212 592Q212 537 228 516T282 494Q341 494 414 590T533 826T580 1097Z" />
<glyph unicode="&amp;" glyph-name="ampersand" horiz-adv-x="1432" d="M1547 937Q1547 847 1461 775T1257 702Q1209 702 1167 720Q1167 391 997 175T556 -42Q352 -42 216 82T80 394Q80 605 230 759T585 914Q593 914 602 913L656 1025Q730 1186 730 1271Q730 1294
713 1342Q690 1410 690 1457Q690 1506 714 1538T776 1571Q824 1571 852 1534T880 1433Q880 1350 768 1113L344 212Q459 134 580 134Q819 134 961 296T1103 750Q1086 760 1053 781Q974 834 927 834Q894 834 874 818T854 776Q854 738 894 705Q933 672 933 634Q933
602 908 579T848 556Q798 556 763 591T728 688Q728 778 813 850T1015 923Q1093 923 1218 847Q1307 792 1347 792Q1381 792 1401 808T1421 850Q1421 888 1381 920Q1341 953 1341 991Q1341 1023 1366 1046T1427 1069Q1477 1069 1512 1034T1547 937ZM534 768Q489 777
449 777Q326 777 255 692T184 466Q184 355 292 254L534 768Z" />
<glyph unicode="&apos;" glyph-name="quotesingle" horiz-adv-x="450" d="M495 1321Q495 1313 493 1309L315 854Q311 844 299 844Q284 844 272 850T259 868L311 1353Q314 1373 336 1387T389 1401Q434 1401 464 1376T495 1321Z" />
<glyph unicode="(" glyph-name="parenleft" horiz-adv-x="640" d="M880 1410Q880 1395 870 1389Q600 1200 449 907T298 290Q298 127 343 2T484 -235L487 -243Q487 -257 474 -271T448 -285Q437 -285 370 -222T250 -84Q110 116 110 346Q110 743 417 1091Q489 1173
574 1246T753 1379T858 1440Q880 1440 880 1410Z" />
<glyph unicode=")" glyph-name="parenright" horiz-adv-x="640" d="M501 808Q501 411 193 62Q121 -20 36 -93T-142 -226T-248 -286Q-269 -286 -269 -256Q-269 -242 -259 -235Q11 -47 162 247T313 864Q313 1027 268 1152T126 1389L124 1397Q124 1410 137 1424T163
1438Q174 1438 241 1376T361 1238Q501 1037 501 808Z" />
<glyph unicode="*" glyph-name="asterisk" horiz-adv-x="738" d="M549 1001Q469 1000 440 991Q463 969 536 931Q619 888 641 862T664 806Q664 779 643 758T591 737Q563 737 536 761T465 860Q424 928 402 949Q396 927 396 891Q396 874 398 836Q400 798 400 779Q400
656 319 656Q288 656 268 676T248 731Q248 770 298 860Q339 931 346 963Q317 954 252 912Q158 851 117 851Q82 851 62 871T41 923Q41 960 74 983T215 1007Q298 1007 330 1017Q307 1039 234 1076Q151 1119 129 1145T106 1201Q106 1228 126 1249T177 1270Q206 1270
233 1246T305 1147Q345 1079 368 1057Q374 1080 374 1116Q374 1134 372 1172Q370 1210 370 1228Q370 1352 449 1352Q481 1352 501 1331T522 1276Q522 1238 471 1148Q431 1076 424 1045Q453 1054 520 1097Q612 1156 654 1156Q690 1156 709 1135T729 1084Q729 1046
693 1024T549 1001Z" />
<glyph unicode="+" glyph-name="plus" horiz-adv-x="842" d="M802 442Q802 388 776 388H490V102Q490 76 436 76Q380 76 380 102V388H96Q70 388 70 442Q70 498 96 498H380V782Q380 808 436 808Q490 808 490 782V498H776Q802 498 802 442Z" />
<glyph unicode="," glyph-name="comma" horiz-adv-x="456" d="M277 46Q277 -40 228 -123T90 -277T-31 -348Q-55 -348 -55 -316Q-55 -308 -13 -279Q83 -213 120 -160T157 -48Q157 -38 149 -38L138 -40Q127 -44 119 -44Q84 -44 63 -22T41 34Q41 87 82 127T177 168Q223
168 250 135T277 46Z" />
<glyph unicode="-" glyph-name="hyphen" horiz-adv-x="602" d="M522 442Q522 388 496 388H46Q20 388 20 442Q20 498 46 498H496Q522 498 522 442Z" />
<glyph unicode="." glyph-name="period" horiz-adv-x="456" d="M260 62Q260 18 230 -13T156 -44Q112 -44 81 -13T50 62Q50 105 81 136T156 168Q199 168 229 137T260 62Z" />
<glyph unicode="/" glyph-name="slash" horiz-adv-x="626" d="M809 1375L-7 -38Q-11 -47 -25 -47Q-44 -47 -68 -32T-92 1Q-92 6 -89 10L725 1425Q729 1433 744 1433Q766 1433 788 1417T810 1383L809 1375Z" />
<glyph unicode="0" glyph-name="zero" horiz-adv-x="938" d="M806 578Q806 431 732 285T541 48T302 -42Q196 -42 119 55T42 292Q42 438 115 584T307 821T546 911Q652 911 729 814T806 578ZM642 708Q642 848 532 848Q464 848 385 741T256 475T206 162Q206 22 316
22Q383 22 462 129T592 395T642 708Z" />
<glyph unicode="1" glyph-name="one" horiz-adv-x="804" d="M754 862Q754 848 747 837T730 826Q723 825 712 823Q630 814 602 799T557 752T526 664L416 204Q404 156 404 128Q404 92 427 74T538 45Q563 42 565 39T568 26Q568 12 561 0T546 -12Q505 -12 421 -6Q327
0 278 0Q228 0 139 -6Q59 -12 18 -12Q8 -12 8 6Q8 20 15 31T54 46Q134 55 161 70T205 116T236 204L346 664Q358 712 358 740Q358 776 336 794T230 822Q213 824 204 826Q194 826 194 842Q194 856 200 869T216 882Q256 882 341 876Q434 870 484 870Q533 870 622 876Q703
882 744 882Q754 882 754 862Z" />
<glyph unicode="2" glyph-name="two" horiz-adv-x="924" d="M761 722Q761 658 720 590T593 443T274 196Q229 164 207 148H517Q572 148 601 163T685 243Q694 254 707 254Q734 254 734 236L732 230Q674 116 629 -14Q564 0 307 0Q15 0 -47 -12Q-59 -12 -59 6Q-59
15 -31 36T55 101Q369 336 467 448T565 648Q565 708 533 744T443 780Q333 780 207 654Q199 646 187 646Q176 646 166 655T155 674Q155 689 229 763T381 874T539 911Q631 911 696 855T761 722Z" />
<glyph unicode="3" glyph-name="three" horiz-adv-x="770" d="M645 722Q645 635 563 542T341 376Q438 363 503 291T569 128Q569 -4 471 -132T205 -355T-75 -450Q-193 -450 -193 -378Q-193 -345 -169 -326T-105 -306Q-70 -306 -28 -331Q6 -350 27 -350Q102 -350
193 -287T341 -131T399 50Q399 146 332 204T165 262Q134 262 93 238L87 236Q75 236 65 246T55 272Q55 289 67 295Q457 484 457 676Q457 725 430 754T355 784Q301 784 250 763T165 708Q157 700 145 700Q135 700 126 708T116 724Q116 739 179 793T313 879T447 911Q536
911 590 858T645 722Z" />
<glyph unicode="4" glyph-name="four" horiz-adv-x="1026" d="M889 78Q889 47 876 24T847 0H629L531 -408Q524 -450 443 -450Q358 -450 358 -416L359 -408L457 0H-83Q-97 0 -97 16Q-97 30 -71 56L765 872Q799 904 823 904Q840 904 840 887L839 880L655 108H873Q889
108 889 78ZM609 638L79 108H483L609 638Z" />
<glyph unicode="5" glyph-name="five" horiz-adv-x="814" d="M763 892Q763 861 702 780T601 698Q458 698 319 752L255 608Q249 596 249 586Q249 560 289 529Q541 333 541 92Q541 -37 455 -166T231 -373T-59 -450Q-71 -450 -71 -422Q-71 -394 -53 -394Q122 -394
244 -266T367 44Q367 242 132 427Q115 441 115 462Q115 475 121 484L317 886Q335 915 353 915Q359 915 389 906Q519 864 629 864Q687 864 716 901Q726 913 741 913Q763 913 763 892Z" />
<glyph unicode="6" glyph-name="six" horiz-adv-x="964" d="M1011 1331Q1011 1315 999 1310Q242 961 242 228Q242 22 378 22Q482 22 566 167T650 506Q650 670 536 670Q487 670 450 643L443 641Q433 641 424 652T414 674Q414 694 473 728T576 762Q683 762 752 677T822
454Q822 265 679 112T352 -42Q228 -42 145 53T62 302Q62 734 423 1049Q513 1128 623 1195T853 1312T992 1363Q1011 1363 1011 1331Z" />
<glyph unicode="7" glyph-name="seven" horiz-adv-x="794" d="M785 878L781 866L37 -424Q18 -450 -25 -450Q-67 -450 -67 -426L-65 -418L615 720H301Q171 720 118 610Q110 594 89 594Q66 594 63 612Q115 744 155 898Q211 884 463 884Q716 884 767 895L773 896Q785
896 785 878Z" />
<glyph unicode="8" glyph-name="eight" horiz-adv-x="930" d="M902 1089Q902 984 831 896T590 714Q669 586 698 510T728 370Q728 209 605 84T320 -42Q198 -42 110 37T22 250Q22 360 108 459T398 672Q309 809 283 877T256 1007Q256 1154 362 1258T620 1363Q734
1363 818 1282T902 1089ZM764 1121Q764 1201 721 1250T606 1299Q530 1299 475 1245T420 1111Q420 1060 441 1001T528 826Q550 790 560 772Q764 896 764 1121ZM568 288Q568 345 546 405T451 584Q438 605 432 616Q174 464 174 254Q174 147 220 85T342 22Q438 22 503
98T568 288Z" />
<glyph unicode="9" glyph-name="nine" horiz-adv-x="976" d="M825 562Q825 158 481 -146Q394 -223 290 -288T72 -401T-59 -450Q-79 -450 -79 -416Q-79 -402 -68 -397Q282 -236 463 23T645 628Q645 848 503 848Q408 848 340 717T271 388Q271 328 296 291T363 254Q426
254 459 284L465 286Q475 286 484 276T493 252Q493 232 433 194T317 156Q213 156 152 239T91 464Q91 640 219 775T521 911Q651 911 738 810T825 562Z" />
<glyph unicode=":" glyph-name="colon" horiz-adv-x="462" d="M391 670Q391 626 361 595T287 564Q243 564 212 595T181 670Q181 713 212 744T287 776Q330 776 360 745T391 670ZM191 62Q191 18 161 -13T87 -44Q43 -44 12 -13T-19 62Q-19 105 12 136T87 168Q130
168 160 137T191 62Z" />
<glyph unicode=";" glyph-name="semicolon" horiz-adv-x="462" d="M391 670Q391 626 361 595T287 564Q243 564 212 595T181 670Q181 713 212 744T287 776Q330 776 360 745T391 670ZM213 46Q213 -40 164 -123T26 -277T-95 -348Q-119 -348 -119 -316Q-119 -308 -77
-279Q19 -213 56 -160T93 -48Q93 -38 85 -38L74 -40Q63 -44 55 -44Q21 -44 -1 -22T-23 34Q-23 87 18 127T113 168Q159 168 186 135T213 46Z" />
<glyph unicode="&lt;" glyph-name="less" horiz-adv-x="990" d="M921 64Q933 58 933 43Q933 21 915 -7T879 -35L874 -34L96 360Q70 374 70 420Q70 465 97 479L874 874L879 875Q896 875 914 847T933 797Q933 781 921 775L220 420L921 64Z" />
<glyph unicode="=" glyph-name="equal" horiz-adv-x="948" d="M802 592Q802 538 776 538H96Q70 538 70 592Q70 648 96 648H776Q802 648 802 592ZM802 292Q802 238 776 238H96Q70 238 70 292Q70 348 96 348H776Q802 348 802 292Z" />
<glyph unicode="&gt;" glyph-name="greater" horiz-adv-x="990" d="M985 420Q985 374 959 361L182 -34L176 -35Q159 -35 141 -7T123 43Q123 58 134 64L836 420L134 776Q123 781 123 797Q123 819 141 847T176 875L182 874L959 480Q985 465 985 420Z" />
<glyph unicode="?" glyph-name="question" horiz-adv-x="678" d="M754 1089Q754 1003 699 924T471 722Q340 628 301 579T262 482Q262 439 282 415T340 390Q376 390 425 418L442 426Q468 426 468 392Q468 380 414 355T314 330Q225 330 172 388T118 532Q118 616
175 694T413 896Q557 997 600 1050T644 1155Q644 1216 608 1259T518 1303Q410 1303 410 1141Q410 1096 386 1068T322 1039Q280 1039 256 1068T232 1147Q232 1236 303 1301T474 1367Q596 1367 675 1286T754 1089ZM190 52Q190 13 163 -15T96 -44Q56 -44 28 -16T0
52Q0 92 28 120T96 148Q135 148 162 120T190 52Z" />
<glyph unicode="@" glyph-name="at" horiz-adv-x="1528" d="M1475 768Q1475 555 1352 422T1055 288Q956 288 894 337T832 468Q832 499 842 534Q784 435 697 378T524 320Q480 320 452 352T424 438Q424 544 515 685T738 934T955 1041Q1002 1041 1027 1023L1037 1051Q1050
1079 1121 1079Q1182 1079 1182 1056L1181 1051L975 582Q952 528 952 483Q952 424 992 390T1099 356Q1226 356 1318 472T1411 768Q1411 1022 1252 1167T814 1313Q566 1313 407 1134T248 684Q248 413 407 234T814 54Q1085 54 1234 174L1241 176Q1251 176 1261 164T1271
141Q1271 124 1189 69T1011 -15T814 -44Q618 -44 450 53T185 319T88 684Q88 879 185 1047T450 1312T814 1409Q1112 1409 1293 1233T1475 768ZM995 925Q995 973 959 973Q891 973 806 898T658 710T594 522Q594 478 607 460T654 442Q695 442 776 535T926 750T995 925Z"
/>
<glyph unicode="A" glyph-name="A" horiz-adv-x="1534" d="M1360 26Q1360 -12 1338 -12Q1270 -12 1182 -6Q1104 0 1050 0Q989 0 893 -6Q792 -12 725 -12Q715 -12 715 6Q715 41 739 43Q856 50 901 83T954 216L986 546H601L355 236Q295 157 295 112Q295 50 413 44Q423
44 423 26Q423 11 416 0T399 -12Q340 -12 270 -6Q203 0 149 0Q106 0 22 -6Q-65 -12 -113 -12Q-123 -12 -123 6Q-123 41 -101 43Q5 53 85 97T251 244L1206 1393Q1219 1409 1238 1409Q1262 1409 1262 1389L1162 230Q1161 209 1161 191Q1161 119 1197 88T1350 43Q1360
42 1360 26ZM1036 1093L651 610H992L1036 1093Z" />
<glyph unicode="B" glyph-name="B" horiz-adv-x="1244" d="M1194 1075Q1194 960 1103 869T871 748Q975 727 1054 634T1134 432Q1134 243 986 116T625 -12Q558 -12 436 -6Q320 0 259 0Q198 0 102 -6Q2 -12 -65 -12Q-75 -12 -75 6Q-75 41 -51 44Q28 52 72 67T138
107T179 212L403 1153Q415 1205 415 1221Q415 1266 376 1288T237 1323Q227 1323 227 1339Q227 1354 233 1366T249 1379Q316 1379 396 1373Q471 1367 531 1367Q592 1367 670 1373Q752 1379 819 1379Q994 1379 1094 1299T1194 1075ZM988 1091Q988 1205 941 1258T795
1311H771Q645 1311 619 1203L515 768H661Q818 768 903 852T988 1091ZM920 416Q920 567 851 635T627 704H501L383 212Q374 175 374 150Q374 99 413 77T541 54Q712 54 816 156T920 416Z" />
<glyph unicode="C" glyph-name="C" horiz-adv-x="1338" d="M1347 1389Q1336 1301 1313 1055Q1313 1037 1285 1037Q1257 1037 1257 1055Q1257 1329 1005 1329Q822 1329 661 1203T408 862T316 390Q316 226 422 123T706 20Q867 20 974 102T1162 374Q1170 392 1195
392Q1219 392 1219 374Q1183 248 1127 18Q894 -44 678 -44Q424 -44 267 104T110 494Q110 743 245 955T614 1288T1129 1409Q1247 1409 1347 1389Z" />
<glyph unicode="D" glyph-name="D" horiz-adv-x="1580" d="M1530 828Q1530 617 1405 420T1071 108T627 -8Q583 -8 462 -4Q335 0 287 0Q213 0 -57 -12Q-67 -12 -67 6Q-67 19 -60 30T-43 43Q35 52 79 67T146 107T189 212L411 1153Q423 1192 423 1221Q423 1266 384
1288T245 1323Q235 1323 235 1339Q235 1379 259 1379Q316 1375 567 1375Q613 1375 732 1378Q850 1381 895 1381Q1182 1381 1356 1233T1530 828ZM1314 852Q1314 1087 1210 1201T887 1315H875L769 1311Q650 1307 625 1195L383 178Q377 155 377 137Q377 64 473 64L627
58Q814 58 967 167T1217 472T1314 852Z" />
<glyph unicode="E" glyph-name="E" horiz-adv-x="1246" d="M1228 1379Q1220 1291 1220 1201Q1220 1182 1221 1127Q1222 1072 1222 1053Q1222 1037 1194 1037Q1169 1037 1167 1054Q1155 1190 1095 1246T905 1303H769Q652 1303 623 1183L517 738H763Q865 738 909
779T991 929Q997 945 1020 945Q1048 945 1048 932Q1048 923 1018 813Q988 707 964 586Q953 525 946 492T934 442T907 426Q877 426 878 442Q884 498 884 536Q884 613 856 643T747 674H503L393 212Q381 160 381 144Q381 64 475 64H719Q845 64 950 144T1094 352Q1094
360 1110 360Q1125 360 1137 352T1149 334Q1094 155 1060 -12Q695 0 503 0Q311 0 -55 -12Q-67 -12 -67 6Q-67 19 -60 30T-43 43Q37 52 81 67T148 107T189 212L413 1153Q423 1197 423 1221Q423 1267 384 1289T245 1323Q235 1323 235 1339Q235 1353 242 1366T259
1379Q467 1367 745 1367Q1020 1367 1228 1379Z" />
<glyph unicode="F" glyph-name="F" horiz-adv-x="1172" d="M1250 1045Q1250 1029 1222 1029Q1194 1029 1194 1045Q1176 1181 1110 1242T912 1303H767Q650 1303 623 1183L515 730H735Q835 730 880 772T965 923Q971 939 992 939Q1020 939 1020 926Q1020 919 988
797Q954 670 933 558Q924 513 919 489T909 441T879 418Q851 418 851 434Q857 488 857 527Q857 604 829 635T721 666H499L391 212Q381 169 381 144Q381 99 420 77T559 43Q569 41 569 26Q569 11 562 0T545 -12Q475 -12 374 -6Q289 0 239 0Q189 0 102 -6Q5 -12 -57
-12Q-67 -12 -67 6Q-67 19 -60 30T-43 43Q35 52 79 67T146 107T189 212L413 1153Q423 1197 423 1221Q423 1266 384 1288T245 1323Q235 1323 235 1339Q235 1354 242 1366T259 1379Q467 1367 755 1367Q1036 1367 1244 1379Q1240 1307 1240 1255Q1240 1165 1250 1045Z"
/>
<glyph unicode="G" glyph-name="G" horiz-adv-x="1494" d="M1511 612Q1511 599 1504 587T1487 574Q1364 560 1324 527T1263 406L1227 258Q1198 129 1198 68Q1198 55 1199 46Q1060 -6 945 -25T678 -44Q424 -44 267 104T110 494Q110 743 245 955T615 1288T1129 1409Q1303
1409 1403 1389Q1387 1270 1373 1023Q1373 1005 1345 1005Q1317 1005 1317 1023Q1317 1329 1029 1329Q844 1329 676 1202T412 859T316 390Q316 226 422 123T706 20Q966 20 999 152L1063 428Q1069 449 1069 466Q1069 514 1020 538T840 575Q830 576 830 592Q830 606
837 618T854 630Q921 630 1026 625Q1126 620 1187 620Q1248 620 1339 625Q1434 630 1501 630Q1511 630 1511 612Z" />
<glyph unicode="H" glyph-name="H" horiz-adv-x="1616" d="M1744 1359Q1744 1347 1737 1335T1720 1323Q1639 1314 1595 1299T1528 1258T1488 1153L1264 212Q1254 169 1254 144Q1254 99 1294 77T1432 43Q1442 41 1442 26Q1442 11 1435 0T1418 -12Q1349 -12 1248
-6Q1162 0 1112 0Q1062 0 987 -6Q903 -12 841 -12Q831 -12 831 6Q831 19 838 30T855 43Q923 51 962 66T1023 107T1062 212L1166 658H497L393 212Q381 173 381 144Q381 92 414 73T535 43Q545 42 545 26Q545 11 538 0T521 -12Q451 -12 365 -6Q290 0 239 0Q189 0 102
-6Q5 -12 -57 -12Q-67 -12 -67 6Q-67 19 -60 30T-43 43Q37 52 81 67T148 107T189 212L413 1153Q423 1197 423 1221Q423 1266 384 1288T245 1323Q235 1323 235 1339Q235 1354 242 1366T259 1379Q328 1379 429 1373Q515 1367 565 1367Q615 1367 690 1373Q774 1379
837 1379Q847 1379 847 1359Q847 1347 839 1335T823 1323Q755 1316 716 1301T655 1259T615 1153L513 722H1182L1284 1153Q1296 1192 1296 1221Q1296 1273 1263 1292T1142 1323Q1132 1323 1132 1339Q1132 1354 1139 1366T1156 1379Q1226 1379 1312 1373Q1387 1367
1438 1367Q1489 1367 1576 1373Q1671 1379 1732 1379Q1744 1379 1744 1359Z" />
<glyph unicode="I" glyph-name="I" horiz-adv-x="862" d="M930 1359Q930 1346 923 1335T907 1323Q827 1314 783 1299T717 1258T677 1153L453 212Q441 160 441 144Q441 99 480 77T619 43Q629 42 629 26Q629 12 622 0T607 -12Q537 -12 436 -6Q351 0 301 0Q249 0
161 -6Q66 -12 5 -12Q-7 -12 -7 6Q-7 19 0 30T17 43Q97 52 141 67T208 107T249 212L473 1153Q483 1197 483 1221Q483 1267 444 1289T305 1323Q295 1323 295 1339Q295 1353 302 1366T319 1379Q388 1379 489 1373Q575 1367 625 1367Q675 1367 762 1373Q858 1379 920
1379Q930 1379 930 1359Z" />
<glyph unicode="J" glyph-name="J" horiz-adv-x="992" d="M1016 1331Q1016 1253 869 1213Q821 1153 713 722H895Q907 719 907 702Q907 685 899 672T879 658H695Q670 558 618 340Q569 134 542 60T479 -84Q408 -224 314 -329Q118 -548 -111 -548Q-190 -548 -246
-508T-303 -404Q-303 -364 -274 -338T-201 -312Q-161 -312 -131 -326T-61 -385Q-15 -438 25 -438Q135 -438 215 -297T370 150Q431 406 513 658H323Q311 658 311 680Q311 693 320 706T339 722H535Q653 1076 717 1189Q693 1187 649 1187Q584 1187 486 1241Q401 1287
353 1287Q304 1287 275 1264T245 1207Q245 1179 279 1150Q321 1115 321 1071Q321 1035 293 1013T217 991Q177 991 147 1023T117 1097Q117 1204 225 1306T447 1409Q507 1409 559 1390T687 1313Q736 1274 763 1261Q786 1327 834 1368T934 1409Q971 1409 993 1388T1016
1331Z" />
<glyph unicode="K" glyph-name="K" horiz-adv-x="1432" d="M1530 1359Q1530 1323 1510 1323Q1418 1313 1363 1291T1230 1203L699 746L1072 172Q1143 51 1350 8Q1364 5 1364 -12Q1364 -49 1336 -49Q1143 -12 950 -12L607 550Q567 611 548 626T495 642L391 212Q381
169 381 144Q381 99 420 77T559 43Q569 41 569 26Q569 11 562 0T545 -12Q475 -12 374 -6Q289 0 239 0Q189 0 102 -6Q5 -12 -57 -12Q-67 -12 -67 6Q-67 19 -60 30T-43 43Q35 52 79 67T146 107T189 212L413 1153Q423 1197 423 1221Q423 1266 384 1288T245 1323Q235
1323 235 1339Q235 1354 242 1366T259 1379Q328 1379 428 1373Q513 1367 565 1367Q615 1367 702 1373Q798 1379 861 1379Q871 1379 871 1359Q871 1347 863 1335T847 1323Q766 1314 722 1299T655 1258T615 1153L515 734Q557 734 582 744T641 786L1096 1185Q1144
1230 1144 1261Q1144 1287 1118 1300T1020 1323Q1008 1323 1008 1339Q1008 1354 1015 1366T1030 1379Q1078 1379 1151 1373Q1228 1367 1282 1367Q1336 1367 1415 1374Q1481 1379 1520 1379Q1530 1379 1530 1359Z" />
<glyph unicode="L" glyph-name="L" horiz-adv-x="1226" d="M1187 348Q1097 157 1042 -12Q677 0 501 0Q309 0 -57 -12Q-69 -12 -69 6Q-69 19 -62 30T-45 43Q35 52 79 67T146 107T187 212L411 1153Q421 1197 421 1221Q421 1267 382 1289T243 1323Q233 1323 233 1339Q233
1353 240 1366T257 1379Q326 1379 427 1373Q513 1367 563 1367Q613 1367 700 1373Q796 1379 859 1379Q869 1379 869 1359Q869 1346 862 1335T845 1323Q765 1314 721 1299T655 1258T615 1153L391 212Q379 160 379 144Q379 64 473 64H715Q840 64 948 143T1131 366Q1138
378 1156 378Q1188 378 1188 355L1187 348Z" />
<glyph unicode="M" glyph-name="M" horiz-adv-x="1916" d="M1962 1359Q1962 1323 1940 1323Q1815 1309 1765 1277T1696 1153L1566 212Q1561 172 1561 153Q1561 102 1601 79T1746 43Q1758 42 1758 26Q1758 12 1751 0T1734 -12Q1667 -12 1574 -6Q1485 0 1424 0Q1363
0 1273 -6Q1179 -12 1112 -12Q1100 -12 1100 6Q1100 19 1107 30T1124 43Q1249 58 1295 90T1354 212L1494 1171L827 -28Q817 -44 795 -44Q771 -44 771 -28L609 1133L319 212Q304 169 304 143Q304 100 347 78T493 43Q503 41 503 26Q503 12 496 0T479 -12Q427 -12
341 -6Q258 0 211 0Q161 0 73 -6Q-12 -12 -57 -12Q-67 -12 -67 6Q-67 41 -43 44Q82 58 136 90T221 212L549 1153Q561 1193 561 1218Q561 1265 517 1288T367 1323Q357 1323 357 1339Q357 1354 364 1366T381 1379Q405 1379 473 1373Q548 1367 577 1367Q611 1367 676
1373Q742 1379 779 1379L924 290L1538 1379Q1578 1379 1643 1373Q1702 1367 1736 1367Q1776 1367 1840 1373Q1907 1379 1952 1379Q1962 1379 1962 1359Z" />
<glyph unicode="N" glyph-name="N" horiz-adv-x="1552" d="M1690 1359Q1690 1346 1684 1335T1668 1322Q1568 1311 1521 1276T1458 1153L1232 -24Q1229 -44 1206 -44Q1192 -44 1176 -28L469 1093L297 212Q289 182 289 159Q289 108 327 81T449 43Q459 42 459 26Q459
12 452 0T437 -12Q394 -12 314 -6Q236 0 197 0Q156 0 73 -6Q-1 -12 -35 -12Q-47 -12 -47 6Q-47 19 -40 30T-23 43Q81 56 131 92T203 212L407 1153Q415 1177 415 1203Q415 1255 369 1281T205 1323Q195 1323 195 1339Q195 1354 202 1366T219 1379Q249 1379 297 1375Q342
1371 367 1371Q395 1371 443 1375Q493 1379 523 1379L1218 302L1366 1153Q1370 1175 1370 1193Q1370 1250 1329 1280T1196 1322Q1184 1324 1184 1339Q1184 1353 1192 1365T1208 1377Q1248 1377 1323 1372Q1402 1367 1448 1367Q1491 1367 1566 1372Q1638 1377 1680
1377Q1690 1377 1690 1359Z" />
<glyph unicode="O" glyph-name="O" horiz-adv-x="1460" d="M1409 874Q1409 642 1296 429T993 86T604 -44Q472 -44 354 25T173 214T110 494Q110 724 223 937T526 1279T915 1409Q1048 1409 1165 1341T1346 1152T1409 874ZM1203 975Q1203 1164 1132 1254T913 1345Q767
1345 627 1209T402 849T316 390Q316 20 606 20Q752 20 892 157T1118 517T1203 975Z" />
<glyph unicode="P" glyph-name="P" horiz-adv-x="1170" d="M1222 1007Q1222 839 1065 714T715 588Q587 588 487 608L393 212Q381 173 381 144Q381 99 420 77T559 43Q569 42 569 26Q569 11 562 0T545 -12Q475 -12 376 -6Q290 0 239 0Q189 0 102 -6Q5 -12 -57 -12Q-67
-12 -67 6Q-67 19 -60 30T-43 43Q37 52 81 67T148 107T189 212L413 1153Q423 1197 423 1221Q423 1266 384 1288T245 1323Q235 1323 235 1339Q235 1354 242 1366T259 1379Q329 1379 410 1373Q477 1367 525 1367Q575 1367 645 1373Q727 1379 797 1379Q1005 1379 1113
1285T1222 1007ZM1012 1031Q1012 1164 954 1237T793 1311Q708 1311 674 1283T615 1153L515 732Q511 716 511 705Q511 676 537 665T639 654Q791 654 901 766T1012 1031Z" />
<glyph unicode="Q" glyph-name="Q" horiz-adv-x="1384" d="M2087 -256Q2087 -326 2010 -396T1810 -507T1547 -548Q1400 -548 1265 -507T997 -378T632 -74L506 46Q363 -24 238 -24Q164 -24 114 11T64 106Q64 173 145 223T334 274Q404 274 465 253T606 176Q857 324
995 533T1133 983Q1133 1134 1040 1230T800 1327Q586 1327 450 1205T314 882Q314 750 380 672T560 594Q649 594 703 639T758 756Q758 782 743 797T680 828Q624 845 606 867T588 925Q588 972 620 1002T700 1033Q767 1033 810 976T854 830Q854 676 749 578T496 480Q343
480 249 566T154 790Q154 957 244 1100T491 1326T834 1409Q1054 1409 1197 1276T1341 949Q1341 728 1183 532T674 124Q731 78 848 -30Q1055 -221 1172 -299T1402 -414T1627 -452Q1765 -452 1838 -420T1911 -334Q1911 -321 1897 -297Q1877 -263 1877 -240Q1877 -193
1905 -161T1977 -128Q2025 -128 2056 -165T2087 -256ZM454 94Q368 180 270 180Q144 180 144 102Q144 74 172 57T246 40Q349 40 454 94Z" />
<glyph unicode="R" glyph-name="R" horiz-adv-x="1396" d="M1294 -14Q1294 -48 1271 -48H1264Q1136 -12 909 -12L627 552Q607 589 578 604T491 620L391 212Q381 169 381 144Q381 99 420 77T559 43Q569 42 569 26Q569 11 562 0T545 -12Q475 -12 376 -6Q290 0 239
0Q189 0 102 -6Q5 -12 -57 -12Q-67 -12 -67 6Q-67 19 -60 30T-43 43Q35 52 79 67T146 107T189 212L413 1153Q423 1197 423 1221Q423 1266 384 1288T245 1323Q235 1323 235 1339Q235 1354 242 1366T259 1379Q329 1379 410 1373Q477 1367 525 1367Q575 1367 645 1373Q727
1379 797 1379Q1023 1379 1128 1300T1234 1051Q1234 910 1100 790T789 636L1020 196Q1056 128 1116 84T1282 6Q1294 3 1294 -14ZM1022 1067Q1022 1311 793 1311Q708 1311 674 1283T615 1153L505 684H621Q735 684 825 734T968 878T1022 1067Z" />
<glyph unicode="S" glyph-name="S" horiz-adv-x="1050" d="M997 1373Q989 1210 989 1117V1063Q989 1047 961 1047Q936 1047 934 1063Q921 1213 863 1279T686 1345Q480 1345 480 1121Q480 1043 518 970T684 770Q824 632 867 545T911 362Q911 183 778 70T438 -44Q350
-44 230 -11Q121 18 50 18Q68 261 70 358Q70 374 102 374Q123 374 126 358Q154 172 228 96T454 20Q577 20 648 94T720 294Q720 370 678 444T501 647Q361 781 318 860T274 1021Q274 1187 392 1298T698 1409Q767 1409 855 1391Q937 1373 997 1373Z" />
<glyph unicode="T" glyph-name="T" horiz-adv-x="1340" d="M1472 1395Q1448 1215 1448 1045Q1448 1029 1420 1029Q1392 1029 1392 1045Q1383 1185 1317 1244T1094 1303H1040Q991 1303 970 1287T938 1227L697 212Q685 160 685 144Q685 99 724 77T862 43Q875 41
875 26Q875 12 867 0T851 -12Q781 -12 680 -6Q595 0 545 0Q493 0 405 -6Q309 -12 249 -12Q239 -12 239 6Q239 41 261 43Q340 52 385 67T452 107T493 212L735 1227Q739 1246 739 1259Q739 1283 723 1293T667 1303H563Q439 1303 341 1235T191 1047Q183 1029 159 1029Q133
1029 134 1048Q200 1219 247 1395Q383 1367 869 1367Q1329 1367 1472 1395Z" />
<glyph unicode="U" glyph-name="U" horiz-adv-x="1474" d="M1645 1359Q1645 1346 1638 1335T1621 1323Q1492 1308 1440 1276T1367 1153L1217 526Q1148 233 1007 95T644 -44Q424 -44 308 54T192 336Q192 410 212 494L370 1153Q380 1197 380 1221Q380 1267 341 1289T202
1323Q192 1323 192 1339Q192 1353 199 1366T216 1379Q285 1379 386 1373Q472 1367 522 1367Q572 1367 659 1373Q755 1379 818 1379Q828 1379 828 1359Q828 1346 821 1335T804 1323Q724 1314 680 1299T614 1258T574 1153L422 522Q393 401 393 313Q393 175 464 111T696
46Q867 46 976 167T1147 546L1293 1153Q1303 1197 1303 1221Q1303 1266 1264 1288T1125 1323Q1113 1323 1113 1339Q1113 1354 1120 1366T1137 1379Q1182 1379 1257 1373Q1336 1367 1385 1367Q1433 1367 1507 1373Q1583 1379 1633 1379Q1645 1379 1645 1359Z" />
<glyph unicode="V" glyph-name="V" horiz-adv-x="1512" d="M1703 1359Q1703 1323 1679 1323Q1592 1315 1532 1280T1377 1121L494 -28Q481 -44 464 -44Q438 -44 438 -22L400 1135Q397 1230 356 1268T182 1323Q172 1323 172 1339Q172 1353 179 1366T196 1379Q265
1379 350 1373Q426 1367 480 1367Q540 1367 632 1373Q730 1379 798 1379Q808 1379 808 1359Q808 1346 801 1335T784 1323Q673 1313 634 1282T594 1164V1151L616 236L1273 1129Q1315 1191 1315 1243Q1315 1309 1167 1323Q1157 1323 1157 1339Q1157 1354 1164 1366T1181
1379Q1240 1379 1328 1373Q1410 1367 1463 1367Q1508 1367 1576 1373Q1646 1379 1693 1379Q1703 1379 1703 1359Z" />
<glyph unicode="W" glyph-name="W" horiz-adv-x="2002" d="M2183 1359Q2183 1323 2159 1323Q2084 1316 2034 1283T1889 1121L1051 -28Q1039 -44 1019 -44Q995 -44 995 -22L935 488L584 -28Q571 -44 552 -44Q533 -44 526 -22L352 1135Q337 1240 300 1276T182 1323Q172
1323 172 1339Q172 1353 179 1366T196 1379Q265 1379 312 1373Q354 1367 408 1367Q459 1367 530 1373Q600 1379 650 1379Q660 1379 660 1359Q660 1346 653 1335T638 1323Q587 1318 568 1297T549 1227Q549 1198 556 1151L688 236L921 600L860 1143Q847 1246 819
1281T730 1323Q720 1323 720 1339Q720 1354 727 1366T744 1379Q778 1379 835 1373Q897 1367 937 1367Q981 1367 1045 1373Q1110 1379 1155 1379Q1165 1379 1165 1359Q1165 1346 1158 1335T1141 1323Q1089 1318 1070 1298T1051 1227Q1051 1201 1055 1159L1091 840L1271
1129Q1321 1210 1321 1255Q1321 1311 1243 1323Q1233 1323 1233 1343Q1233 1356 1239 1367T1253 1379Q1300 1379 1364 1373Q1417 1367 1449 1367Q1475 1367 1523 1372Q1592 1379 1645 1379Q1658 1379 1658 1356Q1658 1323 1637 1323Q1561 1316 1506 1279T1369 1121L1101
732L1159 222L1785 1129Q1834 1201 1834 1246Q1834 1312 1727 1323Q1717 1323 1717 1339Q1717 1354 1724 1366T1741 1379Q1802 1379 1866 1373Q1920 1367 1963 1367Q2001 1367 2059 1373Q2124 1379 2173 1379Q2183 1379 2183 1359Z" />
<glyph unicode="X" glyph-name="X" horiz-adv-x="1504" d="M1632 1359Q1632 1346 1625 1335T1608 1323Q1510 1311 1456 1284T1298 1153L879 734L1124 212Q1163 129 1187 105T1252 67T1368 43Q1378 42 1378 26Q1378 12 1372 0T1356 -12Q1308 -12 1221 -6Q1138 0
1092 0Q1051 0 961 -5Q842 -12 771 -12Q761 -12 761 6Q761 41 783 43Q867 53 903 71T940 122Q940 151 914 212L735 592L377 212Q323 158 323 118Q323 60 465 43Q475 41 475 26Q475 11 468 0T451 -12Q378 -12 289 -5Q222 0 183 0Q149 0 88 -5Q6 -12 -57 -12Q-67
-12 -67 6Q-67 41 -45 43Q48 54 103 81T265 212L705 654L469 1153Q425 1246 375 1278T225 1323Q215 1323 215 1339Q215 1354 221 1366T237 1379Q285 1379 372 1373Q459 1367 507 1367Q560 1367 651 1373Q754 1379 823 1379Q835 1379 835 1359Q835 1347 827 1335T811
1323Q657 1307 657 1233Q657 1201 681 1153L849 796L1186 1153Q1242 1213 1242 1247Q1242 1304 1098 1323Q1088 1323 1088 1339Q1088 1354 1095 1366T1112 1379Q1175 1379 1256 1373Q1330 1367 1380 1367Q1416 1367 1474 1372Q1555 1379 1624 1379Q1632 1379 1632
1359Z" />
<glyph unicode="Y" glyph-name="Y" horiz-adv-x="1414" d="M1590 1178Q1590 1164 1577 1156T1553 1147Q1545 1147 1543 1153Q1495 1271 1347 1271Q1170 1271 1012 1056T774 496L706 214Q696 167 696 146Q696 100 735 78T874 44Q884 44 884 28Q884 -12 860 -12Q790
-12 689 -6Q604 0 554 0Q504 0 417 -6Q320 -12 258 -12Q248 -12 248 8Q248 20 255 31T272 43Q351 52 395 67T461 108T504 214L580 540Q644 806 644 964Q644 1261 408 1261Q345 1261 283 1230T138 1115Q134 1111 129 1111Q121 1111 108 1123T95 1145Q95 1166 166
1245T318 1367T482 1409Q640 1409 736 1289T832 965Q832 941 828 886Q937 1113 1088 1261T1371 1409Q1432 1409 1481 1376T1560 1284T1590 1178Z" />
<glyph unicode="Z" glyph-name="Z" horiz-adv-x="1310" d="M1314 1349Q1314 1341 1308 1335L253 64H685Q862 64 977 137T1163 370Q1170 386 1190 386Q1221 386 1221 368L1219 360Q1110 76 1088 -20Q1001 0 545 0Q90 0 -1 -19Q-11 -19 -19 -8T-27 18Q-27 24 -23
32L1034 1303H673Q369 1303 248 1030Q241 1013 225 1013Q193 1013 193 1032L202 1060Q282 1277 307 1387Q394 1367 787 1367Q1208 1367 1288 1386Q1299 1386 1306 1375T1314 1349Z" />
<glyph unicode="[" glyph-name="bracketleft" horiz-adv-x="750" d="M911 1406Q911 1379 826 1330T630 1281Q618 1281 588 1287Q391 542 250 -134Q286 -128 294 -128Q359 -128 405 -143T486 -193T520 -241Q520 -252 506 -267T479 -281Q457 -267 404 -256T298 -244Q216
-244 108 -271Q59 -284 42 -284Q28 -284 28 -268L100 24Q227 537 227 545Q227 562 203 572T110 591Q97 592 97 609Q97 619 105 628T122 638Q201 648 230 659T263 689Q267 704 271 724T282 769Q308 885 379 1200Q409 1335 419 1379T436 1430T452 1437Q469 1437 512
1425Q607 1399 690 1399Q743 1399 801 1410T892 1436Q911 1436 911 1406Z" />
<glyph unicode="\" glyph-name="backslash" horiz-adv-x="1218" d="M1083 10Q1086 6 1086 1Q1086 -16 1063 -31T1019 -47Q1006 -47 1001 -38L186 1375L185 1383Q185 1401 207 1417T250 1433Q265 1433 270 1425L1083 10Z" />
<glyph unicode="]" glyph-name="bracketright" horiz-adv-x="750" d="M622 1131Q495 618 495 610Q495 593 519 583T612 565Q624 563 624 547Q624 537 616 528T600 518Q520 508 492 497T458 466Q455 451 451 431T440 386Q414 271 343 -44Q313 -180 303 -224T286
-275T270 -282Q253 -282 210 -270Q115 -244 32 -244Q-22 -244 -80 -255T-170 -281Q-189 -281 -189 -250Q-189 -224 -104 -175T92 -126Q104 -126 134 -132Q330 613 472 1289Q436 1283 428 1283Q363 1283 316 1299T236 1349T202 1396Q202 1408 215 1423T243 1437Q265
1423 317 1411T424 1399Q505 1399 613 1427Q662 1439 680 1439Q693 1439 693 1423L622 1131Z" />
<glyph unicode="^" glyph-name="asciicircum" horiz-adv-x="630" d="M754 1099Q754 1086 739 1072T712 1057Q705 1057 696 1063L478 1247L166 1063Q154 1057 148 1057Q139 1057 131 1067T122 1089Q122 1105 138 1115L454 1397Q469 1409 484 1409Q501 1409 510
1397L748 1115Q754 1109 754 1099Z" />
<glyph unicode="_" glyph-name="underscore" horiz-adv-x="928" d="M914 -56Q914 -110 889 -110H-59Q-85 -110 -85 -56Q-85 0 -59 0H889Q914 0 914 -56Z" />
<glyph unicode="`" glyph-name="grave" horiz-adv-x="700" d="M644 1024Q644 1010 629 996T602 982Q595 982 586 988L308 1196Q296 1205 296 1222Q296 1254 321 1280T384 1306Q399 1306 408 1294L638 1040Q644 1036 644 1024Z" />
<glyph unicode="a" glyph-name="a" horiz-adv-x="928" d="M909 862L625 206Q595 138 595 108Q595 84 615 84Q644 84 745 205Q791 260 797 260Q809 260 819 249T829 226Q829 212 756 130T618 2T507 -44Q407 -44 407 50Q407 138 491 294Q418 158 297 57T85 -44Q34
-44 5 -5T-25 102Q-25 233 85 402T355 699T623 826Q676 826 709 804L733 862Q748 896 837 896Q910 896 910 868L909 862ZM661 704Q661 764 617 764Q532 764 422 670T230 437T147 208Q147 154 164 131T221 108Q272 108 378 224T573 489T661 704Z" />
<glyph unicode="b" glyph-name="b" horiz-adv-x="900" d="M844 682Q844 535 738 368T469 79T190 -44Q2 -44 2 116Q2 197 46 312L364 1141Q386 1199 386 1231Q386 1270 302 1280Q286 1282 286 1305Q286 1329 302 1329Q366 1341 456 1374T593 1437Q612 1449 626
1449Q646 1449 646 1427Q646 1406 632 1375L320 562Q416 714 522 797T722 880Q779 880 811 829T844 682ZM682 626Q682 726 608 726Q543 726 438 620T256 375T178 146Q178 64 238 64Q331 64 430 153T606 388T682 626Z" />
<glyph unicode="c" glyph-name="c" horiz-adv-x="698" d="M694 754Q694 723 675 704T626 684Q572 684 523 743Q480 794 440 794Q397 794 333 701T233 480T196 214Q196 94 292 94Q336 94 392 133T496 232L502 234Q510 234 518 224T527 204Q527 183 468 111T344
-2T222 -44Q135 -44 74 31T12 210Q12 354 90 510T289 773T512 880Q587 880 640 843T694 754Z" />
<glyph unicode="d" glyph-name="d" horiz-adv-x="956" d="M1116 1427Q1116 1412 1106 1375L697 248Q661 152 661 124Q661 92 681 92Q715 92 807 214Q842 260 847 260Q860 260 871 249T883 226Q883 209 818 128T690 2T579 -44Q471 -44 471 68Q471 140 527 268Q449
134 342 45T149 -44Q80 -44 37 11T-7 156Q-7 298 91 467T338 758T597 880Q632 880 671 864T729 824L841 1141Q863 1199 863 1231Q863 1270 777 1280Q759 1282 759 1305Q759 1329 775 1329Q838 1341 927 1373T1062 1435Q1085 1449 1096 1449Q1116 1449 1116 1427ZM693
718Q693 816 597 816Q513 816 412 713T242 461T173 184Q173 90 237 90Q305 90 404 200T598 483T693 718Z" />
<glyph unicode="e" glyph-name="e" horiz-adv-x="708" d="M650 730Q650 593 514 484T198 374Q192 314 192 266Q192 178 216 140T298 102Q426 102 525 249L531 252Q539 252 548 242T557 222Q557 201 496 122T368 0T236 -44Q138 -44 75 31T12 210Q12 354 87 511T280
774T498 880Q570 880 610 840T650 730ZM508 696Q508 780 434 780Q362 780 299 682T210 438Q294 438 359 473T466 575T508 696Z" />
<glyph unicode="f" glyph-name="f" horiz-adv-x="630" d="M1002 1367Q1002 1325 972 1294T897 1263Q863 1263 813 1298Q762 1333 727 1333Q661 1333 619 1304T548 1208T472 926Q456 851 447 810H669Q680 810 683 804T687 778Q687 758 677 741T655 724L429 728L263
40Q220 -141 148 -274T-19 -484T-201 -560Q-272 -560 -322 -525T-373 -442Q-373 -356 -287 -356Q-251 -356 -200 -401Q-149 -446 -113 -446Q-50 -446 -16 -397T53 -186L243 704V711Q243 728 223 728H63Q45 728 45 754Q45 770 67 778Q273 802 277 840Q308 992 400
1144T610 1382T849 1467Q1002 1467 1002 1367Z" />
<glyph unicode="g" glyph-name="g" horiz-adv-x="830" d="M853 676L723 680Q727 644 727 624Q727 460 595 321T295 182Q261 182 241 171T221 142Q221 125 250 108T382 56Q585 -13 656 -71T727 -204Q727 -291 661 -376T488 -510T257 -560Q68 -560 -49 -492T-167
-316Q-167 -245 -80 -168T143 -34Q33 23 33 70Q33 101 65 131T189 208Q73 275 73 434Q73 602 201 741T497 880Q625 880 687 778L884 784Q897 784 897 759Q897 729 883 703T853 676ZM555 704Q555 814 475 814Q422 814 365 747T274 577T241 356Q241 307 262 277T321
246Q415 246 485 381T555 704ZM573 -302Q573 -235 496 -182T213 -68Q126 -94 49 -166T-29 -308Q-29 -496 259 -496Q385 -496 479 -441T573 -302Z" />
<glyph unicode="h" glyph-name="h" horiz-adv-x="984" d="M896 684Q896 530 819 366T617 79T408 -44Q362 -44 328 -18T294 50Q294 91 321 116T392 142Q431 142 471 97Q494 72 506 72Q542 72 593 164T675 384T706 642Q706 693 687 723T636 754Q569 754 464 648T270
377T124 14Q120 0 92 -10T34 -20Q9 -20 -13 -12T-35 9L-34 14L320 1141Q338 1195 338 1231Q338 1270 250 1280Q232 1282 232 1305Q232 1329 246 1329Q310 1341 398 1374T530 1436Q550 1449 564 1449Q584 1449 584 1427Q584 1403 574 1375L316 558Q525 880 740 880Q805
880 850 825T896 684Z" />
<glyph unicode="i" glyph-name="i" horiz-adv-x="572" d="M620 1255Q620 1209 587 1176T508 1143Q460 1143 427 1176T394 1255Q394 1302 427 1335T508 1369Q554 1369 587 1336T620 1255ZM502 796Q502 734 460 648L242 206Q208 138 208 108Q208 84 224 84Q257 84
360 203Q408 260 416 260Q429 260 438 249T448 226Q448 212 371 131T225 3T110 -44Q14 -44 14 44Q14 95 58 190L276 630Q310 698 310 732Q310 752 292 752Q258 752 150 627Q106 576 100 576Q87 576 79 586T70 610Q70 625 146 706T292 833T408 880Q502 880 502 796Z"
/>
<glyph unicode="j" glyph-name="j" horiz-adv-x="630" d="M663 1255Q663 1209 629 1176T549 1143Q502 1143 470 1176T437 1255Q437 1303 469 1336T549 1369Q596 1369 629 1336T663 1255ZM549 782Q549 733 517 648L285 42Q178 -241 41 -400T-223 -560Q-296 -560
-349 -526T-403 -446Q-403 -403 -380 -379T-317 -354Q-281 -354 -224 -400Q-167 -446 -131 -446Q-96 -446 -80 -428T-29 -326L335 630Q357 691 357 732Q357 752 339 752Q298 752 150 584Q96 524 91 524Q78 524 68 535T57 558Q57 573 146 670T312 824T439 880Q549
880 549 782Z" />
<glyph unicode="k" glyph-name="k" horiz-adv-x="940" d="M872 684Q872 607 806 530T632 409T396 366Q447 260 538 153T680 46Q728 46 728 94Q728 118 700 143L690 156Q690 170 699 180T722 190Q746 190 773 155T800 86Q800 -44 630 -44Q525 -44 414 65T236 338L124
14Q120 0 92 -10T36 -20Q10 -20 -12 -12T-34 14L336 1141Q354 1195 354 1231Q354 1270 266 1280Q248 1282 248 1305Q248 1329 262 1329Q326 1341 414 1374T548 1436Q568 1449 582 1449Q602 1449 602 1427Q602 1403 592 1375L348 664Q450 786 527 833T694 880Q774
880 823 825T872 684ZM698 658Q698 754 612 754Q557 754 485 706T352 584T292 472Q292 428 358 428Q698 428 698 658Z" />
<glyph unicode="l" glyph-name="l" horiz-adv-x="536" d="M669 1427Q669 1408 657 1375L221 248Q183 147 183 132Q183 102 205 102Q248 102 340 220Q379 270 387 270Q400 270 410 258T420 235Q420 219 350 136T213 4T101 -44Q-5 -44 -5 62Q-5 112 23 190L387 1141Q409
1199 409 1231Q409 1270 325 1280Q309 1282 309 1305Q309 1329 325 1329Q389 1341 479 1374T615 1435Q638 1449 649 1449Q669 1449 669 1427Z" />
<glyph unicode="m" glyph-name="m" horiz-adv-x="1444" d="M1378 752Q1378 700 1352 648L1134 206Q1098 134 1098 104Q1098 84 1118 84Q1150 84 1249 199Q1302 260 1310 260Q1323 260 1331 249T1340 226Q1340 212 1263 131T1118 3T1004 -44Q907 -44 907 40Q907
95 952 190L1168 630Q1190 671 1190 704Q1190 752 1136 752Q1088 752 1002 650T689 192L609 22Q586 -20 515 -20Q430 -20 430 12Q430 17 433 22L723 630Q743 670 743 700Q743 752 687 752Q630 752 542 649T233 192L155 22Q137 -20 61 -20Q-24 -20 -24 12Q-24 17
-21 22L261 630Q293 706 293 728Q293 752 273 752Q238 752 134 626Q93 576 87 576Q74 576 65 587T55 610Q55 625 129 706T270 833T383 880Q483 880 483 790Q483 736 443 648L399 552Q483 697 593 788T801 880Q863 880 896 845T930 748Q930 699 907 648L867 566Q958
714 1058 797T1250 880Q1311 880 1344 845T1378 752Z" />
<glyph unicode="n" glyph-name="n" horiz-adv-x="960" d="M884 748Q884 681 842 582L684 206Q650 124 650 108Q650 84 668 84Q704 84 795 193Q836 242 844 242Q856 242 865 231T874 208Q874 191 804 117T667 -1T552 -44Q509 -44 484 -25T458 30Q458 87 502 190L664
576Q692 641 692 684Q692 740 646 740Q590 740 481 595T236 204L170 14Q165 0 133 -10T70 -20Q41 -20 17 -12T-7 9L-6 14L202 630Q228 699 228 728Q228 752 210 752Q178 752 97 647Q55 592 46 592Q33 592 24 603T14 626Q14 640 80 716T207 836T314 880Q416 880
416 790Q416 735 386 648L326 478Q441 669 552 774T756 880Q810 880 847 843T884 748Z" />
<glyph unicode="o" glyph-name="o" horiz-adv-x="834" d="M754 572Q754 429 679 284T485 48T250 -44Q152 -44 82 43T12 262Q12 405 86 550T279 787T514 880Q612 880 683 792T754 572ZM590 702Q590 767 574 790T514 814Q447 814 364 704T227 437T174 134Q174 68
191 44T252 20Q318 20 401 129T537 397T590 702Z" />
<glyph unicode="p" glyph-name="p" horiz-adv-x="918" d="M839 596Q839 453 761 302T562 53T327 -44Q232 -44 183 42L57 -330Q45 -366 45 -400Q45 -429 68 -446T167 -476Q177 -476 177 -492Q177 -532 153 -532Q-72 -514 -317 -514Q-327 -514 -327 -494Q-327 -481
-319 -470T-303 -458Q-161 -448 -119 -330L229 696Q171 669 101 629L96 628Q86 628 78 638T69 661Q69 669 90 683T133 710Q197 749 257 776L349 1049Q354 1063 386 1073T449 1083Q478 1083 502 1075T527 1049L461 858Q527 880 591 880Q706 880 772 805T839 596ZM645
624Q645 778 523 778Q468 778 431 768L263 274Q233 187 233 124Q233 20 329 20Q405 20 480 107T600 333T645 624Z" />
<glyph unicode="q" glyph-name="q" horiz-adv-x="922" d="M946 872L479 -330Q463 -372 463 -404Q463 -431 485 -447T581 -476Q591 -476 591 -492Q591 -506 583 -519T565 -532Q340 -514 95 -514Q87 -514 87 -494Q87 -481 95 -470T113 -458Q254 -448 303 -330L521
222Q303 -44 131 -44Q56 -44 16 7T-25 154Q-25 294 84 459T361 752T637 880Q692 880 749 830Q781 802 799 802Q824 802 844 815T898 874Q909 888 928 888Q948 888 948 876L946 872ZM707 716Q707 760 688 787T637 814Q540 814 430 708T233 433T147 162Q147 62 217
62Q285 62 404 184T615 465T707 716Z" />
<glyph unicode="r" glyph-name="r" horiz-adv-x="764" d="M810 768Q810 718 782 688T714 658Q678 658 645 695Q617 726 592 726Q530 726 407 523T152 14Q138 -20 62 -20Q36 -20 15 -12T-7 9L-6 14L204 630Q230 708 230 728Q230 752 210 752Q178 752 96 644Q56
592 48 592Q34 592 24 603T14 626Q14 640 80 716T207 836T314 880Q418 880 418 790Q418 740 386 648L348 540Q538 880 682 880Q738 880 774 850T810 768Z" />
<glyph unicode="s" glyph-name="s" horiz-adv-x="592" d="M585 770Q585 682 517 682Q487 682 425 736Q365 788 339 788Q314 788 300 771T285 728Q285 673 355 517Q431 347 431 282Q431 153 343 55T117 -44Q47 -44 -11 -7T-69 72Q-69 111 -47 133T15 156Q47 156
86 105Q119 63 143 50T199 36Q239 36 262 71T285 170Q285 215 229 330Q147 497 147 594Q147 698 230 789T423 880Q496 880 540 849T585 770Z" />
<glyph unicode="t" glyph-name="t" horiz-adv-x="632" d="M666 802Q666 782 653 764T626 746L424 752L236 206Q216 142 216 116Q216 84 238 84Q285 84 426 211Q479 260 486 260Q500 260 511 249T522 226Q522 210 434 131T268 4T142 -44Q32 -44 32 68Q32 121 56
190L248 750L94 746Q74 746 74 778Q74 797 87 815T114 834H276L350 1049Q355 1064 386 1073T450 1083Q478 1083 502 1075T527 1054L526 1049L452 834H644Q666 834 666 802Z" />
<glyph unicode="u" glyph-name="u" horiz-adv-x="980" d="M911 820L702 206Q676 128 676 108Q676 84 696 84Q728 84 810 190Q850 242 858 242Q871 242 881 231T892 208Q892 193 826 118T699 -1T592 -44Q543 -44 516 -21T488 44Q488 95 520 188L586 382Q466 179
353 68T148 -44Q94 -44 58 -8T22 88Q22 152 62 254L222 630Q256 711 256 728Q256 752 238 752Q201 752 110 641Q69 592 62 592Q50 592 41 603T32 626Q32 644 101 718T237 836T352 880Q396 880 422 860T448 804Q448 748 404 646L242 260Q214 195 214 150Q214 94
260 94Q316 94 423 232T662 608L736 820Q741 835 772 845T836 856Q864 856 888 847T911 820Z" />
<glyph unicode="v" glyph-name="v" horiz-adv-x="1084" d="M1025 722Q1025 569 925 390T674 84T408 -44Q317 -44 265 16T212 176Q212 296 302 463T504 730Q468 714 428 714Q398 714 344 730Q295 746 270 746Q206 746 170 723T134 662Q134 644 153 618Q180 582
180 548Q180 480 112 480Q76 480 51 509T26 588Q26 674 122 777T298 880Q341 880 406 862Q458 848 486 848Q521 848 568 860Q587 866 594 866Q607 866 617 855T628 832Q628 809 569 731Q459 588 419 478T378 250Q378 192 407 156T486 120Q592 120 679 184T820 366T874
596Q874 665 844 723Q826 758 826 784Q826 826 853 853T925 880Q971 880 998 837T1025 722Z" />
<glyph unicode="w" glyph-name="w" horiz-adv-x="1512" d="M1453 722Q1453 572 1358 383T1128 75T862 -44Q740 -44 690 96Q520 -44 408 -44Q317 -44 265 16T212 176Q212 296 302 463T504 730Q464 714 428 714Q397 714 343 730Q295 746 270 746Q205 746 169 723T132
662Q132 644 152 618Q180 582 180 548Q180 480 110 480Q75 480 51 509T26 588Q26 674 122 777T298 880Q341 880 406 862Q458 848 486 848Q521 848 568 860Q587 866 594 866Q607 866 617 855T628 832Q628 809 569 733Q459 593 419 485T378 258Q378 120 494 120Q587
120 668 176Q662 218 662 266Q662 483 761 681T973 880Q1071 880 1071 738Q1071 491 812 210Q842 120 949 120Q1095 120 1202 264T1309 590Q1309 652 1278 711Q1257 750 1257 778Q1257 823 1283 851T1355 880Q1399 880 1426 837T1453 722ZM995 708Q995 762 953
762Q882 762 831 663T780 412Q780 344 794 288Q887 396 941 508T995 708Z" />
<glyph unicode="x" glyph-name="x" horiz-adv-x="954" d="M956 766Q956 715 933 684T871 652Q830 652 809 715Q795 758 777 758Q741 758 557 499Q535 468 527 456L555 314Q595 86 667 86Q701 86 717 124T733 280Q733 294 749 294Q773 294 780 276T791 239T795
200Q795 91 746 24T623 -44Q543 -44 493 30T399 296Q311 153 218 55T69 -44Q31 -44 2 -10T-27 72Q-27 123 -2 157T61 192Q103 192 122 140Q136 104 157 104Q203 104 381 374L351 524Q332 626 303 687T239 748Q204 748 189 710T173 556Q173 542 155 542Q109 542
109 636Q109 744 158 812T283 880Q459 880 507 536Q640 730 717 805T851 880Q899 880 927 849T956 766Z" />
<glyph unicode="y" glyph-name="y" horiz-adv-x="874" d="M801 822Q801 672 628 299T264 -317T-59 -560Q-111 -560 -151 -531T-191 -462Q-191 -425 -168 -404T-107 -382Q-81 -382 -49 -405Q-9 -434 31 -434Q78 -434 149 -352T258 -149T297 116Q297 380 264 549T185
718Q139 718 75 584Q50 532 43 532Q30 532 20 544T9 566Q9 606 51 690T143 827T235 880Q340 880 400 728T461 296Q461 176 457 108Q546 262 599 425T675 798Q684 880 729 880Q760 880 780 864T801 822Z" />
<glyph unicode="z" glyph-name="z" horiz-adv-x="840" d="M815 804Q815 790 761 744Q724 713 707 696L175 164Q194 186 257 186Q304 186 426 112Q537 44 577 44Q613 44 613 80Q613 98 591 123Q563 156 563 188Q563 221 585 243T645 266Q684 266 707 234T731 148Q731
79 662 18T493 -44Q440 -44 317 -1Q202 40 155 40Q104 40 69 -12Q48 -44 29 -44Q1 -44 -25 -21T-51 32Q-51 46 1 88Q39 120 57 138L589 672Q568 648 507 648Q456 648 351 702Q252 754 207 754Q165 754 165 718Q165 693 209 671Q265 643 265 602Q265 575 239 554T181
532Q136 532 109 566T81 654Q81 741 149 810T301 880Q354 880 461 827Q562 778 609 778Q659 778 694 840Q716 880 737 880Q763 880 789 857T815 804Z" />
<glyph unicode="{" glyph-name="braceleft" horiz-adv-x="640" d="M729 1382Q659 1359 622 1313T562 1169L470 794Q437 647 232 602Q386 563 386 458Q386 437 380 412L280 -16Q266 -76 266 -113Q266 -197 346 -227Q357 -231 357 -246Q357 -259 350 -271T334 -284Q239
-284 167 -219T94 -56Q94 -26 102 6L204 442Q207 453 207 465Q207 508 176 540T92 578Q79 580 79 597Q79 607 87 616T104 626Q166 632 218 673T280 762L374 1147Q403 1268 517 1352T742 1437Q753 1437 753 1421Q753 1390 729 1382Z" />
<glyph unicode="|" glyph-name="bar" horiz-adv-x="314" d="M164 -30Q164 -50 106 -50Q50 -50 50 -30V1417Q50 1437 106 1437Q164 1437 164 1417V-30Z" />
<glyph unicode="}" glyph-name="braceright" horiz-adv-x="640" d="M516 528Q453 521 402 480T340 392L246 6Q217 -114 103 -199T-122 -284Q-133 -284 -133 -267Q-133 -237 -110 -229Q-40 -206 -3 -160T58 -16L150 360Q183 507 388 552Q234 590 234 695Q234 717
240 742L340 1169Q354 1230 354 1266Q354 1350 274 1380Q263 1384 263 1400Q263 1412 270 1424T286 1437Q380 1437 452 1372T525 1210Q525 1179 518 1147L416 712Q413 700 413 688Q413 645 444 613T528 575Q540 573 540 557Q540 547 532 538T516 528Z" />
<glyph unicode="~" glyph-name="asciitilde" horiz-adv-x="762" d="M489 390H235Q172 390 139 370T66 278Q61 268 45 268Q11 268 11 287Q11 301 41 374T113 480T213 512H467Q535 512 567 529T627 599Q633 610 651 610Q683 610 683 590Q683 573 654 510T586 419T489 390Z" />
</font>
</defs>
</svg>
