<?xml  version="1.0" encoding="UTF-8"?>
<!DOCTYPE svg PUBLIC "-//W3C//DTD SVG 1.0//EN" "http://www.w3.org/TR/2001/REC-SVG-20010904/DTD/svg10.dtd" >
<svg xmlns="http://www.w3.org/2000/svg" >
<metadata>
<version>1.0</version>
<id><![CDATA[DIN Next W01 Medium]]></id>
<vendor>Monotype Imaging Inc.</vendor>
<credits>
<name>Fonts.com WebFonts</name>
<URL>http://webfonts.fonts.com</URL>
<role>Home of the Web fonts</role>
</credits>
<license>
<URL>http://webfonts.fonts.com/Legal</URL>
</license>
<copyright><![CDATA[Copyright 2009 Monotype Imaging Inc. All rights reserved.]]></copyright>
<trademark><![CDATA[Felbridge! is a trademark of Monotype Imaging Inc. and may be registered in certain jurisdictions.]]></trademark>
<licensee>
<name></name>
</licensee>
</metadata>
<defs >
<font horiz-adv-x="506" id="b90b6bdf-15e2-4544-9fe0-92c79fff0ecd">
<font-face font-family="" panose-1="2 11 6 3 2 2 3 5 2 3" ascent="850" descent="-350" units-per-em="1000" alphabetic="0">
</font-face>
<missing-glyph horiz-adv-x="236" />

<glyph unicode="&#xA;" />
<glyph unicode="&#xD;" />
<glyph unicode=" " horiz-adv-x="236" />
<glyph unicode="!" horiz-adv-x="307" d="M124 190Q114 190 114 200L91 670Q91 680 101 680H206Q216 680 216 670L193 200Q193 190 183 190H124ZM93 112Q93 122 103 122H203Q213 122 213 112V10Q213 0 203 0H103Q93 0 93 10V112Z"  />
<glyph unicode="&quot;" horiz-adv-x="345" d="M212 488Q202 488 202 498V670Q202 680 212 680H274Q284 680 284 670V498Q284 488 274 488H212ZM71 488Q61 488 61 498V670Q61 680 71 680H132Q142 680 142 670V498Q142 488 132 488H71Z"  />
<glyph unicode="#" horiz-adv-x="514" d="M96 210H30Q20 210 20 220V278Q20 288 30 288H107L123 404H56Q46 404 46 414V472Q46 482 56 482H133L159 670Q161 680 170 680H233Q244 680 242 670L216 482H332L358 670Q360 680 369 680H432Q443 680 441 670L415 482H484Q494 482 494 472V414Q494 404 484 404H405L389 288H458Q468 288 468 278V220Q468 210 458 210H378L351 10Q349 0 340 0H277Q266 0 268 10L295 210H179L152 10Q150 0 141 0H78Q67 0 69 10L96 210ZM306 288L322 404H206L190 288H306Z"  />
<glyph unicode="$" horiz-adv-x="549" d="M60 61Q51 68 58 76L111 143Q118 151 125 144Q147 126 180 110T253 90V295Q167 309 119 359T70 487Q70 529 83 564T121 625T179 668T253 689V741Q253 751 263 751H302Q312 751 312 741V689Q356 685 394 671T465 636Q472 630 467 622L421 554Q415 547 407 552Q385 566 362 575T312 588V393Q403 378 449 328T496 200Q496 115 447 60T312 -8V-61Q312 -71 302 -71H263Q253 -71 253 -61V-10Q196 -8 148 11T60 61ZM253 588Q219 581 199 556T179 495Q179 463 194 440T253 405V588ZM312 93Q387 111 387 196Q387 225 371 248T312 284V93Z"  />
<glyph unicode="%" horiz-adv-x="782" d="M546 681Q552 691 562 691H627Q632 691 633 688T632 681L237 -1Q231 -11 222 -11H156Q151 -11 150 -8T151 -1L546 681ZM192 330Q147 330 115 352T70 410Q67 418 66 424T64 441T63 467T62 509Q62 535 62 550T63 576T65 593T70 608Q82 644 114 666T192 688Q237 688 269 666T314 608Q317 600 318 594T320 577T321 551T322 509Q322 483 322 468T321 442T319 425T314 410Q302 374 270 352T192 330ZM192 402Q207 402 218 409T235 431Q236 434 237 438T238 450T239 472T239 509Q239 532 239 546T239 568T237 581T235 588Q230 602 219 609T192 616Q159 616 148 588Q147 585 146 581T145 569T144 546T144 509Q144 486 144 472T144 450T146 438T148 431Q159 402 192 402ZM467 71Q465 79 464 85T461 102T460 128T459 170Q459 196 459 211T461 237T463 254T467 269Q479 305 512 327T590 349Q635 349 667 327T712 269Q715 261 716 255T718 238T719 212T720 170Q720 144 720 129T719 103T717 86T712 71Q700 35 668 13T590 -9Q545 -9 512 13T467 71ZM546 92Q557 63 590 63Q605 63 616 70T633 92Q634 95 635 99T636 111T637 133T637 170Q637 193 637 207T637 229T635 242T633 249Q628 263 617 270T590 277Q557 277 546 249Q545 246 544 242T543 230T542 207T542 170Q542 147 542 133T542 111T544 99T546 92Z"  />
<glyph unicode="&amp;" horiz-adv-x="646" d="M63 171Q63 225 91 274T192 379Q171 406 157 426T133 465T120 499T116 535Q116 569 129 597T165 647T219 679T285 691Q322 691 353 679T405 645T439 596T451 538Q451 515 445 495T425 454T389 411T333 364L439 228L507 309Q513 316 521 310L576 263Q584 257 578 249L498 152L522 122Q531 110 541 105T563 100H578Q588 100 588 90V10Q588 0 578 0H545Q528 0 515 2T491 11T469 27T446 53L429 74Q386 29 345 9T252 -11Q205 -11 170 2T111 40T75 98T63 171ZM274 440Q298 458 312 472T335 497T346 518T349 539Q349 564 331 581T286 599Q257 599 239 582T221 538Q221 529 223 521T230 503T246 477T274 440ZM167 177Q167 136 191 111T260 86Q288 86 312 99T371 149L251 303Q202 265 185 235T167 177Z"  />
<glyph unicode="&apos;" horiz-adv-x="203" d="M71 488Q61 488 61 498V670Q61 680 71 680H132Q142 680 142 670V498Q142 488 132 488H71Z"  />
<glyph unicode="(" horiz-adv-x="293" d="M179 -74Q113 18 82 121T51 328Q51 431 82 535T179 730Q186 740 196 740H245Q256 740 251 730Q206 639 182 535T158 328Q158 225 182 120T251 -74Q256 -84 245 -84H196Q186 -84 179 -74Z"  />
<glyph unicode=")" horiz-adv-x="293" d="M42 -74Q87 14 111 119T135 328Q135 431 111 535T42 730Q37 740 48 740H97Q107 740 114 730Q179 639 210 535T242 328Q242 225 211 122T114 -74Q107 -84 97 -84H48Q37 -84 42 -74Z"  />
<glyph unicode="*" horiz-adv-x="335" d="M146 392Q136 392 136 402L137 483L67 441Q58 436 53 445L32 483Q27 492 36 497L106 536L36 575Q27 580 32 589L53 627Q58 636 67 631L137 589L136 670Q136 680 146 680H189Q199 680 199 670L198 589L268 631Q277 636 282 627L303 589Q308 580 299 575L229 536L299 497Q308 492 303 483L282 445Q277 436 268 441L198 483L199 402Q199 392 189 392H146Z"  />
<glyph unicode="+" horiz-adv-x="549" d="M224 221Q224 227 218 227H65Q55 227 55 237V315Q55 325 65 325H218Q224 325 224 331V485Q224 495 234 495H315Q325 495 325 485V331Q325 325 331 325H484Q494 325 494 315V237Q494 227 484 227H331Q325 227 325 221V67Q325 57 315 57H234Q224 57 224 67V221Z"  />
<glyph unicode="&#x2c;" horiz-adv-x="246" d="M66 112Q66 122 76 122H170Q180 122 180 112V3Q180 -5 179 -9T173 -18L90 -104Q83 -111 76 -111Q66 -111 66 -101V112Z"  />
<glyph unicode="-" horiz-adv-x="385" d="M55 216Q45 216 45 226V305Q45 315 55 315H330Q340 315 340 305V226Q340 216 330 216H55Z"  />
<glyph unicode="." horiz-adv-x="252" d="M66 112Q66 122 76 122H176Q186 122 186 112V10Q186 0 176 0H76Q66 0 66 10V112Z"  />
<glyph unicode="/" horiz-adv-x="425" d="M276 681Q279 691 289 691H364Q374 691 371 681L149 -1Q146 -11 136 -11H61Q51 -11 54 -1L276 681Z"  />
<glyph unicode="0" horiz-adv-x="549" d="M81 122Q78 132 75 145T71 182T68 243T67 340Q67 399 68 436T70 497T75 534T81 558Q101 622 149 656T274 691Q350 691 398 657T468 558Q471 547 474 534T478 498T481 437T482 340Q482 281 481 244T479 183T474 146T468 122Q447 58 399 24T274 -11Q198 -11 150 23T81 122ZM191 143Q210 89 274 89Q338 89 358 143Q361 151 362 161T365 192T366 248T367 340Q367 397 367 432T365 488T363 519T358 537Q338 591 274 591Q210 591 191 537Q188 529 187 519T184 488T183 432T182 340Q182 283 182 248T184 192T186 161T191 143Z"  />
<glyph unicode="1" horiz-adv-x="549" d="M247 546H245L141 473Q130 466 130 479V581Q130 589 137 595L246 674Q253 680 264 680H349Q359 680 359 670V10Q359 0 349 0H257Q247 0 247 10V546Z"  />
<glyph unicode="2" horiz-adv-x="549" d="M72 85Q72 93 77 98L317 397Q337 422 349 447T361 501Q361 539 338 565T271 591Q230 591 207 568T179 506Q177 496 168 498L80 516Q70 518 72 528Q75 558 89 587T128 639T189 677T274 691Q322 691 359 676T421 636T460 576T474 501Q474 455 457 417T410 342L212 102V100H464Q474 100 474 90V10Q474 0 464 0H82Q72 0 72 10V85Z"  />
<glyph unicode="3" horiz-adv-x="549" d="M61 135Q59 145 69 148L156 168Q165 170 168 161Q179 131 204 110T271 89Q319 89 345 117T371 190Q371 242 341 271T260 301H231Q221 301 221 311V390Q221 400 231 400H258Q303 400 330 427T357 499Q357 540 333 565T266 591Q228 591 206 572T175 521Q172 512 163 514L78 534Q68 536 70 546Q76 577 92 603T134 649T194 680T270 691Q318 691 355 677T417 638T456 579T470 503Q470 460 451 424T394 362V360Q409 354 425 340T454 304T475 256T484 195Q484 148 468 110T424 45T356 4T271 -11Q191 -11 134 27T61 135Z"  />
<glyph unicode="4" horiz-adv-x="549" d="M56 104Q46 104 46 114V191Q46 198 49 203L269 672Q273 680 283 680H378Q389 680 385 671L169 206V204H323Q329 204 329 210V380Q329 390 339 390H431Q441 390 441 380V210Q441 204 447 204H497Q507 204 507 194V114Q507 104 497 104H447Q441 104 441 98V10Q441 0 431 0H339Q329 0 329 10V98Q329 104 323 104H56Z"  />
<glyph unicode="5" horiz-adv-x="549" d="M81 129Q79 138 89 141L174 162Q183 163 186 154Q196 125 219 107T280 89Q309 89 332 103T364 145Q369 159 371 176T373 220Q373 248 371 265T364 295Q354 325 331 338T279 351Q245 351 225 336T196 304Q192 294 184 294H100Q90 294 90 304V670Q90 680 100 680H462Q472 680 472 670V590Q472 580 462 580H199Q193 580 193 574V421H196Q208 431 233 441T296 451Q362 451 407 422T471 336Q478 314 482 288T486 220Q486 155 472 113Q452 53 400 21T280 -11Q241 -11 207 -1T147 27T104 71T81 129Z"  />
<glyph unicode="6" horiz-adv-x="549" d="M58 199Q58 240 70 279T103 355L281 674Q285 680 293 680H389Q400 680 395 670L245 398L247 396Q255 400 268 402T298 405Q337 405 372 391T434 351T476 288T492 204Q492 152 475 112T429 45T360 3T275 -11Q230 -11 190 3T121 44T75 110T58 199ZM172 197Q172 149 199 119T275 89Q323 89 351 119T379 197Q379 245 351 275T275 305Q227 305 200 275T172 197Z"  />
<glyph unicode="7" horiz-adv-x="549" d="M361 577V580H192Q186 580 186 574V496Q186 486 176 486H90Q80 486 80 496V670Q80 680 90 680H471Q481 680 481 670V592Q481 581 478 574L253 9Q251 4 249 2T240 0H145Q134 0 139 11L361 577Z"  />
<glyph unicode="8" horiz-adv-x="549" d="M55 193Q55 251 80 292T140 356V358Q114 375 92 411T70 497Q70 535 83 570T123 632T187 675T274 691Q323 691 361 675T426 632T465 570T479 497Q479 447 457 411T409 358V356Q444 334 469 293T494 193Q494 148 478 111T433 46T363 4T274 -11Q226 -11 186 4T117 46T71 110T55 193ZM274 407Q316 407 341 434T366 499Q366 537 341 564T274 591Q232 591 208 564T183 499Q183 462 207 435T274 407ZM168 198Q168 150 197 120T274 89Q323 89 352 119T381 198Q381 246 352 276T274 307Q226 307 197 277T168 198Z"  />
<glyph unicode="9" horiz-adv-x="549" d="M304 282L302 284Q295 280 281 278T251 275Q212 275 177 289T115 329T73 392T57 476Q57 528 74 568T120 635T189 677T274 691Q320 691 359 677T428 636T474 570T491 481Q491 440 479 401T446 325L269 6Q265 0 257 0H160Q149 0 154 10L304 282ZM274 375Q322 375 350 405T378 483Q378 531 350 561T274 591Q226 591 199 561T171 483Q171 435 198 405T274 375Z"  />
<glyph unicode=":" horiz-adv-x="260" d="M80 360Q70 360 70 370V472Q70 482 80 482H180Q190 482 190 472V370Q190 360 180 360H80ZM70 112Q70 122 80 122H180Q190 122 190 112V10Q190 0 180 0H80Q70 0 70 10V112Z"  />
<glyph unicode=";" horiz-adv-x="260" d="M80 360Q70 360 70 370V472Q70 482 80 482H180Q190 482 190 472V370Q190 360 180 360H80ZM73 112Q73 122 83 122H177Q187 122 187 112V3Q187 -10 181 -17L97 -104Q90 -111 83 -111Q73 -111 73 -101V112Z"  />
<glyph unicode="&lt;" horiz-adv-x="549" d="M65 229Q55 232 55 243V309Q55 320 65 323L484 495Q494 498 494 489V400Q494 391 484 387L198 277V275L484 165Q494 161 494 152V63Q494 54 484 57L65 229Z"  />
<glyph unicode="=" horiz-adv-x="549" d="M65 327Q55 327 55 337V415Q55 425 65 425H484Q494 425 494 415V337Q494 327 484 327H65ZM65 127Q55 127 55 137V215Q55 225 65 225H484Q494 225 494 215V137Q494 127 484 127H65Z"  />
<glyph unicode="&gt;" horiz-adv-x="549" d="M55 152Q55 161 65 165L351 275V277L65 387Q55 391 55 400V489Q55 498 65 495L484 323Q494 320 494 309V243Q494 232 484 229L65 57Q55 54 55 63V152Z"  />
<glyph unicode="?" horiz-adv-x="464" d="M177 190Q167 190 167 200V241Q167 271 173 289T193 326L272 434Q290 458 298 477T306 516Q306 548 285 569T228 591Q193 591 172 570T143 511Q141 501 132 503L42 517Q32 518 34 529Q46 604 97 647T232 691Q273 691 307 678T367 642T406 587T420 517Q420 454 379 400L300 292Q289 278 285 265T280 229V200Q280 190 270 190H177ZM163 112Q163 122 173 122H273Q283 122 283 112V10Q283 0 273 0H173Q163 0 163 10V112Z"  />
<glyph unicode="@" horiz-adv-x="900" d="M54 268Q54 355 83 427T164 550T289 631T450 660Q538 660 610 631T735 550T817 426T846 268Q846 213 833 173T797 106T744 67T681 54Q636 54 607 71T560 118H559Q545 90 513 73T427 55Q315 55 283 153Q276 173 273 197T270 264Q270 306 273 330T283 375Q299 424 335 448T423 473Q463 473 491 458T531 422H533V453Q533 462 541 462H615Q623 462 623 453V206Q623 168 640 152T681 136Q696 136 709 142T732 164T748 204T754 268Q754 337 733 394T673 492T577 555T450 578Q379 578 323 556T228 493T167 395T146 268Q146 199 167 142T227 44T323 -19T450 -42Q520 -42 569 -30T664 3Q674 8 678 -2L701 -56Q706 -64 697 -69Q643 -98 585 -111T450 -124Q362 -124 290 -95T165 -15T83 109T54 268ZM369 193Q388 138 448 138Q508 138 526 193Q530 205 531 220T533 264Q533 293 532 308T526 334Q508 390 448 390Q388 390 369 334Q365 323 364 308T362 264Q362 235 363 220T369 193Z"  />
<glyph unicode="A" horiz-adv-x="617" d="M251 670Q254 680 264 680H356Q366 680 369 670L599 10Q602 0 592 0H494Q484 0 481 10L436 142H180L135 10Q132 0 122 0H25Q15 0 18 10L251 670ZM400 247L310 511H307L216 247H400Z"  />
<glyph unicode="B" horiz-adv-x="607" d="M75 670Q75 680 85 680H338Q446 680 498 631T550 499Q550 441 527 407T471 355V353Q487 347 503 334T532 302T553 257T562 200Q562 98 501 49T328 0H85Q75 0 75 10V670ZM335 397Q380 397 406 421T432 486Q432 527 406 551T335 576H199Q193 576 193 570V403Q193 397 199 397H335ZM193 110Q193 104 199 104H341Q391 104 417 130T444 199Q444 241 418 267T341 293H199Q193 293 193 287V110Z"  />
<glyph unicode="C" horiz-adv-x="575" d="M73 156Q68 172 65 187T59 223T56 271T55 340Q55 380 56 408T59 456T64 492T73 524Q99 608 160 649T309 691Q391 691 450 652T539 545Q542 536 534 533L449 492Q440 487 436 497Q419 533 390 559T309 585Q260 585 231 561T187 495Q184 484 182 473T178 445T176 402T175 340Q175 302 175 278T177 236T181 207T187 185Q201 143 230 119T309 95Q360 95 389 121T436 183Q440 193 449 188L534 147Q542 144 539 135Q510 67 451 28T309 -11Q222 -11 161 30T73 156Z"  />
<glyph unicode="D" horiz-adv-x="625" d="M75 670Q75 680 85 680H328Q506 680 555 529Q559 516 562 502T567 466T571 415T572 340Q572 296 571 266T568 214T562 179T555 151Q506 0 328 0H85Q75 0 75 10V670ZM193 112Q193 106 199 106H300Q357 106 391 126T441 192Q444 199 446 209T449 236T452 278T453 340Q453 377 452 402T450 444T446 471T441 488Q426 534 392 554T300 574H199Q193 574 193 568V112Z"  />
<glyph unicode="E" horiz-adv-x="570" d="M75 670Q75 680 85 680H511Q521 680 521 670V584Q521 574 511 574H199Q193 574 193 568V402Q193 396 199 396H462Q472 396 472 386V300Q472 290 462 290H199Q193 290 193 284V112Q193 106 199 106H511Q521 106 521 96V10Q521 0 511 0H85Q75 0 75 10V670Z"  />
<glyph unicode="F" horiz-adv-x="561" d="M75 670Q75 680 85 680H511Q521 680 521 670V584Q521 574 511 574H199Q193 574 193 568V395Q193 389 199 389H462Q472 389 472 379V293Q472 283 462 283H199Q193 283 193 277V10Q193 0 183 0H85Q75 0 75 10V670Z"  />
<glyph unicode="G" horiz-adv-x="627" d="M73 153Q68 169 65 185T59 222T56 271T55 340Q55 380 56 408T59 458T64 495T73 527Q99 608 162 649T316 691Q364 691 403 679T472 648T522 602T553 547Q557 538 549 533L465 496Q456 493 452 501Q429 542 397 563T315 585Q263 585 232 562T187 496Q184 487 182 475T178 445T176 402T175 340Q175 304 175 279T177 235T181 205T187 184Q201 142 232 119T315 95Q360 95 395 116T444 180Q449 196 452 217T455 268Q455 274 449 274H337Q327 274 327 284V364Q327 374 337 374H562Q572 374 572 364V305Q572 263 568 223T556 156Q531 76 468 33T316 -11Q225 -11 162 30T73 153Z"  />
<glyph unicode="H" horiz-adv-x="657" d="M75 670Q75 680 85 680H183Q193 680 193 670V402Q193 396 199 396H458Q464 396 464 402V670Q464 680 474 680H572Q582 680 582 670V10Q582 0 572 0H474Q464 0 464 10V284Q464 290 458 290H199Q193 290 193 284V10Q193 0 183 0H85Q75 0 75 10V670Z"  />
<glyph unicode="I" horiz-adv-x="268" d="M75 670Q75 680 85 680H183Q193 680 193 670V10Q193 0 183 0H85Q75 0 75 10V670Z"  />
<glyph unicode="J" horiz-adv-x="507" d="M24 71Q19 79 26 85L99 140Q107 145 114 137Q127 122 151 109T205 95Q259 95 288 128T318 229V670Q318 680 328 680H426Q436 680 436 670V229Q436 113 373 51T201 -11Q143 -11 95 13T24 71Z"  />
<glyph unicode="K" horiz-adv-x="633" d="M75 670Q75 680 85 680H183Q193 680 193 670V350L450 672Q457 680 466 680H580Q585 680 586 676T584 667L373 413L608 12Q615 0 601 0H490Q480 0 475 8L297 322L193 196V10Q193 0 183 0H85Q75 0 75 10V670Z"  />
<glyph unicode="L" horiz-adv-x="545" d="M75 670Q75 680 85 680H183Q193 680 193 670V112Q193 106 199 106H511Q521 106 521 96V10Q521 0 511 0H85Q75 0 75 10V670Z"  />
<glyph unicode="M" horiz-adv-x="756" d="M75 670Q75 680 85 680H174Q187 680 191 670L378 251H382L566 670Q570 680 583 680H671Q681 680 681 670V10Q681 0 671 0H584Q574 0 574 10V426H570L426 106Q420 93 407 93H349Q336 93 330 106L186 426H182V10Q182 0 172 0H85Q75 0 75 10V670Z"  />
<glyph unicode="N" horiz-adv-x="657" d="M75 670Q75 680 85 680H177Q188 680 194 670L471 201H475V670Q475 680 485 680H572Q582 680 582 670V10Q582 0 572 0H481Q470 0 464 10L186 478H182V10Q182 0 172 0H85Q75 0 75 10V670Z"  />
<glyph unicode="O" horiz-adv-x="627" d="M313 -11Q225 -11 162 30T73 153Q68 169 65 185T59 222T56 271T55 340Q55 380 56 408T59 458T64 495T73 527Q99 608 162 649T313 691Q402 691 465 650T554 527Q559 511 562 495T568 458T571 409T572 340Q572 300 571 272T568 222T563 185T554 153Q528 72 465 31T313 -11ZM313 95Q364 95 395 118T440 184Q443 193 445 205T448 235T451 278T452 340Q452 376 451 401T449 445T445 475T440 496Q426 538 395 561T313 585Q262 585 232 562T187 496Q184 487 182 475T178 445T176 402T175 340Q175 304 175 279T177 235T181 205T187 184Q201 142 231 119T313 95Z"  />
<glyph unicode="P" horiz-adv-x="598" d="M85 0Q75 0 75 10V670Q75 680 85 680H340Q389 680 430 665T501 622T547 555T564 469Q564 421 548 382T502 316T431 273T340 257H199Q193 257 193 251V10Q193 0 183 0H85ZM333 364Q386 364 416 392T446 469Q446 516 416 545T333 574H199Q193 574 193 568V370Q193 364 199 364H333Z"  />
<glyph unicode="Q" horiz-adv-x="627" d="M546 -44Q543 -47 539 -47T531 -44L457 26Q398 -11 313 -11Q225 -11 162 30T73 153Q68 169 65 185T59 222T56 271T55 340Q55 380 56 408T59 458T64 495T73 527Q99 608 162 649T313 691Q402 691 465 650T554 527Q559 511 562 495T568 458T571 409T572 340Q572 300 571 272T568 222T563 185T554 153Q549 140 545 129T534 107L608 36Q614 30 608 22L546 -44ZM313 94Q330 94 345 96T374 105L306 171Q299 176 306 185L369 251Q376 258 383 252L444 193Q447 202 448 214T451 243T453 284T454 340Q454 376 453 401T451 445T447 475T442 496Q428 538 396 562T313 586Q262 586 231 562T185 496Q182 487 180 475T176 445T174 402T173 340Q173 304 173 279T175 235T179 205T185 184Q199 142 230 118T313 94Z"  />
<glyph unicode="R" horiz-adv-x="619" d="M461 0Q450 0 446 10L316 275H199Q193 275 193 269V10Q193 0 183 0H85Q75 0 75 10V670Q75 680 85 680H348Q395 680 434 665T503 624T548 560T565 477Q565 410 530 361T436 290L579 13Q582 8 580 4T572 0H461ZM344 381Q391 381 419 407T448 477Q448 522 420 548T344 574H199Q193 574 193 568V387Q193 381 199 381H344Z"  />
<glyph unicode="S" horiz-adv-x="587" d="M289 -11Q251 -11 215 -4T147 15T87 43T39 79Q31 87 37 94L99 166Q106 174 113 167Q129 154 149 141T193 118T243 102T298 95Q359 95 392 122T426 193Q426 230 399 253T302 287L266 292Q167 306 114 353T61 486Q61 532 77 570T123 635T195 676T291 691Q355 691 412 673T511 623Q518 617 513 609L465 535Q459 527 451 532Q409 559 370 572T288 585Q236 585 209 560T181 494Q181 459 209 436T306 402L342 397Q441 383 493 336T545 200Q545 155 529 116T481 49T400 5T289 -11Z"  />
<glyph unicode="T" horiz-adv-x="550" d="M226 0Q216 0 216 10V568Q216 574 210 574H32Q22 574 22 584V670Q22 680 32 680H518Q528 680 528 670V584Q528 574 518 574H340Q334 574 334 568V10Q334 0 324 0H226Z"  />
<glyph unicode="U" horiz-adv-x="643" d="M321 95Q380 95 417 132T454 241V670Q454 680 464 680H562Q572 680 572 670V239Q572 180 553 134T501 55T421 6T321 -11Q267 -11 222 6T143 55T90 133T71 239V670Q71 680 81 680H179Q189 680 189 670V241Q189 170 226 133T321 95Z"  />
<glyph unicode="V" horiz-adv-x="565" d="M241 0Q232 0 229 10L14 670Q11 680 22 680H119Q129 680 132 670L284 188H287L433 670Q436 680 446 680H543Q554 680 551 670L335 10Q332 0 323 0H241Z"  />
<glyph unicode="W" horiz-adv-x="827" d="M557 0Q548 0 545 10L415 475H413L282 10Q279 0 270 0H195Q186 0 183 10L16 670Q14 680 24 680H118Q128 680 130 670L238 212H240L367 670Q370 680 379 680H449Q458 680 461 670L591 212H593L698 670Q699 680 710 680H803Q813 680 811 670L645 10Q643 0 633 0H557Z"  />
<glyph unicode="X" horiz-adv-x="572" d="M440 0Q430 0 424 10L287 241H285L147 10Q141 0 131 0H23Q10 0 17 13L220 352L32 667Q25 680 38 680H146Q156 680 162 670L285 464H287L410 670Q416 680 426 680H534Q547 680 540 667L352 352L555 13Q562 0 549 0H440Z"  />
<glyph unicode="Y" horiz-adv-x="536" d="M219 0Q209 0 209 10V278L12 670Q8 680 20 680H121Q131 680 135 670L268 406H271L405 670Q409 680 419 680H516Q528 680 524 670L327 278V10Q327 0 317 0H219Z"  />
<glyph unicode="Z" horiz-adv-x="532" d="M55 0Q45 0 45 10V96Q45 101 48 107L355 572V574H66Q56 574 56 584V670Q56 680 66 680H478Q488 680 488 670V584Q488 578 485 574L178 108V106H478Q488 106 488 96V10Q488 0 478 0H55Z"  />
<glyph unicode="[" horiz-adv-x="280" d="M72 -84Q62 -84 62 -74V730Q62 740 72 740H239Q249 740 249 730V664Q249 654 239 654H171Q165 654 165 648V8Q165 2 171 2H239Q249 2 249 -8V-74Q249 -84 239 -84H72Z"  />
<glyph unicode="\" horiz-adv-x="425" d="M289 -11Q279 -11 276 -1L54 681Q51 691 61 691H136Q146 691 149 681L371 -1Q374 -11 364 -11H289Z"  />
<glyph unicode="]" horiz-adv-x="280" d="M41 -84Q31 -84 31 -74V-8Q31 2 41 2H109Q115 2 115 8V648Q115 654 109 654H41Q31 654 31 664V730Q31 740 41 740H208Q218 740 218 730V-74Q218 -84 208 -84H41Z"  />
<glyph unicode="^" horiz-adv-x="549" d="M404 263Q394 263 390 273L275 543H273L158 273Q154 263 145 263H62Q51 263 56 273L229 670Q234 680 243 680H305Q314 680 319 670L493 273Q498 263 487 263H404Z"  />
<glyph unicode="_" horiz-adv-x="492" d="M0 -136V-70H492V-136H0Z"  />
<glyph unicode="`" horiz-adv-x="422" d="M231 555Q220 555 211 565L116 690Q113 694 114 697T121 700H212Q224 700 230 690L304 565Q309 555 298 555H231Z"  />
<glyph unicode="a" horiz-adv-x="523" d="M360 0Q350 0 350 10V45H349Q332 20 298 5T213 -11Q180 -11 151 -2T99 25T64 70T51 136Q51 215 102 252T244 289H342Q348 289 348 295V318Q348 360 325 379T241 398Q200 398 174 389T131 365Q122 358 117 367L80 433Q75 441 82 446Q111 467 152 480T253 493Q363 493 408 453T454 325V10Q454 0 444 0H360ZM241 80Q293 80 320 100T348 162V199Q348 205 342 205H262Q208 205 183 190T158 140Q158 80 241 80Z"  />
<glyph unicode="b" horiz-adv-x="545" d="M314 -11Q265 -11 234 5T186 46H185V10Q185 0 175 0H83Q73 0 73 10V670Q73 680 83 680H175Q185 680 185 670V436H186Q203 461 234 477T314 493Q376 493 419 464T481 377Q490 349 494 320T498 241Q498 192 494 163T481 105Q462 47 419 18T314 -11ZM285 89Q354 89 374 151Q379 168 381 188T384 241Q384 274 382 294T374 331Q354 393 285 393Q215 393 195 331Q190 314 188 294T185 241Q185 208 187 188T195 151Q215 89 285 89Z"  />
<glyph unicode="c" horiz-adv-x="475" d="M261 -11Q188 -11 136 23T62 122Q47 167 47 241Q47 315 62 360Q83 425 135 459T261 493Q315 493 357 473T428 418Q434 410 427 404L364 349Q356 343 350 351Q332 371 312 382T261 393Q229 393 206 378T171 330Q165 312 163 291T161 241Q161 213 163 191T171 151Q182 120 205 105T261 89Q291 89 311 100T350 131Q356 138 364 132L427 77Q433 72 428 63Q399 29 357 9T261 -11Z"  />
<glyph unicode="d" horiz-adv-x="545" d="M370 0Q360 0 360 10V46H359Q342 21 311 5T231 -11Q169 -11 126 18T64 105Q55 133 51 162T47 241Q47 290 51 319T64 377Q83 435 126 464T231 493Q280 493 311 477T359 436H360V670Q360 680 370 680H462Q472 680 472 670V10Q472 0 462 0H370ZM260 89Q330 89 350 151Q355 168 357 188T360 241Q360 274 358 294T350 331Q330 393 260 393Q191 393 171 331Q166 314 164 294T161 241Q161 208 163 188T171 151Q191 89 260 89Z"  />
<glyph unicode="e" horiz-adv-x="521" d="M265 -11Q188 -11 136 24T64 123Q56 146 52 174T47 241Q47 279 51 308T63 360Q83 423 135 458T260 493Q335 493 386 458T458 360Q462 347 465 334T470 304T473 266T474 215Q474 205 463 205H166Q160 205 160 199Q160 188 162 179T167 162Q192 89 275 89Q316 89 343 102T388 135Q396 143 403 137L462 85Q469 79 463 71Q432 35 382 12T265 -11ZM361 295Q361 318 355 336Q345 365 320 381T261 398Q226 398 201 382T166 336Q160 318 160 295Q160 289 166 289H355Q361 289 361 295Z"  />
<glyph unicode="f" horiz-adv-x="328" d="M98 0Q88 0 88 10V389Q88 395 82 395H50Q40 395 40 405V472Q40 482 50 482H82Q88 482 88 488V519Q88 604 128 642T248 680H292Q302 680 302 670V590Q302 580 292 580H261Q242 580 230 578T212 568T203 550T200 521V488Q200 482 206 482H292Q302 482 302 472V405Q302 395 292 395H206Q200 395 200 389V10Q200 0 190 0H98Z"  />
<glyph unicode="g" horiz-adv-x="536" d="M238 -191Q187 -191 139 -172T63 -119Q57 -112 64 -105L123 -46Q130 -39 138 -46Q185 -91 243 -91Q299 -91 325 -62T351 24V69H350Q333 43 303 28T225 13Q164 13 122 43T61 130Q52 158 49 185T45 253Q45 293 48 320T61 375Q80 433 122 463T225 493Q272 493 302 478T350 436H351V472Q351 482 361 482H453Q463 482 463 472V30Q463 -74 407 -132T238 -191ZM254 112Q289 112 309 128T340 174Q346 191 348 209T351 253Q351 300 340 332Q330 361 310 377T254 393Q189 393 169 332Q158 300 158 253Q158 228 160 210T169 174Q189 112 254 112Z"  />
<glyph unicode="h" horiz-adv-x="548" d="M378 0Q368 0 368 10V288Q368 335 345 364T277 393Q233 393 209 364T185 288V10Q185 0 175 0H83Q73 0 73 10V670Q73 680 83 680H175Q185 680 185 670V437H186Q202 460 233 476T313 493Q352 493 382 480T435 442T468 386T480 314V10Q480 0 470 0H378Z"  />
<glyph unicode="i" horiz-adv-x="258" d="M83 573Q73 573 73 583V670Q73 680 83 680H175Q185 680 185 670V583Q185 573 175 573H83ZM83 0Q73 0 73 10V472Q73 482 83 482H175Q185 482 185 472V10Q185 0 175 0H83Z"  />
<glyph unicode="j" horiz-adv-x="258" d="M83 573Q73 573 73 583V670Q73 680 83 680H175Q185 680 185 670V583Q185 573 175 573H83ZM-5 -180Q-15 -180 -15 -170V-90Q-15 -80 -5 -80H17Q47 -80 60 -68T73 -23V472Q73 482 83 482H175Q185 482 185 472V-21Q185 -105 144 -142T23 -180H-5Z"  />
<glyph unicode="k" horiz-adv-x="522" d="M388 0Q378 0 372 10L250 212L185 137V10Q185 0 175 0H83Q73 0 73 10V670Q73 680 83 680H175Q185 680 185 670V278L350 472Q359 482 369 482H471Q476 482 477 479T475 472L322 296L498 10Q500 7 499 4T493 0H388Z"  />
<glyph unicode="l" horiz-adv-x="291" d="M203 -6Q132 -6 102 28T71 132V670Q71 680 81 680H173Q183 680 183 670V138Q183 113 193 104T225 94H247Q257 94 257 84V4Q257 -6 247 -6H203Z"  />
<glyph unicode="m" horiz-adv-x="843" d="M673 0Q663 0 663 10V288Q663 335 640 364T572 393Q528 393 504 364T480 288V10Q480 0 470 0H378Q368 0 368 10V288Q368 335 345 364T277 393Q233 393 209 364T185 288V10Q185 0 175 0H83Q73 0 73 10V472Q73 482 83 482H175Q185 482 185 472V437H186Q202 460 233 476T313 493Q356 493 389 477T445 429H446Q474 459 511 476T600 493Q642 493 674 480T729 442T763 386T775 314V10Q775 0 765 0H673Z"  />
<glyph unicode="n" horiz-adv-x="548" d="M378 0Q368 0 368 10V288Q368 335 345 364T277 393Q233 393 209 364T185 288V10Q185 0 175 0H83Q73 0 73 10V472Q73 482 83 482H175Q185 482 185 472V437H186Q202 460 233 476T313 493Q352 493 382 480T435 442T468 386T480 314V10Q480 0 470 0H378Z"  />
<glyph unicode="o" horiz-adv-x="523" d="M262 -11Q188 -11 136 24T63 122Q55 148 51 174T47 241Q47 281 51 307T63 360Q83 423 135 458T262 493Q335 493 387 458T460 360Q468 334 472 308T476 241Q476 201 472 175T460 122Q440 59 388 24T262 -11ZM262 89Q296 89 318 105T352 152Q358 171 360 190T362 241Q362 272 360 291T352 330Q341 360 319 376T262 393Q228 393 205 377T171 330Q165 310 163 291T161 241Q161 210 163 191T171 152Q182 122 205 106T262 89Z"  />
<glyph unicode="p" horiz-adv-x="545" d="M83 -180Q73 -180 73 -170V472Q73 482 83 482H175Q185 482 185 472V436H186Q203 461 234 477T314 493Q376 493 419 464T481 377Q490 349 494 320T498 241Q498 192 494 163T481 105Q462 47 419 18T314 -11Q265 -11 234 5T186 46H185V-170Q185 -180 175 -180H83ZM285 89Q354 89 374 151Q379 168 381 188T384 241Q384 274 382 294T374 331Q354 393 285 393Q215 393 195 331Q190 314 188 294T185 241Q185 208 187 188T195 151Q215 89 285 89Z"  />
<glyph unicode="q" horiz-adv-x="545" d="M370 -180Q360 -180 360 -170V46H359Q342 21 311 5T231 -11Q169 -11 126 18T64 105Q55 133 51 162T47 241Q47 290 51 319T64 377Q83 435 126 464T231 493Q280 493 311 477T359 436H360V472Q360 482 370 482H462Q472 482 472 472V-170Q472 -180 462 -180H370ZM260 89Q330 89 350 151Q355 168 357 188T360 241Q360 274 358 294T350 331Q330 393 260 393Q191 393 171 331Q166 314 164 294T161 241Q161 208 163 188T171 151Q191 89 260 89Z"  />
<glyph unicode="r" horiz-adv-x="423" d="M83 0Q73 0 73 10V472Q73 482 83 482H175Q185 482 185 472V431H186Q203 459 234 476T311 493Q340 493 366 483T412 453Q419 446 414 439L361 372Q355 364 347 370Q330 381 313 387T276 393Q228 393 207 361T185 271V10Q185 0 175 0H83Z"  />
<glyph unicode="s" horiz-adv-x="498" d="M251 -11Q177 -11 126 13T44 65Q37 72 44 79L101 139Q108 146 115 139Q141 115 179 100T256 84Q301 84 323 100T345 141Q345 163 329 176T265 194L213 199Q139 207 102 243T65 341Q65 411 113 452T252 493Q309 493 355 477T433 434Q441 428 435 420L386 361Q380 354 372 359Q349 375 316 387T246 399Q210 399 192 385T173 349Q173 328 189 316T252 298L304 293Q380 285 416 249T453 152Q453 80 402 35T251 -11Z"  />
<glyph unicode="t" horiz-adv-x="321" d="M214 -6Q141 -6 111 29T80 135V389Q80 395 74 395H42Q32 395 32 405V472Q32 482 42 482H74Q80 482 80 488V620Q80 630 90 630H182Q192 630 192 620V488Q192 482 198 482H262Q272 482 272 472V405Q272 395 262 395H198Q192 395 192 389V139Q192 113 203 104T237 94H262Q272 94 272 84V4Q272 -6 262 -6H214Z"  />
<glyph unicode="u" horiz-adv-x="544" d="M369 0Q359 0 359 10V45H358Q338 20 309 5T233 -11Q194 -11 164 2T112 40T79 96T67 168V472Q67 482 77 482H169Q179 482 179 472V194Q179 147 201 118T269 89Q312 89 335 118T359 193V472Q359 482 369 482H461Q471 482 471 472V10Q471 0 461 0H369Z"  />
<glyph unicode="v" horiz-adv-x="486" d="M203 0Q193 0 190 10L20 472Q17 482 28 482H126Q135 482 138 472L244 159H246L350 472Q353 482 362 482H458Q469 482 466 472L296 10Q293 0 283 0H203Z"  />
<glyph unicode="w" horiz-adv-x="753" d="M483 0Q474 0 471 10L378 318H376L282 10Q279 0 270 0H188Q179 0 176 10L24 472Q21 482 31 482H127Q137 482 140 472L233 154H235L327 472Q330 482 340 482H412Q422 482 425 472L523 154H525L613 472Q616 482 626 482H722Q732 482 729 472L577 10Q574 0 565 0H483Z"  />
<glyph unicode="x" horiz-adv-x="495" d="M364 0Q355 0 348 10L248 157H247L147 10Q140 0 130 0H31Q24 0 23 3T23 10L186 250L35 472Q33 476 34 479T43 482H143Q154 482 160 472L247 342H248L336 472Q343 482 352 482H452Q459 482 460 479T460 472L309 250L472 10Q474 6 473 3T464 0H364Z"  />
<glyph unicode="y" horiz-adv-x="485" d="M90 -180Q80 -180 80 -170V-90Q80 -80 90 -80H108Q137 -80 153 -67T180 -23L194 18L18 472Q15 482 26 482H125Q134 482 137 472L246 157H248L352 472Q355 482 364 482H459Q470 482 467 472L283 -30Q267 -73 251 -101T216 -147T174 -172T121 -180H90Z"  />
<glyph unicode="z" horiz-adv-x="485" d="M62 0Q52 0 52 10V83Q52 88 55 93L301 382V384H75Q65 384 65 394V472Q65 482 75 482H423Q433 482 433 472V394Q433 388 430 384L187 100V98H423Q433 98 433 88V10Q433 0 423 0H62Z"  />
<glyph unicode="{" horiz-adv-x="346" d="M248 -84Q191 -84 160 -54T129 36V204Q129 281 61 281Q51 281 51 291V370Q51 380 61 380Q129 380 129 457V620Q129 679 160 709T248 740H306Q316 740 316 730V664Q316 654 306 654H275Q232 654 232 612V454Q232 398 216 371T162 331V330Q200 317 216 290T232 207V44Q232 2 275 2H306Q316 2 316 -8V-74Q316 -84 306 -84H248Z"  />
<glyph unicode="|" horiz-adv-x="330" d="M129 -84Q119 -84 119 -74V730Q119 740 129 740H201Q211 740 211 730V-74Q211 -84 201 -84H129Z"  />
<glyph unicode="}" horiz-adv-x="346" d="M41 -84Q31 -84 31 -74V-8Q31 2 41 2H72Q114 2 114 44V207Q114 263 130 290T185 330V331Q147 344 131 371T114 454V612Q114 654 72 654H41Q31 654 31 664V730Q31 740 41 740H98Q155 740 186 710T217 620V457Q217 380 285 380Q295 380 295 370V291Q295 281 285 281Q217 281 217 204V36Q217 -23 186 -53T98 -84H41Z"  />
<glyph unicode="~" horiz-adv-x="549" d="M359 200Q328 200 302 211T255 236Q238 247 222 254T188 261Q163 261 148 248T119 211Q114 202 104 209L52 240Q45 245 49 254Q69 299 106 325T189 351Q220 351 246 340T294 316Q311 305 327 298T360 291Q385 291 400 304T430 341Q435 350 445 343L497 312Q504 307 500 298Q480 253 443 227T359 200Z"  />
<glyph unicode="&#xA0;" horiz-adv-x="236" />
<glyph unicode="&#xA1;" horiz-adv-x="307" d="M183 292Q193 292 193 282L216 -188Q216 -198 206 -198H101Q91 -198 91 -188L114 282Q114 292 124 292H183ZM214 370Q214 360 204 360H104Q94 360 94 370V472Q94 482 104 482H204Q214 482 214 472V370Z"  />
<glyph unicode="&#xA2;" horiz-adv-x="549" d="M324 492Q373 487 409 468T471 418Q477 410 470 404L408 349Q400 343 394 351Q379 368 363 378T324 391V90Q347 94 363 104T394 131Q400 138 408 132L470 77Q476 72 471 63Q446 33 410 14T324 -10V-89Q324 -99 314 -99H280Q270 -99 270 -89V-9Q204 -3 159 30T95 122Q80 167 80 241Q80 315 95 360Q114 418 159 451T270 491V571Q270 581 280 581H314Q324 581 324 571V492ZM194 241Q194 213 196 191T204 151Q219 101 270 91V390Q219 379 204 330Q198 312 196 291T194 241Z"  />
<glyph unicode="&#xA3;" horiz-adv-x="549" d="M105 0Q95 0 95 10V88Q95 95 100 100Q107 107 113 114T124 132T130 156T133 191V269Q133 275 127 275H80Q70 275 70 285V349Q70 359 80 359H127Q133 359 133 365V503Q133 593 180 642T309 691Q377 691 420 656T475 565Q477 556 466 554L378 533Q369 531 367 541Q363 561 349 576T308 591Q278 591 263 572T247 521V365Q247 359 253 359H372Q382 359 382 349V285Q382 275 372 275H253Q247 275 247 269V210Q247 171 241 145T224 102V100H466Q476 100 476 90V10Q476 0 466 0H105Z"  />
<glyph unicode="&#xA4;" horiz-adv-x="549" d="M455 91Q448 84 441 91L382 150Q359 136 332 128T274 120Q244 120 217 128T166 150L108 92Q102 86 94 92L41 146Q34 153 41 160L99 219Q86 242 79 268T72 323Q72 381 100 428L41 488Q35 494 41 502L94 556Q102 562 108 556L167 497Q190 511 217 518T274 526Q304 526 331 519T381 497L440 556Q447 563 454 556L507 502Q513 494 507 488L448 429Q462 406 469 379T477 323Q477 266 449 218L508 159Q514 153 508 145L455 91ZM274 208Q323 208 354 241T386 323Q386 372 355 405T274 438Q225 438 194 405T163 323Q163 274 194 241T274 208Z"  />
<glyph unicode="&#xA5;" horiz-adv-x="549" d="M228 0Q218 0 218 10V131Q218 137 212 137H90Q80 137 80 147V205Q80 215 90 215H212Q218 215 218 221V262Q218 268 212 268H90Q80 268 80 278V336Q80 346 90 346H189V348L38 670Q34 680 45 680H143Q153 680 156 670L274 392H277L393 670Q396 680 406 680H503Q514 680 510 670L359 348V346H457Q467 346 467 336V278Q467 268 457 268H336Q330 268 330 262V221Q330 215 336 215H457Q467 215 467 205V147Q467 137 457 137H336Q330 137 330 131V10Q330 0 320 0H228Z"  />
<glyph unicode="&#xA6;" horiz-adv-x="330" d="M129 388Q119 388 119 398V730Q119 740 129 740H201Q211 740 211 730V398Q211 388 201 388H129ZM129 -84Q119 -84 119 -74V262Q119 272 129 272H201Q211 272 211 262V-74Q211 -84 201 -84H129Z"  />
<glyph unicode="&#xA7;" horiz-adv-x="579" d="M287 -191Q244 -191 212 -181T158 -152T124 -108T109 -55Q107 -46 115 -44L197 -27Q205 -25 207 -34Q211 -63 228 -82T285 -101Q323 -101 342 -82T361 -33Q361 4 335 27T242 66Q167 84 130 131T93 252Q93 306 118 347T186 409V410Q148 432 133 462T118 534Q118 566 130 594T166 644T221 678T292 691Q335 691 367 679T421 648T454 604T467 554Q467 545 460 544L379 527Q369 525 369 534Q365 563 347 582T294 601Q261 601 242 584T222 534Q222 496 248 475T338 438Q413 418 449 371T486 252Q486 225 479 200T459 155T429 119T393 95V94Q434 72 449 42T465 -38Q465 -70 452 -97T416 -146T360 -179T287 -191ZM290 156Q332 156 357 180T382 252Q382 299 357 323T290 348Q248 348 223 324T197 252Q197 205 222 181T290 156Z"  />
<glyph unicode="&#xA8;" horiz-adv-x="422" d="M271 573Q261 573 261 583V670Q261 680 271 680H348Q358 680 358 670V583Q358 573 348 573H271ZM75 573Q65 573 65 583V670Q65 680 75 680H152Q162 680 162 670V583Q162 573 152 573H75Z"  />
<glyph unicode="&#xA9;" horiz-adv-x="826" d="M413 -11Q339 -11 275 16T163 90T89 201T62 340Q62 414 89 478T163 589T274 664T413 691Q487 691 551 664T662 590T737 478T764 340Q764 266 737 202T663 90T551 16T413 -11ZM413 65Q471 65 520 85T606 143T663 230T684 340Q684 399 664 449T607 536T521 594T413 615Q355 615 306 594T220 537T163 450T142 340Q142 281 162 231T219 143T305 86T413 65ZM424 143Q364 143 322 170T263 251Q258 265 255 285T252 340Q252 375 255 395T263 429Q280 483 322 510T424 537Q466 537 499 522T554 481Q561 474 553 467L507 426Q500 419 493 427Q478 444 463 452T425 460Q365 460 346 406Q343 397 342 384T340 340Q340 310 341 297T346 274Q365 220 425 220Q448 220 463 228T493 253Q500 260 507 254L553 213Q561 206 554 199Q532 173 499 158T424 143Z"  />
<glyph unicode="&#xAA;" horiz-adv-x="347" d="M231 392Q221 392 221 402V415H219Q208 403 188 395T136 387Q116 387 98 392T65 407T43 434T34 473Q34 522 67 546T160 570H213Q219 570 219 576V583Q219 598 206 606T158 614Q137 614 121 610T93 599Q84 594 79 602L52 649Q47 658 55 663Q75 675 103 681T169 688Q246 688 275 663T305 585V402Q305 392 295 392H231ZM160 455Q190 455 204 464T219 496V503Q219 509 213 509H167Q141 509 130 501T119 481Q119 455 160 455Z"  />
<glyph unicode="&#xAB;" horiz-adv-x="542" d="M262 257Q255 264 262 271L466 476Q469 479 472 478T476 472V376Q476 369 474 365T466 355L379 268Q375 264 379 260L466 173Q472 167 474 163T476 152V56Q476 51 473 50T466 52L262 257ZM35 257Q28 264 35 271L239 476Q242 479 245 478T249 472V376Q249 369 247 365T239 355L152 268Q148 264 152 260L239 173Q249 163 249 152V56Q249 51 246 50T239 52L35 257Z"  />
<glyph unicode="&#xAC;" horiz-adv-x="549" d="M403 92Q393 92 393 102V221Q393 227 387 227H65Q55 227 55 237V315Q55 325 65 325H484Q494 325 494 315V102Q494 92 484 92H403Z"  />
<glyph unicode="&#xAD;" horiz-adv-x="385" d="M55 216Q45 216 45 226V305Q45 315 55 315H330Q340 315 340 305V226Q340 216 330 216H55Z"  />
<glyph unicode="&#xAE;" horiz-adv-x="447" d="M223 301Q182 301 148 316T87 356T47 417T32 493Q32 533 46 568T87 628T147 669T223 684Q263 684 298 669T359 629T399 568T414 493Q414 452 400 417T359 357T298 316T223 301ZM223 340Q255 340 282 351T330 383T361 432T373 493Q373 526 362 553T330 601T283 633T223 645Q191 645 164 634T116 602T85 554T73 493Q73 460 84 432T116 384T163 352T223 340ZM151 388Q144 388 144 395V593Q144 600 151 600H234Q271 600 291 584T312 535Q312 491 272 475L314 395Q317 388 309 388H273Q267 388 264 395L225 469H196Q192 469 192 465V395Q192 388 185 388H151ZM234 511Q266 511 266 535Q266 559 234 559H196Q192 559 192 555V515Q192 511 196 511H234Z"  />
<glyph unicode="&#xAF;" horiz-adv-x="422" d="M79 587Q69 587 69 597V658Q69 668 79 668H342Q352 668 352 658V597Q352 587 342 587H79Z"  />
<glyph unicode="&#xB0;" horiz-adv-x="465" d="M233 395Q201 395 174 406T127 437T96 484T85 543Q85 574 96 601T127 648T174 679T233 691Q264 691 291 680T337 649T368 602T380 543Q380 511 369 484T338 438T291 407T233 395ZM233 460Q268 460 290 484T312 543Q312 579 290 602T233 626Q198 626 176 603T153 543Q153 508 175 484T233 460Z"  />
<glyph unicode="&#xB1;" horiz-adv-x="549" d="M234 157Q224 157 224 167V321Q224 327 218 327H65Q55 327 55 337V415Q55 425 65 425H218Q224 425 224 431V585Q224 595 234 595H315Q325 595 325 585V431Q325 425 331 425H484Q494 425 494 415V337Q494 327 484 327H331Q325 327 325 321V167Q325 157 315 157H234ZM65 0Q55 0 55 10V89Q55 99 65 99H484Q494 99 494 89V10Q494 0 484 0H65Z"  />
<glyph unicode="&#xB2;" horiz-adv-x="349" d="M52 430Q42 430 42 440V497Q42 505 48 511L192 669Q203 680 211 694T219 724Q219 744 208 755T176 767Q156 767 144 757T127 725Q125 715 116 717L51 731Q41 733 43 742Q45 757 54 775T79 808T120 834T177 844Q207 844 231 835T272 810T298 771T307 724Q307 694 296 671T263 624L154 508V507H297Q307 507 307 497V440Q307 430 297 430H52Z"  />
<glyph unicode="&#xB3;" horiz-adv-x="349" d="M176 422Q125 422 86 443T36 513Q35 518 36 521T43 526L107 542Q114 543 119 534Q126 520 140 510T174 499Q197 499 211 512T226 549Q226 572 211 585T169 599H149Q139 599 139 609V666Q139 676 149 676H164Q188 676 202 687T216 721Q216 767 170 767Q150 767 140 760T122 738Q118 730 109 732L49 746Q40 747 42 758Q51 794 84 819T172 844Q235 844 269 812T304 728Q304 707 295 685T263 645V644Q280 637 297 613T314 551Q314 491 277 457T176 422Z"  />
<glyph unicode="&#xB4;" horiz-adv-x="422" d="M123 555Q112 555 117 565L192 690Q198 700 210 700H301Q306 700 307 697T306 690L211 565Q202 555 191 555H123Z"  />
<glyph unicode="&#xB5;" horiz-adv-x="550" d="M375 0Q365 0 365 10V49H364Q351 25 324 7T256 -11Q229 -11 213 -4T187 13H185V-170Q185 -180 175 -180H83Q73 -180 73 -170V472Q73 482 83 482H175Q185 482 185 472V193Q185 145 207 117T275 89Q319 89 342 117T365 193V472Q365 482 375 482H467Q477 482 477 472V10Q477 0 467 0H375Z"  />
<glyph unicode="&#xB6;" horiz-adv-x="634" d="M460 -180Q450 -180 450 -170V580Q450 586 444 586H373Q367 586 367 580V-170Q367 -180 357 -180H280Q270 -180 270 -170V258Q225 261 189 278T126 323T86 389T72 469Q72 512 87 550T130 618T201 663T297 680H537Q547 680 547 670V-170Q547 -180 537 -180H460Z"  />
<glyph unicode="&#xB7;" horiz-adv-x="252" d="M76 204Q66 204 66 214V316Q66 326 76 326H176Q186 326 186 316V214Q186 204 176 204H76Z"  />
<glyph unicode="&#xB8;" horiz-adv-x="422" d="M146 -155Q136 -155 139 -145L198 0Q202 10 211 10H279Q289 10 286 0L240 -145Q237 -155 224 -155H146Z"  />
<glyph unicode="&#xB9;" horiz-adv-x="349" d="M166 430Q156 430 156 440V734H154L91 693Q87 691 84 693T81 700V772Q81 782 89 787L151 829Q161 836 168 836H233Q243 836 243 826V440Q243 430 233 430H166Z"  />
<glyph unicode="&#xBA;" horiz-adv-x="356" d="M178 384Q69 384 41 471Q32 496 32 536Q32 575 41 601Q69 688 178 688Q231 688 266 667T315 601Q324 575 324 536Q324 496 315 471Q301 426 266 405T178 384ZM178 463Q214 463 226 496Q228 504 229 513T231 536Q231 549 230 558T226 576Q214 609 178 609Q141 609 129 576Q127 568 126 559T124 536Q124 523 125 514T129 496Q141 463 178 463Z"  />
<glyph unicode="&#xBB;" horiz-adv-x="542" d="M303 52Q300 49 297 50T293 56V152Q293 163 303 173L390 260Q394 264 390 268L303 355Q297 361 295 365T293 376V472Q293 477 296 478T303 476L507 271Q514 264 507 257L303 52ZM76 52Q73 49 70 50T66 56V152Q66 163 76 173L163 260Q167 264 163 268L76 355Q70 361 68 365T66 376V472Q66 477 69 478T76 476L280 271Q287 264 280 257L76 52Z"  />
<glyph unicode="&#xBC;" horiz-adv-x="841" d="M176 274Q166 274 166 284V578H164L101 537Q97 535 94 537T91 544V616Q91 626 99 631L161 673Q171 680 178 680H243Q253 680 253 670V284Q253 274 243 274H176ZM643 2Q633 2 633 12V56Q633 62 627 62H465Q455 62 455 72V127Q455 135 459 142L583 398Q588 408 597 408H669Q680 408 675 398L553 138V137H627Q633 137 633 143V225Q633 235 643 235H707Q717 235 717 225V143Q717 137 723 137H740Q750 137 750 127V72Q750 62 740 62H723Q717 62 717 56V12Q717 2 707 2H643ZM173 -11Q168 -11 167 -8T168 -1L563 681Q569 691 579 691H644Q649 691 650 688T650 681L255 -1Q249 -11 239 -11H173Z"  />
<glyph unicode="&#xBD;" horiz-adv-x="881" d="M176 274Q166 274 166 284V578H164L101 537Q97 535 94 537T91 544V616Q91 626 99 631L161 673Q171 680 178 680H243Q253 680 253 670V284Q253 274 243 274H176ZM535 2Q525 2 525 12V69Q525 77 531 83L675 241Q686 252 694 266T702 296Q702 316 691 327T659 339Q639 339 627 329T610 297Q608 287 599 289L534 303Q524 305 526 314Q528 329 537 347T562 380T603 406T660 416Q690 416 714 407T755 382T781 343T790 296Q790 266 779 243T746 196L637 80V79H780Q790 79 790 69V12Q790 2 780 2H535ZM173 -11Q168 -11 167 -8T168 -1L563 681Q569 691 579 691H644Q649 691 650 688T650 681L255 -1Q249 -11 239 -11H173Z"  />
<glyph unicode="&#xBE;" horiz-adv-x="914" d="M716 2Q706 2 706 12V56Q706 62 700 62H538Q528 62 528 72V127Q528 135 532 142L656 398Q661 408 670 408H742Q753 408 748 398L626 138V137H700Q706 137 706 143V225Q706 235 716 235H780Q790 235 790 225V143Q790 137 796 137H813Q823 137 823 127V72Q823 62 813 62H796Q790 62 790 56V12Q790 2 780 2H716ZM248 -11Q243 -11 242 -8T243 -1L638 681Q644 691 654 691H719Q724 691 725 688T725 681L330 -1Q324 -11 314 -11H248ZM231 266Q180 266 141 287T91 357Q90 362 91 365T98 370L162 386Q169 387 174 378Q181 364 195 354T229 343Q252 343 266 356T281 393Q281 416 266 429T224 443H204Q194 443 194 453V510Q194 520 204 520H219Q243 520 257 531T271 565Q271 611 225 611Q205 611 195 604T177 582Q173 574 164 576L104 590Q95 591 97 602Q106 638 139 663T227 688Q290 688 324 656T359 572Q359 551 350 529T318 489V488Q335 481 352 457T369 395Q369 335 332 301T231 266Z"  />
<glyph unicode="&#xBF;" horiz-adv-x="464" d="M287 292Q297 292 297 282V241Q297 211 291 193T271 156L192 48Q174 24 166 5T158 -34Q158 -66 179 -87T236 -109Q271 -109 292 -88T321 -29Q323 -19 332 -21L422 -35Q432 -36 430 -47Q418 -122 367 -165T232 -209Q191 -209 157 -196T97 -160T58 -105T44 -35Q44 28 85 82L164 190Q175 204 179 217T184 253V282Q184 292 194 292H287ZM301 370Q301 360 291 360H191Q181 360 181 370V472Q181 482 191 482H291Q301 482 301 472V370Z"  />
<glyph unicode="&#xC0;" horiz-adv-x="617" d="M251 670Q254 680 264 680H356Q366 680 369 670L599 10Q602 0 592 0H494Q484 0 481 10L436 142H180L135 10Q132 0 122 0H25Q15 0 18 10L251 670ZM400 247L310 511H307L216 247H400ZM270 761Q265 761 261 762T252 769L136 878Q132 882 133 885T140 888H238Q249 888 257 878L346 771Q349 767 348 764T342 761H270Z"  />
<glyph unicode="&#xC1;" horiz-adv-x="617" d="M251 670Q254 680 264 680H356Q366 680 369 670L599 10Q602 0 592 0H494Q484 0 481 10L436 142H180L135 10Q132 0 122 0H25Q15 0 18 10L251 670ZM400 247L310 511H307L216 247H400ZM276 761Q271 761 270 764T272 771L360 878Q368 888 379 888H477Q482 888 484 885T482 878L365 769Q360 764 356 763T347 761H276Z"  />
<glyph unicode="&#xC2;" horiz-adv-x="617" d="M251 670Q254 680 264 680H356Q366 680 369 670L599 10Q602 0 592 0H494Q484 0 481 10L436 142H180L135 10Q132 0 122 0H25Q15 0 18 10L251 670ZM400 247L310 511H307L216 247H400ZM387 753Q376 753 366 763L309 822H307L250 763Q240 753 229 753H166Q161 753 160 756T162 763L260 888Q267 898 278 898H338Q349 898 356 888L454 763Q457 759 456 756T450 753H387Z"  />
<glyph unicode="&#xC3;" horiz-adv-x="617" d="M251 670Q254 680 264 680H356Q366 680 369 670L599 10Q602 0 592 0H494Q484 0 481 10L436 142H180L135 10Q132 0 122 0H25Q15 0 18 10L251 670ZM400 247L310 511H307L216 247H400ZM367 757Q347 757 332 762T300 777Q285 785 272 790T244 795Q222 795 207 786T177 764Q173 761 171 762T168 766V827Q168 837 176 846Q190 861 208 870T248 880Q268 880 283 875T315 860Q330 852 343 847T372 842Q393 842 408 851T438 873Q442 876 444 875T447 871V810Q447 800 439 791Q425 776 407 767T367 757Z"  />
<glyph unicode="&#xC4;" horiz-adv-x="617" d="M251 670Q254 680 264 680H356Q366 680 369 670L599 10Q602 0 592 0H494Q484 0 481 10L436 142H180L135 10Q132 0 122 0H25Q15 0 18 10L251 670ZM400 247L310 511H307L216 247H400ZM371 769Q361 769 361 779V866Q361 876 371 876H444Q454 876 454 866V779Q454 769 444 769H371ZM171 769Q161 769 161 779V866Q161 876 171 876H244Q254 876 254 866V779Q254 769 244 769H171Z"  />
<glyph unicode="&#xC5;" horiz-adv-x="617" d="M251 670Q254 680 264 680H356Q366 680 369 670L599 10Q602 0 592 0H494Q484 0 481 10L436 142H180L135 10Q132 0 122 0H25Q15 0 18 10L251 670ZM400 247L310 511H307L216 247H400ZM308 721Q265 721 237 749T209 820Q209 863 237 891T308 920Q351 920 379 892T407 820Q407 777 379 749T308 721ZM308 769Q329 769 343 783T357 820Q357 842 343 856T308 871Q287 871 273 857T259 820Q259 798 273 784T308 769Z"  />
<glyph unicode="&#xC6;" horiz-adv-x="926" d="M441 0Q431 0 431 10V136Q431 142 425 142H216L151 10Q147 0 138 0H26Q14 0 19 10L353 670Q358 680 367 680H867Q877 680 877 670V584Q877 574 867 574H555Q549 574 549 568V402Q549 396 555 396H818Q828 396 828 386V300Q828 290 818 290H555Q549 290 549 284V112Q549 106 555 106H867Q877 106 877 96V10Q877 0 867 0H441ZM268 247H425Q431 247 431 253V574H429L268 247Z"  />
<glyph unicode="&#xC7;" horiz-adv-x="575" d="M210 -155Q200 -155 203 -145L258 -8Q191 5 144 44T73 156Q68 172 65 187T59 223T56 271T55 340Q55 380 56 408T59 456T64 492T73 524Q99 608 160 649T309 691Q391 691 450 652T539 545Q542 536 534 533L449 492Q440 487 436 497Q419 533 390 559T309 585Q260 585 231 561T187 495Q184 484 182 473T178 445T176 402T175 340Q175 302 175 278T177 236T181 207T187 185Q201 143 230 119T309 95Q360 95 389 121T436 183Q440 193 449 188L534 147Q542 144 539 135Q513 76 465 39T347 -9L304 -145Q301 -155 288 -155H210Z"  />
<glyph unicode="&#xC8;" horiz-adv-x="570" d="M282 761Q277 761 273 762T264 769L148 878Q144 882 145 885T152 888H250Q261 888 269 878L358 771Q361 767 360 764T354 761H282ZM75 670Q75 680 85 680H511Q521 680 521 670V584Q521 574 511 574H199Q193 574 193 568V402Q193 396 199 396H462Q472 396 472 386V300Q472 290 462 290H199Q193 290 193 284V112Q193 106 199 106H511Q521 106 521 96V10Q521 0 511 0H85Q75 0 75 10V670Z"  />
<glyph unicode="&#xC9;" horiz-adv-x="570" d="M233 761Q228 761 227 764T229 771L317 878Q325 888 336 888H434Q439 888 441 885T439 878L322 769Q317 764 313 763T304 761H233ZM75 670Q75 680 85 680H511Q521 680 521 670V584Q521 574 511 574H199Q193 574 193 568V402Q193 396 199 396H462Q472 396 472 386V300Q472 290 462 290H199Q193 290 193 284V112Q193 106 199 106H511Q521 106 521 96V10Q521 0 511 0H85Q75 0 75 10V670Z"  />
<glyph unicode="&#xCA;" horiz-adv-x="570" d="M75 670Q75 680 85 680H511Q521 680 521 670V584Q521 574 511 574H199Q193 574 193 568V402Q193 396 199 396H462Q472 396 472 386V300Q472 290 462 290H199Q193 290 193 284V112Q193 106 199 106H511Q521 106 521 96V10Q521 0 511 0H85Q75 0 75 10V670ZM378 753Q367 753 357 763L300 822H298L241 763Q231 753 220 753H157Q152 753 151 756T153 763L251 888Q258 898 269 898H329Q340 898 347 888L445 763Q448 759 447 756T441 753H378Z"  />
<glyph unicode="&#xCB;" horiz-adv-x="570" d="M360 769Q350 769 350 779V866Q350 876 360 876H433Q443 876 443 866V779Q443 769 433 769H360ZM160 769Q150 769 150 779V866Q150 876 160 876H233Q243 876 243 866V779Q243 769 233 769H160ZM75 670Q75 680 85 680H511Q521 680 521 670V584Q521 574 511 574H199Q193 574 193 568V402Q193 396 199 396H462Q472 396 472 386V300Q472 290 462 290H199Q193 290 193 284V112Q193 106 199 106H511Q521 106 521 96V10Q521 0 511 0H85Q75 0 75 10V670Z"  />
<glyph unicode="&#xCC;" horiz-adv-x="268" d="M75 670Q75 680 85 680H183Q193 680 193 670V10Q193 0 183 0H85Q75 0 75 10V670ZM99 761Q94 761 90 762T81 769L-35 878Q-39 882 -38 885T-31 888H67Q78 888 86 878L175 771Q178 767 177 764T171 761H99Z"  />
<glyph unicode="&#xCD;" horiz-adv-x="268" d="M75 670Q75 680 85 680H183Q193 680 193 670V10Q193 0 183 0H85Q75 0 75 10V670ZM104 761Q99 761 98 764T100 771L188 878Q196 888 207 888H305Q310 888 312 885T310 878L193 769Q188 764 184 763T175 761H104Z"  />
<glyph unicode="&#xCE;" horiz-adv-x="268" d="M75 670Q75 680 85 680H183Q193 680 193 670V10Q193 0 183 0H85Q75 0 75 10V670ZM216 753Q205 753 195 763L138 822H136L79 763Q69 753 58 753H-5Q-10 753 -11 756T-9 763L89 888Q96 898 107 898H167Q178 898 185 888L283 763Q286 759 285 756T279 753H216Z"  />
<glyph unicode="&#xCF;" horiz-adv-x="268" d="M75 670Q75 680 85 680H183Q193 680 193 670V10Q193 0 183 0H85Q75 0 75 10V670ZM200 769Q190 769 190 779V866Q190 876 200 876H273Q283 876 283 866V779Q283 769 273 769H200ZM0 769Q-10 769 -10 779V866Q-10 876 0 876H73Q83 876 83 866V779Q83 769 73 769H0Z"  />
<glyph unicode="&#xD0;" horiz-adv-x="625" d="M85 0Q75 0 75 10V292Q75 298 69 298H43Q33 298 33 308V378Q33 388 43 388H69Q75 388 75 394V670Q75 680 85 680H328Q506 680 555 529Q559 516 562 502T567 466T571 415T572 340Q572 296 571 266T568 214T562 179T555 151Q506 0 328 0H85ZM300 106Q357 106 391 126T441 192Q444 199 446 209T449 236T452 278T453 340Q453 377 452 402T450 444T446 471T441 488Q426 534 392 554T300 574H199Q193 574 193 568V394Q193 388 199 388H296Q306 388 306 378V308Q306 298 296 298H199Q193 298 193 292V112Q193 106 199 106H300Z"  />
<glyph unicode="&#xD1;" horiz-adv-x="657" d="M387 757Q367 757 352 762T320 777Q305 785 292 790T264 795Q242 795 227 786T197 764Q193 761 191 762T188 766V827Q188 837 196 846Q210 861 228 870T268 880Q288 880 303 875T335 860Q350 852 363 847T392 842Q413 842 428 851T458 873Q462 876 464 875T467 871V810Q467 800 459 791Q445 776 427 767T387 757ZM75 670Q75 680 85 680H177Q188 680 194 670L471 201H475V670Q475 680 485 680H572Q582 680 582 670V10Q582 0 572 0H481Q470 0 464 10L186 478H182V10Q182 0 172 0H85Q75 0 75 10V670Z"  />
<glyph unicode="&#xD2;" horiz-adv-x="627" d="M294 761Q289 761 285 762T276 769L160 878Q156 882 157 885T164 888H262Q273 888 281 878L370 771Q373 767 372 764T366 761H294ZM313 -11Q225 -11 162 30T73 153Q68 169 65 185T59 222T56 271T55 340Q55 380 56 408T59 458T64 495T73 527Q99 608 162 649T313 691Q402 691 465 650T554 527Q559 511 562 495T568 458T571 409T572 340Q572 300 571 272T568 222T563 185T554 153Q528 72 465 31T313 -11ZM313 95Q364 95 395 118T440 184Q443 193 445 205T448 235T451 278T452 340Q452 376 451 401T449 445T445 475T440 496Q426 538 395 561T313 585Q262 585 232 562T187 496Q184 487 182 475T178 445T176 402T175 340Q175 304 175 279T177 235T181 205T187 184Q201 142 231 119T313 95Z"  />
<glyph unicode="&#xD3;" horiz-adv-x="627" d="M261 761Q256 761 255 764T257 771L345 878Q353 888 364 888H462Q467 888 469 885T467 878L350 769Q345 764 341 763T332 761H261ZM313 -11Q225 -11 162 30T73 153Q68 169 65 185T59 222T56 271T55 340Q55 380 56 408T59 458T64 495T73 527Q99 608 162 649T313 691Q402 691 465 650T554 527Q559 511 562 495T568 458T571 409T572 340Q572 300 571 272T568 222T563 185T554 153Q528 72 465 31T313 -11ZM313 95Q364 95 395 118T440 184Q443 193 445 205T448 235T451 278T452 340Q452 376 451 401T449 445T445 475T440 496Q426 538 395 561T313 585Q262 585 232 562T187 496Q184 487 182 475T178 445T176 402T175 340Q175 304 175 279T177 235T181 205T187 184Q201 142 231 119T313 95Z"  />
<glyph unicode="&#xD4;" horiz-adv-x="627" d="M313 -11Q225 -11 162 30T73 153Q68 169 65 185T59 222T56 271T55 340Q55 380 56 408T59 458T64 495T73 527Q99 608 162 649T313 691Q402 691 465 650T554 527Q559 511 562 495T568 458T571 409T572 340Q572 300 571 272T568 222T563 185T554 153Q528 72 465 31T313 -11ZM313 95Q364 95 395 118T440 184Q443 193 445 205T448 235T451 278T452 340Q452 376 451 401T449 445T445 475T440 496Q426 538 395 561T313 585Q262 585 232 562T187 496Q184 487 182 475T178 445T176 402T175 340Q175 304 175 279T177 235T181 205T187 184Q201 142 231 119T313 95ZM392 753Q381 753 371 763L314 822H312L255 763Q245 753 234 753H171Q166 753 165 756T167 763L265 888Q272 898 283 898H343Q354 898 361 888L459 763Q462 759 461 756T455 753H392Z"  />
<glyph unicode="&#xD5;" horiz-adv-x="627" d="M372 757Q352 757 337 762T305 777Q290 785 277 790T249 795Q227 795 212 786T182 764Q178 761 176 762T173 766V827Q173 837 181 846Q195 861 213 870T253 880Q273 880 288 875T320 860Q335 852 348 847T377 842Q398 842 413 851T443 873Q447 876 449 875T452 871V810Q452 800 444 791Q430 776 412 767T372 757ZM313 -11Q225 -11 162 30T73 153Q68 169 65 185T59 222T56 271T55 340Q55 380 56 408T59 458T64 495T73 527Q99 608 162 649T313 691Q402 691 465 650T554 527Q559 511 562 495T568 458T571 409T572 340Q572 300 571 272T568 222T563 185T554 153Q528 72 465 31T313 -11ZM313 95Q364 95 395 118T440 184Q443 193 445 205T448 235T451 278T452 340Q452 376 451 401T449 445T445 475T440 496Q426 538 395 561T313 585Q262 585 232 562T187 496Q184 487 182 475T178 445T176 402T175 340Q175 304 175 279T177 235T181 205T187 184Q201 142 231 119T313 95Z"  />
<glyph unicode="&#xD6;" horiz-adv-x="627" d="M376 769Q366 769 366 779V866Q366 876 376 876H449Q459 876 459 866V779Q459 769 449 769H376ZM176 769Q166 769 166 779V866Q166 876 176 876H249Q259 876 259 866V779Q259 769 249 769H176ZM313 -11Q225 -11 162 30T73 153Q68 169 65 185T59 222T56 271T55 340Q55 380 56 408T59 458T64 495T73 527Q99 608 162 649T313 691Q402 691 465 650T554 527Q559 511 562 495T568 458T571 409T572 340Q572 300 571 272T568 222T563 185T554 153Q528 72 465 31T313 -11ZM313 95Q364 95 395 118T440 184Q443 193 445 205T448 235T451 278T452 340Q452 376 451 401T449 445T445 475T440 496Q426 538 395 561T313 585Q262 585 232 562T187 496Q184 487 182 475T178 445T176 402T175 340Q175 304 175 279T177 235T181 205T187 184Q201 142 231 119T313 95Z"  />
<glyph unicode="&#xD7;" horiz-adv-x="549" d="M410 87Q403 80 396 87L278 203Q274 207 270 203L153 87Q146 80 139 87L86 141Q79 148 86 155L202 272Q206 276 202 280L86 397Q79 404 86 411L139 465Q146 472 153 465L270 349Q274 344 279 349L396 465Q403 472 410 465L463 411Q470 404 463 397L346 281Q341 276 346 272L463 155Q470 148 463 141L410 87Z"  />
<glyph unicode="&#xD8;" horiz-adv-x="627" d="M61 -30Q56 -30 55 -27T56 -20L113 76Q100 93 90 111T73 153Q68 169 65 185T59 222T56 271T55 340Q55 380 56 408T59 458T64 495T73 527Q99 608 162 649T313 691Q398 691 459 653L488 701Q493 710 503 710H566Q571 710 572 707T571 700L513 604Q539 570 554 527Q559 511 562 495T568 458T571 409T572 340Q572 300 571 272T568 222T563 185T554 153Q528 72 465 31T313 -11Q228 -11 167 27L139 -21Q134 -30 124 -30H61ZM174 340Q174 306 174 282T176 241T179 211T184 189L400 557Q366 585 313 585Q262 585 231 562T186 496Q183 487 181 475T177 445T175 402T174 340ZM313 95Q364 95 395 118T441 184Q444 193 446 205T449 235T452 278T453 340Q453 373 453 397T451 438T447 467T443 489L227 122Q260 95 313 95Z"  />
<glyph unicode="&#xD9;" horiz-adv-x="643" d="M300 761Q295 761 291 762T282 769L166 878Q162 882 163 885T170 888H268Q279 888 287 878L376 771Q379 767 378 764T372 761H300ZM321 95Q380 95 417 132T454 241V670Q454 680 464 680H562Q572 680 572 670V239Q572 180 553 134T501 55T421 6T321 -11Q267 -11 222 6T143 55T90 133T71 239V670Q71 680 81 680H179Q189 680 189 670V241Q189 170 226 133T321 95Z"  />
<glyph unicode="&#xDA;" horiz-adv-x="643" d="M271 761Q266 761 265 764T267 771L355 878Q363 888 374 888H472Q477 888 479 885T477 878L360 769Q355 764 351 763T342 761H271ZM321 95Q380 95 417 132T454 241V670Q454 680 464 680H562Q572 680 572 670V239Q572 180 553 134T501 55T421 6T321 -11Q267 -11 222 6T143 55T90 133T71 239V670Q71 680 81 680H179Q189 680 189 670V241Q189 170 226 133T321 95Z"  />
<glyph unicode="&#xDB;" horiz-adv-x="643" d="M321 95Q380 95 417 132T454 241V670Q454 680 464 680H562Q572 680 572 670V239Q572 180 553 134T501 55T421 6T321 -11Q267 -11 222 6T143 55T90 133T71 239V670Q71 680 81 680H179Q189 680 189 670V241Q189 170 226 133T321 95ZM400 753Q389 753 379 763L322 822H320L263 763Q253 753 242 753H179Q174 753 173 756T175 763L273 888Q280 898 291 898H351Q362 898 369 888L467 763Q470 759 469 756T463 753H400Z"  />
<glyph unicode="&#xDC;" horiz-adv-x="643" d="M385 769Q375 769 375 779V866Q375 876 385 876H458Q468 876 468 866V779Q468 769 458 769H385ZM185 769Q175 769 175 779V866Q175 876 185 876H258Q268 876 268 866V779Q268 769 258 769H185ZM321 95Q380 95 417 132T454 241V670Q454 680 464 680H562Q572 680 572 670V239Q572 180 553 134T501 55T421 6T321 -11Q267 -11 222 6T143 55T90 133T71 239V670Q71 680 81 680H179Q189 680 189 670V241Q189 170 226 133T321 95Z"  />
<glyph unicode="&#xDD;" horiz-adv-x="536" d="M219 0Q209 0 209 10V278L12 670Q8 680 20 680H121Q131 680 135 670L268 406H271L405 670Q409 680 419 680H516Q528 680 524 670L327 278V10Q327 0 317 0H219ZM226 761Q221 761 220 764T222 771L310 878Q318 888 329 888H427Q432 888 434 885T432 878L315 769Q310 764 306 763T297 761H226Z"  />
<glyph unicode="&#xDE;" horiz-adv-x="598" d="M85 0Q75 0 75 10V670Q75 680 85 680H183Q193 680 193 670V572Q193 566 199 566H340Q389 566 430 551T501 508T547 442T564 355Q564 307 548 268T502 202T431 159T340 143H199Q193 143 193 137V10Q193 0 183 0H85ZM333 250Q386 250 416 278T446 355Q446 403 416 431T333 460H199Q193 460 193 454V256Q193 250 199 250H333Z"  />
<glyph unicode="&#xDF;" horiz-adv-x="546" d="M284 -3Q274 -3 274 7V86Q274 96 284 96H309Q338 96 353 104T377 136Q378 140 379 145T380 160T381 185T382 225Q382 247 382 262T381 288T379 306T376 318Q368 341 349 352T295 364H284Q274 364 274 374V454Q274 464 284 464H307Q374 464 374 527Q374 560 351 576T284 592Q232 592 209 569T185 494V10Q185 0 175 0H83Q73 0 73 10V489Q73 583 122 637T281 691Q380 691 433 650T486 528Q486 495 472 467T431 419V417Q449 407 462 392T483 354Q486 343 488 333T492 308T493 274T494 225Q494 194 494 174T492 138T488 112T482 91Q465 40 424 19T313 -3H284Z"  />
<glyph unicode="&#xE0;" horiz-adv-x="523" d="M360 0Q350 0 350 10V45H349Q332 20 298 5T213 -11Q180 -11 151 -2T99 25T64 70T51 136Q51 215 102 252T244 289H342Q348 289 348 295V318Q348 360 325 379T241 398Q200 398 174 389T131 365Q122 358 117 367L80 433Q75 441 82 446Q111 467 152 480T253 493Q363 493 408 453T454 325V10Q454 0 444 0H360ZM241 80Q293 80 320 100T348 162V199Q348 205 342 205H262Q208 205 183 190T158 140Q158 80 241 80ZM259 555Q248 555 239 565L144 690Q141 694 142 697T149 700H240Q252 700 258 690L332 565Q337 555 326 555H259Z"  />
<glyph unicode="&#xE1;" horiz-adv-x="523" d="M360 0Q350 0 350 10V45H349Q332 20 298 5T213 -11Q180 -11 151 -2T99 25T64 70T51 136Q51 215 102 252T244 289H342Q348 289 348 295V318Q348 360 325 379T241 398Q200 398 174 389T131 365Q122 358 117 367L80 433Q75 441 82 446Q111 467 152 480T253 493Q363 493 408 453T454 325V10Q454 0 444 0H360ZM241 80Q293 80 320 100T348 162V199Q348 205 342 205H262Q208 205 183 190T158 140Q158 80 241 80ZM213 555Q202 555 207 565L282 690Q288 700 300 700H391Q396 700 397 697T396 690L301 565Q292 555 281 555H213Z"  />
<glyph unicode="&#xE2;" horiz-adv-x="523" d="M360 0Q350 0 350 10V45H349Q332 20 298 5T213 -11Q180 -11 151 -2T99 25T64 70T51 136Q51 215 102 252T244 289H342Q348 289 348 295V318Q348 360 325 379T241 398Q200 398 174 389T131 365Q122 358 117 367L80 433Q75 441 82 446Q111 467 152 480T253 493Q363 493 408 453T454 325V10Q454 0 444 0H360ZM241 80Q293 80 320 100T348 162V199Q348 205 342 205H262Q208 205 183 190T158 140Q158 80 241 80ZM340 555Q329 555 319 565L262 624H260L203 565Q193 555 182 555H119Q114 555 113 558T115 565L213 690Q220 700 231 700H291Q302 700 309 690L407 565Q410 561 409 558T403 555H340Z"  />
<glyph unicode="&#xE3;" horiz-adv-x="523" d="M360 0Q350 0 350 10V45H349Q332 20 298 5T213 -11Q180 -11 151 -2T99 25T64 70T51 136Q51 215 102 252T244 289H342Q348 289 348 295V318Q348 360 325 379T241 398Q200 398 174 389T131 365Q122 358 117 367L80 433Q75 441 82 446Q111 467 152 480T253 493Q363 493 408 453T454 325V10Q454 0 444 0H360ZM241 80Q293 80 320 100T348 162V199Q348 205 342 205H262Q208 205 183 190T158 140Q158 80 241 80ZM320 561Q300 561 285 566T253 581Q238 589 225 594T197 599Q175 599 160 590T130 568Q126 565 124 566T121 570V631Q121 641 129 650Q143 665 161 674T201 684Q221 684 236 679T268 664Q283 656 296 651T325 646Q346 646 361 655T391 677Q395 680 397 679T400 675V614Q400 604 392 595Q378 580 360 571T320 561Z"  />
<glyph unicode="&#xE4;" horiz-adv-x="523" d="M360 0Q350 0 350 10V45H349Q332 20 298 5T213 -11Q180 -11 151 -2T99 25T64 70T51 136Q51 215 102 252T244 289H342Q348 289 348 295V318Q348 360 325 379T241 398Q200 398 174 389T131 365Q122 358 117 367L80 433Q75 441 82 446Q111 467 152 480T253 493Q363 493 408 453T454 325V10Q454 0 444 0H360ZM241 80Q293 80 320 100T348 162V199Q348 205 342 205H262Q208 205 183 190T158 140Q158 80 241 80ZM320 573Q310 573 310 583V670Q310 680 320 680H397Q407 680 407 670V583Q407 573 397 573H320ZM124 573Q114 573 114 583V670Q114 680 124 680H201Q211 680 211 670V583Q211 573 201 573H124Z"  />
<glyph unicode="&#xE5;" horiz-adv-x="523" d="M360 0Q350 0 350 10V45H349Q332 20 298 5T213 -11Q180 -11 151 -2T99 25T64 70T51 136Q51 215 102 252T244 289H342Q348 289 348 295V318Q348 360 325 379T241 398Q200 398 174 389T131 365Q122 358 117 367L80 433Q75 441 82 446Q111 467 152 480T253 493Q363 493 408 453T454 325V10Q454 0 444 0H360ZM241 80Q293 80 320 100T348 162V199Q348 205 342 205H262Q208 205 183 190T158 140Q158 80 241 80ZM266 529Q223 529 195 557T167 629Q167 672 195 700T266 729Q309 729 337 701T365 629Q365 586 337 558T266 529ZM266 578Q287 578 301 592T315 629Q315 651 301 665T266 680Q245 680 231 666T217 629Q217 607 231 593T266 578Z"  />
<glyph unicode="&#xE6;" horiz-adv-x="815" d="M560 -11Q502 -11 460 9T393 65H392Q369 23 323 6T213 -11Q180 -11 151 -2T99 25T64 70T51 136Q51 215 102 252T244 289H342Q348 289 348 295V318Q348 360 325 379T241 398Q200 398 174 389T131 365Q122 358 117 367L80 433Q75 441 82 446Q111 467 152 480T253 493Q307 493 350 481T414 443H416Q440 467 476 480T555 493Q630 493 681 458T752 360Q756 347 759 334T764 304T767 266T768 215Q768 205 757 205H460Q454 205 454 199Q454 188 456 179T461 162Q486 89 569 89Q610 89 637 102T682 135Q690 143 697 137L756 85Q763 79 757 71Q726 35 677 12T560 -11ZM655 295Q655 318 649 336Q639 365 614 381T555 398Q520 398 495 382T460 336Q454 318 454 295Q454 289 460 289H649Q655 289 655 295ZM241 80Q293 80 320 100T348 162V199Q348 205 342 205H262Q208 205 183 190T158 140Q158 80 241 80Z"  />
<glyph unicode="&#xE7;" horiz-adv-x="475" d="M159 -155Q149 -155 152 -145L209 -6Q157 5 118 36T62 122Q47 167 47 241Q47 315 62 360Q83 425 135 459T261 493Q315 493 357 473T428 418Q434 410 427 404L364 349Q356 343 350 351Q332 371 312 382T261 393Q229 393 206 378T171 330Q165 312 163 291T161 241Q161 213 163 191T171 151Q182 120 205 105T261 89Q291 89 311 100T350 131Q356 138 364 132L427 77Q433 72 428 63Q405 36 372 17T296 -8L253 -145Q250 -155 237 -155H159Z"  />
<glyph unicode="&#xE8;" horiz-adv-x="521" d="M265 -11Q188 -11 136 24T64 123Q56 146 52 174T47 241Q47 279 51 308T63 360Q83 423 135 458T260 493Q335 493 386 458T458 360Q462 347 465 334T470 304T473 266T474 215Q474 205 463 205H166Q160 205 160 199Q160 188 162 179T167 162Q192 89 275 89Q316 89 343 102T388 135Q396 143 403 137L462 85Q469 79 463 71Q432 35 382 12T265 -11ZM361 295Q361 318 355 336Q345 365 320 381T261 398Q226 398 201 382T166 336Q160 318 160 295Q160 289 166 289H355Q361 289 361 295ZM245 555Q234 555 225 565L130 690Q127 694 128 697T135 700H226Q238 700 244 690L318 565Q323 555 312 555H245Z"  />
<glyph unicode="&#xE9;" horiz-adv-x="521" d="M210 555Q199 555 204 565L279 690Q285 700 297 700H388Q393 700 394 697T393 690L298 565Q289 555 278 555H210ZM265 -11Q188 -11 136 24T64 123Q56 146 52 174T47 241Q47 279 51 308T63 360Q83 423 135 458T260 493Q335 493 386 458T458 360Q462 347 465 334T470 304T473 266T474 215Q474 205 463 205H166Q160 205 160 199Q160 188 162 179T167 162Q192 89 275 89Q316 89 343 102T388 135Q396 143 403 137L462 85Q469 79 463 71Q432 35 382 12T265 -11ZM361 295Q361 318 355 336Q345 365 320 381T261 398Q226 398 201 382T166 336Q160 318 160 295Q160 289 166 289H355Q361 289 361 295Z"  />
<glyph unicode="&#xEA;" horiz-adv-x="521" d="M339 555Q328 555 318 565L261 624H259L202 565Q192 555 181 555H118Q113 555 112 558T114 565L212 690Q219 700 230 700H290Q301 700 308 690L406 565Q409 561 408 558T402 555H339ZM265 -11Q188 -11 136 24T64 123Q56 146 52 174T47 241Q47 279 51 308T63 360Q83 423 135 458T260 493Q335 493 386 458T458 360Q462 347 465 334T470 304T473 266T474 215Q474 205 463 205H166Q160 205 160 199Q160 188 162 179T167 162Q192 89 275 89Q316 89 343 102T388 135Q396 143 403 137L462 85Q469 79 463 71Q432 35 382 12T265 -11ZM361 295Q361 318 355 336Q345 365 320 381T261 398Q226 398 201 382T166 336Q160 318 160 295Q160 289 166 289H355Q361 289 361 295Z"  />
<glyph unicode="&#xEB;" horiz-adv-x="521" d="M319 573Q309 573 309 583V670Q309 680 319 680H396Q406 680 406 670V583Q406 573 396 573H319ZM123 573Q113 573 113 583V670Q113 680 123 680H200Q210 680 210 670V583Q210 573 200 573H123ZM265 -11Q188 -11 136 24T64 123Q56 146 52 174T47 241Q47 279 51 308T63 360Q83 423 135 458T260 493Q335 493 386 458T458 360Q462 347 465 334T470 304T473 266T474 215Q474 205 463 205H166Q160 205 160 199Q160 188 162 179T167 162Q192 89 275 89Q316 89 343 102T388 135Q396 143 403 137L462 85Q469 79 463 71Q432 35 382 12T265 -11ZM361 295Q361 318 355 336Q345 365 320 381T261 398Q226 398 201 382T166 336Q160 318 160 295Q160 289 166 289H355Q361 289 361 295Z"  />
<glyph unicode="&#xEC;" horiz-adv-x="258" d="M83 0Q73 0 73 10V472Q73 482 83 482H175Q185 482 185 472V10Q185 0 175 0H83ZM102 555Q91 555 82 565L-13 690Q-16 694 -15 697T-8 700H83Q95 700 101 690L175 565Q180 555 169 555H102Z"  />
<glyph unicode="&#xED;" horiz-adv-x="258" d="M95 555Q84 555 89 565L164 690Q170 700 182 700H273Q278 700 279 697T278 690L183 565Q174 555 163 555H95ZM83 0Q73 0 73 10V472Q73 482 83 482H175Q185 482 185 472V10Q185 0 175 0H83Z"  />
<glyph unicode="&#xEE;" horiz-adv-x="258" d="M210 555Q199 555 189 565L132 624H130L73 565Q63 555 52 555H-11Q-16 555 -17 558T-15 565L83 690Q90 700 101 700H161Q172 700 179 690L277 565Q280 561 279 558T273 555H210ZM83 0Q73 0 73 10V472Q73 482 83 482H175Q185 482 185 472V10Q185 0 175 0H83Z"  />
<glyph unicode="&#xEF;" horiz-adv-x="258" d="M191 573Q181 573 181 583V670Q181 680 191 680H268Q278 680 278 670V583Q278 573 268 573H191ZM-5 573Q-15 573 -15 583V670Q-15 680 -5 680H72Q82 680 82 670V583Q82 573 72 573H-5ZM83 0Q73 0 73 10V472Q73 482 83 482H175Q185 482 185 472V10Q185 0 175 0H83Z"  />
<glyph unicode="&#xF0;" horiz-adv-x="523" d="M338 560L362 528Q419 451 448 382T477 239Q477 197 473 171T462 123Q441 59 388 24T262 -11Q187 -11 136 23T63 122Q56 143 52 170T47 225Q47 254 51 282T62 332Q82 392 126 425T230 459Q269 459 295 442H297L234 529L143 501Q133 498 130 507L113 565Q110 575 120 578L185 597L132 670Q130 674 131 677T138 680H237Q248 680 255 670L286 628L378 656Q388 659 391 650L408 592Q411 582 401 579L338 560ZM365 226Q365 246 363 267T355 305Q344 336 321 351T262 367Q229 367 205 352T169 305Q164 288 162 267T159 226Q159 206 161 186T169 148Q180 117 204 102T262 86Q295 86 319 101T355 148Q360 165 362 185T365 226Z"  />
<glyph unicode="&#xF1;" horiz-adv-x="548" d="M378 0Q368 0 368 10V288Q368 335 345 364T277 393Q233 393 209 364T185 288V10Q185 0 175 0H83Q73 0 73 10V472Q73 482 83 482H175Q185 482 185 472V437H186Q202 460 233 476T313 493Q352 493 382 480T435 442T468 386T480 314V10Q480 0 470 0H378ZM332 561Q312 561 297 566T265 581Q250 589 237 594T209 599Q187 599 172 590T142 568Q138 565 136 566T133 570V631Q133 641 141 650Q155 665 173 674T213 684Q233 684 248 679T280 664Q295 656 308 651T337 646Q358 646 373 655T403 677Q407 680 409 679T412 675V614Q412 604 404 595Q390 580 372 571T332 561Z"  />
<glyph unicode="&#xF2;" horiz-adv-x="523" d="M240 555Q229 555 220 565L125 690Q122 694 123 697T130 700H221Q233 700 239 690L313 565Q318 555 307 555H240ZM262 -11Q188 -11 136 24T63 122Q55 148 51 174T47 241Q47 281 51 307T63 360Q83 423 135 458T262 493Q335 493 387 458T460 360Q468 334 472 308T476 241Q476 201 472 175T460 122Q440 59 388 24T262 -11ZM262 89Q296 89 318 105T352 152Q358 171 360 190T362 241Q362 272 360 291T352 330Q341 360 319 376T262 393Q228 393 205 377T171 330Q165 310 163 291T161 241Q161 210 163 191T171 152Q182 122 205 106T262 89Z"  />
<glyph unicode="&#xF3;" horiz-adv-x="523" d="M216 555Q205 555 210 565L285 690Q291 700 303 700H394Q399 700 400 697T399 690L304 565Q295 555 284 555H216ZM262 -11Q188 -11 136 24T63 122Q55 148 51 174T47 241Q47 281 51 307T63 360Q83 423 135 458T262 493Q335 493 387 458T460 360Q468 334 472 308T476 241Q476 201 472 175T460 122Q440 59 388 24T262 -11ZM262 89Q296 89 318 105T352 152Q358 171 360 190T362 241Q362 272 360 291T352 330Q341 360 319 376T262 393Q228 393 205 377T171 330Q165 310 163 291T161 241Q161 210 163 191T171 152Q182 122 205 106T262 89Z"  />
<glyph unicode="&#xF4;" horiz-adv-x="523" d="M340 555Q329 555 319 565L262 624H260L203 565Q193 555 182 555H119Q114 555 113 558T115 565L213 690Q220 700 231 700H291Q302 700 309 690L407 565Q410 561 409 558T403 555H340ZM262 -11Q188 -11 136 24T63 122Q55 148 51 174T47 241Q47 281 51 307T63 360Q83 423 135 458T262 493Q335 493 387 458T460 360Q468 334 472 308T476 241Q476 201 472 175T460 122Q440 59 388 24T262 -11ZM262 89Q296 89 318 105T352 152Q358 171 360 190T362 241Q362 272 360 291T352 330Q341 360 319 376T262 393Q228 393 205 377T171 330Q165 310 163 291T161 241Q161 210 163 191T171 152Q182 122 205 106T262 89Z"  />
<glyph unicode="&#xF5;" horiz-adv-x="523" d="M320 561Q300 561 285 566T253 581Q238 589 225 594T197 599Q175 599 160 590T130 568Q126 565 124 566T121 570V631Q121 641 129 650Q143 665 161 674T201 684Q221 684 236 679T268 664Q283 656 296 651T325 646Q346 646 361 655T391 677Q395 680 397 679T400 675V614Q400 604 392 595Q378 580 360 571T320 561ZM262 -11Q188 -11 136 24T63 122Q55 148 51 174T47 241Q47 281 51 307T63 360Q83 423 135 458T262 493Q335 493 387 458T460 360Q468 334 472 308T476 241Q476 201 472 175T460 122Q440 59 388 24T262 -11ZM262 89Q296 89 318 105T352 152Q358 171 360 190T362 241Q362 272 360 291T352 330Q341 360 319 376T262 393Q228 393 205 377T171 330Q165 310 163 291T161 241Q161 210 163 191T171 152Q182 122 205 106T262 89Z"  />
<glyph unicode="&#xF6;" horiz-adv-x="523" d="M320 573Q310 573 310 583V670Q310 680 320 680H397Q407 680 407 670V583Q407 573 397 573H320ZM124 573Q114 573 114 583V670Q114 680 124 680H201Q211 680 211 670V583Q211 573 201 573H124ZM262 -11Q188 -11 136 24T63 122Q55 148 51 174T47 241Q47 281 51 307T63 360Q83 423 135 458T262 493Q335 493 387 458T460 360Q468 334 472 308T476 241Q476 201 472 175T460 122Q440 59 388 24T262 -11ZM262 89Q296 89 318 105T352 152Q358 171 360 190T362 241Q362 272 360 291T352 330Q341 360 319 376T262 393Q228 393 205 377T171 330Q165 310 163 291T161 241Q161 210 163 191T171 152Q182 122 205 106T262 89Z"  />
<glyph unicode="&#xF7;" horiz-adv-x="549" d="M274 385Q246 385 227 404T208 452Q208 481 227 500T274 519Q303 519 322 500T341 452Q341 424 322 405T274 385ZM65 227Q55 227 55 237V315Q55 325 65 325H484Q494 325 494 315V237Q494 227 484 227H65ZM274 33Q246 33 227 52T208 100Q208 129 227 148T274 167Q303 167 322 148T341 100Q341 71 322 52T274 33Z"  />
<glyph unicode="&#xF8;" horiz-adv-x="523" d="M262 -11Q190 -11 140 21L111 -20Q104 -30 93 -30H54Q49 -30 48 -27T49 -20L101 54Q75 83 63 122Q55 148 51 174T47 241Q47 281 51 307T63 360Q83 423 135 458T262 493Q331 493 383 461L412 502Q419 512 431 512H469Q474 512 475 509T474 502L422 427Q435 413 444 396T460 360Q468 334 472 308T476 241Q476 201 472 175T460 122Q440 59 388 24T262 -11ZM159 241Q159 210 161 190T169 151L322 376Q298 394 262 394Q228 394 204 378T169 331Q163 311 161 292T159 241ZM262 88Q296 88 319 104T354 151Q360 170 362 190T364 241Q364 272 362 291T354 331L201 106Q225 88 262 88Z"  />
<glyph unicode="&#xF9;" horiz-adv-x="544" d="M369 0Q359 0 359 10V45H358Q338 20 309 5T233 -11Q194 -11 164 2T112 40T79 96T67 168V472Q67 482 77 482H169Q179 482 179 472V194Q179 147 201 118T269 89Q312 89 335 118T359 193V472Q359 482 369 482H461Q471 482 471 472V10Q471 0 461 0H369ZM251 555Q240 555 231 565L136 690Q133 694 134 697T141 700H232Q244 700 250 690L324 565Q329 555 318 555H251Z"  />
<glyph unicode="&#xFA;" horiz-adv-x="544" d="M228 555Q217 555 222 565L297 690Q303 700 315 700H406Q411 700 412 697T411 690L316 565Q307 555 296 555H228ZM369 0Q359 0 359 10V45H358Q338 20 309 5T233 -11Q194 -11 164 2T112 40T79 96T67 168V472Q67 482 77 482H169Q179 482 179 472V194Q179 147 201 118T269 89Q312 89 335 118T359 193V472Q359 482 369 482H461Q471 482 471 472V10Q471 0 461 0H369Z"  />
<glyph unicode="&#xFB;" horiz-adv-x="544" d="M350 555Q339 555 329 565L272 624H270L213 565Q203 555 192 555H129Q124 555 123 558T125 565L223 690Q230 700 241 700H301Q312 700 319 690L417 565Q420 561 419 558T413 555H350ZM369 0Q359 0 359 10V45H358Q338 20 309 5T233 -11Q194 -11 164 2T112 40T79 96T67 168V472Q67 482 77 482H169Q179 482 179 472V194Q179 147 201 118T269 89Q312 89 335 118T359 193V472Q359 482 369 482H461Q471 482 471 472V10Q471 0 461 0H369Z"  />
<glyph unicode="&#xFC;" horiz-adv-x="544" d="M330 573Q320 573 320 583V670Q320 680 330 680H407Q417 680 417 670V583Q417 573 407 573H330ZM134 573Q124 573 124 583V670Q124 680 134 680H211Q221 680 221 670V583Q221 573 211 573H134ZM369 0Q359 0 359 10V45H358Q338 20 309 5T233 -11Q194 -11 164 2T112 40T79 96T67 168V472Q67 482 77 482H169Q179 482 179 472V194Q179 147 201 118T269 89Q312 89 335 118T359 193V472Q359 482 369 482H461Q471 482 471 472V10Q471 0 461 0H369Z"  />
<glyph unicode="&#xFD;" horiz-adv-x="485" d="M90 -180Q80 -180 80 -170V-90Q80 -80 90 -80H108Q137 -80 153 -67T180 -23L194 18L18 472Q15 482 26 482H125Q134 482 137 472L246 157H248L352 472Q355 482 364 482H459Q470 482 467 472L283 -30Q267 -73 251 -101T216 -147T174 -172T121 -180H90ZM203 555Q192 555 197 565L272 690Q278 700 290 700H381Q386 700 387 697T386 690L291 565Q282 555 271 555H203Z"  />
<glyph unicode="&#xFE;" horiz-adv-x="545" d="M83 -180Q73 -180 73 -170V670Q73 680 83 680H175Q185 680 185 670V436H186Q203 461 234 477T314 493Q376 493 419 464T481 377Q490 349 494 320T498 241Q498 192 494 163T481 105Q462 47 419 18T314 -11Q265 -11 234 5T186 46H185V-170Q185 -180 175 -180H83ZM285 89Q354 89 374 151Q379 168 381 188T384 241Q384 274 382 294T374 331Q354 393 285 393Q215 393 195 331Q190 314 188 294T185 241Q185 208 187 188T195 151Q215 89 285 89Z"  />
<glyph unicode="&#xFF;" horiz-adv-x="485" d="M90 -180Q80 -180 80 -170V-90Q80 -80 90 -80H108Q137 -80 153 -67T180 -23L194 18L18 472Q15 482 26 482H125Q134 482 137 472L246 157H248L352 472Q355 482 364 482H459Q470 482 467 472L283 -30Q267 -73 251 -101T216 -147T174 -172T121 -180H90ZM305 573Q295 573 295 583V670Q295 680 305 680H382Q392 680 392 670V583Q392 573 382 573H305ZM109 573Q99 573 99 583V670Q99 680 109 680H186Q196 680 196 670V583Q196 573 186 573H109Z"  />
<glyph unicode="&#x110;" horiz-adv-x="625" d="M85 0Q75 0 75 10V292Q75 298 69 298H43Q33 298 33 308V378Q33 388 43 388H69Q75 388 75 394V670Q75 680 85 680H328Q506 680 555 529Q559 516 562 502T567 466T571 415T572 340Q572 296 571 266T568 214T562 179T555 151Q506 0 328 0H85ZM300 106Q357 106 391 126T441 192Q444 199 446 209T449 236T452 278T453 340Q453 377 452 402T450 444T446 471T441 488Q426 534 392 554T300 574H199Q193 574 193 568V394Q193 388 199 388H296Q306 388 306 378V308Q306 298 296 298H199Q193 298 193 292V112Q193 106 199 106H300Z"  />
<glyph unicode="&#x131;" horiz-adv-x="258" d="M83 0Q73 0 73 10V472Q73 482 83 482H175Q185 482 185 472V10Q185 0 175 0H83Z"  />
<glyph unicode="&#x152;" horiz-adv-x="947" d="M462 0Q452 0 452 10V37H451Q401 -11 313 -11Q225 -11 162 30T73 153Q68 169 65 185T59 222T56 271T55 340Q55 380 56 408T59 458T64 495T73 527Q99 608 162 649T313 691Q401 691 451 643H452V670Q452 680 462 680H888Q898 680 898 670V584Q898 574 888 574H576Q570 574 570 568V402Q570 396 576 396H839Q849 396 849 386V300Q849 290 839 290H576Q570 290 570 284V112Q570 106 576 106H888Q898 106 898 96V10Q898 0 888 0H462ZM313 95Q364 95 395 118T440 184Q443 193 445 205T448 235T451 278T452 340Q452 376 451 401T449 445T445 475T440 496Q426 538 395 561T313 585Q262 585 232 562T187 496Q184 487 182 475T178 445T176 402T175 340Q175 304 175 279T177 235T181 205T187 184Q201 142 231 119T313 95Z"  />
<glyph unicode="&#x153;" horiz-adv-x="835" d="M580 -11Q475 -11 421 55H419Q388 19 349 4T262 -11Q188 -11 136 24T63 122Q55 148 51 174T47 241Q47 281 51 307T63 360Q83 423 135 458T262 493Q308 493 348 479T418 430H420Q447 463 488 478T575 493Q650 493 701 458T772 360Q776 347 779 334T784 304T787 266T788 215Q788 205 777 205H480Q474 205 474 199Q474 188 476 179T481 162Q506 89 589 89Q630 89 657 102T702 135Q710 143 717 137L776 85Q783 79 777 71Q746 35 697 12T580 -11ZM675 295Q675 318 669 336Q659 365 634 381T575 398Q540 398 515 382T480 336Q474 318 474 295Q474 289 480 289H669Q675 289 675 295ZM262 89Q296 89 318 105T352 152Q358 171 360 190T362 241Q362 272 360 291T352 330Q341 360 319 376T262 393Q228 393 205 377T171 330Q165 310 163 291T161 241Q161 210 163 191T171 152Q182 122 205 106T262 89Z"  />
<glyph unicode="&#x160;" horiz-adv-x="587" d="M289 -11Q251 -11 215 -4T147 15T87 43T39 79Q31 87 37 94L99 166Q106 174 113 167Q129 154 149 141T193 118T243 102T298 95Q359 95 392 122T426 193Q426 230 399 253T302 287L266 292Q167 306 114 353T61 486Q61 532 77 570T123 635T195 676T291 691Q355 691 412 673T511 623Q518 617 513 609L465 535Q459 527 451 532Q409 559 370 572T288 585Q236 585 209 560T181 494Q181 459 209 436T306 402L342 397Q441 383 493 336T545 200Q545 155 529 116T481 49T400 5T289 -11ZM266 751Q255 751 248 761L150 886Q147 890 148 893T154 896H217Q224 896 228 894T238 886L295 827H297L354 886Q360 892 364 894T375 896H438Q443 896 444 893T442 886L344 761Q337 751 326 751H266Z"  />
<glyph unicode="&#x161;" horiz-adv-x="498" d="M220 553Q209 553 202 563L104 688Q101 692 102 695T108 698H171Q178 698 182 696T192 688L249 629H251L308 688Q314 694 318 696T329 698H392Q397 698 398 695T396 688L298 563Q291 553 280 553H220ZM251 -11Q177 -11 126 13T44 65Q37 72 44 79L101 139Q108 146 115 139Q141 115 179 100T256 84Q301 84 323 100T345 141Q345 163 329 176T265 194L213 199Q139 207 102 243T65 341Q65 411 113 452T252 493Q309 493 355 477T433 434Q441 428 435 420L386 361Q380 354 372 359Q349 375 316 387T246 399Q210 399 192 385T173 349Q173 328 189 316T252 298L304 293Q380 285 416 249T453 152Q453 80 402 35T251 -11Z"  />
<glyph unicode="&#x178;" horiz-adv-x="536" d="M219 0Q209 0 209 10V278L12 670Q8 680 20 680H121Q131 680 135 670L268 406H271L405 670Q409 680 419 680H516Q528 680 524 670L327 278V10Q327 0 317 0H219ZM331 769Q321 769 321 779V866Q321 876 331 876H404Q414 876 414 866V779Q414 769 404 769H331ZM131 769Q121 769 121 779V866Q121 876 131 876H204Q214 876 214 866V779Q214 769 204 769H131Z"  />
<glyph unicode="&#x17D;" horiz-adv-x="532" d="M236 751Q225 751 218 761L120 886Q117 890 118 893T124 896H187Q194 896 198 894T208 886L265 827H267L324 886Q330 892 334 894T345 896H408Q413 896 414 893T412 886L314 761Q307 751 296 751H236ZM55 0Q45 0 45 10V96Q45 101 48 107L355 572V574H66Q56 574 56 584V670Q56 680 66 680H478Q488 680 488 670V584Q488 578 485 574L178 108V106H478Q488 106 488 96V10Q488 0 478 0H55Z"  />
<glyph unicode="&#x17E;" horiz-adv-x="485" d="M215 553Q204 553 197 563L99 688Q96 692 97 695T103 698H166Q173 698 177 696T187 688L244 629H246L303 688Q309 694 313 696T324 698H387Q392 698 393 695T391 688L293 563Q286 553 275 553H215ZM62 0Q52 0 52 10V83Q52 88 55 93L301 382V384H75Q65 384 65 394V472Q65 482 75 482H423Q433 482 433 472V394Q433 388 430 384L187 100V98H423Q433 98 433 88V10Q433 0 423 0H62Z"  />
<glyph unicode="&#x192;" horiz-adv-x="549" d="M339 324L287 -18Q280 -62 268 -92T235 -142T185 -171T116 -180H88Q78 -180 78 -170V-93Q78 -83 88 -83H105Q140 -83 156 -71T179 -20L231 324H166Q156 324 156 334V399Q156 409 166 409H244L262 522Q275 603 313 641T431 680H461Q471 680 471 670V593Q471 583 461 583H441Q409 583 392 569T370 522L352 409H439Q449 409 449 399V334Q449 324 439 324H339Z"  />
<glyph unicode="&#x2C6;" horiz-adv-x="422" d="M290 555Q279 555 269 565L212 624H210L153 565Q143 555 132 555H69Q64 555 63 558T65 565L163 690Q170 700 181 700H241Q252 700 259 690L357 565Q360 561 359 558T353 555H290Z"  />
<glyph unicode="&#x2C7;" horiz-adv-x="422" d="M181 553Q170 553 163 563L65 688Q62 692 63 695T69 698H132Q139 698 143 696T153 688L210 629H212L269 688Q275 694 279 696T290 698H353Q358 698 359 695T357 688L259 563Q252 553 241 553H181Z"  />
<glyph unicode="&#x2DA;" horiz-adv-x="422" d="M211 529Q168 529 140 557T112 629Q112 672 140 700T211 729Q254 729 282 701T310 629Q310 586 282 558T211 529ZM211 578Q232 578 246 592T260 629Q260 651 246 665T211 680Q190 680 176 666T162 629Q162 607 176 593T211 578Z"  />
<glyph unicode="&#x2DC;" horiz-adv-x="422" d="M268 561Q248 561 233 566T201 581Q186 589 173 594T145 599Q123 599 108 590T78 568Q74 565 72 566T69 570V631Q69 641 77 650Q91 665 109 674T149 684Q169 684 184 679T216 664Q231 656 244 651T273 646Q294 646 309 655T339 677Q343 680 345 679T348 675V614Q348 604 340 595Q326 580 308 571T268 561Z"  />
<glyph unicode="&#x3BC;" horiz-adv-x="550" d="M375 0Q365 0 365 10V49H364Q351 25 324 7T256 -11Q229 -11 213 -4T187 13H185V-170Q185 -180 175 -180H83Q73 -180 73 -170V472Q73 482 83 482H175Q185 482 185 472V193Q185 145 207 117T275 89Q319 89 342 117T365 193V472Q365 482 375 482H467Q477 482 477 472V10Q477 0 467 0H375Z"  />
<glyph unicode="&#x2013;" horiz-adv-x="519" d="M30 219Q20 219 20 229V302Q20 312 30 312H489Q499 312 499 302V229Q499 219 489 219H30Z"  />
<glyph unicode="&#x2014;" horiz-adv-x="867" d="M30 219Q20 219 20 229V302Q20 312 30 312H837Q847 312 847 302V229Q847 219 837 219H30Z"  />
<glyph unicode="&#x2018;" horiz-adv-x="223" d="M71 488Q61 488 61 498V592Q61 605 69 613L138 675Q144 682 152 682Q162 682 162 672V498Q162 488 152 488H71Z"  />
<glyph unicode="&#x2019;" horiz-adv-x="223" d="M71 486Q61 486 61 496V670Q61 680 71 680H152Q162 680 162 670V576Q162 563 154 555L86 493Q79 486 71 486Z"  />
<glyph unicode="&#x201A;" horiz-adv-x="223" d="M71 -90Q61 -90 61 -80V94Q61 104 71 104H152Q162 104 162 94V0Q162 -13 154 -21L86 -83Q79 -90 71 -90Z"  />
<glyph unicode="&#x201C;" horiz-adv-x="396" d="M244 488Q234 488 234 498V592Q234 605 242 613L310 675Q317 682 325 682Q335 682 335 672V498Q335 488 325 488H244ZM71 488Q61 488 61 498V592Q61 605 69 613L138 675Q144 682 152 682Q162 682 162 672V498Q162 488 152 488H71Z"  />
<glyph unicode="&#x201D;" horiz-adv-x="396" d="M244 486Q234 486 234 496V670Q234 680 244 680H325Q335 680 335 670V576Q335 563 327 555L258 493Q252 486 244 486ZM71 486Q61 486 61 496V670Q61 680 71 680H152Q162 680 162 670V576Q162 563 154 555L86 493Q79 486 71 486Z"  />
<glyph unicode="&#x201E;" horiz-adv-x="396" d="M244 -90Q234 -90 234 -80V94Q234 104 244 104H325Q335 104 335 94V0Q335 -13 327 -21L258 -83Q252 -90 244 -90ZM71 -90Q61 -90 61 -80V94Q61 104 71 104H152Q162 104 162 94V0Q162 -13 154 -21L86 -83Q79 -90 71 -90Z"  />
<glyph unicode="&#x2020;" horiz-adv-x="535" d="M224 -180Q214 -180 214 -170V350Q214 356 208 356H64Q54 356 54 366V441Q54 451 64 451H208Q214 451 214 457V670Q214 680 224 680H311Q321 680 321 670V457Q321 451 327 451H471Q481 451 481 441V366Q481 356 471 356H327Q321 356 321 350V-170Q321 -180 311 -180H224Z"  />
<glyph unicode="&#x2021;" horiz-adv-x="535" d="M224 -180Q214 -180 214 -170V13Q214 19 208 19H64Q54 19 54 29V104Q54 114 64 114H208Q214 114 214 120V380Q214 386 208 386H64Q54 386 54 396V471Q54 481 64 481H208Q214 481 214 487V670Q214 680 224 680H311Q321 680 321 670V487Q321 481 327 481H471Q481 481 481 471V396Q481 386 471 386H327Q321 386 321 380V120Q321 114 327 114H471Q481 114 481 104V29Q481 19 471 19H327Q321 19 321 13V-170Q321 -180 311 -180H224Z"  />
<glyph unicode="&#x2022;" horiz-adv-x="458" d="M229 169Q199 169 174 179T130 207T101 251T90 308Q90 339 100 364T129 408T173 437T229 447Q259 447 284 437T328 409T357 365T368 308Q368 277 358 252T329 208T285 179T229 169Z"  />
<glyph unicode="&#x2026;" horiz-adv-x="759" d="M582 0Q572 0 572 10V112Q572 122 582 122H682Q692 122 692 112V10Q692 0 682 0H582ZM329 0Q319 0 319 10V112Q319 122 329 122H429Q439 122 439 112V10Q439 0 429 0H329ZM76 0Q66 0 66 10V112Q66 122 76 122H176Q186 122 186 112V10Q186 0 176 0H76Z"  />
<glyph unicode="&#x2030;" horiz-adv-x="1089" d="M156 -11Q151 -11 150 -8T151 -1L546 681Q552 691 562 691H627Q632 691 633 688T632 681L237 -1Q231 -11 222 -11H156ZM192 330Q147 330 115 352T70 410Q67 418 66 424T64 441T63 467T62 509Q62 535 62 550T63 576T65 593T70 608Q82 644 114 666T192 688Q237 688 269 666T314 608Q317 600 318 594T320 577T321 551T322 509Q322 483 322 468T321 442T319 425T314 410Q302 374 270 352T192 330ZM192 402Q207 402 218 409T235 431Q236 434 237 438T238 450T239 472T239 509Q239 532 239 546T239 568T237 581T235 588Q230 602 219 609T192 616Q159 616 148 588Q147 585 146 581T145 569T144 546T144 509Q144 486 144 472T144 450T146 438T148 431Q159 402 192 402ZM897 -9Q852 -9 820 13T775 71Q772 79 771 85T769 102T768 128T767 170Q767 196 767 211T768 237T770 254T775 269Q787 305 819 327T897 349Q942 349 975 327T1019 269Q1022 261 1023 255T1025 238T1026 212T1027 170Q1027 144 1027 129T1026 103T1024 86T1019 71Q1008 35 975 13T897 -9ZM590 -9Q545 -9 512 13T467 71Q465 79 464 85T461 102T460 128T459 170Q459 196 459 211T461 237T463 254T467 269Q479 305 512 327T590 349Q635 349 667 327T712 269Q715 261 716 255T718 238T719 212T720 170Q720 144 720 129T719 103T717 86T712 71Q700 35 668 13T590 -9ZM897 63Q930 63 941 92Q942 95 943 99T944 111T945 133T945 170Q945 193 945 207T945 229T943 242T941 249Q930 277 897 277Q882 277 871 270T854 249Q853 246 852 242T851 230T850 207T850 170Q850 147 850 133T850 111T852 99T854 92Q859 78 870 71T897 63ZM590 63Q605 63 616 70T633 92Q634 95 635 99T636 111T637 133T637 170Q637 193 637 207T637 229T635 242T633 249Q628 263 617 270T590 277Q557 277 546 249Q545 246 544 242T543 230T542 207T542 170Q542 147 542 133T542 111T544 99T546 92Q557 63 590 63Z"  />
<glyph unicode="&#x2039;" horiz-adv-x="315" d="M35 257Q28 264 35 271L239 476Q242 479 245 478T249 472V376Q249 369 247 365T239 355L152 268Q148 264 152 260L239 173Q249 163 249 152V56Q249 51 246 50T239 52L35 257Z"  />
<glyph unicode="&#x203A;" horiz-adv-x="315" d="M76 52Q73 49 70 50T66 56V152Q66 163 75 173L163 260Q167 264 163 268L75 355Q66 365 66 376V472Q66 477 69 478T76 476L280 271Q287 264 280 257L76 52Z"  />
<glyph unicode="&#x2044;" horiz-adv-x="159" d="M-156 -11Q-161 -11 -162 -8T-161 -1L234 681Q240 691 250 691H315Q320 691 321 688T321 681L-74 -1Q-80 -11 -90 -11H-156Z"  />
<glyph unicode="&#x20AC;" horiz-adv-x="549" d="M93 232Q93 238 87 238H50Q40 238 40 248V306Q40 316 50 316H87Q93 316 93 322V363Q93 369 87 369H50Q40 369 40 379V437Q40 447 50 447H87Q93 447 93 453Q93 482 96 504T106 547Q129 618 181 654T310 691Q383 691 431 658T504 571Q508 563 499 558L426 523Q417 519 412 527Q394 558 371 574T310 591Q238 591 215 521Q206 497 206 453Q206 447 212 447H394Q404 447 404 437L394 379Q393 369 384 369H212Q206 369 206 363V322Q206 316 212 316H374Q384 316 384 306L374 248Q373 238 364 238H212Q206 238 206 232Q206 206 208 189T215 159Q238 89 310 89Q348 89 371 105T412 153Q417 161 426 157L499 122Q508 117 504 109Q479 56 431 23T310 -11Q233 -11 181 25T106 133Q100 153 97 176T93 232Z"  />
<glyph unicode="&#x2122;" horiz-adv-x="848" d="M726 286Q716 286 716 296V500H714L646 353Q641 343 633 343H587Q580 343 575 353L506 500H504V296Q504 286 494 286H436Q426 286 426 296V670Q426 680 436 680H489Q498 680 503 670L610 438H613L717 670Q722 680 731 680H784Q794 680 794 670V296Q794 286 784 286H726ZM168 286Q158 286 158 296V601Q158 607 152 607H52Q42 607 42 617V670Q42 680 52 680H347Q357 680 357 670V617Q357 607 347 607H247Q241 607 241 601V296Q241 286 231 286H168Z"  />

</font>
</defs>
</svg>
