<?xml version="1.0" standalone="no"?>
<!DOCTYPE svg PUBLIC "-//W3C//DTD SVG 1.1//EN" "http://www.w3.org/Graphics/SVG/1.1/DTD/svg11.dtd" >
<svg xmlns="http://www.w3.org/2000/svg">
<metadata></metadata>
<defs>
<font id="matterhornsemibold" horiz-adv-x="1124" >
<font-face units-per-em="2048" ascent="1536" descent="-512" />
<missing-glyph horiz-adv-x="552" />
<glyph horiz-adv-x="0" />
<glyph horiz-adv-x="682" />
<glyph unicode="&#xd;" horiz-adv-x="552" />
<glyph unicode=" "  horiz-adv-x="552" />
<glyph unicode="&#x09;" horiz-adv-x="552" />
<glyph unicode="&#xa0;" horiz-adv-x="552" />
<glyph unicode="!" horiz-adv-x="571" d="M113 145q0 75 49.5 123.5t124.5 48.5q74 0 123 -48.5t49 -123.5t-49 -124.5t-123 -49.5q-75 0 -124.5 49.5t-49.5 124.5zM147 1434h277l-25 -936h-227z" />
<glyph unicode="&#x22;" horiz-adv-x="890" d="M113 1462h254l-33 -588h-213zM545 1462h254l-33 -588h-213z" />
<glyph unicode="#" horiz-adv-x="1396" d="M113 375v180h225l43 324h-203v180h228l49 375h200l-49 -375h273l49 375h200l-49 -375h205v-180h-227l-43 -324h205v-180h-228l-49 -375h-203l49 375h-270l-49 -375h-203l49 375h-202zM541 555h270l43 324h-270z" />
<glyph unicode="$" horiz-adv-x="1099" d="M113 66v256q68 -54 162 -88.5t194 -34.5q118 0 187 52.5t69 137.5q0 53 -33.5 96.5t-86.5 75.5t-117.5 63.5t-129 70t-117.5 85t-86.5 118.5t-33.5 161q0 158 94 259.5t256 131.5v186h207v-178q160 -17 258 -78v-254q-60 45 -145.5 78t-176.5 33q-103 0 -162 -45.5 t-59 -118.5q0 -50 33.5 -92t86.5 -74t117.5 -64t129 -71.5t117.5 -87t86.5 -120.5t33.5 -163q0 -154 -90 -261t-241 -146v-236h-207v213q-104 4 -197.5 32.5t-148.5 62.5z" />
<glyph unicode="%" horiz-adv-x="1974" d="M113 1026q0 182 101 295t261 113t261.5 -113t101.5 -295t-101.5 -295t-261.5 -113t-261 113t-101 295zM311 1026q0 -108 45 -171.5t119 -63.5t118 63.5t44 171.5q0 107 -44 171.5t-118 64.5t-119 -64.5t-45 -171.5zM537 -29l704 1491h197l-705 -1491h-196zM1137 408 q0 182 101 294.5t261 112.5q161 0 262 -112.5t101 -294.5q0 -183 -101 -295.5t-262 -112.5t-261.5 112.5t-100.5 295.5zM1337 408q0 -108 44 -172t118 -64t119 64t45 172q0 107 -45 171t-119 64t-118 -64t-44 -171z" />
<glyph unicode="&#x26;" horiz-adv-x="1390" d="M113 346q0 76 24.5 142.5t71.5 121.5t97 96t118 85q-141 181 -141 337q0 65 25 124.5t71.5 106.5t121 75t165.5 28q159 0 258.5 -79.5t99.5 -221.5q0 -68 -24 -127t-72 -108.5t-94.5 -85t-116.5 -78.5l248 -279q39 89 61 213h203q-30 -205 -119 -372l289 -324h-297 l-127 145q-169 -174 -426 -174q-199 0 -317.5 103t-118.5 272zM360 381q0 -93 64.5 -147t165.5 -54q145 0 256 117l-303 352q-88 -64 -135.5 -126.5t-47.5 -141.5zM508 1122q0 -104 88 -221q102 67 154.5 124.5t52.5 127.5q0 61 -41 100t-103 39q-66 0 -108.5 -46 t-42.5 -124z" />
<glyph unicode="'" horiz-adv-x="458" d="M113 1462h254l-33 -588h-213z" />
<glyph unicode="(" horiz-adv-x="841" d="M154 659q0 539 350 959h266q-70 -76 -131 -170.5t-114 -214t-84 -268.5t-31 -306t31 -305t84 -267.5t114 -213.5t131 -170h-264q-158 185 -255 425.5t-97 530.5z" />
<glyph unicode=")" horiz-adv-x="841" d="M72 -297q70 76 131 170t114 213.5t84 267.5t31 305t-31 306t-84 268.5t-114 214t-131 170.5h266q350 -420 350 -959q0 -290 -97 -530.5t-255 -425.5h-264z" />
<glyph unicode="*" horiz-adv-x="1126" d="M113 1090l61 200l303 -119l-20 324h209l-21 -324l305 119l64 -200l-316 -80l209 -250l-172 -125l-172 274l-172 -274l-172 125l207 250z" />
<glyph unicode="+" horiz-adv-x="1316" d="M113 483v217h436v467h217v-467h438v-217h-438v-469h-217v469h-436z" />
<glyph unicode="," horiz-adv-x="512" d="M80 145q0 76 49 124t125 48q78 0 128 -55.5t50 -155.5q0 -117 -68.5 -239t-197.5 -221l-80 88q65 55 107.5 119t48.5 118q-70 5 -116 54t-46 120z" />
<glyph unicode="-" horiz-adv-x="763" d="M113 508v211h538v-211h-538z" />
<glyph unicode="." horiz-adv-x="505" d="M80 145q0 75 49.5 123.5t124.5 48.5q74 0 123 -48.5t49 -123.5t-49 -124.5t-123 -49.5q-75 0 -124.5 49.5t-49.5 124.5z" />
<glyph unicode="/" horiz-adv-x="776" d="M31 -152l485 1737h229l-485 -1737h-229z" />
<glyph unicode="0" horiz-adv-x="1337" d="M123 717q0 336 148 540.5t397 204.5t397.5 -204.5t148.5 -540.5t-148.5 -541t-397.5 -205q-165 0 -289 93.5t-190 262t-66 390.5zM391 717q0 -240 75 -384.5t202 -144.5t201.5 144.5t74.5 384.5t-74.5 384t-201.5 144t-202 -144t-75 -384z" />
<glyph unicode="1" horiz-adv-x="757" d="M41 1225v209h512v-1434h-254v1225h-258z" />
<glyph unicode="2" horiz-adv-x="1132" d="M61 0v96l396 475q132 156 190 260t58 199q0 99 -66.5 157t-181.5 58q-171 0 -355 -145v248q168 114 387 114q215 0 346.5 -117.5t131.5 -306.5q0 -117 -62 -234.5t-198 -277.5l-269 -315h572v-211h-949z" />
<glyph unicode="3" horiz-adv-x="1120" d="M102 41v225q66 -35 153 -57.5t169 -22.5q143 0 228 72t85 182q0 116 -93 189t-273 73l-62 -4v117l303 410h-506v209h859v-99l-351 -469q168 -30 275.5 -144.5t107.5 -281.5q0 -202 -144.5 -335.5t-401.5 -133.5q-94 0 -189.5 20.5t-159.5 49.5z" />
<glyph unicode="4" horiz-adv-x="1212" d="M20 285v127l791 1036h123v-961h196v-202h-196v-285h-250v285h-664zM299 487h385v504z" />
<glyph unicode="5" horiz-adv-x="1163" d="M123 43v223q168 -84 332 -84q143 0 232 69.5t89 190.5q0 118 -90 188t-231 70q-127 0 -287 -57l47 791h768v-209h-553q-16 -219 -22 -334q90 10 110 10q225 0 370.5 -126.5t145.5 -332.5q0 -202 -150 -336.5t-407 -134.5q-194 0 -354 72z" />
<glyph unicode="6" horiz-adv-x="1210" d="M82 449q0 161 111 321l462 664h306l-375 -510q24 4 53 4q203 0 341 -136t138 -343q0 -212 -145 -345t-373 -133t-373 133t-145 345zM342 451q0 -120 74 -196.5t184 -76.5t183 76.5t73 196.5t-73 196t-183 76t-184 -76t-74 -196z" />
<glyph unicode="7" horiz-adv-x="1060" d="M45 1225v209h975v-99l-614 -1335h-273l567 1225h-655z" />
<glyph unicode="8" horiz-adv-x="1253" d="M113 375q0 66 21 123t52.5 95.5t75 71t80 51t76.5 32.5q-56 27 -97.5 55.5t-78 68.5t-55.5 93t-19 118q0 121 68 209t172.5 129t230.5 41q197 0 326 -98.5t129 -257.5q0 -56 -18 -107t-44.5 -87.5t-63 -68t-67.5 -51t-65 -34.5q50 -23 88.5 -45.5t81 -57t70.5 -72.5 t46.5 -91.5t18.5 -114.5q0 -182 -146 -294t-372 -112t-368 113t-142 291zM373 379q0 -93 70.5 -154t183.5 -61q110 0 182 59.5t72 151.5q0 45 -16.5 82.5t-40 64t-63.5 52t-73.5 42t-83.5 39.5q-5 2 -8.5 3.5t-7.5 3.5q-33 -15 -62 -33.5t-67.5 -53t-62 -85.5t-23.5 -111z M428 1094q0 -46 18 -84t55 -68t73.5 -51t93.5 -47q172 96 172 248q0 77 -55.5 127.5t-143.5 50.5q-89 0 -151 -49t-62 -127z" />
<glyph unicode="9" horiz-adv-x="1210" d="M92 985q0 210 145 343.5t373 133.5t373 -133.5t145 -345.5q0 -162 -112 -319l-463 -664h-305l375 508q-23 -2 -54 -2q-202 0 -339.5 136t-137.5 343zM352 983q0 -120 74 -196t184 -76t183 76t73 196t-73 195t-183 75t-184 -75t-74 -195z" />
<glyph unicode=":" horiz-adv-x="571" d="M113 145q0 75 49.5 123.5t124.5 48.5q74 0 123 -48.5t49 -123.5t-49 -124.5t-123 -49.5q-75 0 -124.5 49.5t-49.5 124.5zM113 854q0 75 49.5 124.5t124.5 49.5q74 0 123 -49.5t49 -124.5t-49 -124.5t-123 -49.5q-75 0 -124.5 49.5t-49.5 124.5z" />
<glyph unicode=";" horiz-adv-x="577" d="M113 145q0 76 49 124t125 48q78 0 128 -55.5t50 -155.5q0 -117 -68.5 -239t-197.5 -221l-80 88q64 55 106.5 119t48.5 118q-69 5 -115 53.5t-46 120.5zM113 854q0 75 49.5 124.5t124.5 49.5q74 0 123 -49.5t49 -124.5t-49 -124.5t-123 -49.5q-75 0 -124.5 49.5 t-49.5 124.5z" />
<glyph unicode="&#x3c;" horiz-adv-x="1265" d="M72 481v219l1040 482v-246l-782 -346l782 -344v-246z" />
<glyph unicode="=" horiz-adv-x="1521" d="M195 238v217h1132v-217h-1132zM195 727v217h1132v-217h-1132z" />
<glyph unicode="&#x3e;" horiz-adv-x="1265" d="M154 0v246l780 344l-780 346v246l1040 -482v-219z" />
<glyph unicode="?" horiz-adv-x="878" d="M96 1182v217q146 63 289 63q186 0 300 -90.5t114 -243.5q0 -61 -19 -113t-50 -90.5t-68 -73.5t-74 -69t-68 -69t-50 -81.5t-19 -99.5q0 -22 2 -34h-209q-6 43 -6 77q0 65 21.5 124t54 100.5t70.5 83t70.5 74t54 72.5t21.5 79q0 66 -48 102.5t-136 36.5q-123 0 -250 -65z M174 145q0 75 49.5 123.5t124.5 48.5q74 0 123 -48.5t49 -123.5t-49 -124.5t-123 -49.5q-75 0 -124.5 49.5t-49.5 124.5z" />
<glyph unicode="@" horiz-adv-x="1875" d="M113 537q0 193 65 363.5t179.5 294.5t281 195.5t360.5 71.5q217 0 391 -91t273.5 -257.5t99.5 -376.5q0 -250 -121 -402.5t-305 -152.5q-48 0 -90 12.5t-67 31t-43 36.5t-25 30l-8 13q-35 -27 -60 -43.5t-81 -35.5t-117 -19q-149 0 -229 96t-80 264q0 204 107 344 t267 140q114 0 199 -88l8 79h191l-54 -567q-6 -59 21.5 -92t77.5 -33q91 0 150 100.5t59 280.5q0 253 -157 406t-411 153q-200 0 -356.5 -98t-241 -267t-84.5 -378q0 -183 76.5 -315t208.5 -197.5t307 -65.5q214 0 373 101l90 -150q-214 -127 -479 -127q-169 0 -311.5 51 t-245.5 145.5t-161 235t-58 312.5zM748 596q0 -55 12.5 -98t48 -74t90.5 -31q82 0 160 56l37 360q-20 20 -59 38.5t-87 18.5q-67 0 -114.5 -41t-67.5 -100.5t-20 -128.5z" />
<glyph unicode="A" horiz-adv-x="1355" d="M2 0l586 1442h180l586 -1442h-277l-104 270h-592l-105 -270h-274zM455 469h442l-219 578z" />
<glyph unicode="B" horiz-adv-x="1327" d="M188 0v1434h480q236 0 362.5 -98t126.5 -257q0 -108 -60 -191t-177 -114v-4q144 -29 229.5 -130t85.5 -232q0 -183 -146 -295.5t-407 -112.5h-494zM449 209h221q148 0 221.5 62t73.5 165t-74.5 166.5t-220.5 63.5h-221v-457zM449 870h208q117 0 172.5 51.5t55.5 125.5 q0 78 -55 128t-173 50h-208v-355z" />
<glyph unicode="C" horiz-adv-x="1316" d="M102 717q0 216 90.5 386t251.5 264.5t365 94.5q219 0 395 -94v-266q-172 133 -373 133q-209 0 -331.5 -141.5t-122.5 -376.5q0 -236 122 -377t332 -141q203 0 373 131v-264q-73 -41 -176.5 -68t-218.5 -27q-204 0 -365 94t-251.5 264.5t-90.5 387.5z" />
<glyph unicode="D" horiz-adv-x="1466" d="M188 0v1434h357q207 0 365.5 -52.5t256.5 -149t147.5 -226t49.5 -289.5t-49.5 -289.5t-147.5 -226t-256.5 -149t-365.5 -52.5h-357zM449 215h96q273 0 409 129.5t136 372.5t-136 372.5t-409 129.5h-96v-1004z" />
<glyph unicode="E" horiz-adv-x="1181" d="M188 0v1434h861v-215h-600v-359h518v-215h-518v-430h600v-215h-861z" />
<glyph unicode="F" horiz-adv-x="1110" d="M188 0v1434h830v-215h-569v-398h507v-215h-507v-606h-261z" />
<glyph unicode="G" horiz-adv-x="1456" d="M102 717q0 216 93 386t258.5 264.5t375.5 94.5q241 0 437 -94v-256q-187 123 -414 123q-219 0 -347 -141.5t-128 -376.5q0 -236 128.5 -377t348.5 -141q102 0 188 24v297h-221v201h482v-655q-202 -95 -469 -95q-158 0 -294 55t-232 152.5t-151 236.5t-55 302z" />
<glyph unicode="H" horiz-adv-x="1538" d="M188 0v1434h261v-570h638v570h261v-1434h-261v649h-638v-649h-261z" />
<glyph unicode="I" horiz-adv-x="638" d="M188 0v1434h261v-1434h-261z" />
<glyph unicode="J" horiz-adv-x="888" d="M10 12v236q102 -51 228 -51q105 0 159 60.5t54 156.5v1020h260v-1018q0 -217 -121.5 -331t-317.5 -114q-68 0 -146 12.5t-116 28.5z" />
<glyph unicode="K" horiz-adv-x="1343" d="M188 0v1434h261v-686l538 686h330l-524 -641l559 -793h-322l-397 596l-184 -164v-432h-261z" />
<glyph unicode="L" horiz-adv-x="1058" d="M188 0v1434h261v-1219h600v-215h-861z" />
<glyph unicode="M" horiz-adv-x="1873" d="M188 0v1442h174l574 -787l573 787h174v-1442h-260v934l-446 -608h-82l-446 608v-934h-261z" />
<glyph unicode="N" horiz-adv-x="1632" d="M188 0v1442h174l820 -973v965h260v-1442h-174l-819 971v-963h-261z" />
<glyph unicode="O" horiz-adv-x="1654" d="M102 717q0 217 91.5 386.5t257 264t376.5 94.5t376.5 -94.5t257 -264t91.5 -386.5t-91.5 -387t-257 -264.5t-376.5 -94.5t-376.5 94.5t-257 264.5t-91.5 387zM377 717q0 -235 124 -377.5t326 -142.5t326.5 142.5t124.5 377.5t-124.5 376.5t-326.5 141.5t-326 -141.5 t-124 -376.5z" />
<glyph unicode="P" horiz-adv-x="1247" d="M188 0v1434h449q257 0 400 -134t143 -344q0 -209 -143 -342t-400 -133h-188v-481h-261zM449 696h169q139 0 213 65t74 195q0 131 -74.5 197t-212.5 66h-169v-523z" />
<glyph unicode="Q" horiz-adv-x="1654" d="M102 717q0 217 91.5 386.5t257 264t376.5 94.5t376.5 -94.5t257 -264t91.5 -386.5q0 -312 -184 -518l254 -285h-281l-135 154q-168 -97 -379 -97t-376.5 94.5t-257 264.5t-91.5 387zM377 717q0 -235 124 -377.5t326 -142.5q121 0 220 55l-211 240l161 129l197 -224 q84 133 84 320q0 235 -124.5 376.5t-326.5 141.5t-326 -141.5t-124 -376.5z" />
<glyph unicode="R" horiz-adv-x="1314" d="M188 0v1434h453q247 0 387.5 -127.5t140.5 -327.5q0 -133 -65 -236.5t-186 -158.5l405 -584h-309l-348 526h-217v-526h-261zM449 741h161q137 0 211 59t74 179q0 122 -74 181t-211 59h-161v-478z" />
<glyph unicode="S" horiz-adv-x="1099" d="M113 66v256q67 -54 161 -88.5t195 -34.5q118 0 187 52.5t69 137.5q0 53 -33.5 96.5t-86.5 76t-117.5 64t-129 70.5t-117.5 85.5t-86.5 117.5t-33.5 160q0 189 131.5 296t347.5 107q102 0 190.5 -24t145.5 -58v-252q-62 45 -147 78t-175 33q-102 0 -162.5 -46.5 t-60.5 -119.5q0 -51 33.5 -93.5t87 -74.5t118 -64.5t129 -72t118 -87t87 -119.5t33.5 -161q0 -132 -68.5 -231t-183.5 -149t-260 -50q-112 0 -211 29t-161 66z" />
<glyph unicode="T" horiz-adv-x="1134" d="M4 1219v215h1124v-215h-432v-1219h-260v1219h-432z" />
<glyph unicode="U" horiz-adv-x="1525" d="M178 541v893h260v-895q0 -182 83.5 -263t240.5 -81t240 81t83 263v895h261v-893q0 -143 -42.5 -252.5t-120 -178.5t-184 -104t-237.5 -35q-132 0 -237.5 34t-184 102.5t-120.5 178.5t-42 255z" />
<glyph unicode="V" horiz-adv-x="1314" d="M2 1434h274l381 -1047l379 1047h277l-565 -1442h-181z" />
<glyph unicode="W" horiz-adv-x="1955" d="M10 1434h264l281 -969l336 977h174l336 -977l280 969h263l-435 -1442h-180l-352 1026l-352 -1026h-181z" />
<glyph unicode="X" horiz-adv-x="1316" d="M35 0l477 741l-446 693h305l286 -486l287 486h307l-448 -693l479 -741h-307l-318 532l-317 -532h-305z" />
<glyph unicode="Y" horiz-adv-x="1189" d="M-4 1434h287l311 -625l311 625h289l-469 -877v-557h-260v557z" />
<glyph unicode="Z" horiz-adv-x="1173" d="M80 0v143l643 1076h-623v215h963v-144l-645 -1075h676v-215h-1014z" />
<glyph unicode="[" horiz-adv-x="905" d="M236 -297v1915h536v-213h-278v-1489h278v-213h-536z" />
<glyph unicode="\" horiz-adv-x="776" d="M31 1585h229l485 -1737h-229z" />
<glyph unicode="]" horiz-adv-x="905" d="M133 -84h279v1489h-279v213h537v-1915h-537v213z" />
<glyph unicode="^" d="M113 756l325 706h248l326 -706h-242l-209 499l-207 -499h-241z" />
<glyph unicode="_" horiz-adv-x="1200" d="M-31 -328h1262v-184h-1262v184z" />
<glyph unicode="`" horiz-adv-x="784" d="M92 1556h336l244 -301h-223z" />
<glyph unicode="a" d="M82 303q0 148 115.5 245t316.5 97q73 0 186 -22v75q0 95 -52.5 145t-172.5 50q-169 0 -315 -86v217q178 70 360 70q204 0 315 -93t111 -266v-446q0 -61 23 -88t69 -27q10 0 21.5 2.5t17.5 5.5l6 2v-168q-52 -26 -153 -26q-86 0 -138 40.5t-69 100.5q-117 -160 -309 -160 q-150 0 -241 87.5t-91 244.5zM332 315q0 -65 42.5 -105t121.5 -40q68 0 120.5 31.5t83.5 83.5v178q-72 20 -141 20q-103 0 -165 -47t-62 -121z" />
<glyph unicode="b" horiz-adv-x="1314" d="M154 0q14 112 14 270v1225h246v-514q140 113 317 113q214 0 351 -159.5t137 -402.5q0 -244 -137 -402.5t-351 -158.5q-110 0 -202.5 42.5t-151.5 103.5l-23 -117h-200zM414 279q116 -99 252 -99q135 0 217 92.5t82 259.5q0 170 -85.5 265.5t-220.5 95.5q-140 0 -245 -100 v-514z" />
<glyph unicode="c" horiz-adv-x="1048" d="M96 532q0 254 155 408t402 154q169 0 293 -64v-221q-123 84 -266 84q-154 0 -242 -97t-88 -264q0 -169 88 -264.5t242 -95.5q140 0 266 82v-221q-128 -62 -293 -62q-247 0 -402 153.5t-155 407.5z" />
<glyph unicode="d" horiz-adv-x="1314" d="M96 532q0 243 137 402.5t351 159.5q177 0 317 -113v514h246v-1225q0 -70 3.5 -137.5t7.5 -100.5l3 -32h-200q-15 60 -25 117q-59 -60 -151 -103t-201 -43q-214 0 -351 158.5t-137 402.5zM350 532q0 -167 82 -259.5t217 -92.5q137 0 252 99v514q-106 100 -246 100 q-135 0 -220 -95.5t-85 -265.5z" />
<glyph unicode="e" horiz-adv-x="1196" d="M96 532q0 247 148 404.5t377 157.5q213 0 345 -134t132 -356l-6 -125h-736q9 -149 94.5 -229t243.5 -80q92 0 185 29.5t168 79.5v-205q-72 -46 -176.5 -74.5t-215.5 -28.5q-253 0 -406 154t-153 407zM360 651h486q1 119 -62 185.5t-166 66.5q-107 0 -174.5 -69.5 t-83.5 -182.5z" />
<glyph unicode="f" horiz-adv-x="747" d="M45 866v199h174v100q0 160 82.5 245t230.5 85q58 0 115.5 -9.5t75.5 -17.5v-200q-69 26 -141 26q-119 0 -119 -123v-106h248v-199h-248v-866h-244v866h-174z" />
<glyph unicode="g" horiz-adv-x="1316" d="M96 545q0 242 133 395.5t346 153.5q120 0 211.5 -44t151.5 -104q4 27 10 57t10 46l5 16h198q-14 -112 -14 -270v-785q0 -244 -151 -383t-400 -139q-139 0 -252 39t-170 82v225q63 -52 170 -98.5t234 -46.5q154 0 238.5 80t84.5 231v88q-133 -96 -301 -96 q-227 0 -365.5 153.5t-138.5 399.5zM350 541q0 -162 79 -255t214 -93q86 0 154 33t104 69v483q-118 105 -262 105q-131 0 -210 -89.5t-79 -252.5z" />
<glyph unicode="h" horiz-adv-x="1286" d="M168 0v1495h246v-571q142 170 342 170q82 0 146.5 -24t105.5 -63t67.5 -92t37.5 -107.5t11 -113.5v-694h-245v657q0 114 -57.5 172t-157.5 58q-75 0 -142.5 -39.5t-107.5 -83.5v-764h-246z" />
<glyph unicode="i" horiz-adv-x="583" d="M147 1364q0 62 40.5 98.5t103.5 36.5q64 0 103.5 -36.5t39.5 -98.5q0 -61 -39.5 -97t-103.5 -36q-63 0 -103.5 36.5t-40.5 96.5zM168 0v1065h246v-1065h-246z" />
<glyph unicode="j" horiz-adv-x="583" d="M-49 -299q37 -12 90 -12q65 0 96 33t31 114v1229h246v-1221q0 -186 -76 -272t-244 -86q-35 0 -70.5 4.5t-53.5 9.5l-19 4v197zM147 1364q0 62 40.5 98.5t103.5 36.5q64 0 103.5 -36.5t39.5 -98.5q0 -61 -39.5 -97t-103.5 -36q-63 0 -103.5 36.5t-40.5 96.5z" />
<glyph unicode="k" horiz-adv-x="1148" d="M168 0v1495h246v-926l401 496h295l-385 -451l424 -614h-285l-286 451l-164 -142v-309h-246z" />
<glyph unicode="l" horiz-adv-x="694" d="M168 340v1155h246v-1163q0 -81 34.5 -114.5t104.5 -33.5q29 0 57 5t41 9l13 5v-207q-83 -25 -177 -25q-167 0 -243 89t-76 280z" />
<glyph unicode="m" horiz-adv-x="1906" d="M154 1065h225q14 -62 24 -150q145 179 330 179q121 0 197.5 -55t113.5 -146q156 201 355 201q77 0 138 -24t99 -63t63.5 -92t35.5 -107.5t10 -113.5v-694h-246v657q0 114 -51 172t-141 58q-70 0 -133.5 -41.5t-98.5 -85.5q4 -46 4 -66v-694h-245v657q0 114 -51.5 172 t-141.5 58q-69 0 -130 -39.5t-97 -83.5v-764h-246v795q0 70 -3.5 137.5t-6.5 99.5z" />
<glyph unicode="n" horiz-adv-x="1286" d="M154 1065h225q14 -62 24 -152q152 181 353 181q82 0 146.5 -24t105.5 -63t67.5 -92t37.5 -107.5t11 -113.5v-694h-245v657q0 114 -57.5 172t-157.5 58q-76 0 -142.5 -39t-107.5 -84v-764h-246v795q0 70 -3.5 137.5t-6.5 99.5z" />
<glyph unicode="o" horiz-adv-x="1277" d="M96 532q0 248 152 405t391 157t390 -157t151 -405t-151 -404.5t-390 -156.5t-391 157t-152 404zM352 532q0 -168 78 -264t209 -96q130 0 207.5 95.5t77.5 264.5q0 167 -77.5 264t-207.5 97t-208.5 -97t-78.5 -264z" />
<glyph unicode="p" horiz-adv-x="1314" d="M154 1065h200q15 -60 23 -119q59 61 151.5 104.5t202.5 43.5q214 0 351 -159.5t137 -402.5q0 -244 -137 -402.5t-351 -158.5q-175 0 -317 111v-594h-246v1307q0 70 -3.5 137.5t-6.5 99.5zM414 270q106 -100 245 -100q135 0 220.5 95t85.5 267q0 167 -82 259t-217 92 q-78 0 -144.5 -31t-107.5 -68v-514z" />
<glyph unicode="q" horiz-adv-x="1314" d="M96 532q0 243 137 402.5t351 159.5q109 0 201 -43.5t151 -104.5l25 119h200q-14 -112 -14 -270v-1307h-246v594q-142 -111 -317 -111q-214 0 -351 158.5t-137 402.5zM350 532q0 -172 85 -267t220 -95q141 0 246 100v514q-116 99 -252 99q-135 0 -217 -92t-82 -259z" />
<glyph unicode="r" horiz-adv-x="841" d="M154 1065h225q18 -80 24 -166h5q50 83 127.5 139t173.5 56q31 0 60.5 -6t43.5 -12l14 -5v-233q-61 22 -155 22q-46 0 -89.5 -11t-72.5 -26.5t-52 -31t-34 -26.5l-10 -11v-754h-246v795q0 70 -3.5 137.5t-6.5 99.5z" />
<glyph unicode="s" horiz-adv-x="966" d="M113 57v217q67 -47 157 -75.5t170 -28.5q85 0 133 34t48 87q0 38 -27.5 67.5t-71.5 50.5t-97 42t-106 48.5t-97 61.5t-71.5 89.5t-27.5 125.5q0 146 108.5 232t282.5 86q92 0 171.5 -21.5t125.5 -50.5v-219q-54 39 -134 64.5t-153 27.5q-74 0 -115.5 -30t-41.5 -74 q0 -34 27.5 -62t71 -49t96.5 -42.5t106.5 -50t97 -65t71 -94t27.5 -129.5q0 -150 -115.5 -239t-302.5 -89q-101 0 -193.5 26.5t-139.5 59.5z" />
<glyph unicode="t" horiz-adv-x="790" d="M45 866v199h174v240l246 51v-291h252v-199h-252v-534q0 -79 34.5 -114.5t102.5 -35.5q29 0 60 5t47 9l16 5v-207q-86 -23 -180 -23q-164 0 -245 90.5t-81 274.5v530h-174z" />
<glyph unicode="u" horiz-adv-x="1286" d="M160 371v694h246v-659q0 -113 58 -171.5t159 -58.5q75 0 142 39.5t105 83.5v766h246v-795q0 -70 3.5 -137.5t6.5 -100.5l4 -32h-225q-14 60 -24 150q-151 -179 -351 -179q-102 0 -177 35.5t-115.5 95.5t-59 127t-18.5 142z" />
<glyph unicode="v" horiz-adv-x="1087" d="M10 1065h254l279 -703l278 703h254l-461 -1073h-141z" />
<glyph unicode="w" horiz-adv-x="1665" d="M10 1065h248l234 -664l268 672h143l271 -672q38 111 115.5 332.5t115.5 331.5h248q-232 -634 -396 -1073h-141q-160 408 -285 721q-207 -528 -284 -721h-141q-274 744 -396 1073z" />
<glyph unicode="x" horiz-adv-x="1101" d="M18 0l404 551l-377 514h289l217 -328l217 328h287l-377 -514l405 -551h-288l-244 365l-246 -365h-287z" />
<glyph unicode="y" horiz-adv-x="1056" d="M6 -266q50 -21 111 -21q85 0 162 66t131 225l12 39l-414 1022h262l269 -721l239 721h258l-379 -1059q-95 -270 -220 -394t-300 -124q-34 0 -66.5 6t-48.5 12l-16 7v221z" />
<glyph unicode="z" horiz-adv-x="966" d="M51 0v117l504 755h-483v193h813v-117l-504 -755h524v-193h-854z" />
<glyph unicode="{" horiz-adv-x="835" d="M113 569v183q113 0 158.5 40.5t45.5 127.5q0 61 -34.5 204t-34.5 213q0 69 22.5 119.5t74 87.5t140.5 55.5t217 18.5v-184q-105 0 -150.5 -28t-45.5 -99q0 -56 30.5 -190.5t30.5 -198.5q0 -110 -60 -173.5t-161 -76.5v-15q104 -15 162.5 -79.5t58.5 -172.5 q0 -63 -30.5 -196.5t-30.5 -190.5q0 -72 46 -99.5t150 -27.5v-184q-128 0 -217 18.5t-140.5 55.5t-74 87.5t-22.5 119.5q0 70 34.5 212.5t34.5 204.5q0 87 -45.5 127.5t-158.5 40.5z" />
<glyph unicode="|" horiz-adv-x="731" d="M236 -348v2007h260v-2007h-260z" />
<glyph unicode="}" horiz-adv-x="835" d="M133 -113q104 0 149.5 27.5t45.5 99.5q0 56 -31 190t-31 197q0 108 59 172.5t162 79.5v15q-101 13 -161 76.5t-60 173.5q0 64 31 198.5t31 190.5q0 71 -46 99t-149 28v184q128 0 217.5 -18.5t141 -55.5t74 -87.5t22.5 -119.5q0 -70 -35 -213t-35 -204q0 -87 45.5 -127.5 t159.5 -40.5v-183q-114 0 -159.5 -40.5t-45.5 -127.5q0 -62 35 -204.5t35 -212.5q0 -69 -22.5 -119.5t-74 -87.5t-141 -55.5t-217.5 -18.5v184z" />
<glyph unicode="~" horiz-adv-x="1456" d="M154 428q0 178 86.5 287.5t242.5 109.5q57 0 114 -17.5t102.5 -42.5t88.5 -50t88 -42.5t85 -17.5q68 0 104.5 47t36.5 125h201q0 -178 -89 -287.5t-245 -109.5q-56 0 -112 17.5t-101.5 42t-88 49t-87.5 42t-84 17.5q-68 0 -106 -46.5t-38 -123.5h-198z" />
<glyph unicode="&#xa1;" horiz-adv-x="571" d="M113 920q0 75 49 124.5t123 49.5q75 0 124.5 -49.5t49.5 -124.5t-49.5 -125t-124.5 -50q-74 0 -123 50t-49 125zM147 -369l25 936h227l25 -936h-277z" />
<glyph unicode="&#xa2;" horiz-adv-x="1054" d="M102 532q0 244 143.5 396t375.5 164l43 227h190l-47 -242q79 -17 145 -47v-221q-123 84 -268 84q-153 0 -240.5 -96.5t-87.5 -264.5q0 -169 87 -264.5t241 -95.5q142 0 268 82v-221q-132 -62 -293 -62q-33 0 -61 4l-37 -200h-188l45 241q-147 63 -231.5 197.5 t-84.5 318.5z" />
<glyph unicode="&#xa3;" horiz-adv-x="1146" d="M117 629v164h139q-31 124 -31 254q0 132 62.5 227.5t166 141.5t234.5 46q71 0 138.5 -17t99.5 -33l32 -17v-217q-13 8 -36 20t-94.5 32.5t-141.5 20.5q-89 0 -144 -56t-55 -159q0 -128 27 -243h344v-164h-305q14 -82 14 -158q0 -50 -12 -94.5t-29 -71t-34 -46.5t-29 -28 l-12 -8l4 -8q33 12 90 12q46 0 132.5 -15t137.5 -15q39 0 76.5 7t62 17.5t43.5 20.5t28 17l9 7v-213q-3 -3 -8 -8.5t-23 -19t-38.5 -23.5t-55 -18.5t-71.5 -8.5q-80 0 -150.5 20.5t-134 41t-125.5 20.5q-54 0 -109.5 -21t-84.5 -42l-29 -21l-82 133q9 5 23 13.5t51 38.5 t65 64t51 87.5t23 110.5q0 77 -35 209h-184z" />
<glyph unicode="&#xa4;" horiz-adv-x="1308" d="M113 279l147 149q-72 115 -72 252q0 140 72 250l-147 149l141 142l147 -150q113 74 252 74q137 0 250 -74l152 150l141 -142l-149 -149q71 -114 71 -250q0 -138 -71 -252l149 -149l-141 -142l-150 150q-113 -72 -252 -72q-135 0 -252 70l-147 -148zM399 680 q0 -121 71 -200t183 -79t184 79t72 200t-72 199.5t-184 78.5t-183 -78.5t-71 -199.5z" />
<glyph unicode="&#xa5;" horiz-adv-x="1202" d="M2 1434h287l311 -627l311 627h289l-393 -734h258v-157h-334v-135h334v-158h-334v-250h-260v250h-332v158h332v135h-332v157h254z" />
<glyph unicode="&#xa6;" horiz-adv-x="731" d="M236 -348v891h260v-891h-260zM236 768v891h260v-891h-260z" />
<glyph unicode="&#xa7;" horiz-adv-x="1191" d="M154 -109q69 -48 160.5 -79t189.5 -31q118 0 187 47t69 127q0 42 -25.5 77t-67.5 58.5t-96 50t-110 49.5t-110 57.5t-96 74t-67.5 100t-25.5 133.5q0 172 145 268q-145 103 -145 269q0 172 132 271t345 99q202 0 338 -76v-233q-154 102 -320 102q-103 0 -162 -41.5 t-59 -111.5q0 -40 26 -73.5t68 -57t96.5 -49.5t110.5 -50t110.5 -59.5t96.5 -76.5t68 -102.5t26 -135.5q0 -168 -141 -269q141 -108 141 -266q0 -121 -69 -211.5t-184 -136t-259 -45.5q-112 0 -211 26t-161 60v235zM416 567q0 -23 7 -43t25 -38.5t32.5 -31.5t47.5 -31 t49.5 -26.5t59.5 -28.5t59 -28q40 26 62 65.5t22 83.5q0 30 -14 57t-34 46.5t-55.5 40.5t-65.5 35t-76 35l-27 12q-44 -23 -68 -62.5t-24 -85.5z" />
<glyph unicode="&#xa8;" horiz-adv-x="919" d="M113 1376q0 57 37.5 95t95.5 38q57 0 94 -38t37 -95t-37 -95t-94 -38q-58 0 -95.5 38t-37.5 95zM541 1376q0 57 38.5 95t96.5 38q56 0 93.5 -38t37.5 -95t-37.5 -95t-93.5 -38q-58 0 -96.5 38t-38.5 95z" />
<glyph unicode="&#xa9;" horiz-adv-x="1757" d="M133 717q0 152 59 290t159 237.5t238 158.5t290 59t290 -59t237.5 -158.5t158.5 -237.5t59 -290t-59 -290t-158.5 -238t-237.5 -159t-290 -59q-203 0 -374.5 100t-271.5 271.5t-100 374.5zM311 717q0 -124 44.5 -233.5t121 -187t181 -122.5t221.5 -45q116 0 220.5 45 t180 122.5t120 187t44.5 233.5t-44.5 233.5t-120 187t-180 122.5t-220.5 45q-117 0 -221.5 -45t-181 -122.5t-121 -187t-44.5 -233.5zM508 717q0 183 110.5 298t284.5 115q126 0 223 -55v-174q-110 86 -211 86q-110 0 -173.5 -73t-63.5 -197t63.5 -197.5t173.5 -73.5 q106 0 211 86v-174q-90 -55 -223 -55q-174 0 -284.5 115t-110.5 299z" />
<glyph unicode="&#xaa;" horiz-adv-x="940" d="M133 446v132h674v-132h-674zM133 944q0 101 79.5 168.5t215.5 67.5q63 0 113 -13v33q0 58 -32 87.5t-106 29.5q-29 0 -58 -5t-55 -14.5t-43.5 -17t-38.5 -18t-24 -11.5v156q127 55 248 55q137 0 211 -61t74 -176v-289q0 -37 12.5 -52.5t38.5 -15.5q8 0 17 2t15 4l5 3 v-119q-46 -23 -109 -23q-51 0 -85.5 22.5t-49.5 55.5q-76 -88 -199 -88q-102 0 -165.5 58.5t-63.5 160.5zM311 952q0 -39 28 -63.5t79 -24.5q79 0 123 68v119q-33 10 -82 10q-67 0 -107.5 -31t-40.5 -78z" />
<glyph unicode="&#xab;" horiz-adv-x="1224" d="M82 430v219l477 410v-223l-278 -297l278 -295v-224zM553 430v219l477 410v-223l-278 -297l278 -295v-224z" />
<glyph unicode="&#xac;" horiz-adv-x="1433" d="M113 672v221h1167v-612h-221v391h-946z" />
<glyph unicode="&#xad;" horiz-adv-x="763" d="M113 508v211h538v-211h-538z" />
<glyph unicode="&#xae;" horiz-adv-x="1757" d="M133 717q0 152 59 290t159 237.5t238 158.5t290 59t290 -59t237.5 -158.5t158.5 -237.5t59 -290t-59 -290t-158.5 -238t-237.5 -159t-290 -59q-203 0 -374.5 100t-271.5 271.5t-100 374.5zM311 717q0 -123 45 -232.5t121.5 -187t181 -123t220.5 -45.5t220 45.5t180 123 t120.5 187t44.5 232.5q0 163 -75.5 298.5t-205.5 212.5t-284 77q-155 0 -285 -77t-206.5 -212.5t-76.5 -298.5zM616 315v793h256q136 0 215.5 -71t79.5 -183q0 -70 -34.5 -127.5t-96.5 -89.5l224 -322h-197l-180 285h-105v-285h-162zM778 735h78q67 0 104 30t37 89 q0 119 -141 119h-78v-238z" />
<glyph unicode="&#xaf;" horiz-adv-x="847" d="M113 1307v186h622v-186h-622z" />
<glyph unicode="&#xb0;" horiz-adv-x="827" d="M72 1118q0 143 99 243.5t241 100.5t243 -101t101 -243t-100.5 -241t-243.5 -99q-142 0 -241 99t-99 241zM256 1118q0 -68 44.5 -115t111.5 -47q70 0 114.5 46.5t44.5 115.5q0 71 -44.5 118.5t-114.5 47.5q-67 0 -111.5 -47.5t-44.5 -118.5z" />
<glyph unicode="&#xb1;" horiz-adv-x="1480" d="M195 0v207h1091v-207h-1091zM195 657v207h440v316h207v-316h444v-207h-444v-327h-207v327h-440z" />
<glyph unicode="&#xb2;" horiz-adv-x="741" d="M113 680v84l198 237q60 71 87.5 120t27.5 89q0 36 -25 57t-67 21q-80 0 -203 -92v184q104 68 219 68t186.5 -65.5t71.5 -168.5q0 -117 -133 -268l-94 -110h248v-156h-516z" />
<glyph unicode="&#xb3;" horiz-adv-x="716" d="M113 705v163q105 -43 192 -43q54 0 85.5 27.5t31.5 67.5q0 48 -54 75t-155 27v74l135 182h-233v156h473v-84l-152 -203q76 -26 122 -85.5t46 -141.5q0 -110 -78 -182t-215 -72q-102 0 -198 39z" />
<glyph unicode="&#xb4;" horiz-adv-x="804" d="M113 1255l243 301h336l-356 -301h-223z" />
<glyph unicode="&#xb5;" horiz-adv-x="1353" d="M168 -367v1432h246v-659q0 -113 58 -171.5t159 -58.5q75 0 142.5 39.5t105.5 83.5v766h245v-754q0 -67 27.5 -97t83.5 -30q16 0 33 4t26 8l9 3v-195q-64 -24 -148 -24q-212 0 -260 174h-4q-48 -70 -138.5 -126.5t-213.5 -56.5q-67 0 -125 23v-361h-246z" />
<glyph unicode="&#xb6;" horiz-adv-x="1525" d="M113 952q0 220 139 351t389 131h690v-1946h-231v1741h-217v-1741h-232v985h-10q-251 0 -389.5 130t-138.5 349z" />
<glyph unicode="&#xb7;" horiz-adv-x="653" d="M154 698q0 75 49.5 123.5t124.5 48.5q74 0 123 -48.5t49 -123.5t-49 -124.5t-123 -49.5q-75 0 -124.5 49.5t-49.5 124.5z" />
<glyph unicode="&#xb8;" horiz-adv-x="659" d="M113 -367q67 -34 143 -34q45 0 71.5 23t26.5 61q0 48 -55.5 77t-151.5 29l119 211h180l-79 -127q83 -18 134.5 -67t51.5 -123q0 -100 -83.5 -156.5t-197.5 -56.5q-38 0 -78 6t-60 12l-21 6v139z" />
<glyph unicode="&#xb9;" horiz-adv-x="528" d="M113 1278v156h303v-754h-176v598h-127z" />
<glyph unicode="&#xba;" horiz-adv-x="980" d="M133 442v136h715v-136h-715zM133 1094q0 161 100.5 264.5t258.5 103.5t257 -103t99 -265q0 -163 -99 -266t-257 -103t-258.5 103t-100.5 266zM315 1094q0 -106 48 -166t129 -60q80 0 128 60t48 166q0 105 -48 165t-128 60t-128.5 -60t-48.5 -165z" />
<glyph unicode="&#xbb;" horiz-adv-x="1224" d="M195 20v224l278 295l-278 297v223l477 -410v-219zM666 20v224l278 295l-278 297v223l477 -410v-219z" />
<glyph unicode="&#xbc;" horiz-adv-x="1546" d="M113 1278v156h303v-754h-176v598h-127zM283 -29l704 1491h199l-705 -1491h-198zM838 141v95l401 524h98v-469h97v-150h-97v-141h-176v141h-323zM1012 291h149v194z" />
<glyph unicode="&#xbd;" horiz-adv-x="1626" d="M113 1278v156h303v-754h-176v598h-127zM283 -29l704 1491h199l-705 -1491h-198zM997 0v84l199 238q60 71 87.5 119.5t27.5 88.5q0 37 -24.5 57.5t-67.5 20.5q-80 0 -203 -92v184q104 68 219 68t186.5 -65.5t71.5 -170.5q0 -112 -133 -266l-94 -110h247v-156h-516z" />
<glyph unicode="&#xbe;" horiz-adv-x="1675" d="M113 705v163q105 -43 192 -43q54 0 85.5 27.5t31.5 67.5q0 48 -54 75t-155 27v74l135 182h-233v156h473v-84l-152 -203q76 -26 122 -85.5t46 -141.5q0 -110 -78 -182t-215 -72q-102 0 -198 39zM414 -29l704 1491h197l-705 -1491h-196zM969 141v95l399 524h98v-469h97 v-150h-97v-141h-174v141h-323zM1141 291h151v194z" />
<glyph unicode="&#xbf;" horiz-adv-x="925" d="M113 -66q0 61 19 113.5t50 91t68 74t74 69.5t68 69t50 81.5t19 99.5q0 23 -2 35h209q6 -43 6 -78q0 -66 -21.5 -125.5t-54.5 -100.5t-70.5 -82.5t-70.5 -74t-54.5 -72.5t-21.5 -79q0 -65 48.5 -102t135.5 -37q114 0 248 65v-215q-137 -63 -289 -63q-186 0 -298.5 90 t-112.5 241zM389 920q0 75 49.5 124.5t124.5 49.5q74 0 124 -49.5t50 -124.5t-50 -125t-124 -50q-75 0 -124.5 50t-49.5 125z" />
<glyph unicode="&#xc0;" horiz-adv-x="1355" d="M2 0l586 1442h180l586 -1442h-277l-104 270h-592l-105 -270h-274zM326 1919h336l243 -301h-223zM455 469h442l-219 578z" />
<glyph unicode="&#xc1;" horiz-adv-x="1355" d="M2 0l586 1442h180l586 -1442h-277l-104 270h-592l-105 -270h-274zM449 1618l243 301h336l-356 -301h-223zM455 469h442l-219 578z" />
<glyph unicode="&#xc2;" horiz-adv-x="1355" d="M2 0l586 1442h180l586 -1442h-277l-104 270h-592l-105 -270h-274zM301 1618l250 311h254l250 -311h-224l-153 176l-154 -176h-223zM455 469h442l-219 578z" />
<glyph unicode="&#xc3;" horiz-adv-x="1355" d="M2 0l586 1442h180l586 -1442h-277l-104 270h-592l-105 -270h-274zM270 1632q0 61 14 117t42.5 104t78 76.5t113.5 28.5q45 0 85 -15t67.5 -37t52.5 -44t52 -37t54 -15q49 0 72 42.5t25 103.5h157q0 -50 -8.5 -96t-28 -88.5t-48 -73.5t-71.5 -49.5t-96 -18.5q-48 0 -88 15 t-67 37t-51 44t-51 37t-56 15q-86 0 -90 -146h-158zM455 469h442l-219 578z" />
<glyph unicode="&#xc4;" horiz-adv-x="1355" d="M2 0l586 1442h180l586 -1442h-277l-104 270h-592l-105 -270h-274zM330 1747q0 57 37.5 95t95.5 38q57 0 94 -38t37 -95t-37 -95t-94 -38q-58 0 -95.5 38t-37.5 95zM455 469h442l-219 578zM758 1747q0 57 38.5 95t96.5 38q56 0 93.5 -38t37.5 -95t-37.5 -95t-93.5 -38 q-58 0 -96.5 38t-38.5 95z" />
<glyph unicode="&#xc5;" horiz-adv-x="1355" d="M2 0l586 1442h180l586 -1442h-277l-104 270h-592l-105 -270h-274zM412 1614q0 117 74.5 189.5t191.5 72.5t191.5 -72.5t74.5 -189.5q0 -118 -74.5 -192t-191.5 -74t-191.5 74t-74.5 192zM455 469h442l-219 578zM565 1614q0 -57 31 -91t82 -34t82 34t31 91q0 54 -31 87.5 t-82 33.5t-82 -33.5t-31 -87.5z" />
<glyph unicode="&#xc6;" horiz-adv-x="1941" d="M2 0l875 1434h946v-215h-600v-359h518v-215h-518v-430h600v-215h-860v270h-502l-162 -270h-297zM580 469h383v637z" />
<glyph unicode="&#xc7;" horiz-adv-x="1316" d="M102 717q0 216 90.5 386t251.5 264.5t365 94.5q219 0 395 -94v-266q-172 133 -373 133q-209 0 -331.5 -141.5t-122.5 -376.5q0 -236 122 -377t332 -141q203 0 373 131v-264q-73 -41 -176.5 -68t-218.5 -27q-204 0 -365 94t-251.5 264.5t-90.5 387.5zM541 -367 q67 -34 143 -34q45 0 71.5 23t26.5 61q0 48 -55.5 77t-151.5 29l119 211h180l-79 -127q83 -18 134.5 -67t51.5 -123q0 -100 -83.5 -156.5t-197.5 -56.5q-38 0 -78 6t-60 12l-21 6v139z" />
<glyph unicode="&#xc8;" horiz-adv-x="1181" d="M188 0v1434h861v-215h-600v-359h518v-215h-518v-430h600v-215h-861zM236 1911h335l244 -301h-223z" />
<glyph unicode="&#xc9;" horiz-adv-x="1181" d="M188 0v1434h861v-215h-600v-359h518v-215h-518v-430h600v-215h-861zM389 1610l244 301h336l-357 -301h-223z" />
<glyph unicode="&#xca;" horiz-adv-x="1181" d="M188 0v1434h861v-215h-600v-359h518v-215h-518v-430h600v-215h-861zM231 1610l250 311h254l250 -311h-223l-154 176l-153 -176h-224z" />
<glyph unicode="&#xcb;" horiz-adv-x="1181" d="M188 0v1434h861v-215h-600v-359h518v-215h-518v-430h600v-215h-861zM272 1739q0 57 38 95t96 38q57 0 94 -38t37 -95t-37 -95t-94 -38q-58 0 -96 38t-38 95zM700 1739q0 57 39 95t97 38q56 0 93.5 -38t37.5 -95t-37.5 -95t-93.5 -38q-58 0 -97 38t-39 95z" />
<glyph unicode="&#xcc;" horiz-adv-x="638" d="M-41 1911h336l244 -301h-224zM188 0v1434h261v-1434h-261z" />
<glyph unicode="&#xcd;" horiz-adv-x="638" d="M92 1610l244 301h336l-357 -301h-223zM188 0v1434h261v-1434h-261z" />
<glyph unicode="&#xce;" horiz-adv-x="638" d="M-57 1610l250 311h253l250 -311h-223l-154 176l-153 -176h-223zM188 0v1434h261v-1434h-261z" />
<glyph unicode="&#xcf;" horiz-adv-x="638" d="M-27 1739q0 57 37.5 95t95.5 38q57 0 94.5 -38t37.5 -95t-37.5 -95t-94.5 -38q-58 0 -95.5 38t-37.5 95zM188 0v1434h261v-1434h-261zM401 1739q0 57 39 95t97 38q56 0 93.5 -38t37.5 -95t-37.5 -95t-93.5 -38q-58 0 -97 38t-39 95z" />
<glyph unicode="&#xd0;" horiz-adv-x="1478" d="M31 561v174h170v699h356q207 0 365.5 -52.5t256.5 -149t147.5 -226t49.5 -289.5t-49.5 -289.5t-147.5 -226t-256.5 -149t-365.5 -52.5h-356v561h-170zM461 215h96q273 0 409 129.5t136 372.5t-136 372.5t-409 129.5h-96v-484h264v-174h-264v-346z" />
<glyph unicode="&#xd1;" horiz-adv-x="1632" d="M188 0v1442h174l820 -973v965h260v-1442h-174l-819 971v-963h-261zM399 1620q0 61 14 117t42.5 104t78 76.5t113.5 28.5q45 0 85 -15t67.5 -37t52.5 -44t52 -37t54 -15q49 0 72 42.5t25 103.5h157q0 -50 -8.5 -96t-27.5 -88.5t-47.5 -73.5t-71.5 -49.5t-96 -18.5 q-48 0 -88 15t-67 37t-51.5 43.5t-51.5 36.5t-56 15q-86 0 -90 -145h-158z" />
<glyph unicode="&#xd2;" horiz-adv-x="1654" d="M102 717q0 217 91.5 386.5t257 264t376.5 94.5t376.5 -94.5t257 -264t91.5 -386.5t-91.5 -387t-257 -264.5t-376.5 -94.5t-376.5 94.5t-257 264.5t-91.5 387zM377 717q0 -235 124 -377.5t326 -142.5t326.5 142.5t124.5 377.5t-124.5 376.5t-326.5 141.5t-326 -141.5 t-124 -376.5zM444 1925h336l244 -301h-223z" />
<glyph unicode="&#xd3;" horiz-adv-x="1654" d="M102 717q0 217 91.5 386.5t257 264t376.5 94.5t376.5 -94.5t257 -264t91.5 -386.5t-91.5 -387t-257 -264.5t-376.5 -94.5t-376.5 94.5t-257 264.5t-91.5 387zM377 717q0 -235 124 -377.5t326 -142.5t326.5 142.5t124.5 377.5t-124.5 376.5t-326.5 141.5t-326 -141.5 t-124 -376.5zM608 1624l244 301h336l-357 -301h-223z" />
<glyph unicode="&#xd4;" horiz-adv-x="1654" d="M102 717q0 217 91.5 386.5t257 264t376.5 94.5t376.5 -94.5t257 -264t91.5 -386.5t-91.5 -387t-257 -264.5t-376.5 -94.5t-376.5 94.5t-257 264.5t-91.5 387zM377 717q0 -235 124 -377.5t326 -142.5t326.5 142.5t124.5 377.5t-124.5 376.5t-326.5 141.5t-326 -141.5 t-124 -376.5zM449 1624l249 311h254l250 -311h-223l-154 176l-153 -176h-223z" />
<glyph unicode="&#xd5;" horiz-adv-x="1654" d="M102 717q0 217 91.5 386.5t257 264t376.5 94.5t376.5 -94.5t257 -264t91.5 -386.5t-91.5 -387t-257 -264.5t-376.5 -94.5t-376.5 94.5t-257 264.5t-91.5 387zM377 717q0 -235 124 -377.5t326 -142.5t326.5 142.5t124.5 377.5t-124.5 376.5t-326.5 141.5t-326 -141.5 t-124 -376.5zM418 1638q0 61 14 117t42.5 104t78 76.5t113.5 28.5q45 0 85 -15t67.5 -37t52.5 -43.5t52 -36.5t54 -15q49 0 71.5 42t24.5 103h158q0 -50 -8.5 -96t-28 -88.5t-48 -73.5t-71.5 -49.5t-96 -18.5q-48 0 -88 15t-67 37t-51 44t-51 37t-56 15q-87 0 -91 -146h-157 z" />
<glyph unicode="&#xd6;" horiz-adv-x="1654" d="M102 717q0 217 91.5 386.5t257 264t376.5 94.5t376.5 -94.5t257 -264t91.5 -386.5t-91.5 -387t-257 -264.5t-376.5 -94.5t-376.5 94.5t-257 264.5t-91.5 387zM377 717q0 -235 124 -377.5t326 -142.5t326.5 142.5t124.5 377.5t-124.5 376.5t-326.5 141.5t-326 -141.5 t-124 -376.5zM489 1753q0 57 38 95t96 38q57 0 94 -38t37 -95t-37 -95t-94 -38q-58 0 -96 38t-38 95zM918 1753q0 57 38.5 95t96.5 38q56 0 93.5 -38t37.5 -95t-37.5 -95t-93.5 -38q-58 0 -96.5 38t-38.5 95z" />
<glyph unicode="&#xd7;" horiz-adv-x="1353" d="M113 180l409 410l-409 411l153 154l410 -412l411 412l154 -154l-412 -411l412 -410l-154 -153l-411 409l-410 -409z" />
<glyph unicode="&#xd8;" horiz-adv-x="1644" d="M96 -29l187 226q-187 206 -187 520q0 217 91.5 386.5t257 264t376.5 94.5q227 0 406 -114l94 114h225l-184 -227q184 -203 184 -518q0 -217 -91.5 -387t-257 -264.5t-376.5 -94.5q-232 0 -405 113l-94 -113h-226zM371 717q0 -184 80 -316l622 758q-109 76 -252 76 q-202 0 -326 -141.5t-124 -376.5zM569 272q107 -75 252 -75q202 0 326.5 142.5t124.5 377.5q0 181 -80 313z" />
<glyph unicode="&#xd9;" horiz-adv-x="1525" d="M178 541v893h260v-895q0 -182 83.5 -263t240.5 -81t240 81t83 263v895h261v-893q0 -143 -42.5 -252.5t-120 -178.5t-184 -104t-237.5 -35q-132 0 -237.5 34t-184 102.5t-120.5 178.5t-42 255zM371 1911h336l243 -301h-223z" />
<glyph unicode="&#xda;" horiz-adv-x="1525" d="M178 541v893h260v-895q0 -182 83.5 -263t240.5 -81t240 81t83 263v895h261v-893q0 -143 -42.5 -252.5t-120 -178.5t-184 -104t-237.5 -35q-132 0 -237.5 34t-184 102.5t-120.5 178.5t-42 255zM555 1610l244 301h336l-357 -301h-223z" />
<glyph unicode="&#xdb;" horiz-adv-x="1525" d="M178 541v893h260v-895q0 -182 83.5 -263t240.5 -81t240 81t83 263v895h261v-893q0 -143 -42.5 -252.5t-120 -178.5t-184 -104t-237.5 -35q-132 0 -237.5 34t-184 102.5t-120.5 178.5t-42 255zM385 1610l250 311h254l250 -311h-224l-153 176l-154 -176h-223z" />
<glyph unicode="&#xdc;" horiz-adv-x="1536" d="M182 541v893h260v-895q0 -182 83.5 -263t240.5 -81t240.5 81t83.5 263v895h260v-893q0 -143 -42.5 -252.5t-120 -178.5t-184 -104t-237.5 -35q-132 0 -237.5 34t-184 102.5t-120.5 178.5t-42 255zM420 1747q0 57 37.5 95t95.5 38q57 0 94 -38t37 -95t-37 -95t-94 -38 q-58 0 -95.5 38t-37.5 95zM848 1747q0 57 38.5 95t96.5 38q56 0 93.5 -38t37.5 -95t-37.5 -95t-93.5 -38q-58 0 -96.5 38t-38.5 95z" />
<glyph unicode="&#xdd;" horiz-adv-x="1189" d="M-4 1434h287l311 -625l311 625h289l-469 -877v-557h-260v557zM438 1610l244 301h336l-356 -301h-224z" />
<glyph unicode="&#xde;" horiz-adv-x="1263" d="M195 0v1434h260v-230h188q257 0 399 -126.5t142 -327.5t-142 -329t-399 -128h-188v-293h-260zM455 508h168q286 0 286 242q0 121 -74 180t-212 59h-168v-481z" />
<glyph unicode="&#xdf;" horiz-adv-x="1341" d="M174 0v1092q0 183 126 293t341 110q204 0 325 -88.5t121 -222.5q0 -71 -27 -126.5t-65.5 -89t-77 -61t-65.5 -57t-27 -62.5q0 -29 19.5 -53.5t51.5 -42.5t73 -38.5t83.5 -40t83.5 -49t73 -62.5t51.5 -83t19.5 -110q0 -154 -115 -246t-299 -92q-93 0 -176.5 25t-130.5 55 v203q54 -36 144 -65t161 -29q82 0 126 41.5t44 101.5q0 41 -25.5 73.5t-66 55t-89.5 43.5t-97.5 46t-89 55.5t-66 78.5t-25.5 109q0 63 26 110t63 75.5t74 54.5t63 62.5t26 84.5q0 75 -58 116.5t-134 41.5q-84 0 -151.5 -56.5t-67.5 -158.5v-1094h-242z" />
<glyph unicode="&#xe0;" d="M82 303q0 148 115.5 245t316.5 97q73 0 186 -22v75q0 95 -52.5 145t-172.5 50q-169 0 -315 -86v217q178 70 360 70q204 0 315 -93t111 -266v-446q0 -61 23 -88t69 -27q10 0 21.5 2.5t17.5 5.5l6 2v-168q-52 -26 -153 -26q-86 0 -138 40.5t-69 100.5q-117 -160 -309 -160 q-150 0 -241 87.5t-91 244.5zM188 1556h336l244 -301h-223zM332 315q0 -65 42.5 -105t121.5 -40q68 0 120.5 31.5t83.5 83.5v178q-72 20 -141 20q-103 0 -165 -47t-62 -121z" />
<glyph unicode="&#xe1;" d="M82 303q0 148 115.5 245t316.5 97q73 0 186 -22v75q0 95 -52.5 145t-172.5 50q-169 0 -315 -86v217q178 70 360 70q204 0 315 -93t111 -266v-446q0 -61 23 -88t69 -27q10 0 21.5 2.5t17.5 5.5l6 2v-168q-52 -26 -153 -26q-86 0 -138 40.5t-69 100.5q-117 -160 -309 -160 q-150 0 -241 87.5t-91 244.5zM301 1255l244 301h336l-357 -301h-223zM332 315q0 -65 42.5 -105t121.5 -40q68 0 120.5 31.5t83.5 83.5v178q-72 20 -141 20q-103 0 -165 -47t-62 -121z" />
<glyph unicode="&#xe2;" d="M82 303q0 148 115.5 245t316.5 97q73 0 186 -22v75q0 95 -52.5 145t-172.5 50q-169 0 -315 -86v217q178 70 360 70q204 0 315 -93t111 -266v-446q0 -61 23 -88t69 -27q10 0 21.5 2.5t17.5 5.5l6 2v-168q-52 -26 -153 -26q-86 0 -138 40.5t-69 100.5q-117 -160 -309 -160 q-150 0 -241 87.5t-91 244.5zM168 1255l250 312h254l250 -312h-224l-153 177l-154 -177h-223zM332 315q0 -65 42.5 -105t121.5 -40q68 0 120.5 31.5t83.5 83.5v178q-72 20 -141 20q-103 0 -165 -47t-62 -121z" />
<glyph unicode="&#xe3;" d="M82 303q0 148 115.5 245t316.5 97q73 0 186 -22v75q0 95 -52.5 145t-172.5 50q-169 0 -315 -86v217q178 70 360 70q204 0 315 -93t111 -266v-446q0 -61 23 -88t69 -27q10 0 21.5 2.5t17.5 5.5l6 2v-168q-52 -26 -153 -26q-86 0 -138 40.5t-69 100.5q-117 -160 -309 -160 q-150 0 -241 87.5t-91 244.5zM119 1282q0 61 14 117t42.5 104t78 76.5t113.5 28.5q45 0 85 -15t67.5 -37t52.5 -44t52 -37t54 -15q49 0 71.5 42t24.5 104h158q0 -50 -8.5 -96t-28 -88.5t-48 -73.5t-71.5 -49.5t-96 -18.5q-48 0 -88 15t-67 37t-51 43.5t-51 36.5t-56 15 q-87 0 -91 -145h-157zM332 315q0 -65 42.5 -105t121.5 -40q68 0 120.5 31.5t83.5 83.5v178q-72 20 -141 20q-103 0 -165 -47t-62 -121z" />
<glyph unicode="&#xe4;" d="M82 303q0 148 115.5 245t316.5 97q73 0 186 -22v75q0 95 -52.5 145t-172.5 50q-169 0 -315 -86v217q178 70 360 70q204 0 315 -93t111 -266v-446q0 -61 23 -88t69 -27q10 0 21.5 2.5t17.5 5.5l6 2v-168q-52 -26 -153 -26q-86 0 -138 40.5t-69 100.5q-117 -160 -309 -160 q-150 0 -241 87.5t-91 244.5zM195 1386q0 57 37.5 95.5t95.5 38.5q57 0 94 -38.5t37 -95.5t-37 -95t-94 -38q-58 0 -95.5 38t-37.5 95zM332 315q0 -65 42.5 -105t121.5 -40q68 0 120.5 31.5t83.5 83.5v178q-72 20 -141 20q-103 0 -165 -47t-62 -121zM623 1386 q0 57 38.5 95.5t96.5 38.5q56 0 93.5 -38.5t37.5 -95.5t-37.5 -95t-93.5 -38q-58 0 -96.5 38t-38.5 95z" />
<glyph unicode="&#xe5;" d="M82 303q0 148 115.5 245t316.5 97q73 0 186 -22v75q0 95 -52.5 145t-172.5 50q-169 0 -315 -86v217q178 70 360 70q204 0 315 -93t111 -266v-446q0 -61 23 -88t69 -27q10 0 21.5 2.5t17.5 5.5l6 2v-168q-52 -26 -153 -26q-86 0 -138 40.5t-69 100.5q-117 -160 -309 -160 q-150 0 -241 87.5t-91 244.5zM264 1470q0 117 74.5 190t191.5 73t192 -73t75 -190q0 -118 -75 -192t-192 -74t-191.5 74t-74.5 192zM332 315q0 -65 42.5 -105t121.5 -40q68 0 120.5 31.5t83.5 83.5v178q-72 20 -141 20q-103 0 -165 -47t-62 -121zM418 1470q0 -57 30.5 -90.5 t81.5 -33.5t82 33.5t31 90.5q0 54 -31 87.5t-82 33.5t-81.5 -33.5t-30.5 -87.5z" />
<glyph unicode="&#xe6;" horiz-adv-x="1824" d="M96 303q0 153 118.5 252.5t326.5 99.5q73 0 186 -22v63q0 95 -52.5 145t-174.5 50q-163 0 -326 -96v219q3 1 19.5 8t26.5 10.5t30.5 11t37.5 12t41.5 11.5t48 11t50.5 8t57 6t60 2q245 0 352 -138q144 138 352 138q213 0 346.5 -134t133.5 -356l-7 -125h-737 q11 -150 95.5 -229.5t242.5 -79.5q189 0 354 109v-205q-72 -46 -176.5 -74.5t-214.5 -28.5q-135 0 -244 45t-182 129q-94 -94 -188.5 -134t-222.5 -40q-162 0 -257.5 88t-95.5 244zM346 313q0 -65 46 -106t130 -41q67 0 120.5 32.5t84.5 84.5v186q-89 23 -141 23 q-109 0 -174.5 -50t-65.5 -129zM991 651h484q0 119 -62 185.5t-164 66.5q-107 0 -175.5 -70t-82.5 -182z" />
<glyph unicode="&#xe7;" horiz-adv-x="1048" d="M96 532q0 254 155 408t402 154q169 0 293 -64v-221q-123 84 -266 84q-154 0 -242 -97t-88 -264q0 -169 88 -264.5t242 -95.5q140 0 266 82v-221q-128 -62 -293 -62q-247 0 -402 153.5t-155 407.5zM371 -367q67 -34 143 -34q45 0 71.5 23t26.5 61q0 48 -55 77t-151 29 l118 211h181l-80 -127q83 -18 134.5 -67t51.5 -123q0 -100 -83.5 -156.5t-197.5 -56.5q-38 0 -78 6t-60 12l-21 6v139z" />
<glyph unicode="&#xe8;" horiz-adv-x="1196" d="M96 532q0 247 148 404.5t377 157.5q213 0 345 -134t132 -356l-6 -125h-736q9 -149 94.5 -229t243.5 -80q92 0 185 29.5t168 79.5v-205q-72 -46 -176.5 -74.5t-215.5 -28.5q-253 0 -406 154t-153 407zM256 1556h336l244 -301h-224zM360 651h486q1 119 -62 185.5t-166 66.5 q-107 0 -174.5 -69.5t-83.5 -182.5z" />
<glyph unicode="&#xe9;" horiz-adv-x="1196" d="M96 532q0 247 148 404.5t377 157.5q213 0 345 -134t132 -356l-6 -125h-736q9 -149 94.5 -229t243.5 -80q92 0 185 29.5t168 79.5v-205q-72 -46 -176.5 -74.5t-215.5 -28.5q-253 0 -406 154t-153 407zM360 651h486q1 119 -62 185.5t-166 66.5q-107 0 -174.5 -69.5 t-83.5 -182.5zM369 1255l243 301h336l-356 -301h-223z" />
<glyph unicode="&#xea;" horiz-adv-x="1196" d="M96 532q0 247 148 404.5t377 157.5q213 0 345 -134t132 -356l-6 -125h-736q9 -149 94.5 -229t243.5 -80q92 0 185 29.5t168 79.5v-205q-72 -46 -176.5 -74.5t-215.5 -28.5q-253 0 -406 154t-153 407zM240 1255l249 312h254l250 -312h-223l-154 177l-153 -177h-223z M360 651h486q1 119 -62 185.5t-166 66.5q-107 0 -174.5 -69.5t-83.5 -182.5z" />
<glyph unicode="&#xeb;" horiz-adv-x="1196" d="M96 532q0 247 148 404.5t377 157.5q213 0 345 -134t132 -356l-6 -125h-736q9 -149 94.5 -229t243.5 -80q92 0 185 29.5t168 79.5v-205q-72 -46 -176.5 -74.5t-215.5 -28.5q-253 0 -406 154t-153 407zM270 1386q0 57 37.5 95.5t95.5 38.5q57 0 94.5 -38.5t37.5 -95.5 t-37.5 -95t-94.5 -38q-58 0 -95.5 38t-37.5 95zM360 651h486q1 119 -62 185.5t-166 66.5q-107 0 -174.5 -69.5t-83.5 -182.5zM698 1386q0 57 39 95.5t97 38.5q56 0 93.5 -38.5t37.5 -95.5t-37.5 -95t-93.5 -38q-58 0 -97 38t-39 95z" />
<glyph unicode="&#xec;" horiz-adv-x="583" d="M-49 1556h336l243 -301h-223zM168 0v1065h246v-1065h-246z" />
<glyph unicode="&#xed;" horiz-adv-x="583" d="M63 1255l244 301h336l-356 -301h-224zM168 0v1065h246v-1065h-246z" />
<glyph unicode="&#xee;" horiz-adv-x="583" d="M-84 1255l250 312h254l250 -312h-224l-153 177l-154 -177h-223zM168 0v1065h246v-1065h-246z" />
<glyph unicode="&#xef;" horiz-adv-x="583" d="M-53 1386q0 57 37.5 95.5t95.5 38.5q57 0 94 -38.5t37 -95.5t-37 -95t-94 -38q-58 0 -95.5 38t-37.5 95zM168 0v1065h246v-1065h-246zM375 1386q0 57 38.5 95.5t96.5 38.5q56 0 93.5 -38.5t37.5 -95.5t-37.5 -95t-93.5 -38q-58 0 -96.5 38t-38.5 95z" />
<glyph unicode="&#xf0;" horiz-adv-x="1257" d="M96 489q0 223 139.5 370t350.5 147q146 0 268 -97q-43 135 -147 269l-234 -107l-45 98l207 93q-55 58 -123 106l102 127q98 -63 191 -156l217 101l45 -97l-186 -86q132 -155 205 -341t73 -373q0 -263 -146.5 -417.5t-387.5 -154.5q-231 0 -380 145.5t-149 372.5zM352 492 q0 -149 75.5 -234.5t201.5 -85.5t200 85.5t74 234.5t-74 234t-200 85t-201.5 -85t-75.5 -234z" />
<glyph unicode="&#xf1;" horiz-adv-x="1286" d="M154 1065h225q14 -62 24 -152q152 181 353 181q82 0 146.5 -24t105.5 -63t67.5 -92t37.5 -107.5t11 -113.5v-694h-245v657q0 114 -57.5 172t-157.5 58q-76 0 -142.5 -39t-107.5 -84v-764h-246v795q0 70 -3.5 137.5t-6.5 99.5zM238 1282q0 61 14 117t42.5 104t77.5 76.5 t113 28.5q45 0 85 -15t67.5 -37t52.5 -44t52.5 -37t54.5 -15q49 0 71.5 42t24.5 104h158q0 -50 -8.5 -96t-28 -88.5t-48 -73.5t-71.5 -49.5t-96 -18.5q-48 0 -88 15t-67 37t-51.5 43.5t-51.5 36.5t-56 15q-86 0 -90 -145h-157z" />
<glyph unicode="&#xf2;" horiz-adv-x="1277" d="M96 532q0 248 152 405t391 157t390 -157t151 -405t-151 -404.5t-390 -156.5t-391 157t-152 404zM266 1556h336l244 -301h-223zM352 532q0 -168 78 -264t209 -96q130 0 207.5 95.5t77.5 264.5q0 167 -77.5 264t-207.5 97t-208.5 -97t-78.5 -264z" />
<glyph unicode="&#xf3;" horiz-adv-x="1277" d="M96 532q0 248 152 405t391 157t390 -157t151 -405t-151 -404.5t-390 -156.5t-391 157t-152 404zM352 532q0 -168 78 -264t209 -96q130 0 207.5 95.5t77.5 264.5q0 167 -77.5 264t-207.5 97t-208.5 -97t-78.5 -264zM389 1255l244 301h336l-357 -301h-223z" />
<glyph unicode="&#xf4;" horiz-adv-x="1277" d="M96 532q0 248 152 405t391 157t390 -157t151 -405t-151 -404.5t-390 -156.5t-391 157t-152 404zM260 1255l250 312h254l250 -312h-223l-154 177l-154 -177h-223zM352 532q0 -168 78 -264t209 -96q130 0 207.5 95.5t77.5 264.5q0 167 -77.5 264t-207.5 97t-208.5 -97 t-78.5 -264z" />
<glyph unicode="&#xf5;" horiz-adv-x="1277" d="M96 532q0 248 152 405t391 157t390 -157t151 -405t-151 -404.5t-390 -156.5t-391 157t-152 404zM231 1282q0 61 14 117t42.5 104t78 76.5t113.5 28.5q45 0 85 -15t67.5 -37t52.5 -44t52.5 -37t54.5 -15q49 0 71.5 42t24.5 104h157q0 -50 -8.5 -96t-27.5 -88.5 t-47.5 -73.5t-71.5 -49.5t-96 -18.5q-48 0 -88 15t-67 37t-51.5 43.5t-51.5 36.5t-56 15q-86 0 -90 -145h-158zM352 532q0 -168 78 -264t209 -96q130 0 207.5 95.5t77.5 264.5q0 167 -77.5 264t-207.5 97t-208.5 -97t-78.5 -264z" />
<glyph unicode="&#xf6;" horiz-adv-x="1277" d="M96 532q0 248 152 405t391 157t390 -157t151 -405t-151 -404.5t-390 -156.5t-391 157t-152 404zM291 1386q0 57 37.5 95.5t95.5 38.5q57 0 94 -38.5t37 -95.5t-37 -95t-94 -38q-58 0 -95.5 38t-37.5 95zM352 532q0 -168 78 -264t209 -96q130 0 207.5 95.5t77.5 264.5 q0 167 -77.5 264t-207.5 97t-208.5 -97t-78.5 -264zM719 1386q0 57 38.5 95.5t96.5 38.5q56 0 93.5 -38.5t37.5 -95.5t-37.5 -95t-93.5 -38q-58 0 -96.5 38t-38.5 95z" />
<glyph unicode="&#xf7;" horiz-adv-x="1251" d="M113 485v211h1026v-211h-1026zM451 190q0 70 50 116t124 46q75 0 124.5 -46t49.5 -116t-49.5 -116.5t-124.5 -46.5q-74 0 -124 46.5t-50 116.5zM451 993q0 70 50 117t124 47q75 0 124.5 -46.5t49.5 -117.5t-49.5 -117.5t-124.5 -46.5q-74 0 -124 47t-50 117z" />
<glyph unicode="&#xf8;" horiz-adv-x="1277" d="M96 -29l137 170q-137 153 -137 391q0 248 152 405t391 157q157 0 291 -78l61 78h189l-138 -172q138 -154 138 -390q0 -248 -151 -404.5t-390 -156.5q-168 0 -293 78l-61 -78h-189zM352 532q0 -116 37 -194l404 508q-62 47 -154 47q-130 0 -208.5 -97t-78.5 -264zM481 217 q65 -45 158 -45q130 0 207.5 95.5t77.5 264.5q0 114 -37 195z" />
<glyph unicode="&#xf9;" horiz-adv-x="1286" d="M160 371v694h246v-659q0 -113 58 -171.5t159 -58.5q75 0 142 39.5t105 83.5v766h246v-795q0 -70 3.5 -137.5t6.5 -100.5l4 -32h-225q-14 60 -24 150q-151 -179 -351 -179q-102 0 -177 35.5t-115.5 95.5t-59 127t-18.5 142zM240 1556h335l244 -301h-223z" />
<glyph unicode="&#xfa;" horiz-adv-x="1286" d="M160 371v694h246v-659q0 -113 58 -171.5t159 -58.5q75 0 142 39.5t105 83.5v766h246v-795q0 -70 3.5 -137.5t6.5 -100.5l4 -32h-225q-14 60 -24 150q-151 -179 -351 -179q-102 0 -177 35.5t-115.5 95.5t-59 127t-18.5 142zM414 1255l243 301h336l-356 -301h-223z" />
<glyph unicode="&#xfb;" horiz-adv-x="1286" d="M160 371v694h246v-659q0 -113 58 -171.5t159 -58.5q75 0 142 39.5t105 83.5v766h246v-795q0 -70 3.5 -137.5t6.5 -100.5l4 -32h-225q-14 60 -24 150q-151 -179 -351 -179q-102 0 -177 35.5t-115.5 95.5t-59 127t-18.5 142zM264 1255l250 312h254l250 -312h-223l-154 177 l-154 -177h-223z" />
<glyph unicode="&#xfc;" horiz-adv-x="1286" d="M160 371v694h246v-659q0 -113 58 -171.5t159 -58.5q75 0 142 39.5t105 83.5v766h246v-795q0 -70 3.5 -137.5t6.5 -100.5l4 -32h-225q-14 60 -24 150q-151 -179 -351 -179q-102 0 -177 35.5t-115.5 95.5t-59 127t-18.5 142zM295 1386q0 57 37.5 95.5t95.5 38.5 q57 0 94 -38.5t37 -95.5t-37 -95t-94 -38q-58 0 -95.5 38t-37.5 95zM723 1386q0 57 38.5 95.5t96.5 38.5q56 0 93.5 -38.5t37.5 -95.5t-37.5 -95t-93.5 -38q-58 0 -96.5 38t-38.5 95z" />
<glyph unicode="&#xfd;" horiz-adv-x="1056" d="M6 -266q50 -21 111 -21q85 0 162 66t131 225l12 39l-414 1022h262l269 -721l239 721h258l-379 -1059q-95 -270 -220 -394t-300 -124q-34 0 -66.5 6t-48.5 12l-16 7v221zM338 1255l244 301h336l-357 -301h-223z" />
<glyph unicode="&#xfe;" horiz-adv-x="1325" d="M174 -512v1946h246v-465q134 125 315 125q215 0 351.5 -159.5t136.5 -402.5q0 -244 -136.5 -402.5t-351.5 -158.5q-174 0 -315 109v-592h-246zM420 270q106 -100 246 -100q135 0 219 95t84 267q0 167 -81.5 259t-217.5 92q-78 0 -143 -30.5t-107 -68.5v-514z" />
<glyph unicode="&#xff;" horiz-adv-x="1056" d="M6 -266q50 -21 111 -21q85 0 162 66t131 225l12 39l-414 1022h262l269 -721l239 721h258l-379 -1059q-95 -270 -220 -394t-300 -124q-34 0 -66.5 6t-48.5 12l-16 7v221zM195 1376q0 57 37.5 95t95.5 38q57 0 94 -38t37 -95t-37 -95t-94 -38q-58 0 -95.5 38t-37.5 95z M623 1376q0 57 38.5 95t96.5 38q56 0 93.5 -38t37.5 -95t-37.5 -95t-93.5 -38q-58 0 -96.5 38t-38.5 95z" />
<glyph unicode="&#x152;" horiz-adv-x="2013" d="M102 717q0 162 54 301t148 236.5t227 152.5t286 55q101 0 217 -28h860v-215h-600v-359h518v-215h-518v-430h600v-215h-858q-106 -29 -219 -29q-205 0 -368 94t-255 264.5t-92 387.5zM377 717q0 -235 125 -376.5t336 -141.5q107 0 196 39v956q-87 41 -196 41 q-211 0 -336 -142.5t-125 -375.5z" />
<glyph unicode="&#x153;" horiz-adv-x="2023" d="M96 532q0 248 152 405t391 157q127 0 233.5 -50t178.5 -139q70 89 172.5 139t224.5 50q213 0 345 -134t132 -356l-6 -125h-735q9 -149 94.5 -229t243.5 -80q92 0 184.5 29t167.5 80v-205q-72 -46 -176.5 -74.5t-214.5 -28.5q-138 0 -248.5 48.5t-183.5 138.5 q-72 -89 -177.5 -138t-234.5 -49q-239 0 -391 157t-152 404zM352 532q0 -168 78 -264t209 -96q130 0 207.5 95.5t77.5 264.5q0 167 -77.5 264t-207.5 97t-208.5 -97t-78.5 -264zM1188 651h485q1 119 -62 185.5t-165 66.5q-107 0 -174.5 -69.5t-83.5 -182.5z" />
<glyph unicode="&#x178;" horiz-adv-x="1202" d="M2 1434h287l311 -625l311 625h289l-469 -877v-557h-260v557zM254 1739q0 57 37.5 95t95.5 38q57 0 94 -38t37 -95t-37 -95t-94 -38q-58 0 -95.5 38t-37.5 95zM682 1739q0 57 38.5 95t96.5 38q56 0 93.5 -38t37.5 -95t-37.5 -95t-93.5 -38q-58 0 -96.5 38t-38.5 95z" />
<glyph unicode="&#x2c6;" horiz-adv-x="978" d="M113 1255l249 312h254l250 -312h-223l-154 177l-153 -177h-223z" />
<glyph unicode="&#x2dc;" horiz-adv-x="1038" d="M113 1282q0 61 14 117t42.5 104t77.5 76.5t113 28.5q45 0 85 -15t67.5 -37t52.5 -44t52.5 -37t54.5 -15q49 0 71.5 42t24.5 104h158q0 -50 -8.5 -96t-28 -88.5t-48 -73.5t-71.5 -49.5t-96 -18.5q-48 0 -88 15t-67 37t-51.5 43.5t-51.5 36.5t-56 15q-86 0 -90 -145h-157z " />
<glyph unicode="&#x2000;" horiz-adv-x="982" />
<glyph unicode="&#x2001;" horiz-adv-x="1964" />
<glyph unicode="&#x2002;" horiz-adv-x="982" />
<glyph unicode="&#x2003;" horiz-adv-x="1964" />
<glyph unicode="&#x2004;" horiz-adv-x="654" />
<glyph unicode="&#x2005;" horiz-adv-x="491" />
<glyph unicode="&#x2006;" horiz-adv-x="327" />
<glyph unicode="&#x2007;" horiz-adv-x="327" />
<glyph unicode="&#x2008;" horiz-adv-x="245" />
<glyph unicode="&#x2009;" horiz-adv-x="392" />
<glyph unicode="&#x200a;" horiz-adv-x="109" />
<glyph unicode="&#x2010;" horiz-adv-x="763" d="M113 508v211h538v-211h-538z" />
<glyph unicode="&#x2011;" horiz-adv-x="763" d="M113 508v211h538v-211h-538z" />
<glyph unicode="&#x2012;" horiz-adv-x="763" d="M113 508v211h538v-211h-538z" />
<glyph unicode="&#x2013;" horiz-adv-x="1306" d="M113 508v211h1081v-211h-1081z" />
<glyph unicode="&#x2014;" horiz-adv-x="2283" d="M113 508v211h2058v-211h-2058z" />
<glyph unicode="&#x2018;" horiz-adv-x="546" d="M80 1001q0 117 69 239.5t197 221.5l80 -88q-65 -55 -107.5 -119t-48.5 -118q71 -5 117.5 -53.5t46.5 -120.5q0 -76 -50 -124t-124 -48q-79 0 -129.5 55t-50.5 155z" />
<glyph unicode="&#x2019;" horiz-adv-x="544" d="M113 1290q0 75 49.5 123.5t124.5 48.5q78 0 128 -56.5t50 -156.5q0 -116 -69 -238.5t-197 -219.5l-80 86q64 55 106.5 119.5t48.5 119.5q-69 5 -115 53.5t-46 120.5z" />
<glyph unicode="&#x201a;" horiz-adv-x="512" d="M80 145q0 76 49 124t125 48q78 0 128 -55.5t50 -155.5q0 -117 -68.5 -239t-197.5 -221l-80 88q65 55 107.5 119t48.5 118q-70 5 -116 54t-46 120z" />
<glyph unicode="&#x201c;" horiz-adv-x="972" d="M80 1001q0 117 68.5 239.5t197.5 221.5l80 -88q-65 -55 -107.5 -119t-48.5 -118q70 -5 116 -54t46 -120q0 -76 -49 -124t-125 -48q-78 0 -128 55.5t-50 154.5zM506 1001q0 117 69 239.5t197 221.5l80 -88q-65 -55 -107.5 -119t-48.5 -118q71 -5 117.5 -53.5t46.5 -120.5 q0 -76 -50 -124t-124 -48q-79 0 -129.5 55t-50.5 155z" />
<glyph unicode="&#x201d;" horiz-adv-x="972" d="M113 1290q0 75 49.5 123.5t124.5 48.5q78 0 128 -56.5t50 -156.5q0 -116 -69 -238.5t-197 -219.5l-80 86q64 55 106.5 119.5t48.5 119.5q-69 5 -115 53.5t-46 120.5zM539 1290q0 74 50 123t124 49q79 0 129.5 -56.5t50.5 -156.5q0 -116 -69.5 -238.5t-196.5 -219.5 l-80 86q64 55 106.5 119.5t48.5 119.5q-71 5 -117 53.5t-46 120.5z" />
<glyph unicode="&#x201e;" horiz-adv-x="940" d="M80 145q0 76 49 124t125 48q78 0 128 -55.5t50 -155.5q0 -117 -68.5 -239t-197.5 -221l-80 88q65 55 107.5 119t48.5 118q-70 5 -116 54t-46 120zM506 145q0 76 50 124t124 48q79 0 129.5 -55.5t50.5 -155.5q0 -117 -69 -239t-197 -221l-80 88q65 55 107.5 119t48.5 118 q-71 5 -117.5 53.5t-46.5 120.5z" />
<glyph unicode="&#x2022;" horiz-adv-x="825" d="M154 672q0 109 74 184.5t184 75.5q109 0 184.5 -75.5t75.5 -184.5t-75.5 -183.5t-184.5 -74.5q-110 0 -184 74.5t-74 183.5z" />
<glyph unicode="&#x2026;" horiz-adv-x="1581" d="M80 145q0 75 49.5 123.5t124.5 48.5q74 0 123 -48.5t49 -123.5t-49 -124.5t-123 -49.5q-75 0 -124.5 49.5t-49.5 124.5zM616 145q0 74 50.5 123t124.5 49q75 0 124.5 -48.5t49.5 -123.5t-49.5 -124.5t-124.5 -49.5q-74 0 -124.5 49.5t-50.5 124.5zM1155 145 q0 75 49.5 123.5t124.5 48.5q74 0 123 -48.5t49 -123.5t-49 -124.5t-123 -49.5q-75 0 -124.5 49.5t-49.5 124.5z" />
<glyph unicode="&#x202f;" horiz-adv-x="392" />
<glyph unicode="&#x2039;" horiz-adv-x="753" d="M82 430v219l477 410v-223l-278 -297l278 -295v-224z" />
<glyph unicode="&#x203a;" horiz-adv-x="753" d="M195 20v224l278 295l-278 297v223l477 -410v-219z" />
<glyph unicode="&#x205f;" horiz-adv-x="491" />
<glyph unicode="&#x20ac;" horiz-adv-x="1509" d="M113 481v164h161q-4 24 -4 72q0 46 4 74h-161v163h188q65 232 247 370t431 138q231 0 418 -108l-107 -201q-136 82 -291 82q-148 0 -254.5 -74t-158.5 -207h602q-12 -22 -40 -78t-44 -85h-555q-4 -28 -4 -74q0 -48 4 -72h477q-12 -23 -40 -79t-44 -85h-356 q52 -135 158 -208.5t255 -73.5q158 0 291 80l107 -201q-189 -107 -418 -107q-250 0 -431.5 137.5t-246.5 372.5h-188z" />
<glyph unicode="&#x2122;" horiz-adv-x="1998" d="M72 1290v144h714v-144h-270v-672h-176v672h-268zM895 618v822h117l342 -457l340 457h114v-822h-174v496l-256 -344h-51l-256 344v-496h-176z" />
<glyph unicode="&#x25fc;" horiz-adv-x="1064" d="M0 0v1065h1065v-1065h-1065z" />
<glyph unicode="&#xfb01;" horiz-adv-x="1345" d="M41 866v199h174v100q0 160 82.5 245t230.5 85q58 0 115.5 -9.5t75.5 -17.5v-200q-69 26 -141 26q-119 0 -119 -123v-106h248v-199h-248v-866h-244v866h-174zM905 1364q0 62 40.5 98.5t103.5 36.5q64 0 103.5 -36.5t39.5 -98.5q0 -61 -39.5 -97t-103.5 -36 q-63 0 -103.5 36.5t-40.5 96.5zM926 0v1065h245v-1065h-245z" />
<glyph unicode="&#xfb02;" horiz-adv-x="1456" d="M41 866v199h174v100q0 160 82.5 245t230.5 85q58 0 115.5 -9.5t75.5 -17.5v-200q-69 26 -141 26q-119 0 -119 -123v-106h248v-199h-248v-866h-244v866h-174zM926 340v1155h245v-1163q0 -81 35 -114.5t105 -33.5q29 0 56.5 5t40.5 9l13 5v-207q-82 -25 -176 -25 q-167 0 -243 89t-76 280z" />
</font>
</defs>
</svg>
