<?xml version="1.0" standalone="no"?>
<!DOCTYPE svg PUBLIC "-//W3C//DTD SVG 1.1//EN" "http://www.w3.org/Graphics/SVG/1.1/DTD/svg11.dtd" >
<svg xmlns="http://www.w3.org/2000/svg">
<metadata></metadata>
<defs>
<font id="matterhornregular" horiz-adv-x="1261" >
<font-face units-per-em="2048" ascent="1536" descent="-512" />
<missing-glyph horiz-adv-x="573" />
<glyph horiz-adv-x="0" />
<glyph horiz-adv-x="682" />
<glyph unicode=" "  horiz-adv-x="573" />
<glyph unicode="&#x09;" horiz-adv-x="573" />
<glyph unicode="&#xa0;" horiz-adv-x="573" />
<glyph unicode="!" horiz-adv-x="538" d="M123 119q0 63 42 104t105 41t104.5 -41t41.5 -104t-41.5 -105.5t-104.5 -42.5t-105 42.5t-42 105.5zM166 1434h209l-21 -957h-168z" />
<glyph unicode="&#x22;" horiz-adv-x="765" d="M123 1462h182l-33 -536h-141zM481 1462h183l-33 -536h-142z" />
<glyph unicode="#" horiz-adv-x="1349" d="M123 401v148h229l45 336h-207v147h228l53 402h154l-54 -402h291l53 402h154l-53 -402h211v-147h-232l-45 -336h209v-148h-227l-53 -401h-154l53 401h-291l-53 -401h-153l53 401h-211zM506 549h291l45 336h-291z" />
<glyph unicode="$" horiz-adv-x="1067" d="M123 63v213q57 -53 152.5 -93t195.5 -40q123 0 202 66t79 170q0 49 -21 90.5t-57 72t-82.5 58.5t-97.5 54.5t-102.5 54.5t-98 64t-82.5 78t-57 101t-21 129q0 153 92.5 251t247.5 122v182h168v-178q149 -16 250 -76v-217q-52 48 -140 86.5t-182 38.5q-108 0 -170.5 -54 t-62.5 -140q0 -46 21 -85.5t57 -69.5t82.5 -58t97.5 -55t102 -56.5t97.5 -67t82.5 -81.5t57 -105t21 -133q0 -149 -89 -253t-236 -142v-232h-168v213q-100 3 -194 31.5t-144 60.5z" />
<glyph unicode="%" horiz-adv-x="1871" d="M123 1034q0 181 92 290.5t242 109.5t242 -109.5t92 -290.5q0 -180 -92 -289.5t-242 -109.5t-242 109.5t-92 289.5zM274 1034q0 -117 50 -187.5t133 -70.5t132.5 70.5t49.5 187.5t-49.5 187.5t-132.5 70.5t-133 -70.5t-50 -187.5zM512 -29l707 1491h141l-707 -1491h-141z M1081 399q0 180 92.5 290t241.5 110t241.5 -110t92.5 -290q0 -181 -92 -290t-242 -109t-242 109t-92 290zM1233 399q0 -117 49.5 -187.5t132.5 -70.5t132.5 70.5t49.5 187.5t-49.5 187.5t-132.5 70.5t-132.5 -70.5t-49.5 -187.5z" />
<glyph unicode="&#x26;" horiz-adv-x="1355" d="M123 344q0 63 18 120t46 100t72.5 85t85.5 72t97 65q-143 183 -143 342q0 63 22.5 121.5t65.5 106.5t112 77t154 29q145 0 240.5 -79.5t95.5 -217.5q0 -56 -19 -107.5t-46 -89.5t-73.5 -78t-85 -66t-97.5 -62l284 -316q47 114 70 250h162q-28 -215 -115 -379l285 -317 h-236l-149 172q-175 -201 -432 -201q-188 0 -301 103t-113 270zM315 369q0 -104 69.5 -167t180.5 -63q173 0 297 156l-327 383q-106 -72 -163 -143.5t-57 -165.5zM473 1124q0 -122 102 -256q57 36 94.5 63.5t74.5 64t55 76.5t18 85q0 73 -45.5 117.5t-118.5 44.5 q-81 0 -130.5 -54.5t-49.5 -140.5z" />
<glyph unicode="'" horiz-adv-x="407" d="M123 1462h182l-33 -536h-141z" />
<glyph unicode="(" horiz-adv-x="811" d="M164 659q0 539 350 959h215q-74 -76 -138.5 -170.5t-121 -214t-89 -268.5t-32.5 -306t32.5 -305t89 -267.5t120.5 -213.5t139 -170h-213q-158 185 -255 425.5t-97 530.5z" />
<glyph unicode=")" horiz-adv-x="811" d="M82 -297q75 76 139 170t120.5 213.5t89 267.5t32.5 305t-32.5 306t-89 268.5t-121 214t-138.5 170.5h215q350 -420 350 -959q0 -290 -97 -530.5t-255 -425.5h-213z" />
<glyph unicode="*" horiz-adv-x="1122" d="M123 1112l53 166l318 -125l-21 342h174l-20 -342l319 125l53 -166l-331 -86l219 -264l-142 -103l-184 289l-182 -289l-141 103l217 266z" />
<glyph unicode="+" horiz-adv-x="1296" d="M123 514v156h446v487h156v-487h449v-156h-449v-489h-156v489h-446z" />
<glyph unicode="," horiz-adv-x="485" d="M90 119q0 63 42.5 104t105.5 41q67 0 112 -49.5t45 -136.5q0 -104 -65 -213t-172 -193l-66 72q64 58 104 119.5t46 107.5q-64 2 -108 44t-44 104z" />
<glyph unicode="-" horiz-adv-x="733" d="M123 543v151h487v-151h-487z" />
<glyph unicode="." horiz-adv-x="473" d="M90 119q0 63 42.5 104t105.5 41t104 -41t41 -104t-41 -105.5t-104 -42.5t-105.5 42.5t-42.5 105.5z" />
<glyph unicode="/" horiz-adv-x="753" d="M41 -152l496 1737h176l-496 -1737h-176z" />
<glyph unicode="0" horiz-adv-x="1314" d="M133 717q0 334 144.5 539.5t379.5 205.5t380 -205.5t145 -539.5t-145 -540t-380 -206q-155 0 -274 93t-184.5 262.5t-65.5 390.5zM332 717q0 -262 90 -421t235 -159t235.5 159.5t90.5 420.5t-90.5 420t-235.5 159t-235 -159t-90 -420z" />
<glyph unicode="1" horiz-adv-x="720" d="M51 1276v158h455v-1434h-187v1276h-268z" />
<glyph unicode="2" horiz-adv-x="1122" d="M72 0v61l405 488q136 163 199 274.5t63 218.5q0 121 -75.5 187.5t-202.5 66.5q-168 0 -340 -133v195q159 104 366 104q205 0 328 -114t123 -299q0 -120 -60.5 -240t-197.5 -283l-307 -362h616v-164h-917z" />
<glyph unicode="3" horiz-adv-x="1112" d="M113 43v178q68 -37 154 -60.5t167 -23.5q158 0 252 82t94 211q0 134 -102 217.5t-301 83.5l-37 -2v86l319 461h-542v158h827v-62l-360 -512q175 -30 285 -146t110 -284q0 -97 -36 -180.5t-103 -145.5t-168.5 -97.5t-225.5 -35.5q-181 0 -333 72z" />
<glyph unicode="4" horiz-adv-x="1214" d="M31 307v62l825 1093h62v-997h204v-158h-204v-307h-187v307h-700zM281 465h450v594z" />
<glyph unicode="5" horiz-adv-x="1132" d="M133 43v178q154 -84 318 -84q158 0 254 82t96 219q0 136 -96 216.5t-254 80.5q-74 0 -141.5 -14.5t-98.5 -29.5l-31 -15l43 758h727v-158h-555l-26 -395q53 12 114 12q112 0 208 -36t162 -97t103 -144.5t37 -177.5q0 -95 -37 -179.5t-103.5 -148.5t-167 -101.5 t-220.5 -37.5q-180 0 -332 72z" />
<glyph unicode="6" horiz-adv-x="1173" d="M92 451q0 158 92 290l486 693h225l-367 -508q23 4 54 4q212 0 350.5 -134.5t138.5 -344.5t-138.5 -345t-350.5 -135t-351 135t-139 345zM291 451q0 -138 83.5 -226t207.5 -88t207 88t83 226t-83 225.5t-207 87.5q-125 0 -208 -87.5t-83 -225.5z" />
<glyph unicode="7" horiz-adv-x="1052" d="M55 1276v158h946v-62l-632 -1372h-205l590 1276h-699z" />
<glyph unicode="8" horiz-adv-x="1220" d="M123 375q0 65 21 122.5t52 96t73.5 71t78 51t74.5 32.5q-54 27 -94 55.5t-76 68.5t-55 93t-19 118q0 121 65 209t164 129t216 41q183 0 305.5 -98.5t122.5 -257.5q0 -56 -17.5 -107.5t-43.5 -87.5t-62 -68t-66 -50.5t-63 -34.5q62 -30 108 -60t93 -75.5t72.5 -108 t25.5 -137.5q0 -120 -65 -213.5t-176.5 -143t-250.5 -49.5q-213 0 -348 113.5t-135 290.5zM322 379q0 -112 79 -184t209 -72q129 0 210 70.5t81 181.5q0 49 -20.5 91t-42 67.5t-77 57.5t-81 43.5t-98.5 42.5q-7 3 -11 5q-29 -12 -56 -26t-64 -41t-64 -58.5t-46 -78.5 t-19 -99zM375 1094q0 -50 20.5 -91t62.5 -74t85 -56t108 -50q37 17 69 38.5t67.5 54.5t56 78.5t20.5 97.5q0 96 -66.5 157.5t-172.5 61.5q-105 0 -177.5 -60.5t-72.5 -156.5z" />
<glyph unicode="9" horiz-adv-x="1173" d="M102 983q0 210 139 344.5t351 134.5t350.5 -134.5t138.5 -344.5q0 -159 -92 -291l-485 -692h-225l366 508q-22 -4 -53 -4q-212 0 -351 134.5t-139 344.5zM301 983q0 -138 83 -225.5t208 -87.5t208 87.5t83 225.5t-83 225.5t-208 87.5t-208 -87.5t-83 -225.5z" />
<glyph unicode=":" horiz-adv-x="538" d="M123 119q0 63 42 104t105 41t104.5 -41t41.5 -104t-41.5 -105.5t-104.5 -42.5t-105 42.5t-42 105.5zM123 846q0 63 42 104t105 41t104.5 -41t41.5 -104t-41.5 -105.5t-104.5 -42.5t-105 42.5t-42 105.5z" />
<glyph unicode=";" horiz-adv-x="550" d="M123 119q0 63 42 104t105 41q68 0 113 -49.5t45 -136.5q0 -103 -65.5 -212.5t-172.5 -193.5l-65 72q64 58 103.5 119.5t45.5 107.5q-64 2 -107.5 44t-43.5 104zM123 846q0 63 42 104t105 41t104.5 -41t41.5 -104t-41.5 -105.5t-104.5 -42.5t-105 42.5t-42 105.5z" />
<glyph unicode="&#x3c;" horiz-adv-x="1286" d="M82 512v158l1040 512v-185l-864 -405l864 -408v-184z" />
<glyph unicode="=" horiz-adv-x="1542" d="M205 279v155h1132v-155h-1132zM205 748v155h1132v-155h-1132z" />
<glyph unicode="&#x3e;" horiz-adv-x="1286" d="M164 0v184l864 408l-864 405v185l1040 -512v-158z" />
<glyph unicode="?" horiz-adv-x="856" d="M102 1237v172q135 53 263 53q177 0 289 -91t112 -241q0 -61 -19.5 -112.5t-50.5 -89t-69 -72.5l-76 -70t-69 -72.5t-50.5 -89t-19.5 -112.5q0 -23 2 -35h-152q-6 44 -6 78q0 80 31.5 149t76 117t89.5 92.5t76.5 96.5t31.5 108q0 82 -61.5 128t-165.5 46q-107 0 -232 -55z M190 119q0 63 42.5 104t105.5 41t104 -41t41 -104t-41 -105.5t-104 -42.5t-105.5 42.5t-42.5 105.5z" />
<glyph unicode="@" horiz-adv-x="1890" d="M123 528q0 199 65 372t180.5 297t282.5 194.5t363 70.5q215 0 386.5 -91.5t269 -257t97.5 -376.5q0 -246 -114.5 -400.5t-292.5 -154.5q-48 0 -90 12.5t-67 31t-43.5 36.5t-25.5 30l-8 13q-35 -27 -60 -43.5t-81 -35.5t-117 -19q-149 0 -229 96t-80 264q0 204 107.5 344 t267.5 140q114 0 199 -88l8 79h159l-55 -575q-6 -65 27.5 -105t99.5 -40q102 0 166 113t64 298q0 268 -165 428t-431 160q-209 0 -373 -102t-253 -280.5t-89 -401.5q0 -188 79.5 -324.5t219.5 -206t323 -69.5q222 0 390 106l75 -123q-214 -127 -477 -127q-226 0 -402 88 t-276 256t-100 391zM733 592q0 -45 8.5 -83.5t27 -72t53 -52.5t81.5 -19q51 0 99 19.5t77 41.5l41 403q-23 23 -66 43.5t-96 20.5q-74 0 -126.5 -46t-75.5 -112t-23 -143z" />
<glyph unicode="A" horiz-adv-x="1302" d="M2 0l612 1450h74l612 -1450h-204l-125 305h-641l-123 -305h-205zM397 469h506l-252 621z" />
<glyph unicode="B" horiz-adv-x="1286" d="M205 0v1434h450q208 0 328.5 -96t120.5 -251q0 -106 -57.5 -186t-169.5 -113v-4q138 -30 222.5 -135.5t84.5 -236.5q0 -181 -141.5 -296.5t-372.5 -115.5h-465zM397 164h279q146 0 227.5 76t81.5 192t-81.5 192t-227.5 76h-279v-536zM397 864h265q120 0 181.5 56.5 t61.5 146.5t-61.5 146.5t-181.5 56.5h-265v-406z" />
<glyph unicode="C" horiz-adv-x="1318" d="M113 717q0 217 86.5 386.5t244.5 264t361 94.5q212 0 391 -92v-205q-183 125 -387 125q-223 0 -357.5 -155.5t-134.5 -417.5t134.5 -418t357.5 -156q204 0 387 125v-205q-179 -92 -391 -92q-203 0 -361 94.5t-244.5 264.5t-86.5 387z" />
<glyph unicode="D" horiz-adv-x="1447" d="M205 0v1434h340q200 0 352 -51t247.5 -146.5t143 -226t47.5 -293.5t-47.5 -293.5t-143 -226t-247.5 -146.5t-352 -51h-340zM397 164h148q293 0 439 143t146 410t-146 410t-439 143h-148v-1106z" />
<glyph unicode="E" horiz-adv-x="1146" d="M205 0v1434h799v-164h-607v-420h545v-164h-545v-522h607v-164h-799z" />
<glyph unicode="F" horiz-adv-x="1085" d="M205 0v1434h778v-164h-586v-457h545v-164h-545v-649h-192z" />
<glyph unicode="G" horiz-adv-x="1454" d="M113 717q0 217 89 386.5t251.5 264t371.5 94.5q233 0 432 -92v-205q-198 125 -428 125q-234 0 -373 -155.5t-139 -417.5t146.5 -418t392.5 -156q123 0 242 37v338h-273v164h465v-619q-199 -92 -438 -92q-161 0 -299 55.5t-234.5 153t-151 236.5t-54.5 301z" />
<glyph unicode="H" horiz-adv-x="1495" d="M205 0v1434h192v-584h701v584h192v-1434h-192v686h-701v-686h-192z" />
<glyph unicode="I" horiz-adv-x="602" d="M205 0v1434h192v-1434h-192z" />
<glyph unicode="J" horiz-adv-x="868" d="M20 10v185q104 -52 230 -52q64 0 111 21t72 57.5t36.5 77t11.5 86.5v1049h193v-1049q0 -195 -116 -304.5t-296 -109.5q-61 0 -133.5 12.5t-108.5 26.5z" />
<glyph unicode="K" horiz-adv-x="1280" d="M205 0v1434h192v-754l607 754h245l-538 -654l567 -780h-248l-438 637l-195 -176v-461h-192z" />
<glyph unicode="L" horiz-adv-x="1024" d="M205 0v1434h192v-1270h607v-164h-799z" />
<glyph unicode="M" horiz-adv-x="1851" d="M205 0v1450h61l660 -887l659 887h62v-1450h-193v973l-498 -664h-61l-498 664v-973h-192z" />
<glyph unicode="N" horiz-adv-x="1609" d="M205 0v1450h61l946 -1051v1035h193v-1450h-62l-946 1048v-1032h-192z" />
<glyph unicode="O" horiz-adv-x="1642" d="M113 717q0 216 89.5 386t251 264.5t367.5 94.5t367.5 -94.5t251.5 -264.5t90 -386t-90 -386.5t-251.5 -265t-367.5 -94.5q-154 0 -286 55.5t-224.5 153t-145 236.5t-52.5 301zM317 717q0 -259 139.5 -416.5t364.5 -157.5t364.5 157.5t139.5 416.5q0 258 -139.5 415.5 t-364.5 157.5t-364.5 -157.5t-139.5 -415.5z" />
<glyph unicode="P" horiz-adv-x="1198" d="M205 0v1434h387q255 0 396.5 -124t141.5 -331t-141.5 -331t-396.5 -124h-195v-524h-192zM397 688h195q164 0 249 75t85 216t-85 216t-249 75h-195v-582z" />
<glyph unicode="Q" horiz-adv-x="1642" d="M113 717q0 216 89.5 386t251 264.5t367.5 94.5t367.5 -94.5t251.5 -264.5t90 -386q0 -158 -49 -292.5t-140 -234.5l250 -276h-227l-152 168q-168 -111 -391 -111q-154 0 -286 55.5t-224.5 153t-145 236.5t-52.5 301zM317 717q0 -259 139.5 -416.5t364.5 -157.5 q153 0 271 76l-226 252l131 104l215 -241q113 154 113 383q0 258 -139.5 415.5t-364.5 157.5t-364.5 -157.5t-139.5 -415.5z" />
<glyph unicode="R" horiz-adv-x="1275" d="M205 0v1434h381q245 0 384.5 -117t139.5 -313q0 -139 -73.5 -242t-207.5 -150l445 -612h-240l-395 575h-242v-575h-192zM397 737h189q157 0 238 67.5t81 199.5t-81 199t-238 67h-189v-533z" />
<glyph unicode="S" horiz-adv-x="1067" d="M123 63v211q57 -53 152.5 -93t195.5 -40q123 0 203 67t80 171q0 49 -21 91t-57 73t-83 59.5t-98.5 55.5t-102.5 55.5t-98 64t-83 77.5t-57 100t-21 126q0 178 121 279.5t313 101.5q96 0 183.5 -24.5t140.5 -55.5v-215q-52 48 -140 86.5t-182 38.5q-108 0 -171.5 -55 t-63.5 -141q0 -46 21 -86t57 -71t82.5 -59.5t98 -56t103 -57t98 -67t82.5 -81t57 -103.5t21 -130q0 -124 -64 -219t-172.5 -145t-242.5 -50q-104 0 -201 29.5t-151 62.5z" />
<glyph unicode="T" horiz-adv-x="1093" d="M8 1270v164h1077v-164h-442v-1270h-192v1270h-443z" />
<glyph unicode="U" horiz-adv-x="1495" d="M195 500v934h192v-936q0 -359 361 -359q360 0 360 359v936h192v-934q0 -262 -148.5 -395.5t-403.5 -133.5t-404 133.5t-149 395.5z" />
<glyph unicode="V" d="M2 1434h205l424 -1084l424 1084h205l-592 -1450h-74z" />
<glyph unicode="W" horiz-adv-x="1941" d="M20 1434h199l316 -1022l405 1038h61l406 -1038l315 1022h199l-457 -1450h-73l-420 1079l-420 -1079h-74z" />
<glyph unicode="X" horiz-adv-x="1257" d="M45 0l479 741l-448 693h225l328 -541l327 541h226l-449 -693l479 -741h-225l-358 588l-359 -588h-225z" />
<glyph unicode="Y" horiz-adv-x="1093" d="M2 1434h213l332 -656l332 656h213l-449 -846v-588h-192v588z" />
<glyph unicode="Z" horiz-adv-x="1142" d="M90 0v61l664 1209h-643v164h911v-62l-666 -1208h697v-164h-963z" />
<glyph unicode="[" horiz-adv-x="866" d="M246 -297v1915h477v-160h-289v-1595h289v-160h-477z" />
<glyph unicode="\" horiz-adv-x="753" d="M41 1585h176l496 -1737h-176z" />
<glyph unicode="]" horiz-adv-x="866" d="M143 -137h289v1595h-289v160h478v-1915h-478v160z" />
<glyph unicode="^" horiz-adv-x="1042" d="M123 776l315 686h166l316 -686h-170l-230 520l-227 -520h-170z" />
<glyph unicode="_" horiz-adv-x="1220" d="M-20 -369h1261v-143h-1261v143z" />
<glyph unicode="`" horiz-adv-x="749" d="M102 1556h275l250 -301h-162z" />
<glyph unicode="a" horiz-adv-x="1095" d="M92 297q0 151 119 246.5t317 95.5q80 0 193 -25v91q0 114 -56.5 171.5t-189.5 57.5q-153 0 -305 -84v174q166 70 344 70q188 0 287.5 -91t99.5 -258v-487q0 -66 24 -94.5t76 -28.5q8 0 18.5 2.5t17.5 4.5l7 3v-133q-45 -22 -120 -22q-78 0 -130 44.5t-65 110.5h-4 q-23 -41 -59 -77t-102.5 -66.5t-143.5 -30.5q-152 0 -240 89t-88 237zM281 305q0 -77 48 -122.5t142 -45.5q89 0 155 45t95 117v178q-89 33 -176 33q-110 0 -187 -56.5t-77 -148.5z" />
<glyph unicode="b" horiz-adv-x="1294" d="M170 0q14 112 14 270v1225h181v-520q151 119 335 119q145 0 255 -72.5t168.5 -199.5t58.5 -290t-58.5 -290t-168.5 -199t-255 -72q-203 0 -366 142q-4 -25 -10 -53.5t-10 -43.5l-5 -16h-139zM365 266q18 -20 41 -39t61 -43t89.5 -38.5t107.5 -14.5q152 0 238.5 108 t86.5 293t-86.5 293.5t-238.5 108.5q-55 0 -106 -14.5t-89 -38.5t-61.5 -43.5t-42.5 -40.5v-531z" />
<glyph unicode="c" horiz-adv-x="1044" d="M113 532q0 248 156 405t403 157q143 0 260 -54v-172q-128 66 -260 66q-168 0 -267.5 -109t-99.5 -293t99.5 -292.5t267.5 -108.5q132 0 260 66v-172q-117 -54 -260 -54q-247 0 -403 156.5t-156 404.5z" />
<glyph unicode="d" horiz-adv-x="1294" d="M113 532q0 248 131.5 405t349.5 157q185 0 336 -119v520h180v-1225q0 -70 3.5 -137.5t6.5 -100.5l4 -32h-139q-17 56 -27 113q-163 -142 -364 -142q-145 0 -255 72t-168 199t-58 290zM305 532q0 -185 87 -293t239 -108q170 0 299 135v531q-18 20 -41 39.5t-61 43.5 t-89.5 39t-107.5 15q-152 0 -239 -108.5t-87 -293.5z" />
<glyph unicode="e" horiz-adv-x="1198" d="M113 530q0 248 143 406t365 158q210 0 337 -132.5t127 -355.5l-4 -106h-776q6 -175 97.5 -272t265.5 -97q178 0 368 109v-172q-74 -42 -174.5 -69.5t-204.5 -27.5q-248 0 -396 153.5t-148 405.5zM315 651h574q0 142 -76.5 212.5t-194.5 70.5q-119 0 -197.5 -75 t-105.5 -208z" />
<glyph unicode="f" horiz-adv-x="702" d="M51 913v152h174v121q0 147 73 228t212 81q37 0 77.5 -5t62.5 -10l22 -5v-156q-65 20 -133 20q-67 0 -100 -34.5t-33 -116.5v-123h256v-152h-256v-913h-181v913h-174z" />
<glyph unicode="g" horiz-adv-x="1294" d="M113 543q0 246 131 398.5t350 152.5q199 0 367 -144q4 27 10 56t10 44l4 15h139q-14 -112 -14 -270v-795q0 -234 -140 -373t-382 -139q-124 0 -224 34t-163 77v174q37 -26 82 -50t131 -49.5t170 -25.5q169 0 257.5 93.5t88.5 258.5v109q-149 -117 -336 -117 q-220 0 -350.5 153t-130.5 398zM305 543q0 -184 86.5 -287.5t237.5 -103.5q172 0 301 135v512q-128 135 -301 135q-151 0 -237.5 -103.5t-86.5 -287.5z" />
<glyph unicode="h" horiz-adv-x="1247" d="M184 0v1495h181v-551q155 150 344 150q81 0 144.5 -24t103.5 -63t66.5 -92t37 -107.5t10.5 -113.5v-694h-180v684q0 116 -65 183t-173 67q-142 0 -288 -146v-788h-181z" />
<glyph unicode="i" horiz-adv-x="548" d="M164 1352q0 47 31.5 78.5t78.5 31.5t79 -31.5t32 -78.5t-32 -79t-79 -32t-78.5 32t-31.5 79zM184 0v1065h181v-1065h-181z" />
<glyph unicode="j" horiz-adv-x="548" d="M2 -346q27 -6 68 -6q60 0 87 29.5t27 115.5v1272h181v-1280q0 -151 -63 -224t-208 -73q-23 0 -46 2.5t-34 5.5l-12 2v156zM164 1352q0 47 31.5 78.5t78.5 31.5t79 -31.5t32 -78.5t-32 -79t-79 -32t-78.5 32t-31.5 79z" />
<glyph unicode="k" horiz-adv-x="1095" d="M184 0v1495h181v-987l450 557h232l-385 -449l423 -616h-217l-315 492l-188 -181v-311h-181z" />
<glyph unicode="l" horiz-adv-x="653" d="M184 289v1206h181v-1219q0 -84 32.5 -114.5t102.5 -30.5q29 0 56 4.5t40 9.5l12 5v-156q-69 -23 -153 -23q-145 0 -208 78t-63 240z" />
<glyph unicode="m" horiz-adv-x="1871" d="M170 1065h160q14 -51 24 -127q151 156 334 156q218 0 303 -191q15 19 32 38t53 48.5t74 51t92.5 37.5t111.5 16q76 0 136 -24t98 -63t63 -92t35 -107.5t10 -113.5v-694h-180v684q0 116 -59.5 183t-158.5 67q-133 0 -276 -152q8 -58 8 -88v-694h-180v684q0 116 -59 183 t-158 67q-132 0 -268 -143v-791h-181v795q0 70 -3.5 137.5t-6.5 99.5z" />
<glyph unicode="n" horiz-adv-x="1247" d="M170 1065h160q14 -53 24 -131q60 62 150.5 111t204.5 49q81 0 144.5 -24t103.5 -63t66.5 -92t37 -107.5t10.5 -113.5v-694h-180v684q0 116 -65 183t-173 67q-145 0 -288 -143v-791h-181v795q0 70 -3.5 137.5t-6.5 99.5z" />
<glyph unicode="o" d="M113 532q0 248 144.5 405t373.5 157t373.5 -157t144.5 -405t-144.5 -404.5t-373.5 -156.5t-373.5 156.5t-144.5 404.5zM305 532q0 -184 88.5 -292.5t237.5 -108.5t237 108.5t88 292.5q0 185 -88 293.5t-237 108.5t-237.5 -109t-88.5 -293z" />
<glyph unicode="p" horiz-adv-x="1294" d="M170 1065h139q17 -56 25 -113q168 142 366 142q145 0 255 -72.5t168.5 -199.5t58.5 -290t-58.5 -290t-168.5 -199t-255 -72q-184 0 -335 119v-602h-181v1307q0 70 -3.5 137.5t-6.5 99.5zM365 266q18 -20 41 -39t61 -43t89.5 -38.5t107.5 -14.5q152 0 238.5 108t86.5 293 t-86.5 293.5t-238.5 108.5q-55 0 -106 -14.5t-89 -38.5t-61.5 -43.5t-42.5 -40.5v-531z" />
<glyph unicode="q" horiz-adv-x="1294" d="M113 532q0 248 131.5 405t349.5 157q196 0 364 -142q4 25 11 53.5t11 44.5l5 15h139q-14 -112 -14 -270v-1307h-180v602q-151 -119 -336 -119q-145 0 -255 72t-168 199t-58 290zM305 532q0 -185 87 -293t239 -108q170 0 299 135v531q-18 20 -41 39.5t-61 43.5t-89.5 39 t-107.5 15q-152 0 -239 -108.5t-87 -293.5z" />
<glyph unicode="r" horiz-adv-x="796" d="M170 1065h158q18 -57 28 -139h4q113 168 297 168q33 0 62.5 -6t42.5 -12l14 -7v-184q-67 28 -153 28q-45 0 -88.5 -13t-73 -31.5t-52 -37.5t-33.5 -32l-11 -13v-786h-181v795q0 70 -3.5 137.5t-6.5 99.5z" />
<glyph unicode="s" horiz-adv-x="925" d="M123 63v179q60 -51 144 -82t165 -31q90 0 144.5 44t54.5 112q0 44 -27.5 78.5t-71 58.5t-96.5 46.5t-106 49.5t-96.5 60t-71 86t-27.5 120q0 138 98 224t254 86q86 0 159 -23t116 -53v-184q-55 45 -126.5 73t-143.5 29h-4q-82 0 -126 -38q-46 -38 -45 -95 q0 -41 27.5 -73.5t71 -56t96.5 -46.5t106 -52t96.5 -65t71 -93t27.5 -128q0 -145 -106 -231.5t-277 -86.5q-94 0 -177.5 28.5t-129.5 63.5z" />
<glyph unicode="t" horiz-adv-x="743" d="M51 913v152h174v235l181 41v-276h256v-152h-256v-634q0 -82 33 -117t100 -35q30 0 63.5 5t51.5 10l18 5v-155q-78 -21 -162 -21q-139 0 -212 81.5t-73 228.5v632h-174z" />
<glyph unicode="u" horiz-adv-x="1247" d="M176 371v694h180v-684q0 -116 65 -183t173 -67q87 0 164 46.5t125 96.5v791h180v-795q0 -70 3.5 -137.5t7.5 -100.5l3 -32h-159q-17 51 -27 129q-158 -158 -352 -158q-100 0 -173.5 35.5t-113 95.5t-58 127t-18.5 142z" />
<glyph unicode="v" horiz-adv-x="1040" d="M20 1065h193l307 -750l307 750h193l-471 -1081h-57z" />
<glyph unicode="w" horiz-adv-x="1634" d="M20 1065h189l260 -725l317 741h62l317 -741l260 725h189l-410 -1081h-57l-330 770l-330 -770h-57z" />
<glyph unicode="x" horiz-adv-x="1056" d="M29 0l401 553l-373 512h217l254 -375l254 375h217l-372 -512l401 -553h-217l-283 414l-282 -414h-217z" />
<glyph unicode="y" horiz-adv-x="1011" d="M10 -319q39 -19 84 -19q100 0 178 78.5t142 271.5l14 43l-418 1010h201l305 -797l268 797h197l-379 -1053q-44 -122 -90.5 -213t-105 -163.5t-131 -110t-156.5 -37.5q-24 0 -51.5 6t-42.5 12l-15 5v170z" />
<glyph unicode="z" horiz-adv-x="942" d="M61 0v61l533 852h-512v152h768v-61l-533 -852h553v-152h-809z" />
<glyph unicode="{" horiz-adv-x="841" d="M123 592v139q74 0 122 12t72 36.5t32.5 53t8.5 70.5q0 77 -34.5 231.5t-34.5 227.5q0 45 8.5 79.5t35 69t70.5 57t118.5 36.5t176.5 14v-154q-117 0 -168 -27t-51 -112q0 -53 31 -201t31 -215q0 -110 -56.5 -169t-154.5 -72v-15q211 -36 211 -241q0 -67 -31 -214 t-31 -200q0 -36 10 -61.5t26.5 -40.5t46 -23.5t60 -11t76.5 -2.5v-156q-102 0 -177 14t-118.5 37t-70 57.5t-35 69.5t-8.5 80q0 73 34.5 226.5t34.5 230.5q0 42 -8.5 70.5t-32.5 54t-72 37.5t-122 12z" />
<glyph unicode="|" horiz-adv-x="684" d="M246 -348v2007h192v-2007h-192z" />
<glyph unicode="}" horiz-adv-x="841" d="M143 -141q46 0 76.5 2.5t60 11t46 23.5t26.5 40.5t10 61.5q0 53 -30.5 200t-30.5 214q0 205 211 241v15q-98 13 -154.5 72t-56.5 169q0 67 30.5 215t30.5 201q0 85 -51 112t-168 27v154q102 0 177 -14t119 -36.5t70 -57t35 -69t9 -79.5q0 -73 -35 -227.5t-35 -231.5 q0 -42 8.5 -70.5t33 -53t72.5 -36.5t122 -12v-139q-74 0 -122 -12t-72.5 -37t-33 -54t-8.5 -71q0 -77 35 -230.5t35 -226.5q0 -45 -9 -80t-35 -69.5t-70 -57.5t-119 -37t-177 -14v156z" />
<glyph unicode="~" horiz-adv-x="1398" d="M164 444q0 159 82.5 259t220.5 100q57 0 111 -20t97 -48.5t84 -56.5t85.5 -48t87.5 -20q70 0 112.5 52.5t42.5 140.5h148q0 -158 -84.5 -258.5t-222.5 -100.5q-53 0 -106.5 20t-97 48t-85 56.5t-86.5 48.5t-86 20q-71 0 -113.5 -52.5t-42.5 -140.5h-147z" />
<glyph unicode="&#xa1;" horiz-adv-x="538" d="M123 946q0 63 41 105.5t104 42.5t105.5 -42.5t42.5 -105.5t-42.5 -104t-105.5 -41t-104 41t-41 104zM164 -369l20 957h168l21 -957h-209z" />
<glyph unicode="&#xa2;" horiz-adv-x="1044" d="M113 532q0 239 146.5 394t381.5 166l43 227h147l-43 -236q85 -17 144 -43v-172q-128 66 -260 66q-168 0 -267.5 -109t-99.5 -293t99.5 -292.5t267.5 -108.5q132 0 260 66v-172q-117 -54 -260 -54q-48 0 -92 6l-37 -202h-148l45 239q-152 62 -239.5 198.5t-87.5 319.5z " />
<glyph unicode="&#xa3;" horiz-adv-x="1153" d="M123 639v143h172q-33 136 -33 265q0 132 58.5 227.5t155 141.5t218.5 46q68 0 133 -17t96 -33l31 -17v-176q-13 8 -35.5 20.5t-91.5 33.5t-137 21q-102 0 -164.5 -68.5t-62.5 -187.5q0 -126 29 -256h372v-143h-338q17 -87 17 -172q0 -53 -13.5 -101t-33.5 -78 t-39.5 -52.5t-32.5 -32.5l-14 -10l4 -9q39 13 98 13q55 0 148.5 -18.5t152.5 -18.5q63 0 117 19.5t77 38.5l23 20v-175q-3 -3 -8 -8.5t-23 -19.5t-38.5 -24.5t-55 -19.5t-71.5 -9q-62 0 -119.5 12.5t-94.5 28t-87 28t-99 12.5q-54 0 -109.5 -20.5t-84.5 -41.5l-29 -21 l-68 110q9 5 24.5 15t55.5 42.5t70 68.5t55 91.5t25 112.5q0 86 -37 219h-213z" />
<glyph unicode="&#xa4;" horiz-adv-x="1286" d="M123 272l153 154q-75 110 -75 254q0 142 75 252l-153 155l113 113l153 -156q115 78 254 78q137 0 252 -78l156 156l112 -113l-155 -155q77 -113 77 -252q0 -140 -75 -252l153 -156l-112 -112l-156 153q-110 -75 -252 -75q-139 0 -254 75l-153 -153zM375 680 q0 -127 75 -210t193 -83t193 83t75 210t-75 210t-193 83t-193 -83t-75 -210z" />
<glyph unicode="&#xa5;" horiz-adv-x="1093" d="M2 1434h213l332 -658l332 658h213l-392 -736h289v-137h-346v-151h346v-138h-346v-272h-192v272h-347v138h347v151h-347v137h287z" />
<glyph unicode="&#xa6;" horiz-adv-x="684" d="M246 -348v883h192v-883h-192zM246 776v883h192v-883h-192z" />
<glyph unicode="&#xa7;" horiz-adv-x="1159" d="M164 -156q58 -47 153.5 -82.5t194.5 -35.5q123 0 202 59t79 152q0 49 -26.5 90.5t-70 69.5t-99 57.5t-114 54.5t-114 60t-99 74t-70 97.5t-26.5 128.5q0 179 156 275q-156 106 -156 274q0 159 121 251.5t313 92.5q97 0 185 -22t139 -51v-195q-52 44 -140 78.5t-182 34.5 q-108 0 -170.5 -49.5t-62.5 -127.5q0 -52 34 -95t88.5 -74.5t120.5 -62.5t132 -67.5t120.5 -80.5t88.5 -110t34 -148q0 -173 -143 -275q143 -115 143 -274q0 -167 -137 -270t-342 -103q-103 0 -199.5 27t-152.5 57v190zM377 582q0 -33 15 -63t34.5 -51t59 -46t67 -39t81 -40 t79.5 -40q80 70 80 182q0 26 -8 49.5t-19 42t-34 38.5t-40 32.5t-50.5 31t-52.5 28t-59.5 29t-58.5 28.5q-94 -60 -94 -182z" />
<glyph unicode="&#xa8;" horiz-adv-x="858" d="M123 1352q0 47 31.5 78.5t78.5 31.5t79 -31.5t32 -78.5t-32 -79t-79 -32t-78.5 32t-31.5 79zM514 1352q0 47 32 78.5t79 31.5t78.5 -31.5t31.5 -78.5t-31.5 -79t-78.5 -32t-79 32t-32 79z" />
<glyph unicode="&#xa9;" horiz-adv-x="1777" d="M143 717q0 152 59 290t159 237.5t238 158.5t290 59t290 -59t237.5 -158.5t158.5 -237.5t59 -290t-59 -290t-158.5 -238t-237.5 -159t-290 -59q-203 0 -374.5 100t-271.5 271.5t-100 374.5zM301 717q0 -165 79 -304t214 -219.5t295 -80.5t295 80.5t214 219.5t79 304 t-79 304t-214 219.5t-295 80.5t-295 -80.5t-214 -219.5t-79 -304zM520 717q0 186 108 302t283 116q121 0 228 -58v-159q-126 86 -226 86q-111 0 -177 -77.5t-66 -209.5t66 -209.5t177 -77.5q108 0 226 88v-162q-105 -57 -228 -57q-175 0 -283 116t-108 302z" />
<glyph unicode="&#xaa;" horiz-adv-x="929" d="M143 463v115h643v-115h-643zM143 942q0 101 81 166.5t214 65.5q58 0 107 -11v41q0 65 -33 98t-109 33q-84 0 -208 -61v139q114 49 233 49q127 0 194.5 -60t67.5 -173v-309q0 -37 12 -52.5t37 -15.5q9 0 19.5 2.5t17.5 5.5l6 2v-104q-50 -21 -94 -21q-86 0 -129 76 q-72 -88 -190 -88q-105 0 -165.5 59t-60.5 158zM297 948q0 -42 26 -68t78 -26t89 25t55 65v109q-35 14 -96 14q-64 0 -108 -32.5t-44 -86.5z" />
<glyph unicode="&#xab;" horiz-adv-x="1216" d="M92 451v157l467 410v-174l-291 -314l291 -315v-174zM545 451v157l467 410v-174l-291 -314l291 -315v-174z" />
<glyph unicode="&#xac;" horiz-adv-x="1419" d="M123 709v176h1132v-576h-176v400h-956z" />
<glyph unicode="&#xad;" horiz-adv-x="733" d="M123 543v151h487v-151h-487z" />
<glyph unicode="&#xae;" horiz-adv-x="1777" d="M143 717q0 152 59 290t159 237.5t238 158.5t290 59t290 -59t237.5 -158.5t158.5 -237.5t59 -290t-59 -290t-158.5 -238t-237.5 -159t-290 -59q-203 0 -374.5 100t-271.5 271.5t-100 374.5zM301 717q0 -165 79 -304t214 -219.5t295 -80.5t295 80.5t214 219.5t79 304 t-79 304t-214 219.5t-295 80.5t-295 -80.5t-214 -219.5t-79 -304zM643 309v799h223q137 0 217 -67.5t80 -178.5q0 -72 -37 -129t-102 -86l246 -338h-176l-209 305h-101v-305h-141zM784 739h82q72 0 111 31.5t39 91.5q0 58 -39 89.5t-111 31.5h-82v-244z" />
<glyph unicode="&#xaf;" horiz-adv-x="827" d="M123 1296v146h582v-146h-582z" />
<glyph unicode="&#xb0;" horiz-adv-x="796" d="M82 1145q0 132 91.5 224.5t223.5 92.5t225 -92.5t93 -224.5t-93 -224t-225 -92t-223.5 92t-91.5 224zM231 1145q0 -73 47.5 -122.5t118.5 -49.5q73 0 120.5 49.5t47.5 122.5q0 74 -47.5 124t-120.5 50q-72 0 -119 -50t-47 -124z" />
<glyph unicode="&#xb1;" horiz-adv-x="1460" d="M205 0v156h1050v-156h-1050zM205 659v156h446v365h156v-365h448v-156h-448v-366h-156v366h-446z" />
<glyph unicode="&#xb2;" horiz-adv-x="751" d="M123 672v65l207 246q125 147 125 234q0 48 -31 74t-80 26q-82 0 -197 -92v159q98 64 209 64q109 0 177.5 -64t68.5 -165q0 -124 -133 -277l-119 -139h279v-131h-506z" />
<glyph unicode="&#xb3;" horiz-adv-x="724" d="M123 702v144q108 -55 194 -55q62 0 100 33t38 85q0 58 -58 92.5t-161 34.5v64l145 207h-256v127h461v-64l-160 -227q79 -25 127.5 -87.5t48.5 -146.5q0 -109 -75 -180.5t-203 -71.5q-105 0 -201 45z" />
<glyph unicode="&#xb4;" horiz-adv-x="770" d="M123 1255l250 301h274l-362 -301h-162z" />
<glyph unicode="&#xb5;" horiz-adv-x="1286" d="M184 -367v1432h181v-684q0 -116 64.5 -183t172.5 -67q87 0 164 46.5t125 96.5v791h180v-807q0 -66 24 -94.5t76 -28.5q8 0 18.5 2.5t17.5 4.5l7 3v-133q-45 -22 -120 -22q-80 0 -131.5 40t-63.5 105h-4q-48 -62 -140 -113t-208 -51q-109 0 -182 39v-377h-181z" />
<glyph unicode="&#xb6;" horiz-adv-x="1382" d="M123 979q0 207 136 331t382 124h537v-1946h-160v1802h-207v-1802h-160v1036h-10q-246 0 -382 124t-136 331z" />
<glyph unicode="&#xb7;" horiz-adv-x="620" d="M164 692q0 63 42 104.5t105 41.5t104.5 -41.5t41.5 -104.5t-41.5 -105t-104.5 -42t-105 42t-42 105z" />
<glyph unicode="&#xb8;" horiz-adv-x="638" d="M123 -367q63 -34 133 -34q51 0 80 22.5t29 61.5q0 49 -49.5 77.5t-147.5 28.5l119 211h139l-84 -133q81 -16 130.5 -63.5t49.5 -120.5q0 -93 -77.5 -147t-182.5 -54q-34 0 -68.5 6t-52.5 12l-18 6v127z" />
<glyph unicode="&#xb9;" horiz-adv-x="520" d="M123 1305v129h274v-762h-139v633h-135z" />
<glyph unicode="&#xba;" horiz-adv-x="976" d="M143 463v115h691v-115h-691zM145 1094q0 163 96 265.5t248 102.5q153 0 249 -102.5t96 -265.5q0 -164 -95.5 -266.5t-249.5 -102.5q-152 0 -248 102.5t-96 266.5zM299 1094q0 -112 51.5 -177t138.5 -65q88 0 139.5 65t51.5 177q0 110 -51.5 175.5t-139.5 65.5 q-86 0 -138 -65.5t-52 -175.5z" />
<glyph unicode="&#xbb;" horiz-adv-x="1216" d="M205 41v174l291 315l-291 314v174l467 -410v-157zM657 41v174l291 315l-291 314v174l467 -410v-157z" />
<glyph unicode="&#xbc;" horiz-adv-x="1517" d="M123 1305v129h274v-762h-139v633h-135zM293 -29l706 1491h142l-707 -1491h-141zM803 160v55l424 561h65v-495h103v-121h-103v-160h-141v160h-348zM973 281h178v231z" />
<glyph unicode="&#xbd;" horiz-adv-x="1615" d="M123 1305v129h274v-762h-139v633h-135zM293 -29l706 1491h142l-707 -1491h-141zM987 0v66l207 245q125 147 125 232q0 50 -30 76t-81 26q-83 0 -196 -94v162q97 63 211 63q107 0 175 -64t68 -167q0 -114 -133 -275l-116 -139h276v-131h-506z" />
<glyph unicode="&#xbe;" horiz-adv-x="1665" d="M123 702v144q108 -55 194 -55q62 0 100 33t38 85q0 58 -58 92.5t-161 34.5v64l145 207h-256v127h461v-64l-160 -227q79 -25 127.5 -87.5t48.5 -146.5q0 -109 -75 -180.5t-203 -71.5q-105 0 -201 45zM440 -29l707 1491h141l-706 -1491h-142zM950 160v55l424 561h66v-495 h102v-121h-102v-160h-142v160h-348zM1120 281h178v231z" />
<glyph unicode="&#xbf;" horiz-adv-x="909" d="M123 -66q0 61 19.5 112.5t50.5 89t69 72.5t76 70.5t69 73t50.5 89t19.5 112.5q0 23 -2 35h152q6 -43 6 -78q0 -80 -31.5 -149t-76 -117t-89.5 -92.5t-76.5 -96.5t-31.5 -108q0 -82 61.5 -128t165.5 -46q106 0 231 55v-172q-135 -53 -262 -53q-177 0 -289 90.5t-112 240.5 zM406 946q0 63 41 105.5t104 42.5t105 -42.5t42 -105.5t-42 -104t-105 -41t-104 41t-41 104z" />
<glyph unicode="&#xc0;" horiz-adv-x="1302" d="M2 0l612 1450h74l612 -1450h-204l-125 305h-641l-123 -305h-205zM348 1915h275l249 -301h-161zM397 469h506l-252 621z" />
<glyph unicode="&#xc1;" horiz-adv-x="1302" d="M2 0l612 1450h74l612 -1450h-204l-125 305h-641l-123 -305h-205zM397 469h506l-252 621zM430 1614l250 301h274l-362 -301h-162z" />
<glyph unicode="&#xc2;" horiz-adv-x="1302" d="M2 0l612 1450h74l612 -1450h-204l-125 305h-641l-123 -305h-205zM305 1614l250 301h193l249 -301h-182l-164 196l-164 -196h-182zM397 469h506l-252 621z" />
<glyph unicode="&#xc3;" horiz-adv-x="1302" d="M2 0l612 1450h74l612 -1450h-204l-125 305h-641l-123 -305h-205zM276 1614q0 75 22.5 138t76.5 107t131 44q44 0 81 -15.5t62 -37.5t48 -44t50 -37.5t56 -15.5q86 0 98 150h125q0 -77 -22.5 -140t-77 -106t-133.5 -43q-55 0 -99.5 23.5t-69 51t-58.5 51t-70 23.5 q-28 0 -47.5 -13.5t-29 -38.5t-13 -46t-5.5 -51h-125zM397 469h506l-252 621z" />
<glyph unicode="&#xc4;" horiz-adv-x="1302" d="M2 0l612 1450h74l612 -1450h-204l-125 305h-641l-123 -305h-205zM344 1724q0 47 32 79t79 32t78.5 -32t31.5 -79t-31.5 -78.5t-78.5 -31.5t-79 31.5t-32 78.5zM397 469h506l-252 621zM735 1724q0 47 32 79t79 32t78.5 -32t31.5 -79t-31.5 -78.5t-78.5 -31.5t-79 31.5 t-32 78.5z" />
<glyph unicode="&#xc5;" horiz-adv-x="1302" d="M2 0l612 1450h74l612 -1450h-204l-125 305h-641l-123 -305h-205zM397 469h506l-252 621zM416 1616q0 104 65.5 169.5t169.5 65.5t170 -65.5t66 -169.5q0 -106 -66 -172t-170 -66t-169.5 66t-65.5 172zM539 1616q0 -57 30.5 -90t81.5 -33t82 33t31 90q0 55 -31 88t-82 33 t-81.5 -33t-30.5 -88z" />
<glyph unicode="&#xc6;" horiz-adv-x="1826" d="M2 0l875 1434h837v-164h-606v-420h545v-164h-545v-522h606v-164h-799v305h-505l-181 -305h-227zM508 469h407v682z" />
<glyph unicode="&#xc7;" horiz-adv-x="1318" d="M113 717q0 217 86.5 386.5t244.5 264t361 94.5q212 0 391 -92v-205q-183 125 -387 125q-223 0 -357.5 -155.5t-134.5 -417.5t134.5 -418t357.5 -156q204 0 387 125v-205q-179 -92 -391 -92q-203 0 -361 94.5t-244.5 264.5t-86.5 387zM541 -367q63 -34 133 -34 q51 0 79.5 22.5t28.5 61.5q0 49 -49 77.5t-147 28.5l119 211h139l-84 -133q81 -16 130.5 -63.5t49.5 -120.5q0 -93 -77.5 -147t-182.5 -54q-34 0 -68.5 6t-52.5 12l-18 6v127z" />
<glyph unicode="&#xc8;" horiz-adv-x="1146" d="M205 0v1434h799v-164h-607v-420h545v-164h-545v-522h607v-164h-799zM274 1898h275l250 -301h-162z" />
<glyph unicode="&#xc9;" horiz-adv-x="1146" d="M205 0v1434h799v-164h-607v-420h545v-164h-545v-522h607v-164h-799zM397 1597l250 301h275l-363 -301h-162z" />
<glyph unicode="&#xca;" horiz-adv-x="1146" d="M205 0v1434h799v-164h-607v-420h545v-164h-545v-522h607v-164h-799zM252 1597l250 301h192l250 -301h-182l-164 197l-164 -197h-182z" />
<glyph unicode="&#xcb;" horiz-adv-x="1146" d="M205 0v1434h799v-164h-607v-420h545v-164h-545v-522h607v-164h-799zM293 1708q0 47 31.5 79t78.5 32t79 -32t32 -79t-32 -79t-79 -32t-78.5 32t-31.5 79zM684 1708q0 47 32 79t79 32t78.5 -32t31.5 -79t-31.5 -79t-78.5 -32t-79 32t-32 79z" />
<glyph unicode="&#xcc;" horiz-adv-x="602" d="M-23 1898h275l250 -301h-162zM205 0v1434h192v-1434h-192z" />
<glyph unicode="&#xcd;" horiz-adv-x="602" d="M100 1597l250 301h275l-363 -301h-162zM205 0v1434h192v-1434h-192z" />
<glyph unicode="&#xce;" horiz-adv-x="602" d="M-45 1597l250 301h192l250 -301h-182l-164 197l-164 -197h-182zM205 0v1434h192v-1434h-192z" />
<glyph unicode="&#xcf;" horiz-adv-x="602" d="M-4 1708q0 47 31.5 79t78.5 32t79 -32t32 -79t-32 -79t-79 -32t-78.5 32t-31.5 79zM205 0v1434h192v-1434h-192zM387 1708q0 47 32 79t79 32t78.5 -32t31.5 -79t-31.5 -79t-78.5 -32t-79 32t-32 79z" />
<glyph unicode="&#xd0;" horiz-adv-x="1468" d="M41 561v150h184v723h340q200 0 352 -51t247.5 -146.5t143.5 -226t48 -293.5t-48 -293.5t-143.5 -226t-247.5 -146.5t-352 -51h-340v561h-184zM418 164h147q293 0 439.5 143t146.5 410t-146.5 410t-439.5 143h-147v-559h295v-150h-295v-397z" />
<glyph unicode="&#xd1;" horiz-adv-x="1609" d="M205 0v1450h61l946 -1051v1035h193v-1450h-62l-946 1048v-1032h-192zM430 1589q0 75 22.5 138t76 107t130.5 44q44 0 81 -15.5t62 -37t48 -43.5t50 -37.5t56 -15.5q87 0 99 149h125q0 -120 -59 -204.5t-175 -84.5q-55 0 -99.5 23.5t-69 51.5t-58.5 51.5t-70 23.5 q-28 0 -47.5 -13.5t-28.5 -39t-12.5 -46.5t-5.5 -51h-125z" />
<glyph unicode="&#xd2;" horiz-adv-x="1642" d="M113 717q0 216 89.5 386t251 264.5t367.5 94.5t367.5 -94.5t251.5 -264.5t90 -386t-90 -386.5t-251.5 -265t-367.5 -94.5q-154 0 -286 55.5t-224.5 153t-145 236.5t-52.5 301zM317 717q0 -259 139.5 -416.5t364.5 -157.5t364.5 157.5t139.5 416.5q0 258 -139.5 415.5 t-364.5 157.5t-364.5 -157.5t-139.5 -415.5zM518 1927h275l249 -301h-161z" />
<glyph unicode="&#xd3;" horiz-adv-x="1642" d="M113 717q0 216 89.5 386t251 264.5t367.5 94.5t367.5 -94.5t251.5 -264.5t90 -386t-90 -386.5t-251.5 -265t-367.5 -94.5q-154 0 -286 55.5t-224.5 153t-145 236.5t-52.5 301zM317 717q0 -259 139.5 -416.5t364.5 -157.5t364.5 157.5t139.5 416.5q0 258 -139.5 415.5 t-364.5 157.5t-364.5 -157.5t-139.5 -415.5zM600 1626l250 301h274l-362 -301h-162z" />
<glyph unicode="&#xd4;" horiz-adv-x="1642" d="M113 717q0 216 89.5 386t251 264.5t367.5 94.5t367.5 -94.5t251.5 -264.5t90 -386t-90 -386.5t-251.5 -265t-367.5 -94.5q-154 0 -286 55.5t-224.5 153t-145 236.5t-52.5 301zM317 717q0 -259 139.5 -416.5t364.5 -157.5t364.5 157.5t139.5 416.5q0 258 -139.5 415.5 t-364.5 157.5t-364.5 -157.5t-139.5 -415.5zM475 1626l250 301h193l249 -301h-182l-164 197l-164 -197h-182z" />
<glyph unicode="&#xd5;" horiz-adv-x="1642" d="M113 717q0 216 89.5 386t251 264.5t367.5 94.5t367.5 -94.5t251.5 -264.5t90 -386t-90 -386.5t-251.5 -265t-367.5 -94.5q-154 0 -286 55.5t-224.5 153t-145 236.5t-52.5 301zM317 717q0 -259 139.5 -416.5t364.5 -157.5t364.5 157.5t139.5 416.5q0 258 -139.5 415.5 t-364.5 157.5t-364.5 -157.5t-139.5 -415.5zM446 1626q0 75 22.5 138t76.5 107t131 44q44 0 81 -15.5t62 -37.5t48 -44t50 -37.5t56 -15.5q86 0 98 150h125q0 -77 -22.5 -140t-77 -106t-133.5 -43q-55 0 -99.5 23.5t-69 51.5t-58.5 51.5t-70 23.5q-28 0 -47.5 -13.5t-29 -39 t-13 -46.5t-5.5 -51h-125z" />
<glyph unicode="&#xd6;" horiz-adv-x="1642" d="M113 717q0 216 89.5 386t251 264.5t367.5 94.5t367.5 -94.5t251.5 -264.5t90 -386t-90 -386.5t-251.5 -265t-367.5 -94.5q-154 0 -286 55.5t-224.5 153t-145 236.5t-52.5 301zM317 717q0 -259 139.5 -416.5t364.5 -157.5t364.5 157.5t139.5 416.5q0 258 -139.5 415.5 t-364.5 157.5t-364.5 -157.5t-139.5 -415.5zM514 1737q0 47 32 78.5t79 31.5t78.5 -31.5t31.5 -78.5t-31.5 -79t-78.5 -32t-79 32t-32 79zM905 1737q0 47 32 78.5t79 31.5t78.5 -31.5t31.5 -78.5t-31.5 -79t-78.5 -32t-79 32t-32 79z" />
<glyph unicode="&#xd7;" horiz-adv-x="1331" d="M123 160l432 430l-432 432l110 111l433 -433l432 435l110 -111l-432 -434l432 -432l-110 -111l-432 434l-433 -432z" />
<glyph unicode="&#xd8;" horiz-adv-x="1642" d="M113 -29l184 224q-184 206 -184 522q0 216 89.5 386t251 264.5t367.5 94.5q237 0 418 -129l107 129h184l-184 -223q184 -206 184 -522q0 -216 -90 -386.5t-251.5 -265t-367.5 -94.5q-240 0 -418 127l-106 -127h-184zM317 717q0 -225 105 -373l700 848q-128 98 -301 98 q-225 0 -364.5 -157.5t-139.5 -415.5zM520 242q129 -99 301 -99q225 0 364.5 157.5t139.5 416.5q0 219 -104 370z" />
<glyph unicode="&#xd9;" horiz-adv-x="1495" d="M195 500v934h192v-936q0 -359 361 -359q360 0 360 359v936h192v-934q0 -262 -148.5 -395.5t-403.5 -133.5t-404 133.5t-149 395.5zM383 1898h274l250 -301h-162z" />
<glyph unicode="&#xda;" horiz-adv-x="1495" d="M195 500v934h192v-936q0 -359 361 -359q360 0 360 359v936h192v-934q0 -262 -148.5 -395.5t-403.5 -133.5t-404 133.5t-149 395.5zM567 1597l250 301h275l-363 -301h-162z" />
<glyph unicode="&#xdb;" horiz-adv-x="1495" d="M195 500v934h192v-936q0 -359 361 -359q360 0 360 359v936h192v-934q0 -262 -148.5 -395.5t-403.5 -133.5t-404 133.5t-149 395.5zM401 1597l250 301h193l250 -301h-183l-163 197l-164 -197h-183z" />
<glyph unicode="&#xdc;" horiz-adv-x="1495" d="M195 500v934h192v-936q0 -359 361 -359q360 0 360 359v936h192v-934q0 -262 -148.5 -395.5t-403.5 -133.5t-404 133.5t-149 395.5zM440 1726q0 47 32 79t79 32t79 -32t32 -79t-32 -78.5t-79 -31.5t-79 31.5t-32 78.5zM831 1726q0 47 32 79t79 32t79 -32t32 -79t-32 -78.5 t-79 -31.5t-79 31.5t-32 78.5z" />
<glyph unicode="&#xdd;" horiz-adv-x="1093" d="M2 1434h213l332 -656l332 656h213l-449 -846v-588h-192v588zM408 1597l249 301h275l-363 -301h-161z" />
<glyph unicode="&#xde;" horiz-adv-x="1220" d="M205 0v1434h192v-250h195q255 0 396.5 -118.5t141.5 -315.5q0 -198 -141.5 -316.5t-396.5 -118.5h-195v-315h-192zM397 479h195q165 0 249.5 70t84.5 201t-84.5 200.5t-249.5 69.5h-195v-541z" />
<glyph unicode="&#xdf;" horiz-adv-x="1259" d="M184 0v1094q0 184 115.5 292.5t318.5 108.5q182 0 290 -89t108 -216q0 -63 -20.5 -113.5t-51.5 -80.5t-67.5 -58t-67.5 -48t-51.5 -48t-20.5 -60q0 -39 25 -70t64.5 -54t88 -45.5t96.5 -50.5t87.5 -62.5t64.5 -88.5t25 -122q0 -145 -101 -231.5t-262 -86.5 q-93 0 -176.5 25t-130.5 55v172q55 -36 144.5 -65t164.5 -29q81 0 129 44t48 112q0 44 -25.5 78t-66 57.5t-89.5 45.5t-97.5 47.5t-89 57t-66 81t-25.5 112.5q0 54 20.5 97t51.5 68t67 50.5t67 47.5t51.5 57.5t20.5 80.5q0 80 -62.5 127t-154.5 47q-94 0 -167.5 -62.5 t-73.5 -180.5v-1096h-181z" />
<glyph unicode="&#xe0;" horiz-adv-x="1095" d="M92 297q0 151 119 246.5t317 95.5q80 0 193 -25v91q0 114 -56.5 171.5t-189.5 57.5q-153 0 -305 -84v174q166 70 344 70q188 0 287.5 -91t99.5 -258v-487q0 -66 24 -94.5t76 -28.5q8 0 18.5 2.5t17.5 4.5l7 3v-133q-45 -22 -120 -22q-78 0 -130 44.5t-65 110.5h-4 q-23 -41 -59 -77t-102.5 -66.5t-143.5 -30.5q-152 0 -240 89t-88 237zM233 1556h275l250 -301h-162zM281 305q0 -77 48 -122.5t142 -45.5q89 0 155 45t95 117v178q-89 33 -176 33q-110 0 -187 -56.5t-77 -148.5z" />
<glyph unicode="&#xe1;" horiz-adv-x="1095" d="M92 297q0 151 119 246.5t317 95.5q80 0 193 -25v91q0 114 -56.5 171.5t-189.5 57.5q-153 0 -305 -84v174q166 70 344 70q188 0 287.5 -91t99.5 -258v-487q0 -66 24 -94.5t76 -28.5q8 0 18.5 2.5t17.5 4.5l7 3v-133q-45 -22 -120 -22q-78 0 -130 44.5t-65 110.5h-4 q-23 -41 -59 -77t-102.5 -66.5t-143.5 -30.5q-152 0 -240 89t-88 237zM281 305q0 -77 48 -122.5t142 -45.5q89 0 155 45t95 117v178q-89 33 -176 33q-110 0 -187 -56.5t-77 -148.5zM315 1255l250 301h275l-363 -301h-162z" />
<glyph unicode="&#xe2;" horiz-adv-x="1095" d="M92 297q0 151 119 246.5t317 95.5q80 0 193 -25v91q0 114 -56.5 171.5t-189.5 57.5q-153 0 -305 -84v174q166 70 344 70q188 0 287.5 -91t99.5 -258v-487q0 -66 24 -94.5t76 -28.5q8 0 18.5 2.5t17.5 4.5l7 3v-133q-45 -22 -120 -22q-78 0 -130 44.5t-65 110.5h-4 q-23 -41 -59 -77t-102.5 -66.5t-143.5 -30.5q-152 0 -240 89t-88 237zM190 1255l250 301h193l250 -301h-183l-163 197l-164 -197h-183zM281 305q0 -77 48 -122.5t142 -45.5q89 0 155 45t95 117v178q-89 33 -176 33q-110 0 -187 -56.5t-77 -148.5z" />
<glyph unicode="&#xe3;" horiz-adv-x="1095" d="M92 297q0 151 119 246.5t317 95.5q80 0 193 -25v91q0 114 -56.5 171.5t-189.5 57.5q-153 0 -305 -84v174q166 70 344 70q188 0 287.5 -91t99.5 -258v-487q0 -66 24 -94.5t76 -28.5q8 0 18.5 2.5t17.5 4.5l7 3v-133q-45 -22 -120 -22q-78 0 -130 44.5t-65 110.5h-4 q-23 -41 -59 -77t-102.5 -66.5t-143.5 -30.5q-152 0 -240 89t-88 237zM141 1282q0 75 22.5 138t76.5 107t131 44q44 0 81 -15.5t62 -37.5t48 -44t50 -37.5t56 -15.5q86 0 98 150h125q0 -120 -59 -204.5t-175 -84.5q-55 0 -99.5 23.5t-69 51.5t-58.5 51.5t-70 23.5 q-28 0 -47.5 -13.5t-28.5 -39t-12.5 -46.5t-5.5 -51h-125zM281 305q0 -77 48 -122.5t142 -45.5q89 0 155 45t95 117v178q-89 33 -176 33q-110 0 -187 -56.5t-77 -148.5z" />
<glyph unicode="&#xe4;" horiz-adv-x="1095" d="M92 297q0 151 119 246.5t317 95.5q80 0 193 -25v91q0 114 -56.5 171.5t-189.5 57.5q-153 0 -305 -84v174q166 70 344 70q188 0 287.5 -91t99.5 -258v-487q0 -66 24 -94.5t76 -28.5q8 0 18.5 2.5t17.5 4.5l7 3v-133q-45 -22 -120 -22q-78 0 -130 44.5t-65 110.5h-4 q-23 -41 -59 -77t-102.5 -66.5t-143.5 -30.5q-152 0 -240 89t-88 237zM231 1372q0 47 32 79t79 32t79 -32t32 -79t-32 -78.5t-79 -31.5t-79 31.5t-32 78.5zM281 305q0 -77 48 -122.5t142 -45.5q89 0 155 45t95 117v178q-89 33 -176 33q-110 0 -187 -56.5t-77 -148.5z M623 1372q0 47 31.5 79t78.5 32t79 -32t32 -79t-32 -78.5t-79 -31.5t-78.5 31.5t-31.5 78.5z" />
<glyph unicode="&#xe5;" horiz-adv-x="1095" d="M92 297q0 151 119 246.5t317 95.5q80 0 193 -25v91q0 114 -56.5 171.5t-189.5 57.5q-153 0 -305 -84v174q166 70 344 70q188 0 287.5 -91t99.5 -258v-487q0 -66 24 -94.5t76 -28.5q8 0 18.5 2.5t17.5 4.5l7 3v-133q-45 -22 -120 -22q-78 0 -130 44.5t-65 110.5h-4 q-23 -41 -59 -77t-102.5 -66.5t-143.5 -30.5q-152 0 -240 89t-88 237zM281 305q0 -77 48 -122.5t142 -45.5q89 0 155 45t95 117v178q-89 33 -176 33q-110 0 -187 -56.5t-77 -148.5zM281 1432q0 104 65.5 169.5t169.5 65.5t170 -65.5t66 -169.5q0 -106 -66 -172t-170 -66 t-169.5 66t-65.5 172zM403 1432q0 -57 31 -90t82 -33t82 33t31 90q0 55 -31 87.5t-82 32.5t-82 -32.5t-31 -87.5z" />
<glyph unicode="&#xe6;" horiz-adv-x="1837" d="M123 297q0 151 119 246.5t317 95.5q81 0 193 -25v91q0 114 -56.5 171.5t-189.5 57.5q-153 0 -305 -84v174q166 70 344 70q256 0 344 -164q142 164 371 164q210 0 337 -132.5t127 -355.5l-4 -106h-776q6 -175 97.5 -272t265.5 -97q178 0 368 109v-172 q-74 -42 -174.5 -69.5t-204.5 -27.5q-139 0 -250.5 51.5t-183.5 145.5q-94 -109 -189.5 -153t-221.5 -44q-152 0 -240 89t-88 237zM311 305q0 -76 48.5 -122t142.5 -46q89 0 155 45t95 117v178q-89 33 -177 33q-110 0 -187 -56.5t-77 -148.5zM954 651h574q0 142 -76.5 212.5 t-194.5 70.5q-119 0 -197.5 -75t-105.5 -208z" />
<glyph unicode="&#xe7;" horiz-adv-x="1044" d="M113 532q0 248 156 405t403 157q143 0 260 -54v-172q-128 66 -260 66q-168 0 -267.5 -109t-99.5 -293t99.5 -292.5t267.5 -108.5q132 0 260 66v-172q-117 -54 -260 -54q-247 0 -403 156.5t-156 404.5zM360 -367q64 -34 134 -34q51 0 79.5 22.5t28.5 61.5q0 49 -49 77.5 t-147 28.5l118 211h140l-84 -133q81 -16 130.5 -63.5t49.5 -120.5q0 -93 -77.5 -147t-182.5 -54q-34 0 -69 6t-53 12l-18 6v127z" />
<glyph unicode="&#xe8;" horiz-adv-x="1198" d="M113 530q0 248 143 406t365 158q210 0 337 -132.5t127 -355.5l-4 -106h-776q6 -175 97.5 -272t265.5 -97q178 0 368 109v-172q-74 -42 -174.5 -69.5t-204.5 -27.5q-248 0 -396 153.5t-148 405.5zM295 1556h274l250 -301h-162zM315 651h574q0 142 -76.5 212.5t-194.5 70.5 q-119 0 -197.5 -75t-105.5 -208z" />
<glyph unicode="&#xe9;" horiz-adv-x="1198" d="M113 530q0 248 143 406t365 158q210 0 337 -132.5t127 -355.5l-4 -106h-776q6 -175 97.5 -272t265.5 -97q178 0 368 109v-172q-74 -42 -174.5 -69.5t-204.5 -27.5q-248 0 -396 153.5t-148 405.5zM315 651h574q0 142 -76.5 212.5t-194.5 70.5q-119 0 -197.5 -75 t-105.5 -208zM397 1255l250 301h275l-363 -301h-162z" />
<glyph unicode="&#xea;" horiz-adv-x="1198" d="M113 530q0 248 143 406t365 158q210 0 337 -132.5t127 -355.5l-4 -106h-776q6 -175 97.5 -272t265.5 -97q178 0 368 109v-172q-74 -42 -174.5 -69.5t-204.5 -27.5q-248 0 -396 153.5t-148 405.5zM272 1255l250 301h193l250 -301h-183l-164 197l-163 -197h-183zM315 651 h574q0 142 -76.5 212.5t-194.5 70.5q-119 0 -197.5 -75t-105.5 -208z" />
<glyph unicode="&#xeb;" horiz-adv-x="1198" d="M113 530q0 248 143 406t365 158q210 0 337 -132.5t127 -355.5l-4 -106h-776q6 -175 97.5 -272t265.5 -97q178 0 368 109v-172q-74 -42 -174.5 -69.5t-204.5 -27.5q-248 0 -396 153.5t-148 405.5zM313 1372q0 47 32 79t79 32t79 -32t32 -79t-32 -78.5t-79 -31.5t-79 31.5 t-32 78.5zM315 651h574q0 142 -76.5 212.5t-194.5 70.5q-119 0 -197.5 -75t-105.5 -208zM705 1372q0 47 31.5 79t78.5 32t79 -32t32 -79t-32 -78.5t-79 -31.5t-78.5 31.5t-31.5 78.5z" />
<glyph unicode="&#xec;" horiz-adv-x="548" d="M-29 1556h275l250 -301h-162zM184 0v1065h181v-1065h-181z" />
<glyph unicode="&#xed;" horiz-adv-x="548" d="M53 1255l250 301h275l-363 -301h-162zM184 0v1065h181v-1065h-181z" />
<glyph unicode="&#xee;" horiz-adv-x="548" d="M-72 1255l250 301h193l250 -301h-183l-164 197l-163 -197h-183zM184 0v1065h181v-1065h-181z" />
<glyph unicode="&#xef;" horiz-adv-x="548" d="M-31 1372q0 47 32 79t79 32t78.5 -32t31.5 -79t-31.5 -78.5t-78.5 -31.5t-79 31.5t-32 78.5zM184 0v1065h181v-1065h-181zM360 1372q0 47 32 79t79 32t79 -32t32 -79t-32 -78.5t-79 -31.5t-79 31.5t-32 78.5z" />
<glyph unicode="&#xf0;" d="M113 489q0 229 144.5 376t365.5 147q73 0 139.5 -26t96.5 -52l30 -25q-36 135 -160 295l-244 -112l-45 98l217 98q-63 63 -125 107l82 100q92 -57 181 -143l239 108l45 -96l-209 -96q132 -155 205.5 -345t73.5 -380q0 -277 -141 -424.5t-377 -147.5q-228 0 -373 145 t-145 373zM305 492q0 -166 88.5 -263.5t237.5 -97.5t237 97.5t88 263.5t-88 263t-237 97t-237.5 -97t-88.5 -263z" />
<glyph unicode="&#xf1;" horiz-adv-x="1247" d="M170 1065h160q14 -53 24 -131q60 62 150.5 111t204.5 49q81 0 144.5 -24t103.5 -63t66.5 -92t37 -107.5t10.5 -113.5v-694h-180v684q0 116 -65 183t-173 67q-145 0 -288 -143v-791h-181v795q0 70 -3.5 137.5t-6.5 99.5zM250 1282q0 75 22.5 138t76 107t130.5 44 q44 0 81 -15.5t62 -37.5t48 -44t50 -37.5t56 -15.5q86 0 98 150h125q0 -77 -22.5 -140t-77 -106t-133.5 -43q-55 0 -99.5 23.5t-69 51.5t-58.5 51.5t-70 23.5q-28 0 -47.5 -13.5t-28.5 -39t-12.5 -46.5t-5.5 -51h-125z" />
<glyph unicode="&#xf2;" d="M113 532q0 248 144.5 405t373.5 157t373.5 -157t144.5 -405t-144.5 -404.5t-373.5 -156.5t-373.5 156.5t-144.5 404.5zM305 532q0 -184 88.5 -292.5t237.5 -108.5t237 108.5t88 292.5q0 185 -88 293.5t-237 108.5t-237.5 -109t-88.5 -293zM328 1556h274l250 -301h-162z " />
<glyph unicode="&#xf3;" d="M113 532q0 248 144.5 405t373.5 157t373.5 -157t144.5 -405t-144.5 -404.5t-373.5 -156.5t-373.5 156.5t-144.5 404.5zM305 532q0 -184 88.5 -292.5t237.5 -108.5t237 108.5t88 292.5q0 185 -88 293.5t-237 108.5t-237.5 -109t-88.5 -293zM410 1255l249 301h275 l-363 -301h-161z" />
<glyph unicode="&#xf4;" d="M113 532q0 248 144.5 405t373.5 157t373.5 -157t144.5 -405t-144.5 -404.5t-373.5 -156.5t-373.5 156.5t-144.5 404.5zM285 1255l250 301h192l250 -301h-182l-164 197l-164 -197h-182zM305 532q0 -184 88.5 -292.5t237.5 -108.5t237 108.5t88 292.5q0 185 -88 293.5 t-237 108.5t-237.5 -109t-88.5 -293z" />
<glyph unicode="&#xf5;" d="M113 532q0 248 144.5 405t373.5 157t373.5 -157t144.5 -405t-144.5 -404.5t-373.5 -156.5t-373.5 156.5t-144.5 404.5zM256 1282q0 75 22.5 138t76 107t130.5 44q44 0 81 -15.5t62 -37.5t48 -44t50 -37.5t56 -15.5q87 0 99 150h125q0 -120 -59 -204.5t-175 -84.5 q-55 0 -99.5 23.5t-69 51.5t-58.5 51.5t-70 23.5q-28 0 -47.5 -13.5t-28.5 -39t-12.5 -46.5t-5.5 -51h-125zM305 532q0 -184 88.5 -292.5t237.5 -108.5t237 108.5t88 292.5q0 185 -88 293.5t-237 108.5t-237.5 -109t-88.5 -293z" />
<glyph unicode="&#xf6;" d="M113 532q0 248 144.5 405t373.5 157t373.5 -157t144.5 -405t-144.5 -404.5t-373.5 -156.5t-373.5 156.5t-144.5 404.5zM305 532q0 -184 88.5 -292.5t237.5 -108.5t237 108.5t88 292.5q0 185 -88 293.5t-237 108.5t-237.5 -109t-88.5 -293zM324 1372q0 47 31.5 79t78.5 32 t79 -32t32 -79t-32 -78.5t-79 -31.5t-78.5 31.5t-31.5 78.5zM715 1372q0 47 31.5 79t78.5 32t79 -32t32 -79t-32 -78.5t-79 -31.5t-78.5 31.5t-31.5 78.5z" />
<glyph unicode="&#xf7;" horiz-adv-x="1224" d="M123 514v156h979v-156h-979zM465 209q0 63 42 104t105 41t104.5 -41t41.5 -104t-41.5 -105.5t-104.5 -42.5t-105 42.5t-42 105.5zM465 977q0 63 42 104t105 41t104.5 -41t41.5 -104t-41.5 -105.5t-104.5 -42.5t-105 42.5t-42 105.5z" />
<glyph unicode="&#xf8;" d="M113 -29l131 170q-131 153 -131 391q0 248 144.5 405t373.5 157q159 0 289 -84l65 84h164l-133 -170q133 -155 133 -392q0 -248 -144.5 -404.5t-373.5 -156.5q-167 0 -289 84l-66 -84h-163zM305 532q0 -143 53 -243l457 585q-75 60 -184 60q-149 0 -237.5 -109 t-88.5 -293zM444 188q79 -57 187 -57q149 0 237 108.5t88 292.5q0 146 -55 244z" />
<glyph unicode="&#xf9;" horiz-adv-x="1247" d="M176 371v694h180v-684q0 -116 65 -183t173 -67q87 0 164 46.5t125 96.5v791h180v-795q0 -70 3.5 -137.5t7.5 -100.5l3 -32h-159q-17 51 -27 129q-158 -158 -352 -158q-100 0 -173.5 35.5t-113 95.5t-58 127t-18.5 142zM276 1556h275l250 -301h-162z" />
<glyph unicode="&#xfa;" horiz-adv-x="1247" d="M176 371v694h180v-684q0 -116 65 -183t173 -67q87 0 164 46.5t125 96.5v791h180v-795q0 -70 3.5 -137.5t7.5 -100.5l3 -32h-159q-17 51 -27 129q-158 -158 -352 -158q-100 0 -173.5 35.5t-113 95.5t-58 127t-18.5 142zM399 1255l250 301h275l-363 -301h-162z" />
<glyph unicode="&#xfb;" horiz-adv-x="1247" d="M176 371v694h180v-684q0 -116 65 -183t173 -67q87 0 164 46.5t125 96.5v791h180v-795q0 -70 3.5 -137.5t7.5 -100.5l3 -32h-159q-17 51 -27 129q-158 -158 -352 -158q-100 0 -173.5 35.5t-113 95.5t-58 127t-18.5 142zM274 1255l250 301h193l250 -301h-183l-163 197 l-164 -197h-183z" />
<glyph unicode="&#xfc;" horiz-adv-x="1247" d="M176 371v694h180v-684q0 -116 65 -183t173 -67q87 0 164 46.5t125 96.5v791h180v-795q0 -70 3.5 -137.5t7.5 -100.5l3 -32h-159q-17 51 -27 129q-158 -158 -352 -158q-100 0 -173.5 35.5t-113 95.5t-58 127t-18.5 142zM315 1372q0 47 32 79t79 32t79 -32t32 -79 t-32 -78.5t-79 -31.5t-79 31.5t-32 78.5zM707 1372q0 47 31.5 79t78.5 32t79 -32t32 -79t-32 -78.5t-79 -31.5t-78.5 31.5t-31.5 78.5z" />
<glyph unicode="&#xfd;" horiz-adv-x="1011" d="M10 -319q39 -19 84 -19q100 0 178 78.5t142 271.5l14 43l-418 1010h201l305 -797l268 797h197l-379 -1053q-44 -122 -90.5 -213t-105 -163.5t-131 -110t-156.5 -37.5q-24 0 -51.5 6t-42.5 12l-15 5v170zM319 1255l250 301h275l-363 -301h-162z" />
<glyph unicode="&#xfe;" horiz-adv-x="1294" d="M184 -512v1946h183v-469q144 129 333 129q145 0 255 -72.5t168.5 -199.5t58.5 -290t-58.5 -290t-168.5 -199t-255 -72q-180 0 -335 117v-600h-181zM365 266q18 -20 41 -39t61 -43t89.5 -38.5t107.5 -14.5q152 0 238.5 108t86.5 293t-86.5 293.5t-238.5 108.5 q-55 0 -106 -14.5t-89 -38.5t-61.5 -43.5t-42.5 -40.5v-531z" />
<glyph unicode="&#xff;" horiz-adv-x="1011" d="M10 -319q39 -19 84 -19q100 0 178 78.5t142 271.5l14 43l-418 1010h201l305 -797l268 797h197l-379 -1053q-44 -122 -90.5 -213t-105 -163.5t-131 -110t-156.5 -37.5q-24 0 -51.5 6t-42.5 12l-15 5v170zM213 1352q0 47 32 78.5t79 31.5t78.5 -31.5t31.5 -78.5t-31.5 -79 t-78.5 -32t-79 32t-32 79zM604 1352q0 47 32 78.5t79 31.5t78.5 -31.5t31.5 -78.5t-31.5 -79t-78.5 -32t-79 32t-32 79z" />
<glyph unicode="&#x152;" horiz-adv-x="1941" d="M113 717q0 216 89.5 386t251 264.5t367.5 94.5q106 0 209 -28h799v-164h-606v-420h544v-164h-544v-522h606v-164h-797q-106 -29 -211 -29q-154 0 -286 55.5t-224.5 153t-145 236.5t-52.5 301zM317 717q0 -259 139.5 -416.5t364.5 -157.5q116 0 209 41v1063 q-93 43 -209 43q-225 0 -364.5 -157.5t-139.5 -415.5z" />
<glyph unicode="&#x153;" horiz-adv-x="2043" d="M113 532q0 248 144.5 405t373.5 157q134 0 243.5 -59t178.5 -163q69 104 176 163t237 59q210 0 337.5 -132.5t127.5 -355.5l-4 -106h-776q6 -176 97.5 -272.5t264.5 -96.5q179 0 369 109v-172q-74 -42 -174.5 -69.5t-204.5 -27.5q-148 0 -263 57t-187 162 q-68 -104 -177.5 -161.5t-244.5 -57.5q-229 0 -373.5 156.5t-144.5 404.5zM305 532q0 -184 88.5 -292.5t237.5 -108.5t237 108.5t88 292.5q0 185 -88 293.5t-237 108.5t-237.5 -109t-88.5 -293zM1161 651h574q0 142 -76.5 212.5t-194.5 70.5q-119 0 -197.5 -75t-105.5 -208z " />
<glyph unicode="&#x178;" horiz-adv-x="1093" d="M2 1434h213l332 -656l332 656h213l-449 -846v-588h-192v588zM240 1708q0 47 31.5 79t78.5 32t79 -32t32 -79t-32 -79t-79 -32t-78.5 32t-31.5 79zM631 1708q0 47 31.5 79t78.5 32t79 -32t32 -79t-32 -79t-79 -32t-78.5 32t-31.5 79z" />
<glyph unicode="&#x2c6;" horiz-adv-x="937" d="M123 1255l250 301h192l250 -301h-182l-164 197l-164 -197h-182z" />
<glyph unicode="&#x2dc;" horiz-adv-x="995" d="M123 1282q0 75 22.5 138t76 107t130.5 44q44 0 81 -15.5t62 -37.5t48 -44t50 -37.5t56 -15.5q87 0 99 150h124q0 -77 -22.5 -140t-77 -106t-133.5 -43q-55 0 -99.5 23.5t-69 51.5t-58.5 51.5t-70 23.5q-28 0 -47.5 -13.5t-28.5 -39t-12.5 -46.5t-5.5 -51h-125z" />
<glyph unicode="&#x2000;" horiz-adv-x="963" />
<glyph unicode="&#x2001;" horiz-adv-x="1927" />
<glyph unicode="&#x2002;" horiz-adv-x="963" />
<glyph unicode="&#x2003;" horiz-adv-x="1927" />
<glyph unicode="&#x2004;" horiz-adv-x="642" />
<glyph unicode="&#x2005;" horiz-adv-x="481" />
<glyph unicode="&#x2006;" horiz-adv-x="321" />
<glyph unicode="&#x2007;" horiz-adv-x="321" />
<glyph unicode="&#x2008;" horiz-adv-x="240" />
<glyph unicode="&#x2009;" horiz-adv-x="385" />
<glyph unicode="&#x200a;" horiz-adv-x="107" />
<glyph unicode="&#x2010;" horiz-adv-x="733" d="M123 543v151h487v-151h-487z" />
<glyph unicode="&#x2011;" horiz-adv-x="733" d="M123 543v151h487v-151h-487z" />
<glyph unicode="&#x2012;" horiz-adv-x="733" d="M123 543v151h487v-151h-487z" />
<glyph unicode="&#x2013;" horiz-adv-x="1327" d="M123 543v151h1081v-151h-1081z" />
<glyph unicode="&#x2014;" horiz-adv-x="2304" d="M123 543v151h2058v-151h-2058z" />
<glyph unicode="&#x2018;" horiz-adv-x="518" d="M90 1057q0 103 65.5 212t172.5 193l65 -71q-64 -58 -103.5 -120t-45.5 -108q64 -2 107.5 -43.5t43.5 -103.5q0 -63 -42 -104.5t-105 -41.5q-68 0 -113 50t-45 137z" />
<glyph unicode="&#x2019;" horiz-adv-x="518" d="M123 1317q0 63 42 104t105 41q68 0 113 -49.5t45 -136.5q0 -103 -65.5 -212.5t-172.5 -193.5l-65 72q64 58 103.5 119.5t45.5 107.5q-64 2 -107.5 44t-43.5 104z" />
<glyph unicode="&#x201a;" horiz-adv-x="485" d="M90 119q0 63 42.5 104t105.5 41q67 0 112 -49.5t45 -136.5q0 -104 -65 -213t-172 -193l-66 72q64 58 104 119.5t46 107.5q-64 2 -108 44t-44 104z" />
<glyph unicode="&#x201c;" horiz-adv-x="890" d="M90 1057q0 103 65.5 212t172.5 193l65 -71q-64 -58 -103.5 -120t-45.5 -108q64 -2 107.5 -43.5t43.5 -103.5q0 -63 -42 -104.5t-105 -41.5q-68 0 -113 50t-45 137zM463 1057q0 104 65 212.5t172 192.5l66 -71q-64 -58 -104 -120t-46 -108q64 -2 108 -43.5t44 -103.5 q0 -63 -42 -104.5t-105 -41.5q-67 0 -112.5 50t-45.5 137z" />
<glyph unicode="&#x201d;" horiz-adv-x="890" d="M123 1317q0 63 42 104t105 41q68 0 113 -49.5t45 -136.5q0 -103 -65.5 -212.5t-172.5 -193.5l-65 72q64 58 103.5 119.5t45.5 107.5q-64 2 -107.5 44t-43.5 104zM496 1317q0 63 42 104t105 41q68 0 113 -49.5t45 -136.5q0 -103 -65.5 -212.5t-172.5 -193.5l-65 72 q64 58 103.5 119.5t45.5 107.5q-64 2 -107.5 44t-43.5 104z" />
<glyph unicode="&#x201e;" horiz-adv-x="858" d="M90 119q0 63 42.5 104t105.5 41q67 0 112 -49.5t45 -136.5q0 -104 -65 -213t-172 -193l-66 72q64 58 104 119.5t46 107.5q-64 2 -108 44t-44 104zM463 119q0 63 42 104t105 41q68 0 113 -49.5t45 -136.5q0 -103 -65.5 -212.5t-172.5 -193.5l-65 72q64 58 103.5 119.5 t45.5 107.5q-64 2 -107.5 44t-43.5 104z" />
<glyph unicode="&#x2022;" horiz-adv-x="751" d="M164 670q0 89 61 151t150 62t151 -62t62 -151t-62 -150t-151 -61t-150 61t-61 150z" />
<glyph unicode="&#x2026;" horiz-adv-x="1468" d="M90 119q0 63 42.5 104t105.5 41t104 -41t41 -104t-41 -105.5t-104 -42.5t-105.5 42.5t-42.5 105.5zM588 119q0 63 42 104t105 41t104.5 -41t41.5 -104t-41.5 -105.5t-104.5 -42.5t-105 42.5t-42 105.5zM1085 119q0 63 42.5 104t105.5 41t104 -41t41 -104t-41 -105.5 t-104 -42.5t-105.5 42.5t-42.5 105.5z" />
<glyph unicode="&#x202f;" horiz-adv-x="385" />
<glyph unicode="&#x2039;" horiz-adv-x="763" d="M92 451v157l467 410v-174l-291 -314l291 -315v-174z" />
<glyph unicode="&#x203a;" horiz-adv-x="763" d="M205 41v174l291 315l-291 314v174l467 -410v-157z" />
<glyph unicode="&#x205f;" horiz-adv-x="481" />
<glyph unicode="&#x20ac;" horiz-adv-x="1513" d="M123 492v143h188q-4 54 -4 82q0 26 4 84h-188v143h211q61 237 238.5 377.5t426.5 140.5q213 0 392 -92l-82 -156q-148 76 -305 76q-169 0 -289.5 -91t-171.5 -255h626l-73 -143h-580q-4 -27 -4 -84q0 -28 4 -82h492l-74 -143h-391q51 -165 171.5 -257t289.5 -92 q157 0 305 76l82 -156q-179 -92 -392 -92q-251 0 -427.5 141t-237.5 380h-211z" />
<glyph unicode="&#x2122;" horiz-adv-x="1998" d="M82 1319v115h715v-115h-291v-690h-135v690h-289zM924 629v817h39l397 -520l395 520h39v-817h-133v504l-279 -367h-43l-280 367v-504h-135z" />
<glyph unicode="&#x25fc;" horiz-adv-x="1064" d="M0 0v1065h1065v-1065h-1065z" />
<glyph unicode="&#xfb01;" horiz-adv-x="1251" d="M51 913v152h174v121q0 147 73 228t212 81q37 0 77.5 -5t62.5 -10l22 -5v-156q-65 20 -133 20q-67 0 -100 -34.5t-33 -116.5v-123h256v-152h-256v-913h-181v913h-174zM866 1352q0 47 32 78.5t79 31.5t78.5 -31.5t31.5 -78.5t-31.5 -79t-78.5 -32t-79 32t-32 79zM887 0 v1065h180v-1065h-180z" />
<glyph unicode="&#xfb02;" horiz-adv-x="1355" d="M51 913v152h174v121q0 147 73 228t212 81q37 0 77.5 -5t62.5 -10l22 -5v-156q-65 20 -133 20q-67 0 -100 -34.5t-33 -116.5v-123h256v-152h-256v-913h-181v913h-174zM887 289v1206h180v-1219q0 -84 32.5 -114.5t102.5 -30.5q29 0 56.5 4.5t39.5 9.5l13 5v-156 q-70 -23 -154 -23q-144 0 -207 78t-63 240z" />
</font>
</defs>
</svg>
