<?xml version="1.0" standalone="no"?>
<!DOCTYPE svg PUBLIC "-//W3C//DTD SVG 1.1//EN" "http://www.w3.org/Graphics/SVG/1.1/DTD/svg11.dtd" >
<svg xmlns="http://www.w3.org/2000/svg">
<metadata></metadata>
<defs>
<font id="matterhornbold" horiz-adv-x="1409" >
<font-face units-per-em="2048" ascent="1536" descent="-512" />
<missing-glyph horiz-adv-x="532" />
<glyph horiz-adv-x="0" />
<glyph horiz-adv-x="682" />
<glyph horiz-adv-x="0" />
<glyph horiz-adv-x="0" />
<glyph unicode=" "  horiz-adv-x="532" />
<glyph unicode="&#x09;" horiz-adv-x="532" />
<glyph unicode="&#xa0;" horiz-adv-x="532" />
<glyph unicode="!" horiz-adv-x="606" d="M102 172q0 87 57 144t144 57t144 -57t57 -144t-57 -144t-144 -57t-144 57t-57 144zM131 1434h344l-29 -916h-286z" />
<glyph unicode="&#x22;" horiz-adv-x="1015" d="M102 1462h326l-33 -639h-284zM608 1462h326l-33 -639h-285z" />
<glyph unicode="#" horiz-adv-x="1443" d="M102 348v213h224l41 311h-201v213h227l45 349h250l-45 -349h252l45 349h250l-45 -349h196v-213h-223l-41 -311h201v-213h-227l-45 -348h-250l45 348h-252l-45 -348h-250l45 348h-197zM575 561h252l41 311h-252z" />
<glyph unicode="$" horiz-adv-x="1134" d="M102 68v301q161 -113 365 -113q114 0 172.5 39t58.5 104q0 44 -32.5 81t-84.5 65.5t-114.5 57.5t-125.5 67t-115 85t-84.5 120t-32.5 163q0 162 96 268t264 140v190h246v-178q161 -14 266 -78v-290q-162 96 -319 96q-98 0 -154.5 -36.5t-56.5 -96.5q0 -34 20 -63.5 t54.5 -52.5t79 -46t93 -47t97.5 -51.5t93.5 -64t79 -79t54.5 -102t20 -129.5q0 -160 -92 -268.5t-248 -151.5v-240h-245v215q-202 8 -355 95z" />
<glyph unicode="%" horiz-adv-x="2078" d="M102 1018q0 185 110.5 300.5t281.5 115.5t281 -115.5t110 -300.5t-110 -300.5t-281 -115.5t-281.5 115.5t-110.5 300.5zM350 1018q0 -99 39.5 -156t104.5 -57t104 57t39 156t-39 156t-104 57t-104.5 -57t-39.5 -156zM561 -29l703 1491h254l-703 -1491h-254zM1194 416 q0 185 110 300t281 115t281 -115t110 -300t-110 -300.5t-281 -115.5t-281 115.5t-110 300.5zM1442 416q0 -99 39 -156t104 -57t104.5 57t39.5 156t-39.5 156t-104.5 57t-104 -57t-39 -156z" />
<glyph unicode="&#x26;" horiz-adv-x="1427" d="M102 348q0 60 17 115.5t44 99.5t68.5 88t82 77t92.5 69q-138 178 -138 331q0 143 108.5 238.5t301.5 95.5q172 0 277.5 -79.5t105.5 -223.5q0 -54 -17 -103.5t-42.5 -88t-66.5 -77.5t-79 -66.5t-90 -61.5l213 -240q29 68 53 174h244q-39 -204 -125 -366l295 -330h-359 l-104 121q-169 -150 -420 -150q-212 0 -336.5 103.5t-124.5 273.5zM408 393q0 -83 58 -126.5t148 -43.5q122 0 215 78l-276 322q-70 -55 -107.5 -109.5t-37.5 -120.5zM545 1120q0 -86 71 -184q84 58 128 108t44 105q0 51 -34.5 84t-85.5 33q-52 0 -87.5 -37t-35.5 -109z" />
<glyph unicode="'" horiz-adv-x="509" d="M102 1462h326l-33 -639h-284z" />
<glyph unicode="(" horiz-adv-x="872" d="M143 659q0 538 351 959h317q-66 -76 -123.5 -170.5t-108 -214t-79.5 -268.5t-29 -306t29 -305t79.5 -267.5t107.5 -213.5t124 -170h-315q-158 186 -255.5 426t-97.5 530z" />
<glyph unicode=")" horiz-adv-x="872" d="M61 -297q67 76 124 170t107.5 213.5t79.5 267.5t29 305t-29 306t-79.5 268.5t-108 214t-123.5 170.5h318q350 -420 350 -959q0 -290 -97 -530.5t-255 -425.5h-316z" />
<glyph unicode="*" horiz-adv-x="1130" d="M102 1067l72 238l289 -115l-23 305h246l-20 -305l288 115l74 -238l-297 -74l197 -235l-201 -146l-162 258l-162 -258l-200 146l194 235z" />
<glyph unicode="+" horiz-adv-x="1337" d="M102 453v278h426v447h279v-447h428v-278h-428v-449h-279v449h-426z" />
<glyph unicode="," horiz-adv-x="540" d="M70 174q0 88 56.5 143.5t143.5 55.5q90 0 145.5 -62.5t55.5 -175.5q0 -129 -72.5 -264.5t-222.5 -249.5l-94 103q64 50 110 118t52 131q-77 8 -125.5 63.5t-48.5 137.5z" />
<glyph unicode="-" horiz-adv-x="794" d="M102 475v268h590v-268h-590z" />
<glyph unicode="." horiz-adv-x="540" d="M70 172q0 88 57 144.5t143 56.5q87 0 144 -57t57 -144t-57 -144t-144 -57q-86 0 -143 56.5t-57 144.5z" />
<glyph unicode="/" horiz-adv-x="800" d="M20 -152l476 1737h284l-475 -1737h-285z" />
<glyph unicode="0" horiz-adv-x="1359" d="M113 717q0 223 67.5 391t196.5 261t303 93t303 -93t196.5 -261t67.5 -391t-67.5 -391t-196.5 -261.5t-303 -93.5t-303 93.5t-196.5 261.5t-67.5 391zM453 717q0 -220 59 -348.5t168 -128.5t168 128.5t59 348.5t-59 348.5t-168 128.5t-168 -128.5t-59 -348.5z" />
<glyph unicode="1" horiz-adv-x="794" d="M31 1176v258h569v-1434h-321v1176h-248z" />
<glyph unicode="2" horiz-adv-x="1142" d="M51 0v133l387 461q129 155 181.5 248.5t52.5 175.5q0 78 -58 128t-159 50q-59 0 -116 -15t-107.5 -44t-79.5 -49.5t-68 -51.5v303q180 123 410 123q225 0 364 -121t139 -313q0 -114 -64 -229t-200 -273l-229 -268h526v-258h-979z" />
<glyph unicode="3" horiz-adv-x="1130" d="M92 39v272q67 -33 154.5 -54t169.5 -21q128 0 203 63t75 154q0 99 -83 160t-244 61l-88 -6v147l288 361h-471v258h891v-134l-340 -426q161 -32 266 -144t105 -277q0 -98 -35.5 -184.5t-103.5 -153t-177 -105.5t-245 -39q-96 0 -197.5 20.5t-167.5 47.5z" />
<glyph unicode="4" horiz-adv-x="1210" d="M10 262v195l756 977h184v-924h189v-248h-189v-262h-311v262h-629zM317 510h322v416z" />
<glyph unicode="5" horiz-adv-x="1193" d="M113 43v270q183 -86 346 -86q129 0 211 57.5t82 161.5t-82 163t-211 59q-143 0 -301 -58l49 824h809v-258h-551l-19 -273q74 8 109 8q107 0 200.5 -30t165.5 -87t113 -146.5t41 -201.5q0 -209 -154 -342t-432 -133q-104 0 -204.5 21t-171.5 51z" />
<glyph unicode="6" horiz-adv-x="1247" d="M72 449q0 91 31 171t100 179l440 635h385l-383 -510q24 2 53 2q193 0 330 -138t137 -342q0 -212 -151.5 -343.5t-395.5 -131.5t-395 132t-151 346zM395 451q0 -102 63.5 -166t159.5 -64t160 64t64 166t-64 166.5t-160 64.5t-159.5 -64.5t-63.5 -166.5z" />
<glyph unicode="7" horiz-adv-x="1071" d="M35 1176v258h1005v-134l-596 -1300h-342l547 1176h-614z" />
<glyph unicode="8" horiz-adv-x="1286" d="M102 375q0 66 21.5 123t53.5 95.5t76.5 71t82 51t78.5 32.5q-58 27 -100.5 55.5t-79.5 68.5t-56.5 93t-19.5 118q0 121 71.5 209t182 129t243.5 41q210 0 347 -98.5t137 -257.5q0 -70 -26.5 -130t-70 -102t-84.5 -69t-86 -47q65 -29 114 -59.5t97.5 -76t74.5 -108 t26 -137.5q0 -121 -70.5 -214t-194 -142.5t-280.5 -49.5q-240 0 -388.5 113t-148.5 291zM426 379q0 -74 61.5 -124t155.5 -50q93 0 155 48.5t62 121.5q0 51 -18 90.5t-61 72t-71.5 49.5t-91.5 47q-3 2 -5 2.5t-4.5 2t-4.5 2.5q-178 -94 -178 -262zM481 1094 q0 -43 15.5 -77.5t48 -62.5t61.5 -46.5t78 -43.5q131 94 131 228q0 59 -44 98t-114 39q-72 0 -124 -37.5t-52 -97.5z" />
<glyph unicode="9" horiz-adv-x="1247" d="M82 987q0 212 151.5 343.5t395.5 131.5q245 0 396 -131.5t151 -345.5q0 -90 -31.5 -170t-100.5 -180l-440 -635h-385l383 510q-24 -2 -53 -2q-193 0 -330 137.5t-137 341.5zM406 983q0 -102 63.5 -166.5t159.5 -64.5t159.5 64.5t63.5 166.5t-63.5 165.5t-159.5 63.5 t-159.5 -63.5t-63.5 -165.5z" />
<glyph unicode=":" horiz-adv-x="606" d="M102 172q0 87 57 144t144 57t144 -57t57 -144t-57 -144t-144 -57t-144 57t-57 144zM102 864q0 87 57 144t144 57t144 -57t57 -144t-57 -143.5t-144 -56.5t-144 56.5t-57 143.5z" />
<glyph unicode=";" horiz-adv-x="606" d="M102 174q0 88 57 143.5t144 55.5q90 0 145.5 -62.5t55.5 -175.5q0 -129 -72.5 -264.5t-222.5 -249.5l-94 103q64 50 109.5 118t51.5 131q-77 8 -125.5 63.5t-48.5 137.5zM102 864q0 87 57 144t144 57t144 -57t57 -144t-57 -143.5t-144 -56.5t-144 56.5t-57 143.5z" />
<glyph unicode="&#x3c;" horiz-adv-x="1245" d="M61 451v280l1041 451v-308l-699 -284l699 -283v-307z" />
<glyph unicode="=" horiz-adv-x="1501" d="M184 197v278h1133v-278h-1133zM184 707v278h1133v-278h-1133z" />
<glyph unicode="&#x3e;" horiz-adv-x="1245" d="M143 0v307l699 283l-699 284v308l1041 -451v-280z" />
<glyph unicode="?" horiz-adv-x="901" d="M92 1128v261q150 73 316 73q194 0 308.5 -90t114.5 -244q0 -61 -19 -114.5t-49 -92.5t-66.5 -74.5t-73 -68t-66.5 -65.5t-49 -74t-19 -86q0 -17 3 -35h-267q-6 43 -6 78q0 74 29 141t70 114.5t82.5 89t70.5 82.5t29 77q0 49 -36 76.5t-106 27.5q-127 0 -266 -76zM158 172 q0 88 57 144.5t143 56.5q87 0 144 -57t57 -144t-57 -144t-144 -57q-86 0 -143 56.5t-57 144.5z" />
<glyph unicode="@" horiz-adv-x="1861" d="M102 547q0 188 65 355.5t179.5 291t280.5 196t358 72.5q165 0 308 -53.5t245.5 -148t161.5 -229.5t59 -292q0 -256 -126.5 -406.5t-315.5 -150.5q-48 0 -90 12.5t-67 31t-43.5 36.5t-26.5 30l-7 13q-35 -27 -60 -43.5t-81 -35.5t-117 -19q-149 0 -229 96t-80 264 q0 204 107.5 344t267.5 140q114 0 199 -88l8 79h221l-53 -559q-4 -54 16 -79t55 -25q80 0 134.5 88.5t54.5 263.5q0 237 -150.5 383t-390.5 146q-142 0 -264 -55t-206 -149.5t-131.5 -223t-47.5 -273.5q0 -268 154 -412.5t409 -144.5q204 0 356 96l103 -178 q-214 -127 -479 -127q-169 0 -311.5 50.5t-246 145.5t-161.5 238t-58 320zM762 600q0 -76 31.5 -127t103.5 -51q71 0 141 49l33 320q-18 18 -52.5 34.5t-76.5 16.5q-59 0 -101.5 -36.5t-60.5 -89.5t-18 -116z" />
<glyph unicode="A" d="M2 0l559 1434h287l559 -1434h-346l-84 236h-545l-84 -236h-346zM514 469h379l-188 535z" />
<glyph unicode="B" horiz-adv-x="1370" d="M174 0v1434h508q135 0 238.5 -27.5t166 -77t94 -114t31.5 -142.5q0 -110 -63 -196t-184 -117v-4q149 -28 236 -123t87 -227q0 -185 -150.5 -295.5t-441.5 -110.5h-522zM502 254h162q282 0 282 188q0 189 -282 189h-162v-377zM502 877h153q60 0 103.5 14t65.5 37.5t32 48 t10 51.5q0 65 -48 108.5t-163 43.5h-153v-303z" />
<glyph unicode="C" horiz-adv-x="1316" d="M92 717q0 162 55 301.5t151 236.5t229.5 152t287.5 55q124 0 230.5 -29.5t168.5 -66.5v-326q-163 140 -360 140q-195 0 -306.5 -127t-111.5 -336t111.5 -336t306.5 -127q198 0 360 139v-325q-62 -37 -168.5 -67t-230.5 -30q-205 0 -370 94t-259 265t-94 387z" />
<glyph unicode="D" horiz-adv-x="1486" d="M174 0v1434h373q214 0 378.5 -54t266 -151.5t152.5 -226t51 -285.5t-51 -285.5t-152.5 -226t-266 -151.5t-378.5 -54h-373zM502 266h45q252 0 378 115.5t126 335.5q0 219 -126 334.5t-378 115.5h-45v-901z" />
<glyph unicode="E" horiz-adv-x="1218" d="M174 0v1434h922v-267h-594v-297h491v-266h-491v-338h594v-266h-922z" />
<glyph unicode="F" horiz-adv-x="1136" d="M174 0v1434h881v-267h-553v-338h471v-266h-471v-563h-328z" />
<glyph unicode="G" horiz-adv-x="1460" d="M92 717q0 216 97 387t266.5 264.5t380.5 93.5q138 0 254 -29.5t186 -66.5v-305q-179 119 -402 119q-204 0 -321 -127t-117 -336t111.5 -336t306.5 -127q74 0 135 12v258h-172v238h500v-694q-83 -38 -213.5 -67.5t-288.5 -29.5q-205 0 -370 94t-259 265t-94 387z" />
<glyph unicode="H" horiz-adv-x="1581" d="M174 0v1434h328v-553h577v553h328v-1434h-328v614h-577v-614h-328z" />
<glyph unicode="I" horiz-adv-x="675" d="M174 0v1434h328v-1434h-328z" />
<glyph unicode="J" horiz-adv-x="911" d="M0 16v287q106 -53 227 -53q89 0 141 50t52 142v992h328v-985q0 -240 -126.5 -359t-338.5 -119q-77 0 -160 13t-123 32z" />
<glyph unicode="K" d="M174 0v1434h328v-619l471 619h413l-512 -629l553 -805h-395l-358 555l-172 -149v-406h-328z" />
<glyph unicode="L" horiz-adv-x="1095" d="M174 0v1434h328v-1168h594v-266h-922z" />
<glyph unicode="M" horiz-adv-x="1896" d="M174 0v1434h287l487 -684l488 684h286v-1434h-327v897l-396 -555h-102l-395 555v-897h-328z" />
<glyph unicode="N" horiz-adv-x="1654" d="M174 0v1434h287l692 -895v895h328v-1434h-287l-692 895v-895h-328z" />
<glyph unicode="O" horiz-adv-x="1667" d="M92 717q0 217 93 386.5t262.5 264t386.5 94.5t386 -94.5t262 -264t93 -386.5t-93 -387t-262 -264.5t-386 -94.5q-163 0 -301.5 55.5t-235 153t-151 236.5t-54.5 301zM436 717q0 -213 109 -339t289 -126q179 0 288 126t109 339q0 212 -108.5 337.5t-288.5 125.5 t-289 -125.5t-109 -337.5z" />
<glyph unicode="P" horiz-adv-x="1296" d="M174 0v1434h510q132 0 237.5 -40t171.5 -109t101 -158t35 -191t-35 -191t-101 -158t-171.5 -109t-237.5 -40h-182v-438h-328zM502 705h143q240 0 240 231q0 120 -64.5 175.5t-175.5 55.5h-143v-462z" />
<glyph unicode="Q" horiz-adv-x="1667" d="M92 717q0 217 93 386.5t262.5 264t386.5 94.5t386 -94.5t262 -264t93 -386.5q0 -305 -178 -508l258 -295h-334l-121 141q-162 -84 -366 -84q-163 0 -301.5 55.5t-235 153t-151 236.5t-54.5 301zM436 717q0 -213 109 -339t289 -126q89 0 167 35l-194 227l190 154l179 -207 q55 113 55 256q0 212 -108.5 337.5t-288.5 125.5t-289 -125.5t-109 -337.5z" />
<glyph unicode="R" horiz-adv-x="1353" d="M174 0v1434h522q127 0 229.5 -38t168 -104t100.5 -152t35 -184q0 -126 -58 -231.5t-165 -169.5l366 -555h-379l-299 479h-192v-479h-328zM502 745h135q115 0 181.5 51t66.5 160q0 211 -248 211h-135v-422z" />
<glyph unicode="S" horiz-adv-x="1134" d="M102 68v301q161 -113 365 -113q114 0 172.5 39t58.5 104q0 44 -32.5 81t-84.5 65.5t-114.5 57.5t-125.5 67t-115 85t-84.5 120t-32.5 163q0 200 142.5 312t381.5 112q215 0 348 -82v-290q-162 96 -319 96q-98 0 -154.5 -36.5t-56.5 -96.5q0 -34 20 -63.5t54.5 -52.5 t79 -46t93 -47t97.5 -51.5t93.5 -64t79 -79t54.5 -102t20 -129.5q0 -140 -73.5 -243t-195 -153.5t-275.5 -50.5q-119 0 -223 28.5t-173 68.5z" />
<glyph unicode="T" horiz-adv-x="1175" d="M2 1167v267h1172v-267h-422v-1167h-328v1167h-422z" />
<glyph unicode="U" horiz-adv-x="1556" d="M164 582v852h328v-854q0 -175 74 -252.5t212 -77.5t212.5 77.5t74.5 252.5v854h328v-852q0 -154 -44.5 -271.5t-126.5 -191.5t-193.5 -111t-250.5 -37q-140 0 -250.5 35.5t-193 108t-126.5 191t-44 276.5z" />
<glyph unicode="V" horiz-adv-x="1368" d="M2 1434h346l336 -1010l336 1010h346l-539 -1434h-286z" />
<glyph unicode="W" horiz-adv-x="1970" d="M2 1434h328l245 -914l267 914h286l267 -914l245 914h328l-412 -1434h-286l-285 975l-285 -975h-286z" />
<glyph unicode="X" horiz-adv-x="1376" d="M25 0l477 741l-447 693h387l246 -430l246 430h387l-447 -693l478 -741h-387l-277 477l-276 -477h-387z" />
<glyph unicode="Y" horiz-adv-x="1286" d="M-10 1434h362l291 -594l291 594h362l-489 -908v-526h-328v526z" />
<glyph unicode="Z" horiz-adv-x="1204" d="M70 0v225l624 942h-604v267h1014v-226l-625 -942h656v-266h-1065z" />
<glyph unicode="[" horiz-adv-x="944" d="M225 -297v1915h596v-266h-268v-1383h268v-266h-596z" />
<glyph unicode="\" horiz-adv-x="800" d="M20 1585h285l475 -1737h-284z" />
<glyph unicode="]" horiz-adv-x="944" d="M123 -31h268v1383h-268v266h596v-1915h-596v266z" />
<glyph unicode="^" horiz-adv-x="1206" d="M102 735l336 727h330l336 -727h-313l-189 479l-186 -479h-314z" />
<glyph unicode="_" horiz-adv-x="1179" d="M-41 -287h1262v-225h-1262v225z" />
<glyph unicode="`" horiz-adv-x="819" d="M82 1556h397l238 -301h-285z" />
<glyph unicode="a" horiz-adv-x="1153" d="M72 309q0 145 113 243.5t317 98.5q88 0 180 -20v63q0 160 -207 160q-88 0 -169 -22t-118 -44l-38 -22v258q16 8 46.5 19.5t128.5 31t201 19.5q223 0 345 -94.5t122 -274.5v-403q0 -107 82 -107q13 0 24.5 2.5t16.5 4.5l6 3v-205q-65 -32 -186 -32q-163 0 -217 131h-2 q-111 -148 -309 -148q-146 0 -241 87t-95 251zM383 328q0 -54 37.5 -89.5t101.5 -35.5q87 0 160 69v177q-55 10 -107 10q-97 0 -144.5 -37t-47.5 -94z" />
<glyph unicode="b" horiz-adv-x="1337" d="M139 0q15 112 15 270v1225h311v-506q125 105 297 105q138 0 251.5 -73.5t177.5 -202.5t64 -286t-65 -286t-177.5 -202t-248.5 -73q-108 0 -197.5 43.5t-144.5 108.5l-23 -123h-260zM465 293q35 -25 91.5 -43.5t111.5 -18.5q121 0 196.5 75.5t75.5 225.5q0 81 -23.5 144 t-64 101t-90 57.5t-105.5 19.5q-112 0 -192 -63v-498z" />
<glyph unicode="c" horiz-adv-x="1054" d="M82 532q0 261 153.5 411.5t401.5 150.5q96 0 184.5 -22t141.5 -50v-270q-115 100 -275 100q-139 0 -215 -83.5t-76 -236.5q0 -152 76 -235.5t215 -83.5q160 0 275 100v-270q-53 -28 -141.5 -50t-184.5 -22q-248 0 -401.5 150t-153.5 411z" />
<glyph unicode="d" horiz-adv-x="1337" d="M82 532q0 157 64 286t177.5 202.5t251.5 73.5q172 0 297 -105v506h312v-1225q0 -70 3.5 -137.5t6.5 -100.5l4 -32h-260q-15 64 -23 123q-57 -65 -146 -108.5t-196 -43.5q-136 0 -248.5 73t-177.5 202t-65 286zM397 532q0 -150 76 -225.5t197 -75.5q55 0 111 18.5t91 43.5 v498q-80 63 -192 63q-118 0 -200.5 -82t-82.5 -240z" />
<glyph unicode="e" horiz-adv-x="1193" d="M82 535q0 245 152 402t387 157q215 0 353 -134.5t138 -355.5q0 -31 -2 -67.5t-4 -56.5l-2 -21h-696q27 -250 313 -250q83 0 174 27.5t164 80.5v-235q-70 -50 -178.5 -80.5t-225.5 -30.5q-259 0 -416 155t-157 409zM408 651h395v17q0 84 -45 141q-50 63 -137 63 q-97 0 -153.5 -64t-59.5 -157z" />
<glyph unicode="f" horiz-adv-x="794" d="M41 821v244h172v82q0 173 92.5 260.5t249.5 87.5q63 0 126.5 -9.5t92.5 -21.5v-245q-73 30 -149 30q-51 0 -78 -24t-27 -70v-90h242v-244h-242v-821h-307v821h-172z" />
<glyph unicode="g" horiz-adv-x="1339" d="M82 547q0 238 135 392.5t340 154.5q221 0 361 -152l22 123h260q-14 -112 -14 -270v-775q0 -127 -44.5 -229t-123.5 -168t-184.5 -100.5t-229.5 -34.5q-151 0 -277.5 44.5t-179.5 86.5v279q64 -60 178 -114t248 -54q138 0 219.5 66.5t81.5 203.5v68q-120 -76 -266 -76 q-236 0 -381 154t-145 401zM397 541q0 -142 71 -225t191 -83q68 0 128.5 24t86.5 48v453q-36 28 -95 52t-128 24q-112 0 -183 -74.5t-71 -218.5z" />
<glyph unicode="h" horiz-adv-x="1325" d="M154 0v1495h311v-590q127 189 338 189q84 0 150 -24t108 -63t69.5 -92t38.5 -107.5t11 -113.5v-694h-312v633q0 209 -194 209q-64 0 -121 -31.5t-88 -71.5v-739h-311z" />
<glyph unicode="i" horiz-adv-x="618" d="M133 1378q0 75 48.5 116.5t127.5 41.5t127.5 -41.5t48.5 -116.5t-48.5 -116t-127.5 -41t-127.5 41t-48.5 116zM154 0v1065h311v-1065h-311z" />
<glyph unicode="j" horiz-adv-x="618" d="M-100 -250q46 -18 112 -18q142 0 142 149v1184h311v-1159q0 -221 -89 -320.5t-280 -99.5q-46 0 -95 7t-75 13l-26 7v237zM133 1378q0 75 48.5 116.5t127.5 41.5t127.5 -41.5t48.5 -116.5t-48.5 -116t-127.5 -41t-127.5 41t-48.5 116z" />
<glyph unicode="k" horiz-adv-x="1204" d="M154 0v1495h311v-864l352 434h357l-386 -453l426 -612h-354l-256 412l-139 -105v-307h-311z" />
<glyph unicode="l" horiz-adv-x="735" d="M154 391v1104h311v-1108q0 -149 141 -149q29 0 57.5 4.5t42.5 9.5l13 4v-258q-93 -27 -197 -27q-191 0 -279.5 99.5t-88.5 320.5z" />
<glyph unicode="m" horiz-adv-x="1941" d="M139 1065h291q15 -70 25 -172q17 27 32 47.5t45.5 51.5t63 51.5t80.5 35.5t102 15q127 0 206 -57.5t116 -153.5q153 211 344 211q79 0 141 -24t101 -63t64.5 -92t35.5 -107.5t10 -113.5v-694h-311v633q0 209 -170 209q-57 0 -107 -31.5t-80 -73.5q2 -14 2 -43v-694h-311 v633q0 209 -170 209q-57 0 -106.5 -31.5t-77.5 -71.5v-739h-311v795q0 70 -4 137.5t-8 99.5z" />
<glyph unicode="n" horiz-adv-x="1325" d="M139 1065h291q15 -70 25 -172q133 201 348 201q84 0 150 -24t108 -63t69.5 -92t38.5 -107.5t11 -113.5v-694h-312v633q0 209 -194 209q-64 0 -121 -31.5t-88 -71.5v-739h-311v795q0 70 -4 137.5t-8 99.5z" />
<glyph unicode="o" horiz-adv-x="1294" d="M82 532q0 248 157.5 405t407.5 157t407.5 -157t157.5 -405t-157.5 -404.5t-407.5 -156.5t-407.5 156.5t-157.5 404.5zM401 532q0 -152 67.5 -235.5t178.5 -83.5t178.5 83.5t67.5 235.5t-67.5 236t-178.5 84t-178.5 -84t-67.5 -236z" />
<glyph unicode="p" horiz-adv-x="1337" d="M139 1065h260q15 -64 23 -123q55 65 144.5 108.5t197.5 43.5q207 0 349 -161.5t142 -400.5q0 -118 -38 -222t-103 -178.5t-156.5 -117.5t-195.5 -43q-172 0 -297 105v-588h-311v1307q0 70 -4 137.5t-8 99.5zM465 274q80 -63 192 -63q119 0 201 82t82 239q0 150 -75.5 226 t-196.5 76q-55 0 -111.5 -18.5t-91.5 -43.5v-498z" />
<glyph unicode="q" horiz-adv-x="1337" d="M82 532q0 239 142 400.5t349 161.5q107 0 196 -43.5t146 -108.5l23 123h260q-14 -112 -14 -270v-1307h-312v588q-125 -105 -297 -105q-104 0 -195.5 43t-156.5 117.5t-103 178.5t-38 222zM397 532q0 -157 82 -239t201 -82q112 0 192 63v498q-35 25 -91 43.5t-111 18.5 q-121 0 -197 -76t-76 -226z" />
<glyph unicode="r" horiz-adv-x="888" d="M139 1065h291q21 -101 21 -193h4q16 34 39 66.5t60.5 70.5t91.5 61.5t116 23.5q28 0 57 -5t45 -9l15 -5v-284q-56 18 -158 18q-46 0 -89.5 -9t-72.5 -21.5t-51 -25t-32 -21.5l-11 -9v-723h-311v795q0 70 -4 137.5t-8 99.5z" />
<glyph unicode="s" horiz-adv-x="1009" d="M102 51v258q76 -44 173 -71t176 -27q77 0 118 25t41 61q0 32 -27.5 57t-71.5 43.5t-97.5 38t-106.5 47t-97 63t-71.5 93t-27.5 131.5q0 152 119.5 238t312.5 86q96 0 182 -20t137 -46v-254q-55 34 -144 57t-159 23q-66 0 -103.5 -21.5t-37.5 -54.5q0 -28 27.5 -50.5 t71.5 -40.5t97.5 -38t107 -48t97.5 -64.5t71.5 -94.5t27.5 -131q0 -155 -125 -247.5t-328 -92.5q-108 0 -210 24.5t-153 55.5z" />
<glyph unicode="t" horiz-adv-x="839" d="M41 821v244h172v246l311 61v-307h250v-244h-250v-434q0 -149 142 -149q29 0 57 4.5t41 9.5l14 4v-258q-92 -27 -196 -27q-191 0 -280 99.5t-89 320.5v430h-172z" />
<glyph unicode="u" horiz-adv-x="1325" d="M145 371v694h312v-633q0 -209 194 -209q64 0 121 31.5t88 71.5v739h311v-795q0 -70 3.5 -137.5t7.5 -100.5l4 -32h-291q-15 70 -25 172q-133 -201 -348 -201q-84 0 -150 24t-108 63t-69.5 92t-38.5 107.5t-11 113.5z" />
<glyph unicode="v" horiz-adv-x="1134" d="M2 1065h315l250 -653l250 653h316l-453 -1065h-225z" />
<glyph unicode="w" horiz-adv-x="1695" d="M2 1065h307l205 -600l221 600h226l221 -600l204 600h308l-381 -1065h-226l-239 674l-240 -674h-225z" />
<glyph unicode="x" horiz-adv-x="1146" d="M8 0l406 551l-379 514h358l180 -279l181 279h358l-381 -514l408 -551h-359l-207 315l-206 -315h-359z" />
<glyph unicode="y" horiz-adv-x="1103" d="M2 -211q59 -22 139 -22q31 0 63.5 10t70.5 33.5t73 71t58 114.5l12 37l-412 1032h324l233 -645l209 645h322l-379 -1065q-53 -151 -114 -252.5t-131.5 -157.5t-144 -79t-167.5 -23q-44 0 -83 7t-56 15l-17 7v272z" />
<glyph unicode="z" horiz-adv-x="993" d="M41 0v172l475 659h-453v234h859v-172l-476 -660h496v-233h-901z" />
<glyph unicode="{" horiz-adv-x="829" d="M102 549v223q86 0 130 38.5t44 125.5q0 47 -34.5 179t-34.5 198q0 163 119 234t381 71v-215q-93 0 -132.5 -27.5t-39.5 -85.5q0 -60 30.5 -181t30.5 -181q0 -110 -63.5 -179t-167.5 -81v-15q104 -12 167.5 -81t63.5 -179q0 -59 -30.5 -180.5t-30.5 -181.5 q0 -58 39.5 -85.5t132.5 -27.5v-215q-262 0 -381 71t-119 234q0 66 34.5 198t34.5 179q0 87 -44 125.5t-130 38.5z" />
<glyph unicode="|" horiz-adv-x="778" d="M225 -348v2007h328v-2007h-328z" />
<glyph unicode="}" horiz-adv-x="829" d="M123 -82q93 0 132.5 27.5t39.5 85.5q0 60 -31 181.5t-31 180.5q0 110 64 179t168 81v15q-104 12 -168 81t-64 179q0 60 31 181t31 181q0 58 -39.5 85.5t-132.5 27.5v215q262 0 381 -71t119 -234q0 -66 -35 -198t-35 -179q0 -87 44 -125.5t130 -38.5v-223 q-86 0 -130 -38.5t-44 -125.5q0 -47 35 -179t35 -198q0 -163 -119 -234t-381 -71v215z" />
<glyph unicode="~" horiz-adv-x="1513" d="M143 412q0 198 92 317t265 119q71 0 145.5 -23t126 -50t111.5 -50t106 -23q65 0 97 40.5t32 109.5h252q0 -198 -93 -317t-265 -119q-70 0 -144.5 22.5t-126 50t-111.5 50t-106 22.5q-65 0 -97 -40.5t-32 -108.5h-252z" />
<glyph unicode="&#xa1;" horiz-adv-x="606" d="M102 893q0 87 57 144t144 57t144 -57t57 -144t-57 -144t-144 -57t-144 57t-57 144zM131 -369l29 916h286l29 -916h-344z" />
<glyph unicode="&#xa2;" horiz-adv-x="1064" d="M92 532q0 249 140 397.5t370 162.5l43 227h232l-50 -246q77 -18 146 -51v-270q-115 100 -275 100q-139 0 -214.5 -83.5t-75.5 -236.5t75.5 -236t214.5 -83q160 0 275 100v-270q-53 -28 -141.5 -50t-184.5 -22l-29 2l-36 -198h-232l45 245q-141 62 -222 194t-81 318z" />
<glyph unicode="&#xa3;" horiz-adv-x="1140" d="M102 125q8 4 21.5 11.5t47.5 34.5t59.5 58.5t47 83t21.5 107.5q0 76 -31 198h-157v185h106q-29 127 -29 244q0 197 130.5 306t336.5 109q79 0 156 -17t115 -33l37 -17v-256q-12 8 -34.5 19.5t-88.5 30.5t-129 19q-94 0 -146.5 -45t-52.5 -133q0 -109 25 -227h315v-185 h-272q12 -86 12 -141q0 -48 -10.5 -88t-25 -63.5t-29 -40t-25.5 -23.5l-10 -6l4 -8q29 10 82 10q39 0 118 -11t123 -11q63 0 117.5 15t77.5 31l24 15v-254l-8 -8t-23 -17t-38.5 -21.5t-55 -17.5t-71.5 -8q-82 0 -154.5 20.5t-137 41t-128.5 20.5q-54 0 -109.5 -21t-84.5 -42 l-29 -21z" />
<glyph unicode="&#xa4;" horiz-adv-x="1331" d="M102 287l142 143q-66 116 -66 250q0 136 66 250l-142 143l170 170l144 -143q112 67 250 67q135 0 247 -67l146 143l170 -170l-144 -143q68 -117 68 -250q0 -136 -68 -250l144 -143l-170 -170l-144 143q-115 -67 -249 -67q-136 0 -250 65l-144 -141zM424 680 q0 -114 68.5 -189t173.5 -75t173 75t68 189t-68 189t-173 75t-173.5 -75t-68.5 -189z" />
<glyph unicode="&#xa5;" horiz-adv-x="1310" d="M2 1434h363l290 -594l291 594h363l-394 -729h226v-179h-322v-120h322v-179h-322v-227h-327v227h-318v179h318v120h-318v179h221z" />
<glyph unicode="&#xa6;" horiz-adv-x="778" d="M225 -348v899h328v-899h-328zM225 760v899h328v-899h-328z" />
<glyph unicode="&#xa7;" horiz-adv-x="1226" d="M143 -59q159 -105 353 -105q231 0 231 137q0 39 -32 70t-82.5 54t-112 47.5t-123.5 57.5t-112.5 75.5t-82.5 110.5t-32 155q0 163 135 262q-135 100 -135 260q0 186 143 291.5t377 105.5q222 0 352 -76v-274q-163 92 -317 92q-99 0 -154 -34t-55 -95q0 -38 32.5 -68.5 t84 -53.5t114.5 -47.5t125.5 -58t114 -76t84 -111t32.5 -154.5q0 -162 -139 -264q139 -106 139 -258q0 -129 -74 -224.5t-195.5 -142.5t-274.5 -47q-120 0 -224.5 26.5t-171.5 63.5v281zM455 553q0 -23 13 -43.5t30.5 -36t51.5 -34t60 -30t72 -30.5q40 18 63 50t23 67 q0 28 -16 52t-50.5 45.5t-67 37t-87.5 37.5q-43 -17 -67.5 -48.5t-24.5 -66.5z" />
<glyph unicode="&#xa8;" horiz-adv-x="980" d="M102 1403q0 66 44.5 109.5t113.5 43.5q65 0 108.5 -43.5t43.5 -109.5t-44 -111t-108 -45q-68 0 -113 44.5t-45 111.5zM569 1403q0 66 44.5 109.5t113.5 43.5q65 0 108.5 -43.5t43.5 -109.5t-44 -111t-108 -45q-69 0 -113.5 44.5t-44.5 111.5z" />
<glyph unicode="&#xa9;" horiz-adv-x="1736" d="M123 717q0 152 59 290t158.5 237.5t237.5 158.5t290 59t290 -59t238 -158.5t159 -237.5t59 -290q0 -203 -100 -374.5t-271.5 -271.5t-374.5 -100q-152 0 -290 59t-237.5 159t-158.5 238t-59 290zM324 717q0 -124 42 -231t114.5 -181.5t173 -117t214.5 -42.5t214.5 42.5 t173.5 117t115 181.5t42 231q0 165 -72 296t-196.5 203t-276.5 72t-276 -72t-196 -203t-72 -296zM498 717q0 180 112.5 294.5t284.5 114.5q70 0 129 -16t92 -37v-188q-90 86 -198 86q-107 0 -168.5 -69.5t-61.5 -184.5t61.5 -184.5t168.5 -69.5q108 0 198 86v-189 q-33 -21 -92 -37t-129 -16q-172 0 -284.5 115t-112.5 295z" />
<glyph unicode="&#xaa;" horiz-adv-x="950" d="M123 430v148h704v-148h-704zM125 948q0 101 77.5 169.5t217.5 68.5q64 0 119 -12v24q0 102 -136 102q-61 0 -117.5 -17t-83.5 -35l-26 -17v172q11 7 31.5 16.5t88.5 26t140 16.5q147 0 227 -61.5t80 -179.5v-267q0 -67 54 -67l30 4v-133q-48 -23 -122 -23q-109 0 -142 80 q-78 -90 -205 -90q-101 0 -167 57.5t-66 165.5zM328 956q0 -36 28 -59t78 -23q55 0 105 46v129q-35 6 -70 6q-70 0 -105.5 -28.5t-35.5 -70.5z" />
<glyph unicode="&#xab;" horiz-adv-x="1232" d="M72 410v280l487 410v-273l-266 -278l266 -277v-272zM561 410v280l488 410v-273l-267 -278l267 -277v-272z" />
<glyph unicode="&#xac;" horiz-adv-x="1449" d="M102 635v268h1205v-649h-269v381h-936z" />
<glyph unicode="&#xad;" horiz-adv-x="794" d="M102 475v268h590v-268h-590z" />
<glyph unicode="&#xae;" horiz-adv-x="1736" d="M123 717q0 152 59 290t158.5 237.5t237.5 158.5t290 59t290 -59t238 -158.5t159 -237.5t59 -290q0 -203 -100 -374.5t-271.5 -271.5t-374.5 -100q-152 0 -290 59t-237.5 159t-158.5 238t-59 290zM322 717q0 -162 73 -293.5t198 -205t275 -73.5q229 0 387 163.5t158 408.5 q0 162 -73 293.5t-197.5 204.5t-274.5 73q-112 0 -213 -43t-174 -118t-116 -182t-43 -228zM592 322v788h287q137 0 214.5 -75t77.5 -187q0 -70 -31.5 -128t-90.5 -93l200 -305h-215l-153 264h-109v-264h-180zM772 733h74q135 0 135 115q0 117 -135 117h-74v-232z" />
<glyph unicode="&#xaf;" horiz-adv-x="868" d="M102 1317v227h664v-227h-664z" />
<glyph unicode="&#xb0;" horiz-adv-x="858" d="M61 1094q0 154 106.5 261t260.5 107t261.5 -107t107.5 -261t-107.5 -260.5t-261.5 -106.5t-260.5 106.5t-106.5 260.5zM281 1094q0 -65 41.5 -109.5t105.5 -44.5q65 0 107.5 44.5t42.5 109.5q0 67 -42 111t-108 44q-64 0 -105.5 -44.5t-41.5 -110.5z" />
<glyph unicode="&#xb1;" horiz-adv-x="1501" d="M184 0v258h1133v-258h-1133zM184 655v258h437v269h258v-269h438v-258h-438v-288h-258v288h-437z" />
<glyph unicode="&#xb2;" horiz-adv-x="733" d="M102 688v105l193 229q57 69 80.5 110.5t23.5 73.5q0 24 -19.5 40t-53.5 16q-73 0 -209 -93v207q106 72 227 72t195.5 -66.5t74.5 -171.5q0 -111 -131 -258l-71 -82h219v-182h-529z" />
<glyph unicode="&#xb3;" horiz-adv-x="708" d="M102 707v186q108 -31 193 -31q44 0 70 20t26 48q0 80 -201 80v82l125 159h-211v183h486v-103l-141 -180q73 -25 115 -82.5t42 -138.5q0 -110 -80 -183t-225 -73q-98 0 -199 33z" />
<glyph unicode="&#xb4;" horiz-adv-x="839" d="M102 1255l238 301h397l-350 -301h-285z" />
<glyph unicode="&#xb5;" horiz-adv-x="1423" d="M154 -367v1432h311v-633q0 -209 194 -209q64 0 121 31.5t88 71.5v739h312v-700q0 -67 30 -98t90 -31q24 0 47 4.5t35 9.5l11 4v-256q-80 -29 -176 -29q-258 0 -324 203h-4q-20 -33 -49 -65t-73 -64.5t-105.5 -52t-131.5 -19.5q-25 0 -65 4v-342h-311z" />
<glyph unicode="&#xb6;" horiz-adv-x="1669" d="M102 928q0 231 142 368.5t397 137.5h844v-1946h-303v1679h-228v-1679h-303v934h-10q-255 0 -397 137.5t-142 368.5z" />
<glyph unicode="&#xb7;" horiz-adv-x="688" d="M143 705q0 87 57 143.5t144 56.5t144 -56.5t57 -143.5t-57 -144t-144 -57t-144 57t-57 144z" />
<glyph unicode="&#xb8;" horiz-adv-x="679" d="M102 -367q74 -32 154 -32q41 0 64.5 22t23.5 60q0 47 -62 76.5t-155 29.5l119 211h221l-74 -119q87 -21 139 -72.5t52 -125.5q0 -72 -44 -124.5t-111 -77t-146 -24.5q-43 0 -88 6.5t-69 12.5l-24 6v151z" />
<glyph unicode="&#xb9;" horiz-adv-x="536" d="M102 1251v183h332v-746h-213v563h-119z" />
<glyph unicode="&#xba;" horiz-adv-x="987" d="M123 422v156h741v-156h-741zM123 1094q0 162 103.5 265t267.5 103t267 -103t103 -265t-103 -265.5t-267 -103.5t-267.5 103.5t-103.5 265.5zM332 1094q0 -100 44 -154.5t118 -54.5t117.5 54t43.5 155t-43.5 155t-117.5 54t-118 -54.5t-44 -154.5z" />
<glyph unicode="&#xbb;" horiz-adv-x="1232" d="M184 0v272l267 277l-267 278v273l488 -410v-280zM674 0v272l266 277l-266 278v273l487 -410v-280z" />
<glyph unicode="&#xbc;" horiz-adv-x="1574" d="M102 1251v183h332v-746h-213v563h-119zM274 -29l703 1491h254l-703 -1491h-254zM874 125v131l377 489h131v-444h91v-176h-91v-125h-208v125h-300zM1051 301h123v158z" />
<glyph unicode="&#xbd;" horiz-adv-x="1638" d="M102 1251v183h332v-746h-213v563h-119zM274 -29l703 1491h254l-703 -1491h-254zM1008 0v104l192 230q58 70 81.5 111t23.5 73q0 24 -20 39.5t-54 15.5q-75 0 -209 -92v207q106 72 227 72t196 -66.5t75 -171.5q0 -111 -131 -258l-72 -82h219v-182h-528z" />
<glyph unicode="&#xbe;" horiz-adv-x="1687" d="M102 707v186q108 -31 193 -31q44 0 70 20t26 48q0 80 -201 80v82l125 159h-211v183h486v-103l-141 -180q73 -25 115 -82.5t42 -138.5q0 -110 -80 -183t-225 -73q-98 0 -199 33zM387 -29l703 1491h253l-702 -1491h-254zM987 125v131l377 489h131v-444h90v-176h-90v-125 h-209v125h-299zM1163 301h123v158z" />
<glyph unicode="&#xbf;" horiz-adv-x="944" d="M102 -63q0 61 19 114.5t49 92.5t66.5 74.5t73 68t66.5 65.5t49 74t19 86q0 23 -2 35h267q6 -44 6 -78q0 -74 -29 -141t-70 -114.5t-82.5 -89t-70.5 -82.5t-29 -77q0 -49 35.5 -76.5t105.5 -27.5q128 0 267 76v-261q-150 -73 -316 -73q-194 0 -309 90.5t-115 243.5z M375 893q0 87 56.5 144t143.5 57t144 -57t57 -144t-57 -144t-144 -57t-143.5 57t-56.5 144z" />
<glyph unicode="&#xc0;" d="M2 0l559 1434h287l559 -1434h-346l-84 236h-545l-84 -236h-346zM305 1925h397l238 -301h-285zM514 469h379l-188 535z" />
<glyph unicode="&#xc1;" d="M2 0l559 1434h287l559 -1434h-346l-84 236h-545l-84 -236h-346zM469 1624l238 301h397l-350 -301h-285zM514 469h379l-188 535z" />
<glyph unicode="&#xc2;" d="M2 0l559 1434h287l559 -1434h-346l-84 236h-545l-84 -236h-346zM297 1624l250 322h315l250 -322h-264l-143 156l-144 -156h-264zM514 469h379l-188 535z" />
<glyph unicode="&#xc3;" d="M2 0l559 1434h287l559 -1434h-346l-84 236h-545l-84 -236h-346zM266 1651q0 68 14.5 129.5t44.5 115t83.5 85.5t123.5 32q48 0 90.5 -15t73 -36.5t57 -42.5t53.5 -36t52 -15q46 0 70 37.5t24 103.5h191q0 -69 -15 -131t-45.5 -115t-84.5 -84.5t-126 -31.5q-50 0 -93 15 t-72 36.5t-54.5 42.5t-53 36t-54.5 15q-42 0 -65 -36t-23 -105h-191zM514 469h379l-188 535z" />
<glyph unicode="&#xc4;" d="M2 0l559 1434h287l559 -1434h-346l-84 236h-545l-84 -236h-346zM317 1772q0 66 44.5 109.5t113.5 43.5q65 0 108.5 -43.5t43.5 -109.5t-44 -111t-108 -45q-69 0 -113.5 45t-44.5 111zM514 469h379l-188 535zM784 1772q0 66 44.5 109.5t113.5 43.5q65 0 108.5 -43.5 t43.5 -109.5t-44 -111t-108 -45q-68 0 -113 45t-45 111z" />
<glyph unicode="&#xc5;" d="M2 0l559 1434h287l559 -1434h-346l-84 236h-545l-84 -236h-346zM408 1614q0 128 83.5 209.5t213.5 81.5t213 -81.5t83 -209.5q0 -130 -83.5 -212.5t-212.5 -82.5q-130 0 -213.5 82.5t-83.5 212.5zM514 469h379l-188 535zM592 1614q0 -57 31 -92t82 -35t81.5 35t30.5 92 q0 54 -30.5 88.5t-81.5 34.5t-82 -34.5t-31 -88.5z" />
<glyph unicode="&#xc6;" horiz-adv-x="2056" d="M2 0l877 1434h1054v-267h-594v-297h492v-266h-492v-338h594v-266h-921v236h-500l-141 -236h-369zM653 469h359v594z" />
<glyph unicode="&#xc7;" horiz-adv-x="1316" d="M92 717q0 162 55 301.5t151 236.5t229.5 152t287.5 55q124 0 230.5 -29.5t168.5 -66.5v-326q-163 140 -360 140q-195 0 -306.5 -127t-111.5 -336t111.5 -336t306.5 -127q198 0 360 139v-325q-62 -37 -168.5 -67t-230.5 -30q-205 0 -370 94t-259 265t-94 387zM541 -367 q73 -32 153 -32q41 0 64.5 22t23.5 60q0 47 -62 76.5t-155 29.5l119 211h221l-74 -119q87 -21 139 -72.5t52 -125.5q0 -72 -44 -124.5t-111 -77t-146 -24.5q-43 0 -88 6.5t-69 12.5l-23 6v151z" />
<glyph unicode="&#xc8;" horiz-adv-x="1218" d="M174 0v1434h922v-267h-594v-297h491v-266h-491v-338h594v-266h-922zM199 1925h397l238 -301h-285z" />
<glyph unicode="&#xc9;" horiz-adv-x="1218" d="M174 0v1434h922v-267h-594v-297h491v-266h-491v-338h594v-266h-922zM383 1624l238 301h397l-350 -301h-285z" />
<glyph unicode="&#xca;" horiz-adv-x="1218" d="M174 0v1434h922v-267h-594v-297h491v-266h-491v-338h594v-266h-922zM211 1624l250 322h315l250 -322h-264l-144 156l-143 -156h-264z" />
<glyph unicode="&#xcb;" horiz-adv-x="1218" d="M174 0v1434h922v-267h-594v-297h491v-266h-491v-338h594v-266h-922zM252 1772q0 66 44.5 109.5t113.5 43.5q65 0 108 -43.5t43 -109.5t-43.5 -111t-107.5 -45q-68 0 -113 45t-45 111zM719 1772q0 66 44.5 109.5t113.5 43.5q65 0 108 -43.5t43 -109.5t-43.5 -111 t-107.5 -45q-69 0 -113.5 45t-44.5 111z" />
<glyph unicode="&#xcc;" horiz-adv-x="675" d="M-61 1925h397l237 -301h-284zM174 0v1434h328v-1434h-328z" />
<glyph unicode="&#xcd;" horiz-adv-x="675" d="M82 1624l237 301h398l-350 -301h-285zM174 0v1434h328v-1434h-328z" />
<glyph unicode="&#xce;" horiz-adv-x="675" d="M-70 1624l250 322h316l249 -322h-264l-143 156l-143 -156h-265zM174 0v1434h328v-1434h-328z" />
<glyph unicode="&#xcf;" horiz-adv-x="675" d="M-49 1772q0 66 44.5 109.5t113.5 43.5q65 0 108 -43.5t43 -109.5t-43.5 -111t-107.5 -45q-69 0 -113.5 45t-44.5 111zM174 0v1434h328v-1434h-328zM418 1772q0 66 44 109.5t113 43.5q65 0 108.5 -43.5t43.5 -109.5t-44 -111t-108 -45q-68 0 -112.5 44.5t-44.5 111.5z" />
<glyph unicode="&#xd0;" horiz-adv-x="1490" d="M20 563v199h158v672h373q214 0 378.5 -54t266 -151.5t152.5 -226t51 -285.5t-51 -285.5t-152.5 -226t-266 -151.5t-378.5 -54h-373v563h-158zM506 266h45q252 0 378 115.5t126 335.5q0 219 -126 334.5t-378 115.5h-45v-405h233v-199h-233v-297z" />
<glyph unicode="&#xd1;" horiz-adv-x="1654" d="M174 0v1434h287l692 -895v895h328v-1434h-287l-692 895v-895h-328zM369 1651q0 68 14.5 129.5t44.5 115t83.5 85.5t123.5 32q48 0 90.5 -15t73 -36.5t57 -42.5t53.5 -36t52 -15q46 0 70 37.5t24 103.5h190q0 -55 -9 -105.5t-29 -98t-50.5 -82t-77 -55.5t-104.5 -21 q-50 0 -93 15t-72.5 36.5t-55 42.5t-53 36t-54.5 15q-42 0 -65 -36t-23 -105h-190z" />
<glyph unicode="&#xd2;" horiz-adv-x="1667" d="M92 717q0 217 93 386.5t262.5 264t386.5 94.5t386 -94.5t262 -264t93 -386.5t-93 -387t-262 -264.5t-386 -94.5q-163 0 -301.5 55.5t-235 153t-151 236.5t-54.5 301zM373 1925h397l238 -301h-285zM436 717q0 -213 109 -339t289 -126q179 0 288 126t109 339 q0 212 -108.5 337.5t-288.5 125.5t-289 -125.5t-109 -337.5z" />
<glyph unicode="&#xd3;" horiz-adv-x="1667" d="M92 717q0 217 93 386.5t262.5 264t386.5 94.5t386 -94.5t262 -264t93 -386.5t-93 -387t-262 -264.5t-386 -94.5q-163 0 -301.5 55.5t-235 153t-151 236.5t-54.5 301zM436 717q0 -213 109 -339t289 -126q179 0 288 126t109 339q0 212 -108.5 337.5t-288.5 125.5 t-289 -125.5t-109 -337.5zM618 1624l238 301h397l-350 -301h-285z" />
<glyph unicode="&#xd4;" horiz-adv-x="1667" d="M92 717q0 217 93 386.5t262.5 264t386.5 94.5t386 -94.5t262 -264t93 -386.5t-93 -387t-262 -264.5t-386 -94.5q-163 0 -301.5 55.5t-235 153t-151 236.5t-54.5 301zM424 1624l250 322h315l250 -322h-264l-144 156l-143 -156h-264zM436 717q0 -213 109 -339t289 -126 q179 0 288 126t109 339q0 212 -108.5 337.5t-288.5 125.5t-289 -125.5t-109 -337.5z" />
<glyph unicode="&#xd5;" horiz-adv-x="1667" d="M92 717q0 217 93 386.5t262.5 264t386.5 94.5t386 -94.5t262 -264t93 -386.5t-93 -387t-262 -264.5t-386 -94.5q-163 0 -301.5 55.5t-235 153t-151 236.5t-54.5 301zM391 1651q0 68 14.5 129.5t44.5 115t83.5 85.5t123.5 32q48 0 90.5 -15t73 -36.5t57 -42.5t53.5 -36 t52 -15q46 0 70 37.5t24 103.5h191q0 -69 -15 -131t-45.5 -115t-84.5 -84.5t-126 -31.5q-50 0 -93 15t-72 36.5t-54.5 42.5t-53 36t-54.5 15q-42 0 -65 -36t-23 -105h-191zM436 717q0 -213 109 -339t289 -126q179 0 288 126t109 339q0 212 -108.5 337.5t-288.5 125.5 t-289 -125.5t-109 -337.5z" />
<glyph unicode="&#xd6;" horiz-adv-x="1667" d="M92 717q0 217 93 386.5t262.5 264t386.5 94.5t386 -94.5t262 -264t93 -386.5t-93 -387t-262 -264.5t-386 -94.5q-163 0 -301.5 55.5t-235 153t-151 236.5t-54.5 301zM436 717q0 -213 109 -339t289 -126q179 0 288 126t109 339q0 212 -108.5 337.5t-288.5 125.5 t-289 -125.5t-109 -337.5zM465 1772q0 66 44.5 109.5t113.5 43.5q65 0 108 -43.5t43 -109.5t-43.5 -111t-107.5 -45q-69 0 -113.5 45t-44.5 111zM932 1772q0 66 44.5 109.5t113.5 43.5q65 0 108 -43.5t43 -109.5t-43.5 -111t-107.5 -45q-68 0 -113 45t-45 111z" />
<glyph unicode="&#xd7;" horiz-adv-x="1376" d="M102 201l390 389l-390 391l197 197l389 -392l389 390l197 -197l-389 -389l389 -387l-197 -197l-389 387l-389 -389z" />
<glyph unicode="&#xd8;" horiz-adv-x="1646" d="M82 -29l186 228q-186 205 -186 518q0 217 93 386.5t262 264t386 94.5q218 0 394 -100l81 100h267l-187 -229q187 -203 187 -516q0 -162 -54.5 -301t-151 -236.5t-235 -153t-301.5 -55.5q-221 0 -395 99l-80 -99h-266zM426 717q0 -152 55 -256l543 665q-88 54 -201 54 q-180 0 -288.5 -125.5t-108.5 -337.5zM621 305q86 -53 202 -53q180 0 289 126t109 339q0 141 -56 256z" />
<glyph unicode="&#xd9;" horiz-adv-x="1556" d="M164 582v852h328v-854q0 -175 74 -252.5t212 -77.5t212.5 77.5t74.5 252.5v854h328v-852q0 -154 -44.5 -271.5t-126.5 -191.5t-193.5 -111t-250.5 -37q-140 0 -250.5 35.5t-193 108t-126.5 191t-44 276.5zM358 1925h398l237 -301h-284z" />
<glyph unicode="&#xda;" horiz-adv-x="1556" d="M164 582v852h328v-854q0 -175 74 -252.5t212 -77.5t212.5 77.5t74.5 252.5v854h328v-852q0 -154 -44.5 -271.5t-126.5 -191.5t-193.5 -111t-250.5 -37q-140 0 -250.5 35.5t-193 108t-126.5 191t-44 276.5zM543 1624l237 301h398l-351 -301h-284z" />
<glyph unicode="&#xdb;" horiz-adv-x="1556" d="M164 582v852h328v-854q0 -175 74 -252.5t212 -77.5t212.5 77.5t74.5 252.5v854h328v-852q0 -154 -44.5 -271.5t-126.5 -191.5t-193.5 -111t-250.5 -37q-140 0 -250.5 35.5t-193 108t-126.5 191t-44 276.5zM371 1624l250 322h315l250 -322h-264l-144 156l-143 -156h-264z " />
<glyph unicode="&#xdc;" horiz-adv-x="1576" d="M174 582v852h328v-854q0 -175 74 -252.5t212 -77.5t212.5 77.5t74.5 252.5v854h328v-852q0 -154 -44.5 -271.5t-126.5 -191.5t-193.5 -111t-250.5 -37q-140 0 -250.5 35.5t-193 108t-126.5 191t-44 276.5zM399 1772q0 66 44.5 109.5t113.5 43.5q65 0 108.5 -43.5 t43.5 -109.5t-44 -111t-108 -45q-69 0 -113.5 45t-44.5 111zM866 1772q0 66 44.5 109.5t113.5 43.5q65 0 108.5 -43.5t43.5 -109.5t-44 -111t-108 -45q-68 0 -113 45t-45 111z" />
<glyph unicode="&#xdd;" horiz-adv-x="1286" d="M-10 1434h362l291 -594l291 594h362l-489 -908v-526h-328v526zM469 1624l238 301h397l-350 -301h-285z" />
<glyph unicode="&#xde;" horiz-adv-x="1308" d="M184 0v1434h328v-207h182q132 0 237.5 -38t171.5 -104t101 -151.5t35 -183.5t-35 -183.5t-101 -152t-171.5 -104.5t-237.5 -38h-182v-272h-328zM512 539h143q240 0 240 211q0 110 -64.5 160.5t-175.5 50.5h-143v-422z" />
<glyph unicode="&#xdf;" horiz-adv-x="1423" d="M164 0v1090q0 182 137 293.5t365 111.5q227 0 360 -87.5t133 -229.5q0 -67 -25 -121t-61 -87.5t-72 -61t-61 -56t-25 -57.5q0 -23 19.5 -43.5t52 -36.5t73.5 -36t83.5 -39.5t83.5 -49.5t73.5 -64.5t52 -85t19.5 -110.5q0 -163 -129 -261t-334 -98q-94 0 -178 25t-131 55 v234q54 -36 144 -65.5t157 -29.5q83 0 123.5 40.5t40.5 93.5q0 37 -25.5 67t-66 51.5t-89 42t-97.5 45t-89.5 54.5t-66 76.5t-25.5 105.5q0 53 16.5 94.5t41.5 66t54.5 49.5t54.5 44.5t41.5 50t16.5 68.5q0 48 -28 81t-64 45.5t-75 12.5q-76 0 -136.5 -49t-60.5 -137v-1092 h-303z" />
<glyph unicode="&#xe0;" horiz-adv-x="1153" d="M72 309q0 145 113 243.5t317 98.5q88 0 180 -20v63q0 160 -207 160q-88 0 -169 -22t-118 -44l-38 -22v258q16 8 46.5 19.5t128.5 31t201 19.5q223 0 345 -94.5t122 -274.5v-403q0 -107 82 -107q13 0 24.5 2.5t16.5 4.5l6 3v-205q-65 -32 -186 -32q-163 0 -217 131h-2 q-111 -148 -309 -148q-146 0 -241 87t-95 251zM145 1556h398l237 -301h-284zM383 328q0 -54 37.5 -89.5t101.5 -35.5q87 0 160 69v177q-55 10 -107 10q-97 0 -144.5 -37t-47.5 -94z" />
<glyph unicode="&#xe1;" horiz-adv-x="1153" d="M72 309q0 145 113 243.5t317 98.5q88 0 180 -20v63q0 160 -207 160q-88 0 -169 -22t-118 -44l-38 -22v258q16 8 46.5 19.5t128.5 31t201 19.5q223 0 345 -94.5t122 -274.5v-403q0 -107 82 -107q13 0 24.5 2.5t16.5 4.5l6 3v-205q-65 -32 -186 -32q-163 0 -217 131h-2 q-111 -148 -309 -148q-146 0 -241 87t-95 251zM289 1255l237 301h398l-351 -301h-284zM383 328q0 -54 37.5 -89.5t101.5 -35.5q87 0 160 69v177q-55 10 -107 10q-97 0 -144.5 -37t-47.5 -94z" />
<glyph unicode="&#xe2;" horiz-adv-x="1153" d="M72 309q0 145 113 243.5t317 98.5q88 0 180 -20v63q0 160 -207 160q-88 0 -169 -22t-118 -44l-38 -22v258q16 8 46.5 19.5t128.5 31t201 19.5q223 0 345 -94.5t122 -274.5v-403q0 -107 82 -107q13 0 24.5 2.5t16.5 4.5l6 3v-205q-65 -32 -186 -32q-163 0 -217 131h-2 q-111 -148 -309 -148q-146 0 -241 87t-95 251zM147 1255l250 322h316l250 -322h-265l-143 156l-143 -156h-265zM383 328q0 -54 37.5 -89.5t101.5 -35.5q87 0 160 69v177q-55 10 -107 10q-97 0 -144.5 -37t-47.5 -94z" />
<glyph unicode="&#xe3;" horiz-adv-x="1153" d="M72 309q0 145 113 243.5t317 98.5q88 0 180 -20v63q0 160 -207 160q-88 0 -169 -22t-118 -44l-38 -22v258q16 8 46.5 19.5t128.5 31t201 19.5q223 0 345 -94.5t122 -274.5v-403q0 -107 82 -107q13 0 24.5 2.5t16.5 4.5l6 3v-205q-65 -32 -186 -32q-163 0 -217 131h-2 q-111 -148 -309 -148q-146 0 -241 87t-95 251zM96 1282q0 68 14.5 130t44.5 115.5t83.5 85.5t123.5 32q58 0 110 -23t83 -50t67 -50t66 -23q46 0 70 37.5t24 103.5h191q0 -69 -15 -131t-45.5 -115t-84.5 -84.5t-126 -31.5q-50 0 -93 15t-72 36t-54.5 42.5t-53 36.5t-54.5 15 q-42 0 -65 -36t-23 -105h-191zM383 328q0 -54 37.5 -89.5t101.5 -35.5q87 0 160 69v177q-55 10 -107 10q-97 0 -144.5 -37t-47.5 -94z" />
<glyph unicode="&#xe4;" horiz-adv-x="1153" d="M72 309q0 145 113 243.5t317 98.5q88 0 180 -20v63q0 160 -207 160q-88 0 -169 -22t-118 -44l-38 -22v258q16 8 46.5 19.5t128.5 31t201 19.5q223 0 345 -94.5t122 -274.5v-403q0 -107 82 -107q13 0 24.5 2.5t16.5 4.5l6 3v-205q-65 -32 -186 -32q-163 0 -217 131h-2 q-111 -148 -309 -148q-146 0 -241 87t-95 251zM158 1403q0 66 44 109.5t113 43.5q65 0 108.5 -43.5t43.5 -109.5t-44 -111t-108 -45q-68 0 -112.5 44.5t-44.5 111.5zM383 328q0 -54 37.5 -89.5t101.5 -35.5q87 0 160 69v177q-55 10 -107 10q-97 0 -144.5 -37t-47.5 -94z M625 1403q0 66 44 109.5t113 43.5q65 0 108.5 -43.5t43.5 -109.5t-44 -111t-108 -45q-68 0 -112.5 44.5t-44.5 111.5z" />
<glyph unicode="&#xe5;" horiz-adv-x="1153" d="M72 309q0 145 113 243.5t317 98.5q88 0 180 -20v63q0 160 -207 160q-88 0 -169 -22t-118 -44l-38 -22v258q16 8 46.5 19.5t128.5 31t201 19.5q223 0 345 -94.5t122 -274.5v-403q0 -107 82 -107q13 0 24.5 2.5t16.5 4.5l6 3v-205q-65 -32 -186 -32q-163 0 -217 131h-2 q-111 -148 -309 -148q-146 0 -241 87t-95 251zM248 1509q0 128 83.5 209.5t213.5 81.5t213.5 -81.5t83.5 -209.5q0 -130 -83.5 -212.5t-213.5 -82.5t-213.5 82.5t-83.5 212.5zM383 328q0 -54 37.5 -89.5t101.5 -35.5q87 0 160 69v177q-55 10 -107 10q-97 0 -144.5 -37 t-47.5 -94zM432 1509q0 -57 31 -92t82 -35t81.5 35t30.5 92q0 54 -30.5 88.5t-81.5 34.5t-82 -34.5t-31 -88.5z" />
<glyph unicode="&#xe6;" horiz-adv-x="1814" d="M72 311q0 154 118 257.5t332 103.5q84 0 180 -21v39q0 160 -206 160q-59 0 -116 -11t-96.5 -27t-71 -32.5t-46.5 -27.5l-16 -11v263q6 4 18 10t51.5 21.5t82.5 27.5t110 21.5t135 9.5q238 0 358 -111q143 111 336 111q215 0 353.5 -134.5t138.5 -355.5q0 -31 -2.5 -67.5 t-4.5 -56.5l-2 -21h-696q27 -250 313 -250q83 0 174 27.5t164 80.5v-235q-70 -50 -178 -80.5t-225 -30.5q-261 0 -418 154q-94 -79 -188 -116.5t-221 -37.5q-173 0 -275 86.5t-102 253.5zM383 324q0 -54 43.5 -90.5t116.5 -36.5q86 0 159 69v197q-55 10 -106 10 q-108 0 -160.5 -42t-52.5 -107zM1028 651h395q5 95 -45 158t-137 63q-97 0 -153.5 -64t-59.5 -157z" />
<glyph unicode="&#xe7;" horiz-adv-x="1054" d="M82 532q0 261 153.5 411.5t401.5 150.5q96 0 184.5 -22t141.5 -50v-270q-115 100 -275 100q-139 0 -215 -83.5t-76 -236.5q0 -152 76 -235.5t215 -83.5q160 0 275 100v-270q-53 -28 -141.5 -50t-184.5 -22q-248 0 -401.5 150t-153.5 411zM383 -367q74 -32 154 -32 q41 0 64.5 22t23.5 60q0 47 -62 76.5t-155 29.5l118 211h222l-74 -119q86 -21 138 -72.5t52 -125.5q0 -72 -44 -124.5t-111 -77t-146 -24.5q-43 0 -88 6.5t-69 12.5l-23 6v151z" />
<glyph unicode="&#xe8;" horiz-adv-x="1193" d="M82 535q0 245 152 402t387 157q215 0 353 -134.5t138 -355.5q0 -31 -2 -67.5t-4 -56.5l-2 -21h-696q27 -250 313 -250q83 0 174 27.5t164 80.5v-235q-70 -50 -178.5 -80.5t-225.5 -30.5q-259 0 -416 155t-157 409zM217 1556h397l238 -301h-285zM408 651h395q5 95 -45 158 t-137 63q-97 0 -153.5 -64t-59.5 -157z" />
<glyph unicode="&#xe9;" horiz-adv-x="1193" d="M82 535q0 245 152 402t387 157q215 0 353 -134.5t138 -355.5q0 -31 -2 -67.5t-4 -56.5l-2 -21h-696q27 -250 313 -250q83 0 174 27.5t164 80.5v-235q-70 -50 -178.5 -80.5t-225.5 -30.5q-259 0 -416 155t-157 409zM340 1255l238 301h397l-350 -301h-285zM408 651h395 q5 95 -45 158t-137 63q-97 0 -153.5 -64t-59.5 -157z" />
<glyph unicode="&#xea;" horiz-adv-x="1193" d="M82 535q0 245 152 402t387 157q215 0 353 -134.5t138 -355.5q0 -31 -2 -67.5t-4 -56.5l-2 -21h-696q27 -250 313 -250q83 0 174 27.5t164 80.5v-235q-70 -50 -178.5 -80.5t-225.5 -30.5q-259 0 -416 155t-157 409zM209 1255l250 322h315l250 -322h-264l-144 156 l-143 -156h-264zM408 651h395q5 95 -45 158t-137 63q-97 0 -153.5 -64t-59.5 -157z" />
<glyph unicode="&#xeb;" horiz-adv-x="1193" d="M82 535q0 245 152 402t387 157q215 0 353 -134.5t138 -355.5q0 -31 -2 -67.5t-4 -56.5l-2 -21h-696q27 -250 313 -250q83 0 174 27.5t164 80.5v-235q-70 -50 -178.5 -80.5t-225.5 -30.5q-259 0 -416 155t-157 409zM229 1403q0 66 44.5 109.5t113.5 43.5q65 0 108.5 -43.5 t43.5 -109.5t-44 -111t-108 -45q-69 0 -113.5 44.5t-44.5 111.5zM408 651h395q5 95 -45 158t-137 63q-97 0 -153.5 -64t-59.5 -157zM696 1403q0 66 44.5 109.5t113.5 43.5q65 0 108.5 -43.5t43.5 -109.5t-44 -111t-108 -45q-68 0 -113 44.5t-45 111.5z" />
<glyph unicode="&#xec;" horiz-adv-x="618" d="M-70 1556h398l237 -301h-284zM154 0v1065h311v-1065h-311z" />
<glyph unicode="&#xed;" horiz-adv-x="618" d="M74 1255l237 301h398l-351 -301h-284zM154 0v1065h311v-1065h-311z" />
<glyph unicode="&#xee;" horiz-adv-x="618" d="M-98 1255l250 322h315l250 -322h-264l-144 156l-143 -156h-264zM154 0v1065h311v-1065h-311z" />
<glyph unicode="&#xef;" horiz-adv-x="618" d="M-78 1403q0 66 44.5 109.5t113.5 43.5q65 0 108 -43.5t43 -109.5t-43.5 -111t-107.5 -45q-68 0 -113 44.5t-45 111.5zM154 0v1065h311v-1065h-311zM389 1403q0 66 44.5 109.5t113.5 43.5q65 0 108 -43.5t43 -109.5t-43.5 -111t-107.5 -45q-69 0 -113.5 44.5t-44.5 111.5z " />
<glyph unicode="&#xf0;" horiz-adv-x="1253" d="M82 492q0 215 133.5 361t333.5 146q157 0 272 -88q-47 122 -135 242l-223 -102l-45 98l196 88q-56 58 -120 104l122 154q110 -75 201 -166l195 90l45 -96l-164 -76q132 -157 205 -338.5t73 -365.5q0 -250 -152 -411t-398 -161q-234 0 -386.5 146.5t-152.5 374.5zM401 492 q0 -132 62 -205.5t164 -73.5t163.5 73.5t61.5 205.5q0 133 -61.5 205.5t-163.5 72.5t-164 -73t-62 -205z" />
<glyph unicode="&#xf1;" horiz-adv-x="1325" d="M139 1065h291q15 -70 25 -172q133 201 348 201q84 0 150 -24t108 -63t69.5 -92t38.5 -107.5t11 -113.5v-694h-312v633q0 209 -194 209q-64 0 -121 -31.5t-88 -71.5v-739h-311v795q0 70 -4 137.5t-8 99.5zM225 1282q0 68 15 130t45 115.5t83.5 85.5t123.5 32q58 0 110 -23 t82.5 -50t66.5 -50t66 -23q46 0 70 37.5t24 103.5h191q0 -69 -15 -131t-45.5 -115t-84.5 -84.5t-126 -31.5q-50 0 -93 15t-72 36t-54.5 42.5t-53 36.5t-54.5 15q-42 0 -65 -36t-23 -105h-191z" />
<glyph unicode="&#xf2;" horiz-adv-x="1294" d="M82 532q0 248 157.5 405t407.5 157t407.5 -157t157.5 -405t-157.5 -404.5t-407.5 -156.5t-407.5 156.5t-157.5 404.5zM207 1556h397l238 -301h-285zM401 532q0 -152 67.5 -235.5t178.5 -83.5t178.5 83.5t67.5 235.5t-67.5 236t-178.5 84t-178.5 -84t-67.5 -236z" />
<glyph unicode="&#xf3;" horiz-adv-x="1294" d="M82 532q0 248 157.5 405t407.5 157t407.5 -157t157.5 -405t-157.5 -404.5t-407.5 -156.5t-407.5 156.5t-157.5 404.5zM371 1255l237 301h398l-351 -301h-284zM401 532q0 -152 67.5 -235.5t178.5 -83.5t178.5 83.5t67.5 235.5t-67.5 236t-178.5 84t-178.5 -84t-67.5 -236z " />
<glyph unicode="&#xf4;" horiz-adv-x="1294" d="M82 532q0 248 157.5 405t407.5 157t407.5 -157t157.5 -405t-157.5 -404.5t-407.5 -156.5t-407.5 156.5t-157.5 404.5zM238 1255l249 322h316l250 -322h-265l-143 156l-143 -156h-264zM401 532q0 -152 67.5 -235.5t178.5 -83.5t178.5 83.5t67.5 235.5t-67.5 236t-178.5 84 t-178.5 -84t-67.5 -236z" />
<glyph unicode="&#xf5;" horiz-adv-x="1294" d="M82 532q0 248 157.5 405t407.5 157t407.5 -157t157.5 -405t-157.5 -404.5t-407.5 -156.5t-407.5 156.5t-157.5 404.5zM209 1282q0 68 14.5 130t44.5 115.5t83.5 85.5t123.5 32q58 0 110 -23t83 -50t67 -50t66 -23q46 0 70 37.5t24 103.5h190q0 -55 -9 -105.5t-29 -98 t-50.5 -82t-77 -55.5t-104.5 -21q-50 0 -93 15t-72.5 36t-55 42.5t-53 36.5t-54.5 15q-42 0 -65 -36t-23 -105h-190zM401 532q0 -152 67.5 -235.5t178.5 -83.5t178.5 83.5t67.5 235.5t-67.5 236t-178.5 84t-178.5 -84t-67.5 -236z" />
<glyph unicode="&#xf6;" horiz-adv-x="1294" d="M82 532q0 248 157.5 405t407.5 157t407.5 -157t157.5 -405t-157.5 -404.5t-407.5 -156.5t-407.5 156.5t-157.5 404.5zM258 1403q0 66 44.5 109.5t113.5 43.5q65 0 108 -43.5t43 -109.5t-43.5 -111t-107.5 -45q-68 0 -113 44.5t-45 111.5zM401 532q0 -152 67.5 -235.5 t178.5 -83.5t178.5 83.5t67.5 235.5t-67.5 236t-178.5 84t-178.5 -84t-67.5 -236zM725 1403q0 66 44.5 109.5t113.5 43.5q65 0 108 -43.5t43 -109.5t-43.5 -111t-107.5 -45q-69 0 -113.5 44.5t-44.5 111.5z" />
<glyph unicode="&#xf7;" horiz-adv-x="1277" d="M102 459v266h1074v-266h-1074zM438 172q0 78 57.5 129t143.5 51t143.5 -51t57.5 -129t-57.5 -129t-143.5 -51t-143.5 51t-57.5 129zM438 1012q0 78 57.5 129t143.5 51t143.5 -51t57.5 -129t-57.5 -129.5t-143.5 -51.5t-143.5 51.5t-57.5 129.5z" />
<glyph unicode="&#xf8;" horiz-adv-x="1294" d="M82 -29l141 172q-141 154 -141 389q0 248 157.5 405t407.5 157q159 0 293 -72l59 72h213l-141 -174q141 -154 141 -388q0 -248 -157.5 -404.5t-407.5 -156.5q-161 0 -295 72l-57 -72h-213zM401 532q0 -84 21 -145l350 430q-53 35 -125 35q-111 0 -178.5 -84t-67.5 -236z M520 248q52 -35 127 -35q111 0 178.5 83.5t67.5 235.5q0 71 -21 146z" />
<glyph unicode="&#xf9;" horiz-adv-x="1325" d="M145 371v694h312v-633q0 -209 194 -209q64 0 121 31.5t88 71.5v739h311v-795q0 -70 3.5 -137.5t7.5 -100.5l4 -32h-291q-15 70 -25 172q-133 -201 -348 -201q-84 0 -150 24t-108 63t-69.5 92t-38.5 107.5t-11 113.5zM203 1556h397l238 -301h-285z" />
<glyph unicode="&#xfa;" horiz-adv-x="1325" d="M145 371v694h312v-633q0 -209 194 -209q64 0 121 31.5t88 71.5v739h311v-795q0 -70 3.5 -137.5t7.5 -100.5l4 -32h-291q-15 70 -25 172q-133 -201 -348 -201q-84 0 -150 24t-108 63t-69.5 92t-38.5 107.5t-11 113.5zM428 1255l238 301h397l-350 -301h-285z" />
<glyph unicode="&#xfb;" horiz-adv-x="1325" d="M145 371v694h312v-633q0 -209 194 -209q64 0 121 31.5t88 71.5v739h311v-795q0 -70 3.5 -137.5t7.5 -100.5l4 -32h-291q-15 70 -25 172q-133 -201 -348 -201q-84 0 -150 24t-108 63t-69.5 92t-38.5 107.5t-11 113.5zM256 1255l250 322h315l250 -322h-264l-143 156 l-144 -156h-264z" />
<glyph unicode="&#xfc;" horiz-adv-x="1325" d="M145 371v694h312v-633q0 -209 194 -209q64 0 121 31.5t88 71.5v739h311v-795q0 -70 3.5 -137.5t7.5 -100.5l4 -32h-291q-15 70 -25 172q-133 -201 -348 -201q-84 0 -150 24t-108 63t-69.5 92t-38.5 107.5t-11 113.5zM276 1403q0 66 44.5 109.5t113.5 43.5 q65 0 108.5 -43.5t43.5 -109.5t-44 -111t-108 -45q-68 0 -113 44.5t-45 111.5zM743 1403q0 66 44.5 109.5t113.5 43.5q65 0 108.5 -43.5t43.5 -109.5t-44 -111t-108 -45q-69 0 -113.5 44.5t-44.5 111.5z" />
<glyph unicode="&#xfd;" horiz-adv-x="1103" d="M2 -211q59 -22 139 -22q31 0 63.5 10t70.5 33.5t73 71t58 114.5l12 37l-412 1032h324l233 -645l209 645h322l-379 -1065q-53 -151 -114 -252.5t-131.5 -157.5t-144 -79t-167.5 -23q-44 0 -83 7t-56 15l-17 7v272zM356 1255l238 301h397l-350 -301h-285z" />
<glyph unicode="&#xfe;" horiz-adv-x="1357" d="M164 -512v1946h311v-459q53 51 129.5 85t167.5 34q138 0 251.5 -73.5t178 -202.5t64.5 -286t-64.5 -286t-178 -202t-251.5 -73q-170 0 -297 103v-586h-311zM475 274q80 -63 193 -63q118 0 200 81.5t82 239.5q0 150 -75.5 226t-196.5 76q-55 0 -111.5 -18.5t-91.5 -43.5 v-498z" />
<glyph unicode="&#xff;" horiz-adv-x="1103" d="M2 -211q59 -22 139 -22q31 0 63.5 10t70.5 33.5t73 71t58 114.5l12 37l-412 1032h324l233 -645l209 645h322l-379 -1065q-53 -151 -114 -252.5t-131.5 -157.5t-144 -79t-167.5 -23q-44 0 -83 7t-56 15l-17 7v272zM176 1403q0 66 44.5 109.5t113.5 43.5q65 0 108 -43.5 t43 -109.5t-43.5 -111t-107.5 -45q-68 0 -113 44.5t-45 111.5zM643 1403q0 66 44.5 109.5t113.5 43.5q65 0 108 -43.5t43 -109.5t-43.5 -111t-107.5 -45q-69 0 -113.5 44.5t-44.5 111.5z" />
<glyph unicode="&#x152;" horiz-adv-x="2084" d="M92 717q0 162 55 301.5t151 236.5t229.5 152t287.5 55q109 0 225 -28h922v-267h-594v-297h492v-266h-492v-338h594v-266h-922q-114 -29 -225 -29q-205 0 -370 94t-259 265t-94 387zM436 717q0 -209 111.5 -336t306.5 -127q101 0 186 37v852q-85 37 -186 37 q-195 0 -306.5 -127t-111.5 -336z" />
<glyph unicode="&#x153;" horiz-adv-x="2002" d="M82 532q0 248 157.5 405t407.5 157q245 0 402 -154q151 154 381 154q215 0 353 -134.5t138 -355.5q0 -31 -2 -67.5t-4 -56.5l-2 -21h-696q27 -250 313 -250q83 0 174 27.5t164 80.5v-235q-70 -50 -178.5 -80.5t-225.5 -30.5q-259 0 -413 154q-157 -154 -404 -154 q-250 0 -407.5 156.5t-157.5 404.5zM401 532q0 -152 67.5 -235.5t178.5 -83.5t178.5 83.5t67.5 235.5t-67.5 236t-178.5 84t-178.5 -84t-67.5 -236zM1217 651h395q5 95 -45 158t-137 63q-97 0 -153.5 -64t-59.5 -157z" />
<glyph unicode="&#x178;" horiz-adv-x="1310" d="M2 1434h363l290 -594l291 594h363l-490 -908v-526h-327v526zM268 1772q0 66 44.5 109.5t113.5 43.5q65 0 108.5 -43.5t43.5 -109.5t-44 -111t-108 -45q-68 0 -113 45t-45 111zM735 1772q0 66 44.5 109.5t113.5 43.5q65 0 108 -43.5t43 -109.5t-43.5 -111t-107.5 -45 q-69 0 -113.5 45t-44.5 111z" />
<glyph unicode="&#x2c6;" horiz-adv-x="1019" d="M102 1255l250 322h316l250 -322h-265l-143 156l-143 -156h-265z" />
<glyph unicode="&#x2dc;" horiz-adv-x="1081" d="M102 1282q0 68 15 130t45 115.5t83.5 85.5t123.5 32q58 0 110 -23t82.5 -50t66.5 -50t66 -23q46 0 70 37.5t24 103.5h191q0 -55 -9 -105.5t-29 -98t-50.5 -82t-77 -55.5t-104.5 -21q-50 0 -93 15t-72.5 36t-55 42.5t-53 36.5t-54.5 15q-42 0 -65 -36t-23 -105h-191z" />
<glyph unicode="&#x2000;" horiz-adv-x="1006" />
<glyph unicode="&#x2001;" horiz-adv-x="2013" />
<glyph unicode="&#x2002;" horiz-adv-x="1006" />
<glyph unicode="&#x2003;" horiz-adv-x="2013" />
<glyph unicode="&#x2004;" horiz-adv-x="671" />
<glyph unicode="&#x2005;" horiz-adv-x="503" />
<glyph unicode="&#x2006;" horiz-adv-x="335" />
<glyph unicode="&#x2007;" horiz-adv-x="335" />
<glyph unicode="&#x2008;" horiz-adv-x="251" />
<glyph unicode="&#x2009;" horiz-adv-x="402" />
<glyph unicode="&#x200a;" horiz-adv-x="111" />
<glyph unicode="&#x2010;" horiz-adv-x="794" d="M102 475v268h590v-268h-590z" />
<glyph unicode="&#x2011;" horiz-adv-x="794" d="M102 475v268h590v-268h-590z" />
<glyph unicode="&#x2012;" horiz-adv-x="794" d="M102 475v268h590v-268h-590z" />
<glyph unicode="&#x2013;" horiz-adv-x="1286" d="M102 475v268h1082v-268h-1082z" />
<glyph unicode="&#x2014;" horiz-adv-x="2263" d="M102 475v268h2059v-268h-2059z" />
<glyph unicode="&#x2018;" horiz-adv-x="573" d="M70 948q0 129 72.5 264.5t222.5 249.5l94 -102q-64 -50 -110 -118.5t-52 -131.5q77 -8 125.5 -63.5t48.5 -137.5q0 -88 -57 -143t-144 -55q-90 0 -145 62t-55 175z" />
<glyph unicode="&#x2019;" horiz-adv-x="573" d="M102 1264q0 88 57 143t144 55q90 0 145.5 -62t55.5 -175q0 -129 -72.5 -264.5t-222.5 -249.5l-94 102q64 50 109.5 118.5t51.5 131.5q-77 8 -125.5 63.5t-48.5 137.5z" />
<glyph unicode="&#x201a;" horiz-adv-x="540" d="M70 174q0 88 56.5 143.5t143.5 55.5q90 0 145.5 -62.5t55.5 -175.5q0 -129 -72.5 -264.5t-222.5 -249.5l-94 103q64 50 110 118t52 131q-77 8 -125.5 63.5t-48.5 137.5z" />
<glyph unicode="&#x201c;" horiz-adv-x="1054" d="M70 948q0 129 72.5 264.5t222.5 249.5l94 -102q-64 -50 -110 -118.5t-52 -131.5q77 -8 125.5 -63.5t48.5 -137.5q0 -88 -57 -143t-144 -55q-90 0 -145 62t-55 175zM551 948q0 129 72.5 264.5t222.5 249.5l94 -102q-64 -50 -110 -118.5t-52 -131.5q77 -8 125.5 -63.5 t48.5 -137.5q0 -88 -56.5 -143t-143.5 -55q-90 0 -145.5 62t-55.5 175z" />
<glyph unicode="&#x201d;" horiz-adv-x="1054" d="M102 1264q0 88 57 143t144 55q90 0 145.5 -62t55.5 -175q0 -129 -72.5 -264.5t-222.5 -249.5l-94 102q64 50 109.5 118.5t51.5 131.5q-77 8 -125.5 63.5t-48.5 137.5zM584 1264q0 88 56.5 143t143.5 55q90 0 145.5 -62t55.5 -175q0 -129 -72.5 -264.5t-222.5 -249.5 l-94 102q64 50 110 118.5t52 131.5q-77 8 -125.5 63.5t-48.5 137.5z" />
<glyph unicode="&#x201e;" horiz-adv-x="1021" d="M70 174q0 88 56.5 143.5t143.5 55.5q90 0 145.5 -62.5t55.5 -175.5q0 -129 -72.5 -264.5t-222.5 -249.5l-94 103q64 50 110 118t52 131q-77 8 -125.5 63.5t-48.5 137.5zM551 174q0 88 57 143.5t144 55.5q90 0 145 -62.5t55 -175.5q0 -129 -72.5 -264.5t-222.5 -249.5 l-94 103q64 50 110 118t52 131q-77 8 -125.5 63.5t-48.5 137.5z" />
<glyph unicode="&#x2022;" horiz-adv-x="899" d="M143 676q0 129 88 218t218 89q129 0 218 -89t89 -218q0 -130 -88.5 -217.5t-218.5 -87.5q-131 0 -218.5 87.5t-87.5 217.5z" />
<glyph unicode="&#x2026;" horiz-adv-x="1695" d="M70 172q0 88 57 144.5t143 56.5q87 0 144 -57t57 -144t-57 -144t-144 -57q-86 0 -143 56.5t-57 144.5zM647 172q0 87 57 144t144 57t144 -57t57 -144t-57 -144t-144 -57t-144 57t-57 144zM1225 172q0 88 56.5 144.5t143.5 56.5t144 -57t57 -144t-57 -144t-144 -57 t-143.5 56.5t-56.5 144.5z" />
<glyph unicode="&#x202f;" horiz-adv-x="402" />
<glyph unicode="&#x2039;" horiz-adv-x="743" d="M72 410v280l487 410v-273l-266 -278l266 -277v-272z" />
<glyph unicode="&#x203a;" horiz-adv-x="743" d="M184 0v272l267 277l-267 278v273l488 -410v-280z" />
<glyph unicode="&#x205f;" horiz-adv-x="503" />
<glyph unicode="&#x20ac;" horiz-adv-x="1505" d="M102 471v184h136q-2 29 -2 62l2 63h-136v185h168q69 228 254.5 362.5t433.5 134.5q146 0 260 -37.5t185 -85.5l-129 -245q-121 86 -277 86q-128 0 -221.5 -56.5t-144.5 -158.5h577l-96 -185h-530q-4 -28 -4 -63l4 -62h465l-97 -184h-319q50 -103 144 -160t222 -57 q156 0 277 86l129 -246q-71 -47 -184 -85t-261 -38q-248 0 -433.5 135.5t-254.5 364.5h-168z" />
<glyph unicode="&#x2122;" horiz-adv-x="1998" d="M61 1262v172h715v-172h-250v-654h-217v654h-248zM868 608v826h193l287 -394l286 394h191v-826h-215v488l-234 -320h-59l-232 320v-488h-217z" />
<glyph unicode="&#x25fc;" horiz-adv-x="1064" d="M0 0v1065h1065v-1065h-1065z" />
<glyph unicode="&#xfb01;" horiz-adv-x="1441" d="M31 821v244h172v82q0 173 92.5 260.5t249.5 87.5q63 0 126.5 -9.5t92.5 -21.5v-245q-74 30 -150 30q-104 0 -104 -94v-90h242v-244h-242v-821h-307v821h-172zM946 1378q0 75 48.5 116.5t127.5 41.5t127.5 -41.5t48.5 -116.5t-48.5 -116t-127.5 -41t-127.5 41t-48.5 116z M967 0v1065h311v-1065h-311z" />
<glyph unicode="&#xfb02;" horiz-adv-x="1556" d="M31 821v244h172v82q0 173 92.5 260.5t249.5 87.5q63 0 126.5 -9.5t92.5 -21.5v-245q-74 30 -150 30q-104 0 -104 -94v-90h242v-244h-242v-821h-307v821h-172zM967 391v1104h311v-1108q0 -149 141 -149q29 0 57.5 4.5t41.5 9.5l14 4v-258q-93 -27 -197 -27 q-191 0 -279.5 99.5t-88.5 320.5z" />
</font>
</defs>
</svg>
