<?xml version="1.0" standalone="no"?>
<!DOCTYPE svg PUBLIC "-//W3C//DTD SVG 1.1//EN" "http://www.w3.org/Graphics/SVG/1.1/DTD/svg11.dtd" >
<svg xmlns="http://www.w3.org/2000/svg">
<metadata>
This is a custom SVG webfont generated by Font Squirrel.
Copyright   : Copyright c 1991 Adobe Systems Incorporated All Rights ReservedBerthold Akzidenz Grotesk is a registered trademark of H Berthold AG
Foundry     : Adobe Systems Incorporated
</metadata>
<defs>
<font id="BertholdAkzidenzGroteskBERg" horiz-adv-x="1323" >
<font-face units-per-em="2048" ascent="1638" descent="-410" />
<missing-glyph horiz-adv-x="641" />
<glyph unicode=" "  horiz-adv-x="641" />
<glyph unicode="&#x09;" horiz-adv-x="641" />
<glyph unicode="&#xa0;" horiz-adv-x="641" />
<glyph unicode="!" horiz-adv-x="598" d="M154 0v385h372v-385h-372zM154 1059v387h372v-391l-80 -527h-206z" />
<glyph unicode="&#x22;" horiz-adv-x="811" d="M47 1397q0 37 14.5 62.5t37 42t49 24.5t53.5 8q57 0 97 -34t40 -93q0 -10 -1 -18.5t-1 -16.5l-109 -536h-65l-111 512q-2 12 -3 24.5t-1 24.5zM473 1399q0 59 44 97t110 38q55 0 96 -34t41 -93v-18q0 -8 -2 -17l-109 -536h-63l-113 512q-2 12 -3 24.5t-1 26.5z" />
<glyph unicode="#" horiz-adv-x="1366" d="M86 381v252h229l27 196h-205v254h240l51 361h254l-51 -361h205l49 361h256l-49 -361h186v-254h-223l-25 -196h201v-252h-238l-53 -381h-258l55 381h-202l-54 -381h-254l52 381h-193zM569 633h203l29 196h-205z" />
<glyph unicode="$" horiz-adv-x="1366" d="M49 147l217 259q45 -29 81 -50.5t74 -36t80 -24.5t99 -16v270q-82 18 -146.5 34.5t-115.5 35t-91 42t-73 56.5q-53 53 -77.5 121.5t-24.5 138.5q0 92 32.5 166t83.5 127q49 53 105.5 83.5t111 46t104.5 20.5t91 10v133h195v-140q80 -10 139 -22t108.5 -30.5t95.5 -43 t103 -61.5l-211 -250q-37 27 -63.5 44t-52 27.5t-53 16.5t-66.5 10v-229q66 -8 134 -22.5t156 -59.5q23 -12 64 -37t80 -68t67.5 -105.5t28.5 -150.5q0 -82 -30.5 -163.5t-90.5 -141.5q-45 -47 -97 -76.5t-106.5 -47t-107.5 -25.5t-98 -15v-204h-195v204 q-113 12 -187.5 26.5t-134 33t-111.5 46t-118 68.5zM461 1014q0 -27 13 -43.5t32.5 -25.5t44 -15t49.5 -10v200q-14 -2 -26.5 -4t-26.5 -6q-47 -14 -66.5 -42.5t-19.5 -53.5zM795 283q12 4 24 7t25 7q47 18 68.5 51t21.5 64q0 55 -42 74.5t-97 31.5v-235z" />
<glyph unicode="%" horiz-adv-x="2048" d="M41 942q0 102 29.5 199.5t99.5 169.5q37 37 74 59.5t72.5 33.5t70.5 14t68 3q41 0 80.5 -4t76.5 -18q45 -18 89 -53t77 -89.5t53.5 -128t20.5 -165.5q0 -94 -23.5 -181.5t-75 -155t-129 -107.5t-184.5 -40q-98 0 -172.5 35t-125 96.5t-76 146.5t-25.5 185zM326 950 q0 -49 2 -97t13 -86t35.5 -61.5t67.5 -23.5q72 0 97.5 70.5t25.5 205.5q0 123 -21.5 195t-92.5 74q-47 0 -73 -30t-38 -73t-14 -91t-2 -83zM625 0l618 1446h189l-619 -1446h-188zM1190 444q0 102 29.5 198.5t99.5 168.5q37 37 74 59.5t72.5 33.5t70.5 14.5t68 3.5 q41 0 80.5 -4.5t76.5 -18.5q45 -18 89 -53t77 -89.5t53.5 -127t20.5 -164.5q0 -94 -23.5 -182t-74 -156t-128 -107.5t-186.5 -39.5q-100 0 -175 34.5t-125 97t-74.5 147.5t-24.5 185zM1475 451q0 -49 2 -97.5t13 -86.5t35.5 -61.5t67.5 -23.5q72 0 97.5 71t25.5 208 q0 123 -21.5 193.5t-92.5 72.5q-47 0 -73 -29.5t-38 -72.5t-14 -91t-2 -83z" />
<glyph unicode="&#x26;" horiz-adv-x="1409" d="M35 436q0 115 35.5 184.5t95.5 127.5q49 49 94 76.5t111 56.5q-14 18 -30.5 43.5t-31 57.5t-25 73t-10.5 92q0 27 10.5 79t50.5 104t122 91t225 39q16 0 55 -2t86 -12t96.5 -32.5t90.5 -63.5q33 -35 55 -84t22 -125q0 -72 -26.5 -135.5t-85.5 -122.5q-47 -47 -89 -69.5 t-83 -41.5q35 -43 56.5 -69.5t40 -47t35.5 -40t42 -48.5q12 29 19.5 49.5t12.5 39t9 40t10 52.5l309 -115q-25 -76 -42 -124t-32.5 -82t-30.5 -60.5t-36 -59.5q29 -12 56.5 -22.5t66.5 -10.5q33 0 63 7v-279q-41 -4 -83 -8t-82 -4q-59 0 -100.5 7t-70 18.5t-49 26.5 t-39.5 34q-23 -14 -56.5 -32.5t-80.5 -35t-108.5 -28t-139.5 -11.5q-121 0 -224 35t-193 127q-70 72 -95.5 143.5t-25.5 161.5zM420 442q0 -29 10 -61.5t32.5 -59t57.5 -44t84 -17.5q53 0 92 15.5t66 29.5q-41 49 -69.5 85t-53.5 67.5t-50.5 67.5t-62.5 87 q-37 -29 -71.5 -66.5t-34.5 -103.5zM586 1135q0 -37 22.5 -73t44.5 -67q18 10 40 23.5t41.5 30t31.5 37t12 44.5q0 2 -2 15.5t-11 29t-29.5 27.5t-57.5 12q-41 0 -66.5 -19t-25.5 -60z" />
<glyph unicode="'" horiz-adv-x="425" d="M68 1399q0 68 49 101.5t106 33.5q31 0 52.5 -8t35 -19.5t21.5 -20.5t10 -11q14 -23 15 -49.5t-1 -53.5l-108 -536h-66l-110 512q-2 12 -3 24.5t-1 26.5z" />
<glyph unicode="(" horiz-adv-x="724" d="M47 586q0 190 52.5 336.5t129 260t165.5 198.5t165 151l141 -133q-55 -66 -110 -137.5t-100.5 -164.5t-74 -212t-28.5 -279q0 -119 19.5 -233.5t64.5 -220.5q29 -70 60.5 -122.5t63.5 -91t62.5 -67.5t55.5 -51l-127 -158q-63 47 -129 99.5t-126.5 115t-113.5 140 t-94 176.5q-41 98 -58.5 198.5t-17.5 194.5z" />
<glyph unicode=")" horiz-adv-x="724" d="M12 1374l127 158q63 -47 129 -98.5t126.5 -115t114.5 -140t95 -177.5q41 -98 57.5 -198.5t16.5 -194.5q0 -190 -52.5 -336.5t-129 -260t-165.5 -198.5t-165 -151l-141 133q55 66 110 138.5t100.5 164.5t74 211t28.5 279q0 119 -19.5 233.5t-64.5 220.5 q-29 70 -60.5 122.5t-63.5 91t-62.5 67t-55.5 51.5z" />
<glyph unicode="*" horiz-adv-x="724" d="M31 1147l57 174l176 -61v194h182v-184l181 69l65 -172l-196 -75l133 -158l-146 -111l-127 158l-108 -156l-148 107l109 155z" />
<glyph unicode="+" horiz-adv-x="1366" d="M86 467v260h469v465h260v-465h465v-260h-465v-467h-260v467h-469z" />
<glyph unicode="," horiz-adv-x="512" d="M70 0v385h372v-295q0 -43 -3 -88t-12 -88t-30.5 -84t-58.5 -80q-61 -61 -129 -80.5t-139 -31.5v180q45 14 70.5 35.5t37.5 46t15.5 50t3.5 50.5h-127z" />
<glyph unicode="-" horiz-adv-x="681" d="M78 473v350h524v-350h-524z" />
<glyph unicode="." horiz-adv-x="512" d="M70 0v385h372v-385h-372z" />
<glyph unicode="/" horiz-adv-x="1024" d="M2 0l621 1446h395l-617 -1446h-399z" />
<glyph unicode="0" d="M41 678q0 154 38 292t115.5 241.5t199.5 164t288 58.5q178 -2 294 -74t182.5 -178.5t92 -230.5t25.5 -232q0 -131 -33 -265.5t-107.5 -244t-195.5 -178t-297 -68.5q-133 0 -243.5 48t-190.5 139.5t-124 224.5t-44 303zM459 655q0 -57 3 -114.5t15 -112.5 q20 -82 65.5 -129t114.5 -47q63 0 103.5 39t63 100.5t29.5 138t7 152.5q0 25 -1 62.5t-4 80.5t-7 86t-12 76t-21.5 63.5t-34 53t-49.5 37t-65 14.5q-35 0 -76 -20.5t-70 -67.5q-20 -35 -32.5 -83t-18.5 -104.5t-8 -115t-2 -109.5z" />
<glyph unicode="1" d="M225 899v318q41 -2 96.5 0t114.5 28q39 16 65.5 38t42 43.5t25 42t15.5 38.5h364v-1407h-422v934q-25 -10 -46 -16.5t-53 -10.5t-79 -6t-123 -2z" />
<glyph unicode="2" d="M55 0v266q125 82 246 165t238 175q90 72 144 124t84 94t39 76t9 67q0 18 -4 45.5t-21.5 54.5t-51 46.5t-91.5 19.5q-68 0 -104.5 -27t-53 -62.5t-19.5 -70.5t-3 -49q0 -37 4 -58.5t10 -44.5l-415 49q2 49 6 100.5t16 103.5t38 103.5t69 96.5q55 57 126.5 89t141 46 t129 16t90.5 2q43 0 98.5 -3t114.5 -17t118.5 -43t108.5 -78q39 -39 62.5 -82t36 -85t16.5 -80t4 -64q0 -143 -73.5 -257t-233.5 -224q-70 -47 -141.5 -89.5t-143.5 -82.5l142 4l75 2h357v-328h-1168z" />
<glyph unicode="3" d="M6 422l391 74q4 -43 15.5 -91.5t50.5 -85.5q59 -59 174 -59q43 0 87 12.5t75 40.5q33 33 39 68t6 55q0 55 -28 86t-66.5 44.5t-77.5 16.5t-64 3q-41 0 -60.5 -3t-43.5 -8v279q45 -6 92 -6q33 0 73 4t74.5 19.5t59 46t24.5 81.5q0 20 -7 46t-26.5 48.5t-56.5 39t-98 16.5 q-63 0 -100 -21.5t-57.5 -54.5t-29 -68.5t-12.5 -64.5l-387 23q6 39 14.5 79.5t22.5 80.5t37 79t57 76q57 57 128 89t139.5 46t126 16.5t86.5 2.5q27 0 82 -2.5t121.5 -16.5t137 -45t125.5 -88q33 -33 51.5 -66.5t29 -65.5t13.5 -60.5t3 -51.5q0 -80 -24.5 -134t-59.5 -89 t-74 -53.5t-68 -30.5q31 -8 77 -24.5t89 -50t74 -91t31 -147.5q0 -78 -31 -157t-84 -134q-57 -57 -132 -89t-148.5 -46.5t-139 -16.5t-104.5 -2q-37 0 -96.5 3t-129 18.5t-140 47.5t-128.5 91q-66 68 -91.5 141.5t-41.5 149.5z" />
<glyph unicode="4" d="M39 293v278l639 838h418v-838h180v-278h-180v-293h-402v293h-655zM377 571h317l4 381q2 20 3 39t4 37q0 -2 -12.5 -21.5t-29 -43t-31 -44t-18.5 -26.5z" />
<glyph unicode="5" d="M33 426l418 43q0 -27 1 -52.5t9 -49.5q18 -59 65 -89t111 -30q55 0 95 18.5t65.5 49t37 70.5t11.5 81q0 96 -52.5 157.5t-162.5 61.5q-43 0 -72 -9t-48 -22.5t-31.5 -29t-20.5 -29.5l-350 43l77 762h1045l-31 -293h-715l-20 -199q10 6 21.5 12.5t21.5 10.5 q47 18 109.5 28.5t119.5 10.5q115 0 213.5 -34t170 -96.5t112.5 -149.5t41 -193q0 -102 -39 -198.5t-109 -166.5q-57 -59 -124.5 -93t-134 -50.5t-127 -20.5t-105.5 -4q-29 0 -83 2t-119.5 17.5t-136.5 48.5t-130 94q-68 72 -92.5 145.5t-40.5 153.5z" />
<glyph unicode="6" d="M37 664q0 113 20.5 229.5t89.5 236.5q61 104 138 165t156 91.5t152 39t126 8.5q158 0 256 -42t154.5 -99.5t82 -120t37.5 -101.5l-399 -61q-4 25 -11.5 51t-31.5 53q-49 45 -121 45q-47 0 -91 -20.5t-77 -53.5q-31 -33 -49 -69.5t-27.5 -74.5t-11.5 -78t-4 -79 q14 20 33 39q29 27 68.5 47.5t83.5 35t91.5 20.5t88.5 6q104 0 195 -34t156.5 -96.5t103.5 -149.5t38 -191q0 -117 -47 -209t-129 -155.5t-191.5 -97.5t-234.5 -34q-135 0 -257 42t-206 122q-68 63 -104.5 140t-54 152t-20.5 139.5t-3 103.5zM463 451q0 -92 57.5 -152.5 t151.5 -60.5q41 0 78.5 13t66.5 39.5t46.5 67.5t17.5 95q0 100 -57.5 156.5t-145.5 56.5q-102 0 -158.5 -62.5t-56.5 -152.5z" />
<glyph unicode="7" d="M88 1092v319h1129v-268q-43 -47 -85 -93t-84 -102.5t-85 -128t-89 -168.5q-47 -102 -77.5 -188t-51 -164t-34 -150.5t-25.5 -148.5h-440q16 68 31.5 128t37 123.5t50 136.5t71.5 165q49 100 93 179t84 142.5t78 115.5t75 102h-678z" />
<glyph unicode="8" d="M37 397q0 47 10 88t27 76q23 45 51.5 77t56 52.5t54 31.5t45.5 19q-49 29 -86 64q-37 37 -61.5 95t-24.5 128q0 47 11 87t27 73q45 90 119 138t151 70.5t145.5 26.5t101.5 4q94 0 171.5 -10t145.5 -39q88 -35 136 -86t71.5 -101t29 -93t5.5 -64q0 -68 -17.5 -116 t-42 -81.5t-52.5 -56t-50 -37.5q35 -16 66.5 -34.5t58.5 -46.5q43 -41 69.5 -108t26.5 -144q0 -76 -26.5 -145.5t-86.5 -129.5q-59 -59 -131.5 -93t-143.5 -49.5t-133.5 -18.5t-101.5 -3q-66 0 -137 5.5t-143 27.5q-74 20 -136.5 56t-108.5 86.5t-71.5 113.5t-25.5 137z M449 412q0 -8 4 -37t23.5 -59.5t61.5 -55t117 -24.5q61 0 102.5 16t67 43t36.5 58.5t11 60.5q0 25 -9 56.5t-33.5 59t-65.5 46t-105 18.5q-63 0 -104 -18.5t-64.5 -46t-32.5 -59t-9 -58.5zM479 1016q0 -25 10.5 -50.5t33 -47t57 -36t86.5 -14.5q51 0 84.5 14.5t54 36t30 47 t9.5 48.5q0 14 -5 37.5t-22.5 47t-53.5 41t-97 17.5q-39 2 -77 -6t-67 -35q-20 -18 -31.5 -44.5t-11.5 -55.5z" />
<glyph unicode="9" d="M35 938q0 117 48 209t130 155.5t191.5 97.5t232.5 34q135 0 258 -43t205 -121q66 -63 102.5 -140t54 -152t21.5 -139.5t4 -103.5q0 -113 -20.5 -229.5t-90.5 -237.5q-61 -104 -138 -164.5t-154.5 -91t-150.5 -39t-128 -8.5q-158 0 -256 42t-154.5 100.5t-82 120 t-37.5 102.5l399 59q4 -25 11 -51.5t32 -50.5q23 -23 54.5 -35t66.5 -12q47 0 91 20.5t77 52.5q31 33 49 70t27.5 75t11.5 77.5t4 78.5q-16 -23 -33 -39q-29 -29 -68.5 -48t-83.5 -33.5t-91.5 -20.5t-88.5 -6q-104 0 -195 34t-156.5 96t-103.5 149.5t-38 191.5zM438 946 q0 -100 57.5 -156.5t145.5 -56.5q102 0 158.5 62.5t56.5 152.5q0 92 -57.5 152.5t-151.5 60.5q-41 0 -79 -13t-66.5 -40t-46 -68t-17.5 -94z" />
<glyph unicode=":" horiz-adv-x="598" d="M152 0v385h372v-385h-372zM152 676v385h372v-385h-372z" />
<glyph unicode=";" horiz-adv-x="598" d="M152 0v385h372v-295q0 -43 -3 -88t-12 -88t-30.5 -84t-58.5 -80q-61 -61 -129 -80.5t-139 -31.5v180q45 14 70.5 35.5t37.5 46t15.5 50t3.5 50.5h-127zM152 676v385h372v-385h-372z" />
<glyph unicode="&#x3c;" horiz-adv-x="1366" d="M0 592v254l1366 606v-285l-1001 -448l1001 -443v-282z" />
<glyph unicode="=" horiz-adv-x="1366" d="M0 252v260h1366v-260h-1366zM0 682v258h1366v-258h-1366z" />
<glyph unicode="&#x3e;" horiz-adv-x="1366" d="M0 -6v282l1001 443l-1001 448v285l1366 -606v-254z" />
<glyph unicode="?" horiz-adv-x="1236" d="M92 1083q14 51 41 111.5t98 126.5q53 51 111.5 81t115 45t111 19t101.5 4q31 0 83 -3t114.5 -16t128 -43t118.5 -83q47 -47 75 -108.5t28 -139.5q0 -66 -19.5 -116t-46.5 -85.5t-54.5 -58t-43.5 -35.5q-41 -31 -84 -58.5t-84 -55.5q-37 -27 -58.5 -46.5t-33 -36 t-16.5 -29.5t-7 -28h-354q2 37 8 70t23.5 68.5t51 73.5t93.5 85q20 16 39.5 29.5t40.5 30.5q14 10 36.5 28.5t43 41t35 50t14.5 58.5q0 18 -7.5 40.5t-25.5 42t-48 34t-73 14.5q-66 0 -104.5 -25.5t-60 -61.5t-30 -75t-10.5 -65zM403 0v385h375v-385h-375z" />
<glyph unicode="@" horiz-adv-x="1835" d="M141 487q0 195 72 371t198 309t298 212t372 79q164 0 281 -53t190.5 -138t107.5 -189.5t34 -207.5q0 -147 -41 -281t-108.5 -234.5t-156 -160t-182.5 -59.5q-51 0 -92 19.5t-63 50.5q-14 18 -19.5 35.5t-9.5 35.5q-12 -14 -34.5 -37.5t-54.5 -46t-74 -39t-93 -16.5 q-25 0 -76 10.5t-104 55.5q-59 51 -82 127t-23 153q0 104 33 210t91.5 190t140 136t182.5 52q49 0 84 -12t59.5 -30.5t40.5 -40t29 -40.5l18 80h187l-70 -323q-20 -104 -31.5 -165t-16.5 -92.5t-6 -46t-1 -26.5q0 -14 5 -40t34 -26q33 0 77.5 43t85.5 117t70 173t29 214 q0 125 -43 210t-109.5 136t-148.5 72.5t-158 21.5q-147 0 -283.5 -64.5t-241 -175t-167 -257t-62.5 -310.5q0 -178 65.5 -290.5t161 -177t202 -89t190.5 -24.5q131 0 237.5 33.5t189.5 81t142 98.5t98 86l97 -125q-41 -39 -107.5 -96.5t-161 -110.5t-214 -91t-265.5 -38 q-80 0 -170 14.5t-179 49t-171 91t-144.5 138.5t-100.5 192.5t-38 255.5zM692 494q0 -66 19.5 -101t42 -51t43 -19.5t24.5 -3.5q49 0 95.5 36t81 92.5t55 127t20.5 142.5q0 45 -13 77.5t-32.5 54t-44.5 31t-49 9.5q-53 0 -97 -37t-77 -94.5t-50.5 -126.5t-17.5 -137z" />
<glyph unicode="A" horiz-adv-x="1622" d="M-2 0l553 1446h520l541 -1446h-492l-63 201h-504l-64 -201h-491zM651 524h312l-154 510z" />
<glyph unicode="B" horiz-adv-x="1492" d="M90 0v1446h856q33 -2 80 -5t97.5 -14.5t99.5 -35t90 -62.5q49 -47 73.5 -113.5t24.5 -136.5q0 -80 -29.5 -145.5t-72.5 -108.5q-29 -29 -58.5 -45t-64.5 -32q45 -12 86 -29t84 -60q61 -59 78.5 -125.5t17.5 -119.5q0 -82 -25.5 -161t-80.5 -134q-41 -41 -88.5 -64.5 t-96.5 -35t-96 -14.5t-90 -5h-885zM545 311h286q31 2 62 8.5t57 34.5q37 37 37 95q0 51 -19.5 79.5t-47 42t-55 17.5t-44.5 4h-276v-281zM547 895h252q16 0 41.5 2t49 13.5t41 36t17.5 69.5t-16.5 69.5t-38 37t-46 15.5t-38.5 3h-262v-246z" />
<glyph unicode="C" horiz-adv-x="1536" d="M55 715q0 145 48.5 286.5t143.5 252t234.5 178t323.5 67.5q166 0 315.5 -58.5t263.5 -174.5q47 -47 73 -87t48 -83l-383 -191q-14 33 -35.5 74t-55.5 78t-85 62.5t-123 25.5q-76 0 -124 -27.5t-70 -50.5q-41 -39 -62.5 -87t-32 -94t-12.5 -85t-2 -60q0 -80 16.5 -155.5 t52.5 -134t94 -93t142 -34.5q80 0 133.5 29.5t87 69.5t50 80t22.5 58l389 -188q-29 -53 -58.5 -102.5t-82.5 -102.5q-111 -111 -258 -162t-303 -51q-195 0 -336 66.5t-233.5 174t-136.5 244t-44 275.5z" />
<glyph unicode="D" horiz-adv-x="1536" d="M90 0v1446h492q121 -2 222 -5t186 -19.5t158 -49.5t136 -92q113 -104 157 -250.5t44 -300.5q0 -115 -22.5 -223.5t-72 -200.5t-126 -160.5t-185.5 -105.5q-88 -29 -184 -34t-203 -5h-602zM549 332h174q49 4 97 12t95 55q53 49 81 135.5t28 188.5q0 63 -10 115.5t-27 97.5 q-23 61 -54.5 95t-67.5 50.5t-73.5 20.5t-70.5 6h-172v-776z" />
<glyph unicode="E" d="M88 0v1446h1145v-318h-686v-215h641v-313h-641v-287h747v-313h-1206z" />
<glyph unicode="F" horiz-adv-x="1280" d="M90 0v1446h1145v-320h-688v-260h643v-311h-643v-555h-457z" />
<glyph unicode="G" horiz-adv-x="1622" d="M55 715q0 156 50.5 299t147.5 251.5t241.5 174t332.5 65.5q164 0 320 -55t264 -162q66 -63 93.5 -120.5t45.5 -108.5l-409 -115q-8 35 -19.5 70t-46.5 69q-33 33 -87 54.5t-126 21.5q-82 0 -138 -25.5t-91 -58.5q-43 -39 -65.5 -88t-33 -97t-12.5 -90t-2 -67q0 -33 2 -74 t13.5 -85t33 -88t60.5 -83q33 -35 68.5 -54t69.5 -28.5t61.5 -11.5t45.5 -2q14 0 41 2t56.5 9.5t61.5 22.5t59 44q29 31 38 60.5t17 64.5h-268v291h663v-799h-342v100q-25 -18 -61.5 -42.5t-89 -46t-122 -36t-161.5 -14.5q-82 0 -149.5 14.5t-122.5 36.5q-51 20 -126 69.5 t-144.5 133.5t-119 206t-49.5 292z" />
<glyph unicode="H" horiz-adv-x="1536" d="M90 0v1446h457v-526h436v526h461v-1446h-461v557h-436v-557h-457z" />
<glyph unicode="I" horiz-adv-x="641" d="M90 0v1446h459v-1446h-459z" />
<glyph unicode="J" horiz-adv-x="854" d="M0 0v356q25 -6 48.5 -9t70.5 -3q59 0 95 12.5t55.5 34t26.5 52t7 67.5v938h457v-1047q0 -35 -2 -74.5t-11.5 -79.5t-27 -78t-49.5 -71q-37 -35 -82 -54t-94.5 -28.5t-97.5 -12.5t-91 -3h-305z" />
<glyph unicode="K" horiz-adv-x="1579" d="M90 0v1446h457v-547l454 547h560l-504 -549l538 -897h-514l-319 578l-213 -236v-342h-459z" />
<glyph unicode="L" horiz-adv-x="1110" d="M90 0v1448h457v-1083h559v-365h-1016z" />
<glyph unicode="M" horiz-adv-x="1961" d="M88 0v1446h653l179 -668q12 -53 20 -90t14.5 -68.5t11.5 -65.5t13 -83q10 68 17.5 112t14.5 80.5t15 72.5t21 89l163 621h656v-1446h-436v836q0 39 1 67.5t3 54t3 56t5 78.5q-10 -41 -15.5 -68t-11.5 -50.5t-13 -50t-18 -65.5l-239 -858h-340l-223 813q-12 43 -19.5 69.5 t-13.5 52.5t-14.5 58.5t-20.5 89.5q2 -35 4 -57t3 -42.5t1 -42.5v-52v-889h-434z" />
<glyph unicode="N" horiz-adv-x="1579" d="M90 0v1446h485l326 -547q31 -55 51.5 -95t39 -77t38 -79t47.5 -103q-4 53 -7 89t-5 69.5t-3 73.5t-3 102v567h428v-1446h-492l-293 500q-31 53 -53 92t-43.5 79t-45 89t-58.5 121q4 -49 6 -83t4 -65t3 -64.5t1 -82.5v-586h-426z" />
<glyph unicode="O" horiz-adv-x="1662" d="M53 721q0 156 48.5 296t145.5 247.5t242.5 171t341.5 63.5q215 0 362.5 -70.5t239 -181t132.5 -246t41 -264.5q0 -137 -42 -277.5t-136.5 -253t-243 -183t-361.5 -70.5q-221 0 -369.5 73.5t-237.5 186.5t-126 249t-37 259zM512 723q0 -190 78 -297t241 -107 q139 0 226.5 106.5t87.5 311.5q0 53 -5 100.5t-22 90.5q-27 76 -68.5 116.5t-84.5 61t-81 25t-53 4.5q-61 0 -118.5 -22.5t-102.5 -72t-71.5 -127t-26.5 -190.5z" />
<glyph unicode="P" horiz-adv-x="1449" d="M90 0v1448h828q59 -2 114 -6t106.5 -18.5t99.5 -40t91 -70.5q39 -43 63.5 -88t37 -89t16.5 -85t4 -76q0 -90 -26.5 -185.5t-110.5 -183.5q-45 -47 -93.5 -73.5t-99.5 -40t-105 -16.5t-114 -5h-352v-471h-459zM549 774h262q18 2 37.5 3t38.5 7q53 16 81.5 63.5t28.5 113.5 q0 63 -21.5 99t-52 54.5t-63.5 22.5t-53 6h-258v-369z" />
<glyph unicode="Q" horiz-adv-x="1662" d="M55 725q0 164 52.5 311.5t168.5 259.5q66 63 136.5 104.5t142.5 63t144.5 29.5t142.5 8q59 0 125.5 -6t137.5 -27.5t141.5 -60.5t135.5 -104q111 -109 167.5 -255.5t56.5 -306.5q0 -35 -4.5 -88t-20.5 -125q-27 -109 -59.5 -169t-67.5 -111q37 -25 66.5 -43.5t55.5 -29.5 t51.5 -18t55.5 -10l-139 -317q-45 8 -88 19.5t-87 32t-89 54t-94 89.5q-45 -18 -132 -45t-237 -27q-209 0 -353.5 67.5t-235.5 177t-132 248t-41 279.5zM518 717q0 -186 77 -292t230 -106q66 0 123.5 25t100.5 76t67.5 130t24.5 189q0 113 -28 190t-72 123t-99 64.5 t-113 18.5q-41 0 -97 -14.5t-109 -73.5q-37 -41 -58.5 -88.5t-32 -93.5t-12.5 -84.5t-2 -63.5z" />
<glyph unicode="R" horiz-adv-x="1449" d="M90 0v1448h721q104 0 197.5 -8t158.5 -37q72 -31 120 -80t77 -107.5t41 -119t12 -111.5q0 -20 -3 -53t-13 -73t-32.5 -83t-61.5 -82q-43 -47 -89.5 -68.5t-97.5 -41.5l353 -584h-508l-281 510h-135v-510h-459zM549 807h190q29 0 67 3t72.5 19.5t58.5 50t24 95.5 q0 61 -24 96t-58.5 51.5t-72.5 19.5t-69 3h-188v-338z" />
<glyph unicode="S" horiz-adv-x="1492" d="M14 274l351 226q14 -25 30.5 -46.5t38 -41t53 -38t78.5 -32.5q94 -33 203 -33q14 0 50 2t73 13.5t65.5 33t28.5 60.5q0 4 -1 14t-9 24.5t-23.5 28t-46.5 23.5q-18 6 -71.5 17.5t-114 23.5t-114.5 22.5t-77 16.5q-49 12 -116.5 36.5t-129 72.5t-104.5 123t-43 190 q0 98 41 186q35 80 96.5 136.5t140.5 92t171 52t190 16.5q125 0 235.5 -23.5t200.5 -68.5q82 -41 128 -82t85 -82l-286 -240q-16 23 -40 46.5t-71 48.5q-63 31 -138 42t-130 11q-29 0 -58.5 -4t-53 -15.5t-38 -30t-14.5 -44.5q0 -53 52 -74t147 -37q121 -20 235.5 -46 t204.5 -76t145.5 -132t55.5 -217q0 -115 -40 -194.5t-89 -131.5q-68 -70 -152 -107.5t-163 -55t-143.5 -20.5t-94.5 -3q-82 0 -166 9t-170 34t-150.5 59.5t-112 72.5t-81 74.5t-58.5 67.5z" />
<glyph unicode="T" horiz-adv-x="1193" d="M0 1090v358h1190v-358h-367v-1090h-456v1090h-367z" />
<glyph unicode="U" horiz-adv-x="1492" d="M86 586v860h459v-903q0 -47 7 -92t46 -82q29 -29 66.5 -41.5t78.5 -12.5q53 0 89 16.5t57 35.5q41 39 48 84t7 92v903h461v-770q0 -61 -3 -132t-18.5 -141.5t-50.5 -139t-98 -130.5q-78 -74 -203 -123t-293 -49q-160 0 -292 47t-211 125q-53 51 -83 107.5t-44.5 114 t-17.5 116t-5 115.5z" />
<glyph unicode="V" horiz-adv-x="1449" d="M0 1446h467l172 -574q20 -68 32.5 -114.5t20.5 -86.5t15.5 -82t15.5 -102q10 59 17.5 99.5t15.5 75t17 71.5t26 92l182 621h469l-489 -1446h-478z" />
<glyph unicode="W" horiz-adv-x="2134" d="M-4 1446h446l142 -631q14 -66 23 -111t16.5 -84.5t12.5 -81.5t11 -102q8 61 15.5 103.5t14.5 82.5t16 85t26 110l149 629h387l158 -629q16 -68 26.5 -114t16.5 -84.5t12.5 -80.5t12.5 -100q8 59 14 101.5t12 81t14.5 80.5t20.5 104l144 641h444l-361 -1446h-489l-131 524 q-18 74 -29.5 126t-20.5 98.5t-18.5 98.5t-21.5 126q-8 -68 -14.5 -114t-14.5 -88t-18.5 -89t-24.5 -115l-139 -567h-492z" />
<glyph unicode="X" horiz-adv-x="1705" d="M-4 0l559 776l-469 670h537l229 -397l233 397h523l-457 -668l555 -778h-541l-313 520l-320 -520h-536z" />
<glyph unicode="Y" horiz-adv-x="1622" d="M-6 1446h528l283 -481l278 481h531l-584 -838v-608h-457v608z" />
<glyph unicode="Z" horiz-adv-x="1366" d="M4 0v289l741 811h-698v346h1292v-295l-729 -799h727v-352h-1333z" />
<glyph unicode="[" horiz-adv-x="724" d="M84 -250v1698h614v-231h-274v-1235h274v-232h-614z" />
<glyph unicode="\" horiz-adv-x="1024" d="M2 1446h399l617 -1446h-395z" />
<glyph unicode="]" horiz-adv-x="724" d="M25 -18h274v1235h-274v231h614v-1698h-614v232z" />
<glyph unicode="^" horiz-adv-x="1492" d="M233 637l416 809h213l398 -809h-283l-225 473l-238 -473h-281z" />
<glyph unicode="_" horiz-adv-x="1024" d="M-20 -154h1064v-102h-1064v102z" />
<glyph unicode="`" horiz-adv-x="641" d="M25 1483h436l155 -281h-260z" />
<glyph unicode="a" horiz-adv-x="1236" d="M39 317q0 47 16.5 108.5t73.5 119.5q37 37 77 59.5t88 37.5t105.5 23.5t126.5 18.5q43 6 75 11t57.5 10.5t47 11.5t46.5 12q0 27 -6.5 49.5t-21.5 37.5t-43 24.5t-73 9.5q-72 0 -99.5 -21.5t-37.5 -76.5l-395 -11q6 33 15 71t28.5 75t54.5 71.5t92 65.5q90 47 193.5 59.5 t187.5 12.5q125 0 212 -19.5t142.5 -52.5t86 -74t45 -84t16.5 -85t2 -72v-578q0 -27 1 -44t5 -31.5t11.5 -27t19.5 -28.5h-416v82q-20 -14 -49 -32.5t-71 -35t-99 -28t-131 -11.5q-100 0 -172 28t-119 76t-69.5 109t-22.5 129zM430 330q0 -23 22.5 -52.5t82.5 -29.5 q23 0 50 7t55 22.5t51.5 38t37.5 53.5q16 35 18.5 65.5t2.5 59.5l-62 -21q-31 -10 -63 -20l-54 -13q-27 -6 -55 -16q-31 -12 -48 -26.5t-25.5 -28t-10.5 -24.5t-2 -15z" />
<glyph unicode="b" horiz-adv-x="1280" d="M84 0v1446h422v-459q14 14 36.5 32.5t54.5 34t76 27t103 11.5q86 0 170 -32t148.5 -97.5t104.5 -167t40 -240.5q0 -125 -31.5 -231.5t-93 -184.5t-151 -122t-203.5 -44q-31 0 -72 5.5t-86 21.5t-65.5 34.5t-42.5 43.5v-78h-410zM496 535q0 -35 2 -68t12 -64 q12 -43 32.5 -67.5t42 -36.5t42 -16t30.5 -4q66 0 107 45q23 23 41 69.5t18 138.5q0 70 -12 125q-14 49 -37.5 77t-47.5 40t-42 14.5t-25 2.5q-59 0 -106 -48q-20 -23 -31.5 -50t-17.5 -56t-7 -55.5t-1 -46.5z" />
<glyph unicode="c" horiz-adv-x="1150" d="M37 539q0 133 43 237.5t108 171.5q55 57 120 90t125.5 48.5t111.5 19.5t82 4q27 0 76 -3t108 -18.5t124.5 -49t127.5 -95.5q31 -31 48 -55.5t36 -54.5l-322 -183q-20 72 -61 117t-117 45q-49 0 -85 -22.5t-59.5 -61.5t-35.5 -91t-12 -112q0 -31 5 -72.5t23.5 -79.5 t55 -64.5t98.5 -26.5q49 0 82 20.5t54.5 48t33.5 58t18 51.5l322 -176q-20 -43 -41 -79t-62 -77q-23 -23 -59.5 -52.5t-90.5 -56t-127 -44t-165 -17.5q-131 0 -235.5 42t-178 119t-112.5 183.5t-39 235.5z" />
<glyph unicode="d" horiz-adv-x="1280" d="M39 555q0 139 40 240.5t104.5 167t148.5 97.5t170 32q59 0 103 -11.5t76 -27t53.5 -34t37.5 -32.5v459h422v-1446h-410v78q-23 -25 -43 -43.5t-65 -34.5t-86 -21.5t-74 -5.5q-115 0 -203 44t-149.5 122t-93 184.5t-31.5 231.5zM455 532q0 -92 18.5 -139t40.5 -69 q41 -45 107 -45q29 0 56.5 12t49.5 35q20 20 31.5 48.5t16.5 57.5t6 55.5t1 47.5q0 35 -3 67.5t-13 65.5q-12 37 -30.5 61.5t-40 37.5t-42 18.5t-35.5 5.5q-6 0 -24.5 -2.5t-42 -14.5t-47 -39.5t-37.5 -77.5q-12 -55 -12 -125z" />
<glyph unicode="e" horiz-adv-x="1236" d="M35 535q0 129 43 234t119.5 180t184 115t236.5 40q98 0 213 -32t213 -126q57 -57 90 -118.5t48.5 -124t18.5 -125t5 -123.5h-741q2 -35 9 -75t42 -75q8 -8 38 -28.5t89 -20.5q72 0 116 36t77 101l348 -145q-94 -143 -232.5 -217t-330.5 -74q-147 0 -257 49t-184 129 t-109.5 184.5t-35.5 215.5zM469 678h307q-2 12 -2 24.5t-4 24.5q-14 57 -56 83t-85 26q-47 0 -77 -18.5t-47.5 -43t-24.5 -51.5t-11 -45z" />
<glyph unicode="f" horiz-adv-x="768" d="M-2 807v229h158v107q2 59 13 116.5t64 110.5q12 12 35 29.5t61 33t91 26.5t127 11q70 0 118 -8t103 -18v-289q-16 6 -32.5 10t-45.5 4q-43 0 -65.5 -13t-33.5 -32.5t-12 -43t-1 -44.5h190v-229h-190v-807h-422v807h-158z" />
<glyph unicode="g" horiz-adv-x="1280" d="M37 565q0 80 20.5 172t75.5 171t152.5 130.5t251.5 51.5q72 0 139 -18.5t117 -67.5q20 -18 36 -43l-2 100h365v-1000q-2 -47 -7 -100t-26.5 -105.5t-64.5 -100.5t-119 -85q-78 -37 -180.5 -53t-206.5 -16q-16 0 -55 1t-86.5 6t-98.5 13t-94 23q-78 27 -120 67.5 t-62.5 87.5t-24.5 95.5t-6 91.5h383q0 -18 3 -41t18.5 -44.5t49 -36t95.5 -14.5q43 0 87 11.5t71 36.5q31 31 35.5 70.5t4.5 92.5v52q0 25 3 49q-6 -10 -12.5 -17.5t-12.5 -15.5q-4 -4 -18.5 -16.5t-44 -25.5t-75.5 -23.5t-114 -10.5q-121 0 -210 39t-148.5 107.5t-89 162.5 t-29.5 203zM438 553q0 -117 40 -169t126 -52q63 0 98 26.5t52.5 63.5t20.5 78t3 71q0 20 -3 59.5t-18.5 76t-48 64.5t-94.5 28q-66 0 -101.5 -33t-52 -75t-19.5 -83t-3 -55z" />
<glyph unicode="h" d="M84 0v1448h420v-494q14 18 38.5 44t63.5 49.5t97.5 41t140.5 17.5q92 0 169 -28.5t126 -78.5q33 -35 51 -73.5t27.5 -78.5t12.5 -79t5 -74v-694h-420v606q0 18 -3 44t-17.5 49.5t-45 41t-85.5 17.5q-59 0 -91 -18.5t-46.5 -43t-17.5 -52.5t-3 -46v-598h-422z" />
<glyph unicode="i" horiz-adv-x="598" d="M86 0v1061h422v-1061h-422zM86 1165v281h422v-281h-422z" />
<glyph unicode="j" horiz-adv-x="598" d="M-70 -88q12 -1 24 -1q70 0 99 22q35 26 35 92v1038h422v-1047q0 -59 -2 -105t-8 -83t-20.5 -67.5t-41.5 -57.5q-41 -41 -101.5 -61.5t-130 -29.5t-141 -9t-135.5 2v307zM88 1165v281h422v-281h-422z" />
<glyph unicode="k" d="M82 0v1446h424v-688l287 303h516l-404 -383l422 -678h-481l-232 403l-110 -106v-297h-422z" />
<glyph unicode="l" horiz-adv-x="598" d="M84 0v1446h424v-1446h-424z" />
<glyph unicode="m" horiz-adv-x="2048" d="M86 -2v1061h403v-152q12 20 34 50t60 58.5t97 49t145 20.5q29 0 71 -4t91 -20q51 -16 86 -38t58.5 -45.5t38 -47t24.5 -43.5q12 27 36.5 60.5t68.5 64t109 52t155 21.5q86 0 163.5 -26.5t131.5 -79.5q37 -35 56 -74t28.5 -79t12.5 -79.5t3 -76.5v-670h-422v555 q0 25 -3 56.5t-16.5 59t-43 47t-84.5 19.5q-57 0 -89 -20.5t-46.5 -48t-17.5 -56t-3 -47.5v-567h-422v573q0 31 -6 62q-14 61 -58.5 82.5t-82.5 21.5q-33 0 -63 -10t-52 -33q-29 -29 -34 -59.5t-7 -59.5v-577h-422z" />
<glyph unicode="n" d="M84 0v1061h399v-141q12 18 36 46.5t64 55.5t100 46t148 19q63 0 110.5 -11t82.5 -26.5t58.5 -32t35.5 -28.5q37 -37 58.5 -80t33 -86t13.5 -83t2 -70v-670h-422v580q0 20 -2 47.5t-16.5 52.5t-43 42t-82.5 17q-55 0 -86.5 -19.5t-46 -46t-17.5 -57t-3 -51.5v-565h-422z " />
<glyph unicode="o" d="M41 522q0 131 43 238.5t124 184.5t196.5 119t263.5 42q162 -2 272.5 -48t171.5 -106q76 -72 121 -184.5t45 -239.5q0 -125 -42 -229t-124 -180t-199.5 -118t-267.5 -42q-160 0 -274.5 48t-188 127t-107.5 180.5t-34 207.5zM461 535q0 -39 6 -87.5t27.5 -91.5t59.5 -72.5 t103 -29.5q55 0 92 21.5t61 60.5t33 91t9 112q0 25 -4 70.5t-22.5 90.5t-58.5 78q-38 31 -103 31h-9q-59 -2 -97 -28.5t-59.5 -66.5t-29.5 -87t-8 -92z" />
<glyph unicode="p" horiz-adv-x="1280" d="M84 -385v1446h412v-82q12 12 31.5 30.5t52 37t82 31t116.5 12.5q129 0 217 -49.5t142.5 -129.5t79 -181t24.5 -206q0 -117 -27.5 -217t-86 -174t-146.5 -117t-207 -43q-66 0 -111 10.5t-77.5 26t-53 32.5t-32.5 30v-457h-416zM494 526q0 -37 3 -73.5t15 -71.5 q14 -41 36.5 -63.5t44 -33t40 -12.5t24.5 -2q31 0 59.5 11.5t49.5 33.5q29 29 44 79t15 124q0 31 -4 76t-19.5 86t-47 70.5t-86.5 31.5q-5 0 -11 1q-59 0 -102 -44q-23 -23 -35 -49t-18 -56t-7 -57.5t-1 -50.5z" />
<glyph unicode="q" horiz-adv-x="1280" d="M39 524q0 104 24.5 205.5t79 181.5t142.5 129.5t217 49.5q68 0 117 -12.5t81.5 -31t52 -37t31.5 -30.5v82h412v-1446h-416v457q-12 -12 -32.5 -29.5t-53 -33t-79 -26t-109.5 -10.5q-121 0 -208 43t-145.5 117t-86 174t-27.5 217zM455 518q0 -74 15 -124t44 -79 q20 -23 49 -34t60 -11q59 0 104 41q23 20 35 50t17 60t6 58.5t1 46.5q0 35 -3 70t-13 68q-14 45 -38.5 69.5t-49.5 35.5t-44.5 12t-25.5 1q-55 -2 -86.5 -31.5t-47 -70.5t-19.5 -86t-4 -76z" />
<glyph unicode="r" horiz-adv-x="854" d="M84 0v1067h405v-98q43 39 81 61.5t79 34.5t87 15t108 3v-356q-23 2 -43.5 3t-42.5 1q-92 0 -143.5 -26.5t-76 -63.5t-29.5 -76t-5 -65v-500h-420z" />
<glyph unicode="s" horiz-adv-x="1110" d="M0 172l236 215q29 -29 63.5 -55.5t95.5 -52.5q57 -23 99.5 -29t68.5 -6q39 0 75 15t36 50q0 39 -37 52.5t-70 17.5q-29 4 -89 15.5t-132 33.5q-37 10 -87 28.5t-96 53.5t-78 90t-32 139q0 72 30 133.5t77 108.5q47 45 101 69.5t106.5 37t96.5 14.5t71 2q115 0 239 -29 q55 -12 95 -27.5t71 -31t54.5 -32.5t45.5 -34l-227 -207q-53 35 -119.5 68t-152.5 33q-6 0 -21.5 -1t-31 -6.5t-26.5 -16.5t-11 -32q0 -14 7 -23t25.5 -17.5t51 -17.5t86.5 -21q70 -16 116.5 -26.5t77.5 -20t51.5 -16.5t38.5 -17q80 -43 123 -114t43 -163 q0 -78 -32.5 -149.5t-96 -125.5t-158 -86t-217.5 -32q-115 0 -205 22.5t-158.5 56.5t-119.5 69.5t-84 64.5z" />
<glyph unicode="t" horiz-adv-x="768" d="M0 807v229h147l5 334h423l-4 -334h183v-229h-185l-4 -408q0 -16 2 -34.5t13.5 -36t34 -28.5t65.5 -11q18 0 37.5 2t38.5 6v-289q-72 -10 -136.5 -16t-130.5 -6q-16 0 -49.5 2t-73.5 10t-82 25.5t-73 50.5q-27 27 -41 57.5t-21.5 59t-8.5 55t-1 47.5l6 514h-145z" />
<glyph unicode="u" d="M82 416v645h422v-578q0 -25 3 -54.5t17.5 -55t45 -44t85.5 -18.5t86 19.5t46.5 48.5t18.5 61.5t3 59.5v561h424v-1061h-402v156q-10 -23 -20 -39.5t-33 -38.5q-59 -57 -137 -81t-160 -24q-63 0 -111 11.5t-84 27t-59.5 33.5t-38.5 33q-39 37 -59 81t-30.5 88t-13.5 88 t-3 81z" />
<glyph unicode="v" horiz-adv-x="1150" d="M-6 1061h446l84 -393q8 -47 14 -80l10 -66q5 -33 10 -72.5t11 -99.5q6 53 11.5 91t10.5 73t12 75t18 97l86 375h442l-354 -1061h-447z" />
<glyph unicode="w" horiz-adv-x="1748" d="M-2 1061h430l82 -399q10 -59 17.5 -97.5t12.5 -73t9 -71.5l10 -92q6 59 11 100t10.5 78t12.5 76t17 96l78 383h363l77 -373q12 -57 19.5 -97t13.5 -77t11.5 -80t13.5 -106q4 49 7 80.5t6 60.5t8 59.5t14 75.5l90 457h432l-318 -1061h-419l-95 424q-10 53 -17 89t-11 68.5 t-7.5 68.5t-7.5 89q-2 -45 -4 -75.5t-5 -58t-9 -58.5t-14 -76l-99 -471h-420z" />
<glyph unicode="x" horiz-adv-x="1236" d="M-8 0l356 557l-315 504h452l131 -318l140 318h454l-321 -502l352 -559h-450l-175 344l-172 -344h-452z" />
<glyph unicode="y" horiz-adv-x="1193" d="M0 1061h440l105 -457q8 -47 14 -78.5t11 -64.5t10.5 -71t13.5 -97q6 61 12 102t11.5 75t11.5 66.5t16 79.5l107 445h438l-387 -1122q-23 -59 -48.5 -121t-76.5 -111q-35 -33 -66.5 -51t-65.5 -26.5t-74 -10.5t-89 -2q-35 0 -62.5 1t-53 2t-51.5 4t-56 7v301 q27 -2 58.5 -4t60.5 -2q43 0 66.5 11.5t23.5 39.5q0 6 -4.5 20.5t-9.5 31t-11 32t-8 25.5z" />
<glyph unicode="z" horiz-adv-x="1110" d="M16 0v233l504 512h-440v316h1003v-242l-493 -502h489v-317h-1063z" />
<glyph unicode="{" horiz-adv-x="724" d="M2 522v154q59 14 92 48t48.5 79t17.5 97t2 106v94q0 74 2 127t11 95t27.5 72.5t47.5 57.5q29 25 62.5 41t87 24.5t131 11.5t194.5 3v-152q-82 -16 -127 -44.5t-66.5 -70.5t-25.5 -98.5t-4 -130.5v-16q0 -94 -4 -164t-25.5 -120t-64.5 -84t-121 -54q45 -14 96 -40t86 -93 q12 -23 19.5 -48.5t10.5 -58t4 -76.5t1 -106v-18q0 -84 6 -140.5t28.5 -96.5t66.5 -64.5t120 -42.5v-152q-164 0 -260 6t-156 35q-57 27 -86.5 71t-43 94t-14.5 102.5t-1 95.5v104q0 74 -3 131t-22 100q-29 66 -69.5 88.5t-67.5 32.5z" />
<glyph unicode="|" horiz-adv-x="468" d="M104 -512v2048h261v-2048h-261z" />
<glyph unicode="}" horiz-adv-x="724" d="M2 -186q82 16 127 44.5t66.5 70.5t25.5 98.5t4 130.5v16q0 94 4 164t25.5 120t64.5 82.5t121 55.5q-45 14 -96 40t-86 93q-25 45 -30 106.5t-5 182.5v18q0 82 -6 139.5t-28.5 97.5t-66.5 64.5t-120 42.5v152q164 0 260 -7t156 -34q57 -27 87 -71t43 -94t14 -102.5 t1 -95.5v-104q0 -74 3 -131t22 -100q29 -66 69.5 -88.5t67.5 -32.5v-154q-59 -14 -92 -48t-48.5 -79t-17.5 -98t-2 -105v-94q0 -74 -2 -127t-11 -95t-27.5 -72.5t-47.5 -57.5q-29 -25 -62.5 -41t-87 -24.5t-131 -11.5t-194.5 -3v152z" />
<glyph unicode="~" horiz-adv-x="1492" d="M211 614q18 25 45 59t64.5 63.5t90 51t119.5 21.5q57 0 106.5 -18.5t104.5 -45.5l74 -32q41 -18 79 -32.5t75 -14.5q41 0 91 24.5t116 102.5l106 -215q-25 -29 -60.5 -60t-76.5 -55.5t-87 -39.5t-95 -15q-59 0 -111.5 20.5t-101.5 42.5l-64 31q-49 23 -82 34t-67 11 q-33 0 -56.5 -7.5t-47 -23.5t-49.5 -44t-60 -69z" />
<glyph unicode="&#xa1;" horiz-adv-x="598" d="M66 0v393l79 525h207l88 -529v-389h-374zM66 1061v385h374v-385h-374z" />
<glyph unicode="&#xa2;" horiz-adv-x="1193" d="M47 508q0 135 46 255t149 208q82 70 158.5 91t123.5 25v238h205v-233q53 -6 127 -27t160 -86q57 -45 84.5 -84t50.5 -74l-320 -180l-21 52.5t-31.5 51t-51.5 39t-78 15.5q-53 0 -88 -23.5t-56.5 -61.5t-30.5 -89.5t-9 -106.5q0 -33 4 -76t21.5 -80.5t52.5 -64.5t96 -27 q45 0 78 18.5t55.5 44t36.5 56.5t25 55l325 -176q-18 -35 -38.5 -69.5t-57.5 -73.5q-43 -45 -87 -73.5t-88 -46t-85 -28t-74 -16.5v-262h-205v262q-129 16 -220 66.5t-148.5 124t-83 166t-25.5 190.5z" />
<glyph unicode="&#xa3;" horiz-adv-x="1492" d="M31 229q0 68 30.5 119t79.5 84t108.5 49.5t117.5 16.5q29 0 56.5 -3t55.5 -8q-8 18 -15 32l-14 27q-7 13 -18.5 28.5t-30.5 37.5h-274v209h145q-12 14 -27.5 36t-28.5 50.5t-22.5 65.5t-9.5 84q0 55 21.5 121.5t83.5 128.5q55 57 124.5 87.5t137 45t124 16.5t87.5 2 q86 0 173 -11t163 -39t135 -78t92 -126q29 -70 34 -137.5t3 -132.5h-365q4 49 -4 91t-32.5 71.5t-67.5 47t-109 17.5q-98 0 -149 -42t-51 -109q0 -55 30.5 -102.5t61.5 -86.5h319v-209h-184q25 -43 40 -86t15 -94q0 -23 -3 -43t-7 -43q37 -25 84 -52.5t84 -27.5 q31 0 46 14.5t23.5 34t9.5 41t1 37.5q0 33 -2 47.5t-6 38.5h352v-133q0 -61 -9 -114.5t-28.5 -98.5t-56.5 -80q-41 -39 -107.5 -62.5t-140.5 -23.5q-63 0 -118.5 15.5t-103.5 37t-87 47t-70 46.5q-18 -16 -48 -41t-74 -47.5t-104.5 -38t-138.5 -15.5q-72 0 -132 17.5 t-105 50.5t-69.5 81t-24.5 109zM283 229q0 -25 18 -43t57 -18q59 0 95 35t55 59q-29 12 -58.5 23.5t-70.5 11.5t-68.5 -16.5t-27.5 -51.5z" />
<glyph unicode="&#xa4;" horiz-adv-x="1366" d="M14 219l166 166q-14 23 -29.5 51.5t-28.5 66.5t-21.5 86t-8.5 113q0 53 7 95.5t18.5 76t27 64.5t33.5 63l-162 166l193 195l164 -164q33 18 64.5 33.5t67.5 28t80 19.5t99 7q57 0 99 -7t78 -18.5t66.5 -27.5t65.5 -35l164 164l197 -195l-166 -163q18 -33 33.5 -65 t27 -66.5t18.5 -77.5t7 -99q0 -59 -7 -102t-18.5 -79t-28 -67.5t-34.5 -64.5l166 -168l-197 -195l-164 168q-66 -35 -133 -60.5t-176 -25.5q-55 0 -98 7.5t-80 19.5t-69 28.5t-62 35.5l-166 -168zM348 692q0 -78 29 -140.5t77 -105.5t108.5 -66.5t121.5 -23.5q72 0 133.5 26 t105.5 72t69.5 107.5t25.5 132.5q0 80 -28.5 142.5t-77 106.5t-109 66.5t-121.5 22.5q-59 0 -118.5 -21.5t-106.5 -64.5t-78 -106.5t-31 -147.5z" />
<glyph unicode="&#xa5;" horiz-adv-x="1622" d="M-6 1427h528l281 -485l280 485h531l-318 -448h156v-250h-332l-90 -129v-14h422v-250h-422v-336h-457v336h-405v250h405v14l-90 129h-315v250h141z" />
<glyph unicode="&#xa6;" horiz-adv-x="468" d="M104 358h261v-716h-261v716zM104 666v716h261v-716h-261z" />
<glyph unicode="&#xa7;" horiz-adv-x="1280" d="M35 602q0 74 20.5 127t51 91t65.5 63.5t64 44.5q-29 37 -49.5 75.5t-20.5 102.5q0 51 22.5 110.5t72.5 109.5t131 84t198 34q53 0 105.5 -7t105.5 -20q57 -14 104 -29.5t87 -34t78 -39t79 -44.5l-191 -215q-33 18 -71.5 38.5t-84.5 38t-99.5 28.5t-114.5 11 q-29 0 -56.5 -8t-27.5 -37q0 -23 23.5 -39t72.5 -38l172 -74q90 -39 174 -80t149.5 -93t105.5 -122t40 -164q0 -70 -21.5 -122t-52 -92t-66.5 -68.5t-65 -49.5q37 -35 53.5 -83t16.5 -101q0 -63 -27.5 -122.5t-82 -104.5t-135.5 -72t-187 -27q-90 0 -167 16.5t-145.5 43 t-130 59.5t-120.5 68l202 217q53 -33 101.5 -59.5t120.5 -49.5q53 -16 91 -22t60 -6q29 0 57.5 10t28.5 39q0 35 -52 64.5t-173 78.5q-123 51 -218.5 97t-161 98.5t-99 118t-33.5 155.5zM354 657q0 -33 18.5 -58.5t50.5 -48t73 -42t86 -39.5q55 -25 89 -40t60.5 -27.5 t52 -24.5t62.5 -31q51 41 62.5 74t11.5 47q0 25 -12.5 45t-30 35.5t-35 26t-29.5 16.5q-29 16 -59.5 29.5t-61.5 29.5q-68 31 -135.5 63.5t-132.5 67.5q-23 -23 -46.5 -54.5t-23.5 -68.5z" />
<glyph unicode="&#xa8;" horiz-adv-x="641" d="M-98 1239v244h340v-244h-340zM403 1239v244h338v-244h-338z" />
<glyph unicode="&#xa9;" horiz-adv-x="1705" d="M125 723q0 156 58.5 289t157.5 231t231.5 153.5t281.5 55.5q162 0 296 -59.5t231.5 -161t149.5 -233.5t52 -279q-2 -156 -60.5 -289t-156.5 -229.5t-230 -151.5t-280 -55q-147 0 -280.5 54t-232.5 150.5t-158.5 230.5t-59.5 294zM190 719q0 -131 50.5 -251t138.5 -210 t210 -144.5t265 -54.5q139 0 268 54.5t224 156.5q49 53 81.5 113.5t53 120t29 115t8.5 100.5q0 135 -49.5 257t-137.5 213t-210 144t-265 53q-137 0 -258 -51t-212 -140t-143.5 -212t-52.5 -264zM358 725q0 104 36 197.5t101.5 163t161 110.5t211.5 41q86 0 149.5 -18.5 t112 -45t83 -57.5t59.5 -55l-178 -172q-16 14 -38 32.5t-48.5 34t-60.5 25.5t-77 10q-123 0 -190.5 -75.5t-67.5 -188.5t65.5 -189.5t199.5 -76.5q45 0 80.5 10t62.5 25.5t45 31t29 25.5l178 -166q-82 -86 -176.5 -129t-223.5 -43q-131 0 -227 43t-159.5 113.5t-95.5 163 t-32 190.5z" />
<glyph unicode="&#xaa;" horiz-adv-x="811" d="M39 969q0 53 23.5 98t64.5 74q20 14 38.5 22t43 15.5t57.5 12.5t80 13q37 4 73 11.5t73 15.5q-4 35 -17.5 54.5t-71.5 19.5q-49 0 -65 -15.5t-23 -46.5l-254 -6q8 41 21.5 78t60.5 76q31 27 68 41t74 21t68.5 9t54.5 2q174 0 257 -53t83 -178v-414q2 -18 6 -27.5 t16 -25.5h-266v53q-37 -33 -88 -51t-125 -18q-123 0 -187.5 62.5t-64.5 156.5zM293 979q0 -29 21.5 -41t41.5 -12q18 0 41 8t45 27q35 29 40 57.5t7 58.5q-6 -2 -25.5 -8t-41 -12t-42 -12.5t-28.5 -8.5q-20 -8 -39.5 -19t-19.5 -38z" />
<glyph unicode="&#xab;" horiz-adv-x="854" d="M66 461v375l321 256v-306l-182 -141l182 -137v-303zM463 461v375l321 256v-306l-184 -141l184 -137v-303z" />
<glyph unicode="&#xac;" horiz-adv-x="1366" d="M0 465v260h1364v-725h-260v465h-1104z" />
<glyph unicode="&#xad;" horiz-adv-x="681" d="M78 473v350h524v-350h-524z" />
<glyph unicode="&#xae;" horiz-adv-x="1705" d="M123 723q0 158 58.5 291t158.5 230t232.5 152.5t279.5 55.5q158 0 292 -58.5t232.5 -158.5t152.5 -232.5t54 -281.5q0 -152 -57.5 -285t-155.5 -231.5t-231 -154.5t-289 -56q-141 0 -273.5 53t-232.5 149.5t-160.5 230.5t-60.5 296zM188 723q0 -139 52.5 -261t142.5 -211 t211 -140.5t258 -51.5q141 0 262 52.5t210 141.5t141.5 210t52.5 258q0 135 -49.5 257t-138.5 212t-211 143t-263 53t-263 -52t-212 -142t-141.5 -211t-51.5 -258zM512 262v938h334q59 0 116.5 -3t104.5 -19q90 -29 128 -97.5t38 -134.5q0 -53 -17.5 -89t-42 -60.5t-53 -40 t-51.5 -25.5q20 -14 36.5 -26.5t29 -31t21.5 -47t18 -71.5q14 -96 29.5 -162.5t49.5 -130.5h-258q-23 43 -32 92t-19 111q-10 66 -17 103.5t-23.5 56t-46.5 23.5t-81 7h-39v-393h-225zM737 834h99q51 0 80.5 3t50.5 15q23 12 32 35.5t9 46.5t-10.5 47.5t-39.5 36.5 q-10 4 -19 6t-25.5 3t-42.5 1h-66h-68v-194z" />
<glyph unicode="&#xaf;" horiz-adv-x="641" d="M-98 1239v191h839v-191h-839z" />
<glyph unicode="&#xb0;" horiz-adv-x="724" d="M10 1176q0 74 28 137t76 111.5t111.5 76t136.5 27.5q74 0 137.5 -27.5t111.5 -76t76 -112t28 -136.5q0 -74 -28 -137.5t-76 -111.5t-111.5 -76t-137.5 -28t-137 28t-111 76t-76 111.5t-28 137.5zM248 1176q0 -47 33.5 -81t80.5 -34t81 33.5t34 81.5q0 47 -33.5 80.5 t-81.5 33.5q-47 0 -80.5 -33.5t-33.5 -80.5z" />
<glyph unicode="&#xb1;" horiz-adv-x="1366" d="M88 0v260h1192v-260h-1192zM88 760v260h467v426h260v-426h465v-260h-465v-428h-260v428h-467z" />
<glyph unicode="&#xb2;" horiz-adv-x="894" d="M41 498v182q37 20 85 47t101.5 60.5t108.5 73.5t104 85q37 33 58.5 59.5t32 47t12.5 36t2 25.5q0 31 -10.5 50.5t-26.5 30.5t-35.5 15t-38.5 4q-47 0 -82 -24.5t-35 -102.5q0 -20 2.5 -37.5t6.5 -37.5l-281 35q2 66 13.5 133t58.5 123q37 43 84 65.5t95 32.5t92 12t73 2 q25 0 59.5 -1t72.5 -9t77 -23.5t73 -44.5q33 -29 51.5 -62.5t26.5 -63t10.5 -53t2.5 -34.5q0 -66 -20.5 -114.5t-49.5 -85.5t-58.5 -61.5t-48.5 -37.5q-39 -29 -79 -53l-82 -49h325v-225h-780z" />
<glyph unicode="&#xb3;" horiz-adv-x="894" d="M18 760l263 49q8 -68 47 -96.5t100 -28.5q51 0 87 23.5t36 76.5q0 31 -17.5 48.5t-39 25.5t-44 9t-30.5 1q-16 0 -29.5 -1t-28.5 -1l-2 191h68q33 0 57.5 8t39 24.5t14.5 49.5q0 45 -32 65.5t-81 20.5q-66 0 -88.5 -29t-32.5 -82l-260 16q2 18 8 44t17.5 54.5t31 58.5 t50.5 54q61 51 143 65.5t145 14.5q53 0 105.5 -6t99.5 -26q55 -23 88 -53.5t49.5 -62.5t21.5 -61.5t5 -50.5q0 -47 -13.5 -78.5t-32 -53t-38.5 -35t-35 -21.5q25 -10 51.5 -25.5t48 -38t35 -56.5t13.5 -79q0 -20 -5.5 -50t-18.5 -62.5t-38.5 -65.5t-68.5 -57 q-59 -37 -129 -47.5t-142 -10.5q-188 0 -287.5 66t-130.5 213z" />
<glyph unicode="&#xb4;" horiz-adv-x="641" d="M25 1202l157 281h434l-329 -281h-262z" />
<glyph unicode="&#xb5;" d="M82 -385v1446h422v-578q0 -25 3 -54.5t17.5 -55t45 -44t87.5 -18.5q55 0 86 19.5t45.5 48.5t17.5 61.5t3 59.5v561h424v-1061h-402v156q-31 -84 -66.5 -126t-105.5 -42t-102.5 27.5t-52.5 56.5v-457h-422z" />
<glyph unicode="&#xb6;" horiz-adv-x="1366" d="M166 1006q0 27 4 64.5t17.5 81.5t38 89t67.5 86q45 43 89 66.5t87 35t83 14.5t79 3h512v-160h-74v-1628h-172v1628h-242v-1628h-172v940q-45 12 -85 27.5t-87 52.5q-82 63 -113.5 154.5t-31.5 173.5z" />
<glyph unicode="&#xb7;" horiz-adv-x="512" d="M70 455v385h372v-385h-372z" />
<glyph unicode="&#xb8;" horiz-adv-x="641" d="M109 -432l6 113q12 -4 20 -6.5t25 -2.5q43 0 65.5 14.5t22.5 30.5q0 4 -6 18.5t-45 14.5q-35 0 -78 -12l6 74l135 198l96 -30l-49 -101q12 2 25.5 3t27.5 1q86 0 129 -46t43 -103q0 -27 -10 -55.5t-37 -55.5q-51 -51 -112.5 -60t-106.5 -9q-53 0 -87.5 4t-69.5 10z" />
<glyph unicode="&#xb9;" horiz-adv-x="894" d="M158 1065v217q47 0 84 3t64.5 15.5t47 37t31.5 65.5h248v-905h-285v583q-20 -6 -36.5 -9t-36 -5t-47.5 -2h-70z" />
<glyph unicode="&#xba;" horiz-adv-x="854" d="M31 1100q0 66 20.5 130t65.5 116.5t116.5 85t174.5 36.5q98 2 173.5 -23.5t128 -73.5t80 -115.5t27.5 -149.5q0 -96 -33.5 -166t-89 -115t-128 -65.5t-152.5 -20.5q-96 0 -168 30t-120 79t-71.5 114.5t-23.5 137.5zM301 1102q0 -29 5 -59.5t18.5 -55t37 -40t62.5 -15.5 q37 0 60.5 16.5t37 41t18.5 56t5 62.5q0 18 -3 48t-15.5 57.5t-38 47t-72.5 15.5q-25 -2 -49.5 -13.5t-42.5 -45.5q-16 -33 -19.5 -69t-3.5 -46z" />
<glyph unicode="&#xbb;" horiz-adv-x="854" d="M66 205v305l184 141l-184 137v304l321 -256v-375zM463 205v305l182 141l-182 137v304l321 -256v-375z" />
<glyph unicode="&#xbc;" horiz-adv-x="2048" d="M158 1065v217q47 0 84 3t64.5 15.5t47 37t31.5 65.5h248v-905h-285v583q-20 -6 -36.5 -9t-36 -5t-47.5 -2h-70zM627 0l616 1446h189l-619 -1446h-186zM1176 182v178l415 547h279v-526h129v-199h-129v-182h-266v182h-428zM1427 381h179l2 123q0 72 6 145 q-23 -35 -44.5 -67.5t-43.5 -67.5q-23 -35 -47.5 -66.5t-51.5 -66.5z" />
<glyph unicode="&#xbd;" horiz-adv-x="2048" d="M158 1065v217q47 0 84 3t64.5 15.5t47 37t31.5 65.5h248v-905h-285v583q-20 -6 -36.5 -9t-36 -5t-47.5 -2h-70zM578 0l618 1446h188l-618 -1446h-188zM1194 0v182q37 20 85 47t101.5 61t108.5 73.5t104 85.5q37 33 58.5 59.5t32 46.5t12.5 35.5t2 25.5q0 31 -10.5 50.5 t-26.5 31t-35.5 15.5t-38.5 4q-47 0 -82 -24.5t-35 -102.5q0 -20 2.5 -37.5t6.5 -38.5l-281 35q2 66 13.5 133.5t58.5 122.5q37 43 84 65.5t95 32.5t92 12.5t73 2.5q25 0 59.5 -1.5t72.5 -9.5t77 -23.5t73 -43.5q33 -29 51.5 -63t26.5 -63.5t10.5 -53t2.5 -33.5 q0 -66 -20.5 -115t-49.5 -86t-58.5 -61.5t-48.5 -36.5q-39 -29 -79 -54l-82 -49h325v-225h-780z" />
<glyph unicode="&#xbe;" horiz-adv-x="2048" d="M18 760l263 49q8 -68 47 -96.5t100 -28.5q51 0 87 23.5t36 76.5q0 31 -17.5 48.5t-39 25.5t-44 9t-30.5 1q-16 0 -29.5 -1t-28.5 -1l-2 191h68q33 0 57.5 8t39 24.5t14.5 49.5q0 45 -32 65.5t-81 20.5q-66 0 -88.5 -29t-32.5 -82l-260 16q2 18 8 44t17.5 54.5t31 58.5 t50.5 54q61 51 143 65.5t145 14.5q53 0 105.5 -6t99.5 -26q55 -23 88 -53.5t49.5 -62.5t21.5 -61.5t5 -50.5q0 -47 -13.5 -78.5t-32 -53t-38.5 -35t-35 -21.5q25 -10 51.5 -25.5t48 -38t35 -56.5t13.5 -79q0 -20 -5.5 -50t-18.5 -62.5t-38.5 -65.5t-68.5 -57 q-59 -37 -129 -47.5t-142 -10.5q-188 0 -287.5 66t-130.5 213zM625 0l616 1446h191l-621 -1446h-186zM1174 182v178l417 547h279v-526h129v-199h-129v-182h-266v182h-430zM1427 381h179l2 123q0 72 6 143q-23 -33 -44.5 -65.5t-43.5 -67.5q-23 -35 -48.5 -66.5t-50.5 -66.5z " />
<glyph unicode="&#xbf;" horiz-adv-x="1236" d="M20 371q0 66 19.5 116t46.5 85.5t54.5 58t43.5 35.5q41 29 85 56.5t85 55.5q37 27 57.5 46.5t31 36t14.5 29.5t8 28h354q-4 -37 -9 -70t-22.5 -69t-51.5 -73.5t-93 -82.5q-20 -16 -39.5 -29.5t-40.5 -30.5q-16 -12 -37.5 -29.5t-41 -41t-34 -50t-14.5 -57.5 q0 -18 7.5 -40.5t24.5 -43t47 -34t73 -13.5q66 0 104.5 25.5t60 61.5t28.5 75t12 65l350 -116q-8 -25 -17.5 -53.5t-25 -58.5t-38 -62.5t-58.5 -65.5q-53 -49 -110.5 -79t-114 -45t-111 -19.5t-103.5 -4.5q-31 0 -84 2.5t-114.5 16.5t-126 44t-117.5 83q-47 47 -75 108.5 t-28 139.5zM459 1061v385h372v-385h-372z" />
<glyph unicode="&#xc0;" horiz-adv-x="1622" d="M-2 0l553 1446h520l541 -1446h-492l-63 201h-504l-64 -201h-491zM424 1790h444l131 -246h-268zM651 524h312l-154 510z" />
<glyph unicode="&#xc1;" horiz-adv-x="1622" d="M-2 0l553 1446h520l541 -1446h-492l-63 201h-504l-64 -201h-491zM625 1544l133 246h444l-307 -246h-270zM651 524h312l-154 510z" />
<glyph unicode="&#xc2;" horiz-adv-x="1622" d="M-2 0l553 1446h520l541 -1446h-492l-63 201h-504l-64 -201h-491zM461 1538l190 252h330l197 -252h-295l-70 107l-63 -107h-289zM651 524h312l-154 510z" />
<glyph unicode="&#xc3;" horiz-adv-x="1622" d="M-2 0l553 1446h520l541 -1446h-492l-63 201h-504l-64 -201h-491zM430 1548q6 35 17.5 79t36 82t66.5 63.5t112 25.5q23 0 41 -1t40.5 -5t54 -11t81.5 -18q16 -4 31.5 -6t31.5 -2q35 0 45 12.5t17 28.5h217q-6 -37 -17.5 -80t-36 -81t-68.5 -62.5t-118 -24.5 q-41 0 -80 6.5t-98 18.5q-66 14 -87.5 18t-29.5 4q-35 0 -41 -17t-8 -30h-207zM651 524h312l-154 510z" />
<glyph unicode="&#xc4;" horiz-adv-x="1622" d="M-2 0l553 1446h520l541 -1446h-492l-63 201h-504l-64 -201h-491zM408 1552v242h340v-242h-340zM651 524h312l-154 510zM877 1552v242h340v-242h-340z" />
<glyph unicode="&#xc5;" horiz-adv-x="1622" d="M-2 0l553 1446h520l541 -1446h-492l-63 201h-504l-64 -201h-491zM569 1702q0 33 13.5 68.5t41 66.5t72.5 50.5t111 19.5q63 0 108.5 -19.5t74 -50.5t41.5 -66.5t13 -68.5q0 -35 -13 -71t-41.5 -66.5t-74 -50t-108.5 -19.5q-47 0 -91 13.5t-79 43.5q-31 29 -49.5 68 t-18.5 82zM651 524h312l-154 510zM733 1702q0 -35 23 -53q18 -23 51 -23q31 0 52.5 21.5t21.5 54.5q0 29 -20.5 51.5t-53.5 22.5q-31 0 -52.5 -22.5t-21.5 -51.5z" />
<glyph unicode="&#xc6;" horiz-adv-x="2260" d="M-35 0l846 1446h1348v-313h-666v-220h614v-315h-614v-281h737v-317h-1179v205h-465l-105 -205h-516zM748 520h305l-4 268q2 41 3 83t3 85q2 53 4 104.5t6 104.5q0 -4 -14.5 -36.5t-32 -71.5t-33.5 -75t-20 -44z" />
<glyph unicode="&#xc7;" horiz-adv-x="1536" d="M55 715q0 145 48.5 286.5t143.5 252t234.5 178t323.5 67.5q160 0 311.5 -56.5t267.5 -176.5q47 -49 73 -89t48 -81l-383 -191q-14 33 -35.5 74t-55.5 78t-85 62.5t-123 25.5q-63 0 -111 -21.5t-83 -56.5q-41 -39 -62.5 -87t-32 -94t-12.5 -85t-2 -60q0 -80 16.5 -155.5 t52.5 -134t93 -93t141 -34.5q80 0 134.5 29.5t88 69.5t50 80t22.5 58l389 -188q-29 -53 -58.5 -102.5t-82.5 -102.5q-74 -72 -151.5 -114t-148.5 -63.5t-129 -27.5t-93 -8l-35 -92q25 6 46.5 10t43.5 4q41 0 73 -14.5t52 -37t30.5 -51t10.5 -59.5q0 -88 -72.5 -145 t-206.5 -57q-39 0 -76.5 4t-74.5 8l-2 121q18 -4 35.5 -6t33.5 -2q4 0 17.5 1t27 5t24.5 15t11 30q0 12 -12 27.5t-47 15.5q-25 0 -47.5 -7.5t-44.5 -17.5v92l102 158q-35 2 -87 10t-113.5 27.5t-128 57.5t-130.5 104q-115 115 -167 259t-52 300z" />
<glyph unicode="&#xc8;" d="M88 0v1446h1145v-318h-686v-215h641v-313h-641v-287h747v-313h-1206zM274 1790h445l131 -246h-268z" />
<glyph unicode="&#xc9;" d="M88 0v1446h1145v-318h-686v-215h641v-313h-641v-287h747v-313h-1206zM475 1544l133 246h445l-308 -246h-270z" />
<glyph unicode="&#xca;" d="M88 0v1446h1145v-318h-686v-215h641v-313h-641v-287h747v-313h-1206zM311 1538l191 252h329l197 -252h-295l-69 107l-64 -107h-289z" />
<glyph unicode="&#xcb;" d="M88 0v1446h1145v-318h-686v-215h641v-313h-641v-287h747v-313h-1206zM262 1552v242h340v-242h-340zM731 1552v242h340v-242h-340z" />
<glyph unicode="&#xcc;" horiz-adv-x="641" d="M-68 1790h445l131 -246h-268zM90 0v1446h459v-1446h-459z" />
<glyph unicode="&#xcd;" horiz-adv-x="641" d="M90 0v1446h459v-1446h-459zM133 1544l133 246h445l-308 -246h-270z" />
<glyph unicode="&#xce;" horiz-adv-x="641" d="M-31 1538l191 252h329l197 -252h-295l-69 107l-64 -107h-289zM90 0v1446h459v-1446h-459z" />
<glyph unicode="&#xcf;" horiz-adv-x="641" d="M-80 1552v242h340v-242h-340zM90 0v1446h459v-1446h-459zM389 1552v242h340v-242h-340z" />
<glyph unicode="&#xd0;" horiz-adv-x="1536" d="M0 614v269h90v563h492q121 -2 222 -5t186 -19.5t158 -49.5t136 -92q113 -104 157 -250.5t44 -300.5q0 -115 -22.5 -223.5t-72 -200.5t-126 -160.5t-185.5 -105.5q-88 -29 -184 -34t-203 -5h-602v614h-90zM549 332h174q49 4 97 12t95 55q51 49 80 134t29 190 q0 53 -8 106.5t-29 106.5q-23 61 -54.5 95t-67.5 50.5t-73.5 20.5t-70.5 6h-172v-225h297v-269h-297v-282z" />
<glyph unicode="&#xd1;" horiz-adv-x="1579" d="M90 0v1446h485l326 -547q31 -55 51.5 -95t39 -77t38 -79t47.5 -103q-4 53 -7 89t-5 69.5t-3 73.5t-3 102v567h428v-1446h-492l-293 500q-31 53 -53 92t-43.5 79t-45 89t-58.5 121q4 -49 6 -83t4 -65t3 -64.5t1 -82.5v-586h-426zM408 1548q6 35 17 79t35.5 82t66.5 63.5 t112 25.5q23 0 41 -1t40.5 -5t54.5 -11t81 -18q16 -4 31.5 -6t32.5 -2q35 0 45 12.5t16 28.5h217q-6 -37 -17.5 -80t-36 -81t-68.5 -62.5t-118 -24.5q-41 0 -79.5 6.5t-98.5 18.5q-66 14 -87 18t-29 4q-35 0 -41.5 -17t-8.5 -30h-206z" />
<glyph unicode="&#xd2;" horiz-adv-x="1662" d="M53 721q0 156 48.5 296t145.5 247.5t242.5 171t341.5 63.5q215 0 362.5 -70.5t239 -181t132.5 -246t41 -264.5q0 -137 -42 -277.5t-136.5 -253t-243 -183t-361.5 -70.5q-221 0 -369.5 73.5t-237.5 186.5t-126 249t-37 259zM444 1790h445l131 -246h-268zM512 723 q0 -190 78 -297t241 -107q139 0 226.5 106.5t87.5 311.5q0 53 -5 100.5t-22 90.5q-27 76 -68.5 116.5t-84.5 61t-81 25t-53 4.5q-61 0 -118.5 -22.5t-102.5 -72t-71.5 -127t-26.5 -190.5z" />
<glyph unicode="&#xd3;" horiz-adv-x="1662" d="M53 721q0 156 48.5 296t145.5 247.5t242.5 171t341.5 63.5q215 0 362.5 -70.5t239 -181t132.5 -246t41 -264.5q0 -137 -42 -277.5t-136.5 -253t-243 -183t-361.5 -70.5q-221 0 -369.5 73.5t-237.5 186.5t-126 249t-37 259zM512 723q0 -190 78 -297t241 -107 q139 0 226.5 106.5t87.5 311.5q0 53 -5 100.5t-22 90.5q-27 76 -68.5 116.5t-84.5 61t-81 25t-53 4.5q-61 0 -118.5 -22.5t-102.5 -72t-71.5 -127t-26.5 -190.5zM645 1544l133 246h445l-308 -246h-270z" />
<glyph unicode="&#xd4;" horiz-adv-x="1662" d="M53 721q0 156 48.5 296t145.5 247.5t242.5 171t341.5 63.5q215 0 362.5 -70.5t239 -181t132.5 -246t41 -264.5q0 -137 -42 -277.5t-136.5 -253t-243 -183t-361.5 -70.5q-221 0 -369.5 73.5t-237.5 186.5t-126 249t-37 259zM481 1538l191 252h329l197 -252h-295l-69 107 l-64 -107h-289zM512 723q0 -190 78 -297t241 -107q139 0 226.5 106.5t87.5 311.5q0 53 -5 100.5t-22 90.5q-27 76 -68.5 116.5t-84.5 61t-81 25t-53 4.5q-61 0 -118.5 -22.5t-102.5 -72t-71.5 -127t-26.5 -190.5z" />
<glyph unicode="&#xd5;" horiz-adv-x="1662" d="M53 721q0 156 48.5 296t145.5 247.5t242.5 171t341.5 63.5q215 0 362.5 -70.5t239 -181t132.5 -246t41 -264.5q0 -137 -42 -277.5t-136.5 -253t-243 -183t-361.5 -70.5q-221 0 -369.5 73.5t-237.5 186.5t-126 249t-37 259zM451 1548q6 35 17 79t35.5 82t66.5 63.5 t112 25.5q23 0 41 -1t40.5 -5t54.5 -11t81 -18q16 -4 31.5 -6t32.5 -2q35 0 45 12.5t16 28.5h217q-6 -37 -17.5 -80t-36 -81t-68.5 -62.5t-118 -24.5q-41 0 -79.5 6.5t-98.5 18.5q-66 14 -87 18t-29 4q-35 0 -41.5 -17t-8.5 -30h-206zM512 723q0 -190 78 -297t241 -107 q139 0 226.5 106.5t87.5 311.5q0 53 -5 100.5t-22 90.5q-27 76 -68.5 116.5t-84.5 61t-81 25t-53 4.5q-61 0 -118.5 -22.5t-102.5 -72t-71.5 -127t-26.5 -190.5z" />
<glyph unicode="&#xd6;" horiz-adv-x="1662" d="M53 721q0 156 48.5 296t145.5 247.5t242.5 171t341.5 63.5q215 0 362.5 -70.5t239 -181t132.5 -246t41 -264.5q0 -137 -42 -277.5t-136.5 -253t-243 -183t-361.5 -70.5q-221 0 -369.5 73.5t-237.5 186.5t-126 249t-37 259zM428 1552v242h340v-242h-340zM512 723 q0 -190 78 -297t241 -107q139 0 226.5 106.5t87.5 311.5q0 53 -5 100.5t-22 90.5q-27 76 -68.5 116.5t-84.5 61t-81 25t-53 4.5q-61 0 -118.5 -22.5t-102.5 -72t-71.5 -127t-26.5 -190.5zM897 1552v242h340v-242h-340z" />
<glyph unicode="&#xd7;" horiz-adv-x="1366" d="M125 225l373 371l-373 375l184 180l373 -371l375 371l182 -180l-371 -375l371 -371l-182 -186l-375 373l-373 -373z" />
<glyph unicode="&#xd8;" horiz-adv-x="1662" d="M29 104l159 150q-18 29 -40.5 70t-42 98t-34 131t-14.5 168q0 70 10.5 146.5t37 153.5t71.5 152.5t117 141.5q66 59 134.5 96t136 56.5t133 26.5t124.5 7q74 0 132.5 -7t105.5 -17q51 -10 89 -23.5t69.5 -31t61.5 -38t64 -45.5l162 154l135 -145l-170 -160q18 -29 41 -68 t44.5 -93t36 -125t14.5 -161q0 -127 -41 -266t-133.5 -255t-240 -191.5t-360.5 -75.5q-57 0 -126.5 7t-147.5 30q-96 27 -146.5 56.5t-91.5 62.5l-155 -148zM510 729q0 -41 4 -81t8 -81l522 490q-43 51 -99 67.5t-107 16.5q-150 0 -239 -103.5t-89 -308.5zM616 387 q35 -27 79 -51.5t124 -24.5q92 0 146.5 32t76.5 56q66 66 86.5 154t20.5 180q0 47 -3 78t-7 68z" />
<glyph unicode="&#xd9;" horiz-adv-x="1492" d="M86 586v860h459v-903q0 -47 7 -92t46 -82q29 -29 66.5 -41.5t78.5 -12.5q53 0 89 16.5t57 35.5q41 39 48 84t7 92v903h461v-770q0 -61 -3 -132t-18.5 -141.5t-50.5 -139t-98 -130.5q-78 -74 -203 -123t-293 -49q-160 0 -292 47t-211 125q-53 51 -83 107.5t-44.5 114 t-17.5 116t-5 115.5zM360 1790h445l131 -246h-268z" />
<glyph unicode="&#xda;" horiz-adv-x="1492" d="M86 586v860h459v-903q0 -47 7 -92t46 -82q29 -29 66.5 -41.5t78.5 -12.5q53 0 89 16.5t57 35.5q41 39 48 84t7 92v903h461v-770q0 -61 -3 -132t-18.5 -141.5t-50.5 -139t-98 -130.5q-78 -74 -203 -123t-293 -49q-160 0 -292 47t-211 125q-53 51 -83 107.5t-44.5 114 t-17.5 116t-5 115.5zM561 1544l133 246h445l-308 -246h-270z" />
<glyph unicode="&#xdb;" horiz-adv-x="1492" d="M86 586v860h459v-903q0 -47 7 -92t46 -82q29 -29 66.5 -41.5t78.5 -12.5q53 0 89 16.5t57 35.5q41 39 48 84t7 92v903h461v-770q0 -61 -3 -132t-18.5 -141.5t-50.5 -139t-98 -130.5q-78 -74 -203 -123t-293 -49q-160 0 -292 47t-211 125q-53 51 -83 107.5t-44.5 114 t-17.5 116t-5 115.5zM397 1538l191 252h330l196 -252h-295l-69 107l-64 -107h-289z" />
<glyph unicode="&#xdc;" horiz-adv-x="1492" d="M86 586v860h459v-903q0 -47 7 -92t46 -82q29 -29 66.5 -41.5t78.5 -12.5q53 0 89 16.5t57 35.5q41 39 48 84t7 92v903h461v-770q0 -61 -3 -132t-18.5 -141.5t-50.5 -139t-98 -130.5q-78 -74 -203 -123t-293 -49q-160 0 -292 47t-211 125q-53 51 -83 107.5t-44.5 114 t-17.5 116t-5 115.5zM340 1550v242h340v-242h-340zM809 1550v242h340v-242h-340z" />
<glyph unicode="&#xdd;" horiz-adv-x="1622" d="M-6 1446h528l283 -481l278 481h531l-584 -838v-608h-457v608zM625 1544l133 246h444l-307 -246h-270z" />
<glyph unicode="&#xde;" horiz-adv-x="1449" d="M90 0v1448h459v-205h366q59 -2 115.5 -6t108 -17.5t99.5 -40t91 -71.5q39 -43 63.5 -88t37 -89t16.5 -86t4 -75q0 -94 -26.5 -188.5t-110.5 -180.5q-45 -47 -93.5 -73.5t-99.5 -40t-105 -16.5t-114 -5h-352v-266h-459zM549 569h262q18 2 37.5 3t38.5 8q53 16 81.5 63 t28.5 113q0 63 -21.5 99t-52 54.5t-63.5 22.5t-53 6h-258v-369z" />
<glyph unicode="&#xdf;" horiz-adv-x="1280" d="M84 0v930q0 51 3 103t15.5 102.5t38 97.5t70.5 90q53 49 117.5 76.5t127 41t116 15.5t83.5 2q31 0 78 -2t101.5 -13t109.5 -36t103 -68q43 -41 72.5 -102t29.5 -154q0 -63 -13.5 -106t-34 -70.5t-44 -44t-41.5 -26.5q31 -8 67.5 -23.5t69.5 -53.5t55.5 -107.5 t22.5 -186.5q0 -106 -27.5 -206.5t-101.5 -174.5q-39 -39 -84 -60.5t-89 -32.5t-84 -14.5t-67 -3.5q-76 0 -116.5 12.5t-77.5 28.5v267q23 -14 47 -26.5t59 -12.5q76 0 107.5 61.5t31.5 177.5q0 80 -14 124t-40.5 66.5t-65.5 29t-86 6.5v225q20 -4 32 -4q55 0 82 39t27 96 q0 66 -31 103.5t-96 37.5q-49 0 -75.5 -18.5t-39 -46t-14.5 -58t-2 -57.5v-1024h-422z" />
<glyph unicode="&#xe0;" horiz-adv-x="1236" d="M39 317q0 47 16.5 108.5t73.5 119.5q37 37 77 59.5t88 37.5t105.5 23.5t126.5 18.5q43 6 75 11t57.5 10.5t47 11.5t46.5 12q0 27 -6.5 49.5t-21.5 37.5t-43 24.5t-73 9.5q-72 0 -99.5 -21.5t-37.5 -76.5l-395 -11q6 33 15 71t28.5 75t54.5 71.5t92 65.5q90 47 193.5 59.5 t187.5 12.5q125 0 212 -19.5t142.5 -52.5t86 -74t45 -84t16.5 -85t2 -72v-578q0 -27 1 -44t5 -31.5t11.5 -27t19.5 -28.5h-416v82q-20 -14 -49 -32.5t-71 -35t-99 -28t-131 -11.5q-100 0 -172 28t-119 76t-69.5 109t-22.5 129zM430 330q0 -23 22.5 -52.5t82.5 -29.5 q23 0 50 7t55 22.5t51.5 38t37.5 53.5q16 35 18.5 65.5t2.5 59.5l-62 -21q-31 -10 -63 -20l-54 -13q-27 -6 -55 -16q-31 -12 -48 -26.5t-25.5 -28t-10.5 -24.5t-2 -15zM273 1483h436l155 -281h-260z" />
<glyph unicode="&#xe1;" horiz-adv-x="1236" d="M39 317q0 47 16.5 108.5t73.5 119.5q37 37 77 59.5t88 37.5t105.5 23.5t126.5 18.5q43 6 75 11t57.5 10.5t47 11.5t46.5 12q0 27 -6.5 49.5t-21.5 37.5t-43 24.5t-73 9.5q-72 0 -99.5 -21.5t-37.5 -76.5l-395 -11q6 33 15 71t28.5 75t54.5 71.5t92 65.5q90 47 193.5 59.5 t187.5 12.5q125 0 212 -19.5t142.5 -52.5t86 -74t45 -84t16.5 -85t2 -72v-578q0 -27 1 -44t5 -31.5t11.5 -27t19.5 -28.5h-416v82q-20 -14 -49 -32.5t-71 -35t-99 -28t-131 -11.5q-100 0 -172 28t-119 76t-69.5 109t-22.5 129zM430 330q0 -23 22.5 -52.5t82.5 -29.5 q23 0 50 7t55 22.5t51.5 38t37.5 53.5q16 35 18.5 65.5t2.5 59.5l-62 -21q-31 -10 -63 -20l-54 -13q-27 -6 -55 -16q-31 -12 -48 -26.5t-25.5 -28t-10.5 -24.5t-2 -15zM474 1202l157 281h434l-329 -281h-262z" />
<glyph unicode="&#xe2;" horiz-adv-x="1236" d="M39 317q0 47 16.5 108.5t73.5 119.5q37 37 77 59.5t88 37.5t105.5 23.5t126.5 18.5q43 6 75 11t57.5 10.5t47 11.5t46.5 12q0 27 -6.5 49.5t-21.5 37.5t-43 24.5t-73 9.5q-72 0 -99.5 -21.5t-37.5 -76.5l-395 -11q6 33 15 71t28.5 75t54.5 71.5t92 65.5q90 47 193.5 59.5 t187.5 12.5q125 0 212 -19.5t142.5 -52.5t86 -74t45 -84t16.5 -85t2 -72v-578q0 -27 1 -44t5 -31.5t11.5 -27t19.5 -28.5h-416v82q-20 -14 -49 -32.5t-71 -35t-99 -28t-131 -11.5q-100 0 -172 28t-119 76t-69.5 109t-22.5 129zM430 330q0 -23 22.5 -52.5t82.5 -29.5 q23 0 50 7t55 22.5t51.5 38t37.5 53.5q16 35 18.5 65.5t2.5 59.5l-62 -21q-31 -10 -63 -20l-54 -13q-27 -6 -55 -16q-31 -12 -48 -26.5t-25.5 -28t-10.5 -24.5t-2 -15zM250 1200l217 283h319l213 -283h-293l-84 135l-81 -135h-291z" />
<glyph unicode="&#xe3;" horiz-adv-x="1236" d="M39 317q0 47 16.5 108.5t73.5 119.5q37 37 77 59.5t88 37.5t105.5 23.5t126.5 18.5q43 6 75 11t57.5 10.5t47 11.5t46.5 12q0 27 -6.5 49.5t-21.5 37.5t-43 24.5t-73 9.5q-72 0 -99.5 -21.5t-37.5 -76.5l-395 -11q6 33 15 71t28.5 75t54.5 71.5t92 65.5q90 47 193.5 59.5 t187.5 12.5q125 0 212 -19.5t142.5 -52.5t86 -74t45 -84t16.5 -85t2 -72v-578q0 -27 1 -44t5 -31.5t11.5 -27t19.5 -28.5h-416v82q-20 -14 -49 -32.5t-71 -35t-99 -28t-131 -11.5q-100 0 -172 28t-119 76t-69.5 109t-22.5 129zM430 330q0 -23 22.5 -52.5t82.5 -29.5 q23 0 50 7t55 22.5t51.5 38t37.5 53.5q16 35 18.5 65.5t2.5 59.5l-62 -21q-31 -10 -63 -20l-54 -13q-27 -6 -55 -16q-31 -12 -48 -26.5t-25.5 -28t-10.5 -24.5t-2 -15zM234 1204q6 43 14 92.5t29.5 92.5t59.5 71.5t101 28.5q31 0 78 -8t117 -29q70 -18 89.5 -23.5t29.5 -5.5 q23 0 35 7.5t17 17.5t6 19.5t1 13.5h184q-6 -47 -15 -97.5t-29.5 -91.5t-57.5 -68.5t-98 -27.5q-37 0 -80 8t-96 23q-47 12 -73 18t-40 9t-22.5 4.5t-18.5 1.5q-35 0 -42 -19.5t-7 -36.5h-182z" />
<glyph unicode="&#xe4;" horiz-adv-x="1236" d="M39 317q0 47 16.5 108.5t73.5 119.5q37 37 77 59.5t88 37.5t105.5 23.5t126.5 18.5q43 6 75 11t57.5 10.5t47 11.5t46.5 12q0 27 -6.5 49.5t-21.5 37.5t-43 24.5t-73 9.5q-72 0 -99.5 -21.5t-37.5 -76.5l-395 -11q6 33 15 71t28.5 75t54.5 71.5t92 65.5q90 47 193.5 59.5 t187.5 12.5q125 0 212 -19.5t142.5 -52.5t86 -74t45 -84t16.5 -85t2 -72v-578q0 -27 1 -44t5 -31.5t11.5 -27t19.5 -28.5h-416v82q-20 -14 -49 -32.5t-71 -35t-99 -28t-131 -11.5q-100 0 -172 28t-119 76t-69.5 109t-22.5 129zM430 330q0 -23 22.5 -52.5t82.5 -29.5 q23 0 50 7t55 22.5t51.5 38t37.5 53.5q16 35 18.5 65.5t2.5 59.5l-62 -21q-31 -10 -63 -20l-54 -13q-27 -6 -55 -16q-31 -12 -48 -26.5t-25.5 -28t-10.5 -24.5t-2 -15zM236 1239v244h340v-244h-340zM737 1239v244h338v-244h-338z" />
<glyph unicode="&#xe5;" horiz-adv-x="1236" d="M39 317q0 47 16.5 108.5t73.5 119.5q37 37 77 59.5t88 37.5t105.5 23.5t126.5 18.5q43 6 75 11t57.5 10.5t47 11.5t46.5 12q0 27 -6.5 49.5t-21.5 37.5t-43 24.5t-73 9.5q-72 0 -99.5 -21.5t-37.5 -76.5l-395 -11q6 33 15 71t28.5 75t54.5 71.5t92 65.5q90 47 193.5 59.5 t187.5 12.5q125 0 212 -19.5t142.5 -52.5t86 -74t45 -84t16.5 -85t2 -72v-578q0 -27 1 -44t5 -31.5t11.5 -27t19.5 -28.5h-416v82q-20 -14 -49 -32.5t-71 -35t-99 -28t-131 -11.5q-100 0 -172 28t-119 76t-69.5 109t-22.5 129zM430 330q0 -23 22.5 -52.5t82.5 -29.5 q23 0 50 7t55 22.5t51.5 38t37.5 53.5q16 35 18.5 65.5t2.5 59.5l-62 -21q-31 -10 -63 -20l-54 -13q-27 -6 -55 -16q-31 -12 -48 -26.5t-25.5 -28t-10.5 -24.5t-2 -15zM430 1415q0 47 18.5 88t49 72t71.5 49t88 18t88.5 -18t72 -49t49 -72t18.5 -88t-18.5 -88t-49 -71.5 t-71.5 -49t-89 -18.5q-47 0 -88 18.5t-71.5 49t-49 71.5t-18.5 88zM584 1415q0 -31 21.5 -52.5t51.5 -21.5q31 0 52.5 21.5t21.5 52.5t-21.5 52.5t-52.5 21.5t-52 -21.5t-21 -52.5z" />
<glyph unicode="&#xe6;" horiz-adv-x="1921" d="M35 307q0 43 11 87t34.5 85t60.5 76t90 57q45 20 113 32.5t193 29.5q53 8 113.5 18t101.5 21q0 23 -2 47t-15.5 44.5t-42 34t-78.5 13.5q-43 0 -69.5 -8t-42 -23.5t-22.5 -35t-9 -44.5l-397 -6q2 23 6 47.5t14 52t27.5 57.5t46.5 60q55 59 163.5 104.5t276.5 45.5 q51 0 111.5 -5t132.5 -22q59 -14 88 -28.5t59 -32.5q25 14 55.5 30.5t68.5 29.5t87.5 21.5t112.5 8.5q100 0 204.5 -33t196.5 -123q61 -59 94 -123.5t48.5 -128t17.5 -125t2 -114.5h-737q0 -23 1 -41.5t5 -36.5q16 -70 67.5 -97.5t104.5 -27.5q49 0 83 16.5t57.5 39t37 47 t21.5 40.5l344 -145q-23 -31 -41.5 -58.5t-52.5 -60.5q-78 -76 -187.5 -126t-269.5 -50q-82 0 -144.5 13.5t-109.5 33t-81 41t-58 39.5q-33 -18 -77 -39.5t-101.5 -41t-127 -33t-153.5 -13.5q-59 0 -104.5 7t-81.5 18q-90 29 -139.5 76.5t-73 97t-28.5 91.5t-5 60zM426 328 q0 -10 4 -25.5t16.5 -29t33 -22.5t52.5 -9q47 0 90.5 20.5t69.5 46.5q43 41 54.5 84t17.5 90q-25 -8 -43.5 -13t-37.5 -10t-48 -12.5t-74 -17.5q-53 -12 -94 -32.5t-41 -69.5zM1155 676h301q0 12 -1 24.5t-3 24.5q-14 63 -58 83.5t-83 20.5q-49 0 -79 -18t-46.5 -44 t-22.5 -51.5t-8 -39.5z" />
<glyph unicode="&#xe7;" horiz-adv-x="1150" d="M37 537q0 129 42 233t109 176q55 57 120 90t125.5 48.5t111.5 19.5t82 4q29 0 78 -3t109 -19.5t125 -49t124 -94.5q31 -31 48 -55.5t36 -55.5l-322 -182q-23 74 -63.5 118t-114.5 44q-49 0 -85 -22.5t-59.5 -61.5t-35.5 -91t-12 -112q0 -25 4 -65.5t21.5 -80.5t53 -68.5 t101.5 -28.5q49 0 83 20.5t55.5 49t33.5 58t18 50.5l322 -176q-14 -31 -44 -80t-83 -99.5t-137 -90.5t-209 -52l-41 -82q12 2 25.5 3t27.5 1q86 0 129 -46t43 -103q0 -27 -10 -55.5t-37 -55.5t-55.5 -41t-58 -20t-56.5 -7t-49 -1q-53 0 -88 4t-70 10l6 113q12 -4 20.5 -6.5 t24.5 -2.5q47 0 67.5 14.5t20.5 30.5q0 4 -6 18.5t-45 14.5q-35 0 -78 -12l7 74l100 147q-137 10 -234.5 62.5t-160 132t-91 179.5t-28.5 204z" />
<glyph unicode="&#xe8;" horiz-adv-x="1236" d="M35 535q0 129 43 234t119.5 180t184 115t236.5 40q98 0 213 -32t213 -126q57 -57 90 -118.5t48.5 -124t18.5 -125t5 -123.5h-741q2 -35 9 -75t42 -75q8 -8 38 -28.5t89 -20.5q72 0 116 36t77 101l348 -145q-94 -143 -232.5 -217t-330.5 -74q-147 0 -257 49t-184 129 t-109.5 184.5t-35.5 215.5zM469 678h307q-2 12 -2 24.5t-4 24.5q-14 57 -56 83t-85 26q-47 0 -77 -18.5t-47.5 -43t-24.5 -51.5t-11 -45zM240 1483h436l155 -281h-260z" />
<glyph unicode="&#xe9;" horiz-adv-x="1236" d="M35 535q0 129 43 234t119.5 180t184 115t236.5 40q98 0 213 -32t213 -126q57 -57 90 -118.5t48.5 -124t18.5 -125t5 -123.5h-741q2 -35 9 -75t42 -75q8 -8 38 -28.5t89 -20.5q72 0 116 36t77 101l348 -145q-94 -143 -232.5 -217t-330.5 -74q-147 0 -257 49t-184 129 t-109.5 184.5t-35.5 215.5zM469 678h307q-2 12 -2 24.5t-4 24.5q-14 57 -56 83t-85 26q-47 0 -77 -18.5t-47.5 -43t-24.5 -51.5t-11 -45zM420 1202l157 281h434l-329 -281h-262z" />
<glyph unicode="&#xea;" horiz-adv-x="1236" d="M35 535q0 129 43 234t119.5 180t184 115t236.5 40q98 0 213 -32t213 -126q57 -57 90 -118.5t48.5 -124t18.5 -125t5 -123.5h-741q2 -35 9 -75t42 -75q8 -8 38 -28.5t89 -20.5q72 0 116 36t77 101l348 -145q-94 -143 -232.5 -217t-330.5 -74q-147 0 -257 49t-184 129 t-109.5 184.5t-35.5 215.5zM469 678h307q-2 12 -2 24.5t-4 24.5q-14 57 -56 83t-85 26q-47 0 -77 -18.5t-47.5 -43t-24.5 -51.5t-11 -45zM250 1200l217 283h319l213 -283h-293l-84 135l-81 -135h-291z" />
<glyph unicode="&#xeb;" horiz-adv-x="1236" d="M35 535q0 129 43 234t119.5 180t184 115t236.5 40q98 0 213 -32t213 -126q57 -57 90 -118.5t48.5 -124t18.5 -125t5 -123.5h-741q2 -35 9 -75t42 -75q8 -8 38 -28.5t89 -20.5q72 0 116 36t77 101l348 -145q-94 -143 -232.5 -217t-330.5 -74q-147 0 -257 49t-184 129 t-109.5 184.5t-35.5 215.5zM469 678h307q-2 12 -2 24.5t-4 24.5q-14 57 -56 83t-85 26q-47 0 -77 -18.5t-47.5 -43t-24.5 -51.5t-11 -45zM201 1239v244h340v-244h-340zM702 1239v244h338v-244h-338z" />
<glyph unicode="&#xec;" horiz-adv-x="598" d="M86 0v1061h422v-1061h-422zM-79 1483h436l155 -281h-260z" />
<glyph unicode="&#xed;" horiz-adv-x="598" d="M86 0v1061h422v-1061h-422zM99 1202l157 281h434l-329 -281h-262z" />
<glyph unicode="&#xee;" horiz-adv-x="598" d="M86 0v1061h422v-1061h-422zM-69 1200l217 283h319l213 -283h-293l-84 135l-81 -135h-291z" />
<glyph unicode="&#xef;" horiz-adv-x="598" d="M86 0v1061h422v-1061h-422zM-118 1239v244h340v-244h-340zM383 1239v244h338v-244h-338z" />
<glyph unicode="&#xf0;" d="M41 522q0 143 50 253t130 183.5t179.5 111.5t195.5 38q63 0 111.5 -15.5t83 -38t57 -46t37.5 -39.5q-23 47 -54.5 109.5t-93.5 148.5l-346 -78l-29 111l289 67q-16 18 -26.5 30.5t-18.5 22t-15 17.5t-20 20l293 66l78 -88l186 41l37 -113l-141 -31q25 -33 68 -96 t85 -152.5t72.5 -201t30.5 -242.5q0 -168 -52 -289t-141.5 -199.5t-206 -115.5t-245.5 -37q-145 0 -256 44t-186.5 121t-113.5 179t-38 219zM461 535q0 -39 6 -87.5t27.5 -91.5t59.5 -72.5t103 -29.5q55 0 92 21.5t59.5 60.5t33 90t10.5 113q0 25 -4 69.5t-22.5 89.5 t-58.5 79t-112 32q-59 -2 -97 -28.5t-59.5 -66.5t-29.5 -87t-8 -92z" />
<glyph unicode="&#xf1;" d="M84 0v1061h399v-141q12 18 36 46.5t64 55.5t100 46t148 19q63 0 110.5 -11t82.5 -26.5t58.5 -32t35.5 -28.5q37 -37 58.5 -80t33 -86t13.5 -83t2 -70v-670h-422v580q0 20 -2 47.5t-16.5 52.5t-43 42t-82.5 17q-55 0 -86.5 -19.5t-46 -46t-17.5 -57t-3 -51.5v-565h-422z M277 1204q6 43 14 92.5t29.5 92.5t59.5 71.5t101 28.5q31 0 78 -8t117 -29q70 -18 89.5 -23.5t29.5 -5.5q23 0 35 7.5t17 17.5t6 19.5t1 13.5h184q-6 -47 -15 -97.5t-29.5 -91.5t-57.5 -68.5t-98 -27.5q-37 0 -80 8t-96 23q-47 12 -73 18t-40 9t-22.5 4.5t-18.5 1.5 q-35 0 -42 -19.5t-7 -36.5h-182z" />
<glyph unicode="&#xf2;" d="M41 522q0 131 43 238.5t124 184.5t196.5 119t263.5 42q162 -2 272.5 -48t171.5 -106q76 -72 121 -184.5t45 -239.5q0 -125 -42 -229t-124 -180t-199.5 -118t-267.5 -42q-160 0 -274.5 48t-188 127t-107.5 180.5t-34 207.5zM461 535q0 -39 6 -87.5t27.5 -91.5t59.5 -72.5 t103 -29.5q55 0 92 21.5t61 60.5t33 91t9 112q0 25 -4 70.5t-22.5 90.5t-58.5 78q-38 31 -103 31h-9q-59 -2 -97 -28.5t-59.5 -66.5t-29.5 -87t-8 -92zM283 1483h436l155 -281h-260z" />
<glyph unicode="&#xf3;" d="M41 522q0 131 43 238.5t124 184.5t196.5 119t263.5 42q162 -2 272.5 -48t171.5 -106q76 -72 121 -184.5t45 -239.5q0 -125 -42 -229t-124 -180t-199.5 -118t-267.5 -42q-160 0 -274.5 48t-188 127t-107.5 180.5t-34 207.5zM461 535q0 -39 6 -87.5t27.5 -91.5t59.5 -72.5 t103 -29.5q55 0 92 21.5t61 60.5t33 91t9 112q0 25 -4 70.5t-22.5 90.5t-58.5 78q-38 31 -103 31h-9q-59 -2 -97 -28.5t-59.5 -66.5t-29.5 -87t-8 -92zM463 1202l157 281h434l-329 -281h-262z" />
<glyph unicode="&#xf4;" d="M41 522q0 131 43 238.5t124 184.5t196.5 119t263.5 42q162 -2 272.5 -48t171.5 -106q76 -72 121 -184.5t45 -239.5q0 -125 -42 -229t-124 -180t-199.5 -118t-267.5 -42q-160 0 -274.5 48t-188 127t-107.5 180.5t-34 207.5zM461 535q0 -39 6 -87.5t27.5 -91.5t59.5 -72.5 t103 -29.5q55 0 92 21.5t61 60.5t33 91t9 112q0 25 -4 70.5t-22.5 90.5t-58.5 78q-38 31 -103 31h-9q-59 -2 -97 -28.5t-59.5 -66.5t-29.5 -87t-8 -92zM293 1200l217 283h319l213 -283h-293l-84 135l-81 -135h-291z" />
<glyph unicode="&#xf5;" d="M41 522q0 131 43 238.5t124 184.5t196.5 119t263.5 42q162 -2 272.5 -48t171.5 -106q76 -72 121 -184.5t45 -239.5q0 -125 -42 -229t-124 -180t-199.5 -118t-267.5 -42q-160 0 -274.5 48t-188 127t-107.5 180.5t-34 207.5zM461 535q0 -39 6 -87.5t27.5 -91.5t59.5 -72.5 t103 -29.5q55 0 92 21.5t61 60.5t33 91t9 112q0 25 -4 70.5t-22.5 90.5t-58.5 78q-38 31 -103 31h-9q-59 -2 -97 -28.5t-59.5 -66.5t-29.5 -87t-8 -92zM277 1204q6 43 14 92.5t29.5 92.5t59.5 71.5t101 28.5q31 0 78 -8t117 -29q70 -18 89.5 -23.5t29.5 -5.5q23 0 35 7.5 t17 17.5t6 19.5t1 13.5h184q-6 -47 -15 -97.5t-29.5 -91.5t-57.5 -68.5t-98 -27.5q-37 0 -80 8t-96 23q-47 12 -73 18t-40 9t-22.5 4.5t-18.5 1.5q-35 0 -42 -19.5t-7 -36.5h-182z" />
<glyph unicode="&#xf6;" d="M41 522q0 131 43 238.5t124 184.5t196.5 119t263.5 42q162 -2 272.5 -48t171.5 -106q76 -72 121 -184.5t45 -239.5q0 -125 -42 -229t-124 -180t-199.5 -118t-267.5 -42q-160 0 -274.5 48t-188 127t-107.5 180.5t-34 207.5zM461 535q0 -39 6 -87.5t27.5 -91.5t59.5 -72.5 t103 -29.5q55 0 92 21.5t61 60.5t33 91t9 112q0 25 -4 70.5t-22.5 90.5t-58.5 78q-38 31 -103 31h-9q-59 -2 -97 -28.5t-59.5 -66.5t-29.5 -87t-8 -92zM240 1239v244h340v-244h-340zM741 1239v244h338v-244h-338z" />
<glyph unicode="&#xf7;" horiz-adv-x="1366" d="M0 465v260h1366v-260h-1366zM518 227q0 68 48 116t116 48t116 -48t48 -116t-48 -116t-116 -48t-116 48t-48 116zM518 963q0 68 48 115.5t116 47.5t116 -48t48 -115q0 -68 -48 -116t-116 -48t-116 48t-48 116z" />
<glyph unicode="&#xf8;" d="M8 80l123 106q-37 66 -65.5 137.5t-28.5 192.5q0 137 43 249t124 189.5t195.5 119.5t255.5 42q158 0 297 -51q43 -16 67.5 -30.5t53.5 -37.5l115 99l90 -107l-109 -94q14 -23 34 -54.5t37 -76.5t29.5 -104.5t12.5 -133.5q0 -121 -41 -226t-121 -184t-200.5 -124 t-280.5 -45q-86 0 -150.5 12t-111.5 31.5t-84 44t-68 47.5l-127 -111zM455 551q0 -23 1 -42.5t1 -41.5l344 295q-10 14 -41 38.5t-101 24.5q-74 0 -114.5 -32.5t-61 -76.5t-24.5 -91t-4 -74zM504 322q6 -12 16 -26.5t28.5 -27t45.5 -21.5t68 -9q61 0 100 28.5t61.5 71.5 t30.5 92t8 90q0 29 -2 55l-4 54z" />
<glyph unicode="&#xf9;" d="M82 416v645h422v-578q0 -25 3 -54.5t17.5 -55t45 -44t85.5 -18.5t86 19.5t46.5 48.5t18.5 61.5t3 59.5v561h424v-1061h-402v156q-10 -23 -20 -39.5t-33 -38.5q-59 -57 -137 -81t-160 -24q-63 0 -111 11.5t-84 27t-59.5 33.5t-38.5 33q-39 37 -59 81t-30.5 88t-13.5 88 t-3 81zM283 1483h436l155 -281h-260z" />
<glyph unicode="&#xfa;" d="M82 416v645h422v-578q0 -25 3 -54.5t17.5 -55t45 -44t85.5 -18.5t86 19.5t46.5 48.5t18.5 61.5t3 59.5v561h424v-1061h-402v156q-10 -23 -20 -39.5t-33 -38.5q-59 -57 -137 -81t-160 -24q-63 0 -111 11.5t-84 27t-59.5 33.5t-38.5 33q-39 37 -59 81t-30.5 88t-13.5 88 t-3 81zM463 1202l157 281h434l-329 -281h-262z" />
<glyph unicode="&#xfb;" d="M82 416v645h422v-578q0 -25 3 -54.5t17.5 -55t45 -44t85.5 -18.5t86 19.5t46.5 48.5t18.5 61.5t3 59.5v561h424v-1061h-402v156q-10 -23 -20 -39.5t-33 -38.5q-59 -57 -137 -81t-160 -24q-63 0 -111 11.5t-84 27t-59.5 33.5t-38.5 33q-39 37 -59 81t-30.5 88t-13.5 88 t-3 81zM293 1200l217 283h319l213 -283h-293l-84 135l-81 -135h-291z" />
<glyph unicode="&#xfc;" d="M82 416v645h422v-578q0 -25 3 -54.5t17.5 -55t45 -44t85.5 -18.5t86 19.5t46.5 48.5t18.5 61.5t3 59.5v561h424v-1061h-402v156q-10 -23 -20 -39.5t-33 -38.5q-59 -57 -137 -81t-160 -24q-63 0 -111 11.5t-84 27t-59.5 33.5t-38.5 33q-39 37 -59 81t-30.5 88t-13.5 88 t-3 81zM236 1239v244h340v-244h-340zM737 1239v244h338v-244h-338z" />
<glyph unicode="&#xfd;" horiz-adv-x="1193" d="M0 1061h440l105 -457q8 -47 14 -78.5t11 -64.5t10.5 -71t13.5 -97q6 61 12 102t11.5 75t11.5 66.5t16 79.5l107 445h438l-387 -1122q-23 -59 -48.5 -121t-76.5 -111q-35 -33 -66.5 -51t-65.5 -26.5t-74 -10.5t-89 -2q-35 0 -62.5 1t-53 2t-51.5 4t-56 7v301 q27 -2 58.5 -4t60.5 -2q43 0 66.5 11.5t23.5 39.5q0 6 -4.5 20.5t-9.5 31t-11 32t-8 25.5zM398 1202l157 281h434l-329 -281h-262z" />
<glyph unicode="&#xfe;" horiz-adv-x="1280" d="M84 -385v1831h412v-467q12 14 32.5 32.5t53 36t81 30t115.5 12.5q127 0 215 -48.5t143.5 -127t80 -181t24.5 -209.5q0 -115 -27.5 -214t-84 -175t-144.5 -119t-211 -43q-66 0 -111 10.5t-77.5 26t-53 32.5t-32.5 30v-457h-416zM494 526q0 -37 3 -73.5t15 -71.5 q14 -41 36.5 -63.5t44 -33t40 -12.5t24.5 -2q31 0 59.5 12.5t49.5 32.5q27 27 43 75t16 128q0 33 -4 78t-19.5 86t-48 69.5t-87.5 30.5q-31 2 -61 -9t-50 -34q-23 -23 -35 -49t-18 -56t-7 -57.5t-1 -50.5z" />
<glyph unicode="&#xff;" horiz-adv-x="1193" d="M0 1061h440l105 -457q8 -47 14 -78.5t11 -64.5t10.5 -71t13.5 -97q6 61 12 102t11.5 75t11.5 66.5t16 79.5l107 445h438l-387 -1122q-23 -59 -48.5 -121t-76.5 -111q-35 -33 -66.5 -51t-65.5 -26.5t-74 -10.5t-89 -2q-35 0 -62.5 1t-53 2t-51.5 4t-56 7v301 q27 -2 58.5 -4t60.5 -2q43 0 66.5 11.5t23.5 39.5q0 6 -4.5 20.5t-9.5 31t-11 32t-8 25.5zM178 1239v244h340v-244h-340zM679 1239v244h338v-244h-338z" />
<glyph unicode="&#x131;" horiz-adv-x="598" d="M86 0v1061h422v-1061h-422z" />
<glyph unicode="&#x152;" horiz-adv-x="2260" d="M63 719q0 190 60.5 330.5t159 234.5t222.5 140t249 46q66 0 116 -9t86.5 -22.5t62 -27.5t44.5 -25v60h1096v-316h-660v-215h615v-315h-615v-285h731v-315h-1167v51q-18 -12 -45 -26.5t-63.5 -26.5t-85 -20.5t-111.5 -8.5q-162 0 -290 57.5t-218 159t-138.5 237.5 t-48.5 296zM518 719q0 -186 80 -290.5t221 -104.5q78 0 136.5 23.5t107.5 49.5v650q-41 29 -88 50t-131 21q-18 0 -44 -2t-55.5 -9t-61.5 -23.5t-62 -47.5q-59 -61 -81 -146t-22 -171z" />
<glyph unicode="&#x153;" horiz-adv-x="2048" d="M39 528q0 119 40 224.5t117.5 184.5t193.5 125t267 46q111 0 217.5 -25.5t202.5 -83.5q23 14 55.5 33t78.5 35t103.5 28.5t129.5 12.5q119 0 229.5 -39t196.5 -123q55 -55 86 -114.5t46 -122t19 -126t7 -124.5h-746q2 -23 4 -44.5t10 -41.5q12 -39 35 -62.5t47.5 -36 t47 -15.5t34.5 -3q45 0 79 15.5t57.5 37t38.5 45.5l26 41l348 -145q-23 -31 -47.5 -62.5t-56 -61.5t-73.5 -57.5t-99 -52.5q-61 -27 -135 -43t-158 -16q-70 0 -126.5 11.5t-102.5 28.5t-83.5 38.5t-70.5 40.5q-25 -16 -58.5 -37t-82 -38t-113 -29.5t-148.5 -12.5 q-166 0 -282.5 51t-191.5 132t-108.5 182.5t-33.5 203.5zM461 535q0 -37 5 -84.5t24.5 -89.5t57.5 -71.5t105 -29.5q63 0 103.5 28.5t62 71.5t28.5 94.5t7 96.5t-8 92t-29.5 84t-59.5 60.5t-100 21.5q-74 -2 -113.5 -38t-58 -82t-21.5 -90t-3 -64zM1290 682h303 q0 10 -1 21.5t-3 23.5q-12 59 -56 84t-85 25q-68 0 -113 -45q-25 -27 -33 -53.5t-12 -55.5z" />
<glyph unicode="&#x178;" horiz-adv-x="1622" d="M-6 1446h528l283 -481l278 481h531l-584 -838v-608h-457v608zM412 1552v242h340v-242h-340zM881 1552v242h340v-242h-340z" />
<glyph unicode="&#x2c6;" horiz-adv-x="641" d="M-53 1200l217 283h319l213 -283h-293l-84 135l-81 -135h-291z" />
<glyph unicode="&#x2da;" horiz-adv-x="641" d="M92 1415q0 47 18.5 88t49 72t71.5 49t88 18t88.5 -18t72 -49t49 -72t18.5 -88t-18.5 -88t-49 -71.5t-71.5 -49t-89 -18.5q-47 0 -88 18.5t-71.5 49t-49 71.5t-18.5 88zM246 1415q0 -31 21.5 -52.5t51.5 -21.5q31 0 52.5 21.5t21.5 52.5t-21.5 52.5t-52.5 21.5t-52 -21.5 t-21 -52.5z" />
<glyph unicode="&#x2dc;" horiz-adv-x="641" d="M-59 1204q6 43 14 92.5t29.5 92.5t59.5 71.5t101 28.5q31 0 78 -8t117 -29q70 -18 89.5 -23.5t29.5 -5.5q23 0 35 7.5t17 17.5t6 19.5t1 13.5h184q-6 -47 -15 -97.5t-29.5 -91.5t-57.5 -68.5t-98 -27.5q-37 0 -80 8t-96 23q-47 12 -73 18t-40 9t-22.5 4.5t-18.5 1.5 q-35 0 -42 -19.5t-7 -36.5h-182z" />
<glyph unicode="&#x2000;" horiz-adv-x="952" />
<glyph unicode="&#x2001;" horiz-adv-x="1906" />
<glyph unicode="&#x2002;" horiz-adv-x="952" />
<glyph unicode="&#x2003;" horiz-adv-x="1906" />
<glyph unicode="&#x2004;" horiz-adv-x="634" />
<glyph unicode="&#x2005;" horiz-adv-x="475" />
<glyph unicode="&#x2006;" horiz-adv-x="317" />
<glyph unicode="&#x2007;" horiz-adv-x="317" />
<glyph unicode="&#x2008;" horiz-adv-x="237" />
<glyph unicode="&#x2009;" horiz-adv-x="380" />
<glyph unicode="&#x200a;" horiz-adv-x="104" />
<glyph unicode="&#x2010;" horiz-adv-x="681" d="M78 473v350h524v-350h-524z" />
<glyph unicode="&#x2011;" horiz-adv-x="681" d="M78 473v350h524v-350h-524z" />
<glyph unicode="&#x2012;" horiz-adv-x="681" d="M78 473v350h524v-350h-524z" />
<glyph unicode="&#x2013;" d="M78 473v350h1165v-350h-1165z" />
<glyph unicode="&#x2014;" horiz-adv-x="1409" d="M78 473v350h1251v-350h-1251z" />
<glyph unicode="&#x2018;" horiz-adv-x="512" d="M70 702v295q0 45 3 89t12 87.5t30.5 85t58.5 78.5q61 61 129 82t139 33v-182q-47 -14 -71.5 -36t-36.5 -46.5t-15.5 -50t-3.5 -50.5h127v-385h-372z" />
<glyph unicode="&#x2019;" horiz-adv-x="512" d="M70 698v181q45 14 70.5 35.5t37.5 46t15.5 50t3.5 50.5h-127v385h372v-295q0 -45 -3 -89t-12 -87t-30.5 -84t-58.5 -80q-61 -61 -128.5 -82t-139.5 -31z" />
<glyph unicode="&#x201a;" horiz-adv-x="512" d="M70 0v385h372v-295q0 -45 -3 -89t-12 -87t-30.5 -84t-58.5 -80q-61 -61 -129 -80.5t-139 -31.5v180q45 14 70.5 35.5t37.5 46t15.5 50t3.5 50.5h-127z" />
<glyph unicode="&#x201c;" horiz-adv-x="1067" d="M84 702v295q0 45 3 89t13.5 87.5t31 85t58.5 78.5q59 61 128 82t141 33v-182q-47 -14 -72 -36t-37 -46.5t-15 -50t-3 -50.5h127v-385h-375zM606 702v295q0 45 3 89t12.5 87.5t31 85t58.5 78.5q61 61 128.5 82t139.5 33v-182q-47 -14 -71.5 -36t-37 -46.5t-15.5 -50 t-3 -50.5h127v-385h-373z" />
<glyph unicode="&#x201d;" horiz-adv-x="1067" d="M84 698v181q45 14 70.5 35.5t38 46t15.5 50t3 50.5h-127v385h375v-295q0 -45 -3 -89t-13.5 -87t-32 -84t-58.5 -80q-59 -61 -127.5 -82t-140.5 -31zM606 698v181q45 14 70.5 35.5t38 46t15.5 50t3 50.5h-127v385h373v-295q0 -45 -3 -89t-12.5 -87t-31 -84t-58.5 -80 q-61 -61 -128.5 -82t-139.5 -31z" />
<glyph unicode="&#x201e;" horiz-adv-x="1067" d="M84 0v385h375v-295q0 -43 -3 -88t-13.5 -88t-32 -84t-58.5 -80q-59 -61 -127.5 -80.5t-140.5 -31.5v180q45 14 70.5 35.5t38 46t15.5 50t3 50.5h-127zM606 0v385h373v-295q0 -43 -3 -88t-12.5 -88t-31 -84t-58.5 -80q-61 -61 -128.5 -80.5t-139.5 -31.5v180 q45 14 70.5 35.5t38 46t15.5 50t3 50.5h-127z" />
<glyph unicode="&#x2022;" horiz-adv-x="681" d="M25 721q0 66 24.5 124t67.5 101t101 67.5t124 24.5t124 -24.5t101 -67.5t67.5 -101.5t24.5 -123.5q0 -66 -24.5 -124t-67.5 -101t-101 -68t-124 -25t-124 25t-101 68t-67.5 101t-24.5 124z" />
<glyph unicode="&#x2026;" horiz-adv-x="2048" d="M156 0v385h372v-385h-372zM838 0v385h372v-385h-372zM1520 0v385h372v-385h-372z" />
<glyph unicode="&#x202f;" horiz-adv-x="380" />
<glyph unicode="&#x2039;" horiz-adv-x="468" d="M72 461v375l321 256v-306l-182 -141l182 -137v-303z" />
<glyph unicode="&#x203a;" horiz-adv-x="468" d="M72 205v305l182 141l-182 137v304l321 -256v-375z" />
<glyph unicode="&#x205f;" horiz-adv-x="475" />
<glyph unicode="&#x2122;" horiz-adv-x="1409" d="M0 1309v137h588v-137h-207v-543h-172v543h-209zM643 766v680h217l156 -492l145 492h219v-680h-168l9 362l10 138l-27 -109l-117 -391h-151l-121 393l-29 105l13 -136l10 -362h-166z" />
<glyph unicode="&#xe000;" horiz-adv-x="1060" d="M0 1060h1060v-1060h-1060v1060z" />
<glyph unicode="&#xfb01;" horiz-adv-x="1366" d="M-2 807v229h158v107q2 59 13 116.5t64 110.5q12 12 35 29.5t60 33t91 26.5t128 11q70 0 118 -8t103 -18v-289q-16 6 -32.5 10t-45.5 4q-43 0 -65.5 -13t-33.5 -32.5t-12 -43t-1 -44.5h190v-229h-190v-807h-422v807h-158zM854 0v1061h422v-1061h-422zM854 1165v283h422 v-283h-422z" />
<glyph unicode="&#xfb02;" horiz-adv-x="1366" d="M-2 807v229h158v105q2 59 13 117.5t64 111.5q12 12 35 28.5t60 32t91 26.5t128 11q70 0 118 -8t103 -18v-289q-18 6 -33.5 10t-44.5 4q-43 0 -65.5 -12t-33.5 -31.5t-12 -43t-1 -44.5h190v-229h-190v-807h-422v807h-158zM852 0v1446h424v-1446h-424z" />
<glyph unicode="&#xfb03;" horiz-adv-x="2134" d="M1622 0v1061h422v-1061h-422zM1622 1165v281h422v-281h-422zM766 807v229h158v107q2 59 13 116.5t64 110.5q12 12 35 29.5t61 33t91 26.5t127 11q70 0 118 -8t103 -18v-289q-16 6 -32.5 10t-45.5 4q-43 0 -65.5 -13t-33.5 -32.5t-12 -43t-1 -44.5h190v-229h-190v-807 h-422v807h-158zM-2 807v229h158v107q2 59 13 116.5t64 110.5q12 12 35 29.5t61 33t91 26.5t127 11q70 0 118 -8t103 -18v-289q-16 6 -32.5 10t-45.5 4q-43 0 -65.5 -13t-33.5 -32.5t-12 -43t-1 -44.5h190v-229h-190v-807h-422v807h-158z" />
<glyph unicode="&#xfb04;" horiz-adv-x="2134" d="M1620 0v1446h424v-1446h-424zM766 807v229h158v107q2 59 13 116.5t64 110.5q12 12 35 29.5t61 33t91 26.5t127 11q70 0 118 -8t103 -18v-289q-16 6 -32.5 10t-45.5 4q-43 0 -65.5 -13t-33.5 -32.5t-12 -43t-1 -44.5h190v-229h-190v-807h-422v807h-158zM-2 807v229h158 v107q2 59 13 116.5t64 110.5q12 12 35 29.5t61 33t91 26.5t127 11q70 0 118 -8t103 -18v-289q-16 6 -32.5 10t-45.5 4q-43 0 -65.5 -13t-33.5 -32.5t-12 -43t-1 -44.5h190v-229h-190v-807h-422v807h-158z" />
</font>
</defs>
</svg>
