<?xml version="1.0" standalone="no"?>
<!DOCTYPE svg PUBLIC "-//W3C//DTD SVG 1.1//EN" "http://www.w3.org/Graphics/SVG/1.1/DTD/svg11.dtd" >
<svg xmlns="http://www.w3.org/2000/svg">
<metadata>
This is a custom SVG webfont generated by Font Squirrel.
Copyright   : Copyright c Astigmatic AOETI 2006 All rights reserved
Designer    : Brian J Bonislawsky Astigmatic
Foundry     : Astigmatic AOETI
Foundry URL : httpwwwastigmaticcom
</metadata>
<defs>
<font id="GhoulishFrightAOERegular" horiz-adv-x="1065" >
<font-face units-per-em="2048" ascent="1638" descent="-410" />
<missing-glyph horiz-adv-x="492" />
<glyph unicode=" "  horiz-adv-x="492" />
<glyph unicode="&#x09;" horiz-adv-x="492" />
<glyph unicode="&#xa0;" horiz-adv-x="492" />
<glyph unicode="!" horiz-adv-x="397" d="M41 1483q6 -48 11 -96.5t5 -96.5q0 -34 4 -68.5t8.5 -69t8.5 -69t4 -69.5q0 -102 11 -204t18 -202q6 -72 11 -144t11 -145l137 11q5 145 8 287.5t3 287.5q0 51 4 102t9 103l12 102q5 52 7 103q3 46 16 95.5t27 92.5q-41 -7 -79.5 -11.5t-76.5 -6t-77 -2t-82 -0.5zM76 -6 q68 12 133 19t133 14q0 42 -2.5 79.5t-5.5 77.5q-26 -3 -53.5 -5.5t-55.5 -2.5q-37 0 -74.5 1t-74.5 1v-184z" />
<glyph unicode="&#x22;" horiz-adv-x="641" d="M41 1487q11 -74 23.5 -149.5t17.5 -149.5q5 -62 6 -122t4 -122l154 6q-5 28 -7.5 57t-2.5 58v9q0 4 2 9q8 56 14.5 112t11.5 112q3 38 11.5 77t19.5 76q-42 8 -71.5 12.5t-55.5 7t-55.5 4t-71.5 3.5zM348 1425l18 -82q8 -35 14.5 -76.5t8.5 -78.5q5 -62 6 -122t4 -122 l154 6q-5 28 -7.5 57t-2.5 58v9q0 4 2 9q8 56 14.5 112t11.5 112q2 20 7 46t10 50q6 28 14 57z" />
<glyph unicode="#" horiz-adv-x="932" d="M41 385q34 6 68.5 11t68.5 10q-14 -57 -30 -114t-33 -114l159 -12q10 65 18.5 128t22.5 126q76 12 148 18q-6 -65 -21.5 -130t-29.5 -130q54 -11 106.5 -21t108.5 -26q9 53 20.5 111t11.5 110q0 28 4 55.5t7 55.5q49 3 97 6t97 12l13 156q-32 2 -65 2h-64h-29 q-15 0 -29 -2l4 40l4 40h23q38 0 77 -6t76 -13q4 73 7.5 141.5t11.5 139.5q-43 -6 -85 -13t-85 -14q9 73 19.5 145t25.5 144q5 23 13 47t16 45q-37 -1 -60 -1.5t-43 1t-42.5 7.5t-57.5 18q-3 -48 -6 -95t-8 -94q-3 -31 -10 -62.5t-13.5 -62t-12 -61.5t-7.5 -63 q-36 -10 -70.5 -23t-71.5 -16q6 55 14.5 110t16.5 111q3 26 14.5 54t20.5 52l-111 27q-12 -38 -24.5 -78t-24.5 -78q-4 -15 -9 -41t-9.5 -54t-8.5 -55.5t-6 -45.5q-20 3 -40 3.5t-40 0.5h-46q-23 0 -46 -2l4 -158l146 -12q-6 -29 -13.5 -59.5t-13.5 -59.5l-18 -2 q-35 0 -69.5 2.5t-70.5 5.5q0 -34 -1 -59.5t-3 -49t-6 -48.5t-10 -60zM352 598q5 28 11 55.5t12 55.5q32 0 63.5 2.5t63.5 5.5q-12 -52 -21 -105q-32 -5 -63.5 -8.5t-65.5 -5.5z" />
<glyph unicode="$" horiz-adv-x="604" d="M41 453q46 -20 96 -36t101 -24q-7 -72 -16 -143.5t-15 -143.5q29 -6 52.5 -9.5t46 -6t45 -4.5t48.5 -6v22q0 13 -1 28t-2.5 28.5t-4.5 21.5q-4 14 -8.5 41.5t-7.5 59t-5 60.5t-3 46q23 2 44.5 7t43.5 12q8 2 25 18.5t34.5 37t30.5 40t14 28.5q3 22 3.5 43.5t0.5 42.5 q0 35 -7.5 71.5t-18.5 68.5q-4 10 -19 22t-33 23.5t-36 21t-29 13.5q-15 5 -32 6.5t-34.5 1.5t-35 0.5t-33.5 3.5q-23 5 -48 22t-36 37q-5 6 -5.5 12.5t-0.5 12.5q0 20 3.5 33t11.5 21t21 13.5t31 10.5q4 2 12 2q17 0 32.5 -6.5t31.5 -12.5q4 -2 21 -4.5t38 -4.5t40 -3.5 t26 -1.5q20 0 39.5 3.5t38.5 6.5l14 98q-38 0 -77.5 0.5t-78.5 2.5q3 15 6 31.5t3 31.5q17 61 32 111q6 21 12.5 42.5t11.5 39.5t8.5 30.5t4.5 16.5q-25 -5 -50.5 -11t-51.5 -6h-57q-29 0 -58 -2q5 -66 8.5 -130t3.5 -130q-21 6 -44 13.5t-46 7.5q-34 0 -54.5 -13.5 t-33.5 -35t-21.5 -47.5t-17.5 -52q-6 -21 -6 -43q0 -12 1.5 -27.5t4 -31t6.5 -30t9 -26.5q4 -10 21.5 -20t42.5 -19t54 -17.5t55.5 -16t48.5 -14t32 -11.5q7 -4 15 -16t14.5 -27t11 -30t4.5 -23q0 -7 -3 -25.5t-8 -37.5t-11.5 -33.5t-14.5 -14.5q-31 0 -64 8t-65 11 q-29 3 -65 17t-62 28q-1 -21 -4.5 -37t-8 -31t-10 -30.5t-12.5 -36.5z" />
<glyph unicode="%" horiz-adv-x="1026" d="M0 76q51 -17 101.5 -32.5t101.5 -35.5q5 13 18.5 44t30 65t32 63t25.5 39q24 24 47.5 62.5t47 81t47 84t47.5 71.5q35 45 61 98t51 108.5t52 110t63 101.5q14 18 30 36.5t32 38t30.5 40t24.5 41.5q26 52 61.5 100t61.5 100q14 28 30 54.5t31 52.5q-51 -3 -85.5 -1.5 t-64.5 7t-62 15t-79 22.5q-18 -48 -37 -95.5t-39 -95.5q-16 -39 -35 -76.5t-38.5 -74.5t-39 -75t-36.5 -77q-38 -90 -72 -180t-71 -180q-15 -39 -39.5 -83t-53 -88t-57.5 -85.5t-53 -75.5q-35 -48 -78 -93t-86 -87zM41 803q0 -21 15 -40.5t36.5 -35.5t45.5 -25.5t42 -9.5 q31 0 63 5.5t60 15.5q13 5 27.5 27.5t27.5 51t23.5 55.5t15.5 40q12 29 19.5 80.5t12.5 108.5t7 111t2 87q0 8 -2.5 24.5t-7 33t-11 30.5t-14.5 18q-5 4 -22 9.5t-36.5 11t-37 9t-24.5 3.5q-26 0 -50 -8.5t-49 -13.5q-7 -2 -18.5 -4t-23.5 -4.5t-22 -6.5t-14 -10 q-12 -19 -20 -48t-16 -50q-6 -17 -10.5 -52t-8 -79.5t-5.5 -93.5t-3 -95t-1.5 -84.5t-0.5 -60.5zM176 842q0 32 8.5 62.5t8.5 62.5q0 47 1 83t4 70t10 70t19 82q5 3 12 4.5t13 1.5q12 0 23.5 -3t11.5 -20q0 -12 -2 -24t-4 -25q-4 -28 -4.5 -56.5t-2.5 -55.5q-3 -29 -9 -57 t-9 -56q-1 -7 -3 -30t-5.5 -48t-7.5 -45.5t-9 -23.5q-8 -5 -16.5 -7t-17.5 -2q-8 0 -14.5 3t-6.5 14zM602 119q0 -20 15 -40t36.5 -35.5t45.5 -25.5t42 -10q31 0 63.5 6t61.5 17q12 4 26 26.5t27 50.5t23.5 55.5t15.5 41.5q12 28 20.5 79t13.5 108t7 111t2 87q0 8 -3 24.5 t-7.5 33.5t-10.5 31.5t-13 18.5q-6 3 -23.5 8.5t-37.5 10.5t-37.5 8.5t-24.5 3.5q-25 0 -49.5 -8.5t-49.5 -13.5q-7 -2 -18.5 -3.5t-23 -4t-21.5 -6t-14 -9.5q-11 -20 -19 -49.5t-16 -50.5q-6 -16 -11 -51t-8.5 -79.5t-5.5 -94t-3.5 -95.5t-2 -84.5t-0.5 -60.5zM737 158 q0 32 8.5 63t8.5 62q0 47 1 83.5t4 70.5t10 70t19 81q7 5 13 5.5t14 0.5q11 0 23 -2.5t12 -18.5q0 -12 -3 -24t-5 -25q-3 -29 -3 -57t-3 -57q-4 -28 -9.5 -56t-7.5 -57q-1 -8 -3 -31t-5.5 -47.5t-8 -45t-9.5 -23.5q-7 -5 -16 -6t-17 -1t-15.5 2.5t-7.5 12.5z" />
<glyph unicode="&#x26;" horiz-adv-x="1042" d="M31 377q0 -34 10 -71.5t28 -75t43 -71.5t55.5 -59.5t65.5 -41t72 -15.5q23 0 45 2.5t43 7.5q31 7 65 30t66.5 52.5t62 60.5t50.5 54q25 -34 53.5 -68t59.5 -63q21 -19 41.5 -43.5t31.5 -48.5q34 45 78 88t90 78q-34 28 -59.5 47t-48 38t-45.5 41.5t-52 57.5 q31 25 67 44.5t73 35.5q29 12 60 35t46 51q-22 11 -49 30.5t-53 42t-50 45.5t-40 41q-35 -57 -72.5 -111t-77.5 -108q-26 34 -47 58.5t-38.5 45t-33 40t-31.5 42t-33 51t-38 68.5q9 9 27 25.5t39 33.5t41 31t32 17q25 6 48.5 27.5t37.5 44.5q7 10 17 33.5t19 50.5t15.5 51.5 t6.5 36.5q0 2 -5 21t-11 41.5t-11 42t-6 22.5q-4 11 -29 30t-55.5 37.5t-59 32.5t-40.5 14q-26 0 -52 -6t-51 -14q-31 -7 -60 -9.5t-57 -19.5q-5 -8 -15 -23.5t-19.5 -33t-17 -34t-7.5 -26.5q0 -27 5 -53.5t5 -54.5q0 -72 4.5 -138.5t26.5 -136.5q-25 -27 -56 -55t-63 -45 q-17 -8 -35 -21t-34.5 -29t-30 -33.5t-21.5 -35.5q-5 -13 -8 -36t-4.5 -49t-3 -51.5t-4.5 -43.5q-6 -27 -6 -55zM262 371q0 42 7 84t12 84q2 18 8.5 39.5t14.5 42.5t16.5 41.5t15.5 37.5q28 -48 55.5 -94.5t50.5 -95.5q9 -18 23.5 -39t31 -41t32.5 -39.5t28 -34.5 q-10 -10 -33.5 -31t-51 -41t-54 -35.5t-43.5 -15.5q-11 0 -23.5 8t-21.5 13q-32 17 -50 48.5t-18 68.5zM403 993q0 9 1.5 37.5t5 60t8.5 57t12 28.5q3 2 7 2h7q17 0 32.5 -1t31.5 -1q12 0 28 -5t31 -14t25.5 -21t9.5 -26v-4q-1 -11 -10.5 -31.5t-22.5 -42t-26.5 -40 t-22.5 -25.5q-20 -20 -48.5 -35.5t-51.5 -28.5q-11 20 -14 44.5t-3 45.5z" />
<glyph unicode="'" horiz-adv-x="336" d="M41 1487q11 -74 23.5 -149.5t17.5 -149.5q5 -62 6 -122t4 -122l154 6q-5 28 -7.5 57t-2.5 58v9q0 4 2 9q8 56 14.5 112t11.5 112q3 38 11.5 77t19.5 76q-42 8 -71.5 12.5t-55.5 7t-55.5 4t-71.5 3.5z" />
<glyph unicode="(" horiz-adv-x="760" d="M20 836q0 -47 8 -101.5t21 -110.5t30.5 -109t35.5 -97q11 -29 25 -62t27.5 -66.5t25 -67t18.5 -64.5q3 -14 15 -39.5t28.5 -56t36 -64t38.5 -65.5t35 -59.5t25 -45.5q14 -25 25 -49.5t22 -48.5q37 6 62.5 10.5t45.5 8.5t37 9.5t36 14t43 21.5t59 32q-35 43 -70.5 85.5 t-73.5 84.5q-26 29 -49.5 59.5t-46.5 59.5q-18 23 -37 46t-34 46q-4 6 -15.5 25t-26 45.5t-31 57t-30.5 57.5t-23.5 48t-9.5 29q-6 78 -13 157.5t-7 157.5v11q2 16 9 45.5t18.5 64.5t25 73.5t27 72.5t26.5 61.5t23 40.5q40 54 78.5 110t83.5 107q20 23 28.5 42.5t17 37 t23 33.5t45.5 30q-36 14 -68.5 25.5t-62 26t-57 34.5t-53.5 50q-28 -26 -55.5 -51.5t-55.5 -51.5q-11 -11 -23.5 -20.5t-23.5 -20.5q-15 -15 -31 -43.5t-31 -59.5l-30 -64q-15 -31 -29 -52q-28 -44 -50 -100t-37 -116.5t-22.5 -121t-7.5 -112.5z" />
<glyph unicode=")" horiz-adv-x="590" d="M41 -59q9 -8 25.5 -21t35 -26.5t36.5 -24.5t30 -14t29 -10t34 -16.5t33 -19t27 -16.5l45 60q24 32 47.5 65.5t43.5 68t34 68.5q12 27 24 58t22 64t16.5 65.5t6.5 62.5q0 42 6 82.5t13.5 80.5t13.5 80.5t6 82.5q0 31 -2 72t-6 84t-10.5 83t-15.5 68q-20 56 -29 113 t-23 112q-5 22 -13.5 42t-17.5 40t-17.5 39.5t-14.5 40.5q-15 49 -24 88.5t-20.5 75.5t-30.5 71.5t-54 77.5q-15 -5 -34 -13.5t-38 -19.5t-35 -24t-26 -27q-17 -27 -49.5 -48t-61.5 -33q7 -7 23 -23.5t36 -38t41 -45t39 -46t30.5 -41t14.5 -28.5q5 -22 16.5 -52t25.5 -61.5 t28.5 -61.5t24.5 -52q6 -17 13 -34t9 -34q5 -27 8.5 -63.5t5.5 -74.5t3.5 -75.5t1.5 -66.5q0 -27 -8 -70t-18.5 -90.5t-21.5 -92.5t-16 -77q-7 -35 -23 -66.5t-35.5 -61.5t-39.5 -60t-35 -62q-20 -45 -54.5 -86.5t-74.5 -68.5z" />
<glyph unicode="*" horiz-adv-x="813" d="M41 1026q29 -12 53 -16.5t48 -6t49 -0.5t55 1q-21 -44 -33.5 -73.5t-26 -54.5t-32.5 -51t-52 -63q38 -12 67.5 -20.5t56.5 -18t55.5 -21.5t64.5 -30l23 82q8 24 20 49t12 53q0 11 4 27t9.5 33t11.5 32.5t10 24.5q20 -22 36.5 -48t33.5 -52t35.5 -49.5t42.5 -41.5 q20 44 40.5 72.5t42 52.5t44 48.5t47.5 58.5l-176 106l190 62q-14 26 -22.5 40t-14 26.5t-8.5 28.5t-6 46q-56 -20 -111 -37.5t-110 -40.5q12 59 20 114.5t10 115.5q-75 -19 -148 -30t-151 -24q13 -30 22 -56t15.5 -51t13 -51.5t15.5 -58.5q-59 0 -111.5 5.5t-109.5 19.5 q-2 -30 -5 -54.5t-7 -47.5t-9.5 -47.5t-13.5 -53.5z" />
<glyph unicode="+" horiz-adv-x="662" d="M41 803l6 -162q32 8 70.5 17.5t72.5 9.5q10 0 18 -1t17 -3v-17q0 -48 -6 -97t-14 -97q60 -13 114.5 -15.5t114.5 -5.5q-11 51 -19 101.5t-12 103.5q56 -9 110 -13t110 -8q-2 48 -7.5 94.5t-5.5 94.5v55l-215 -39q-2 11 -2 21v22q0 35 4 70t9 70q-57 0 -108 3.5t-108 12.5 q2 -34 3 -62.5t2.5 -55t4.5 -54.5t7 -62q-13 -2 -26 -3t-27 -1q-29 0 -58 5t-55 16z" />
<glyph unicode="," horiz-adv-x="371" d="M41 287q7 -28 10 -57t5.5 -58t6.5 -57.5t13 -57.5l121 13q-19 -39 -29 -62.5t-21.5 -42.5t-30 -39t-55.5 -53l121 -66q20 29 40.5 57.5t41.5 57.5q9 13 19.5 25t19.5 26q6 10 11 26t8.5 33t5.5 33.5t2 28.5v10q0 4 -2 9q-5 46 -4.5 93t0.5 93q-38 -6 -76.5 -12t-75.5 -6 q-66 0 -131 6z" />
<glyph unicode="-" horiz-adv-x="752" d="M27 672q58 2 117 5t118 3q34 0 66.5 -9t64.5 -9q20 0 41 4t41 4q33 0 53 -0.5t33.5 -1t23.5 -1.5t23.5 -2.5t33.5 -3.5t54 -4q-3 32 -6.5 64.5t-3.5 64.5v127q-48 -7 -83 -15.5t-63.5 -16.5t-54 -15.5t-54.5 -13t-64.5 -9t-85.5 -3.5q-63 0 -126 6t-126 8z" />
<glyph unicode="." horiz-adv-x="406" d="M41 129q0 -22 7 -48t13 -46q44 3 86 5.5t84 2.5q32 0 67 -3.5t67 -8.5q-7 52 -8 104t-3 105q-11 -4 -29.5 -9.5t-38 -11t-38.5 -9t-31 -3.5q-43 0 -86 1t-88 3q0 -22 -1 -42t-1 -40z" />
<glyph unicode="/" horiz-adv-x="1229" d="M0 72q63 -23 122 -45.5t124 -40.5q25 31 50 61t48 62q17 23 31.5 47t30.5 49q34 56 66 111.5t67 111.5q23 34 48 65.5t50 63.5q29 40 60 80.5t65 77.5q18 21 44 57.5t53.5 77t51.5 79t37 62.5q7 13 27 39.5t46.5 60t58 70.5t60 71t52.5 61.5t37 41.5q-18 0 -47 -0.5 t-60.5 0.5t-60 3t-43.5 8q-32 9 -64.5 16.5t-66.5 15.5q-38 -88 -75 -175t-75 -175q-14 -31 -41.5 -78t-63.5 -101.5t-76.5 -112t-79.5 -110t-73.5 -95.5t-58.5 -68q-63 -65 -121.5 -136t-113.5 -143q-25 -31 -53 -58.5t-56 -53.5z" />
<glyph unicode="0" horiz-adv-x="768" d="M31 672q0 -52 5.5 -105t12 -105.5t11.5 -105t3 -104.5l-2 -14q-1 -20 16 -42.5t41 -43t49 -37.5t40 -27t39 -17.5t50 -13t51.5 -8t43.5 -2.5q20 0 53.5 15.5t68 37.5t63.5 45.5t40 38.5q38 50 56 121t25 149t8 154.5t4 136.5q2 41 7.5 81t13.5 80l14 80q8 40 12 81 q2 11 3 23t1 24q0 45 -11 80t-31 63.5t-47.5 54t-60.5 52.5q-20 15 -47.5 18.5t-52.5 3.5q-21 0 -55.5 -2t-70.5 -6t-68 -10t-50 -14q-15 -8 -32.5 -14t-35.5 -12.5t-34.5 -14t-30.5 -17.5q-9 -15 -22.5 -36t-18.5 -39q-7 -20 -10 -41t-6.5 -41.5t-8.5 -41t-16 -40.5 q-5 -10 -8.5 -33t-5.5 -52.5t-3 -62t-1 -63.5v-56v-40q0 -19 -1 -38.5t-1 -39.5zM255 913.5q-1 41.5 5 79.5q5 34 13 68.5t14 68.5q18 20 47 24.5t55 4.5q19 0 36.5 -1t33 -6t28.5 -15.5t23 -30.5q6 -12 6 -27q0 -20 -3 -39t-3 -39q0 -14 2 -27.5t2 -27.5q0 -62 -9 -121.5 t-9 -119.5q0 -14 -1 -45t-3 -70.5t-5 -82.5t-6 -80.5t-6 -65.5t-6 -37q-9 -28 -36.5 -48.5t-55.5 -29.5q-13 -3 -32.5 -11t-33.5 -8q-24 0 -37.5 21t-13.5 43q0 54 2 106t2 105q0 83 -4 165.5t-4 166.5q0 38 -1 79.5z" />
<glyph unicode="1" horiz-adv-x="498" d="M31 1268q20 3 42 4.5t44 7.5q49 12 97 35t97 39q34 11 68 20t70 19q-11 -54 -20 -109.5t-9 -109.5q0 -101 2 -199t2 -197q0 -69 -1 -140t5 -140q5 -53 13.5 -106t13.5 -107q3 -32 6 -63.5t6 -63.5q-25 -3 -49 -4.5t-47 -3.5q-48 -4 -96 -13t-95 -18q1 23 2 57t2.5 70 t4.5 70t8 57q6 25 11 57t8 65t5 65t2 58q0 45 1 88.5t3 88.5q2 24 2.5 49.5t3.5 50.5q2 5 2.5 8t0.5 8q0 51 -4 102.5t-7 102.5q-27 -7 -47.5 -11.5t-40 -8t-40.5 -6.5t-48 -7z" />
<glyph unicode="2" horiz-adv-x="807" d="M31 379q0 -51 3.5 -101t8.5 -100h27q31 0 62.5 -1t62.5 -7q11 -2 23 -2h24q94 0 187 6t187 6h42q20 0 40 -2q2 32 5.5 65.5t3.5 65.5q0 23 -1 45t-1 43q-103 -23 -203.5 -42.5t-202.5 -39.5q-6 47 -14.5 95.5t-8.5 95.5q0 8 6 29t14.5 44t17 42t14.5 22q2 2 12.5 5.5 t22.5 8t23 8.5t15 5q51 17 105 34t102 41q9 4 30.5 12.5t45 18.5t42.5 19.5t22 15.5q5 9 11.5 32.5t12.5 50t10 51t4 34.5q0 15 -4 40t-10 51t-14 49t-17 34q-24 35 -42 73.5t-40 73.5q-5 9 -25.5 15t-45 10t-47.5 6t-33 2q-42 0 -81 1t-81 9q-4 3 -12 3q-17 0 -39.5 -5 t-46.5 -12.5t-46.5 -16.5t-39.5 -16q-10 -4 -22.5 -26t-25 -54t-25 -69t-22.5 -71.5t-17.5 -61.5t-10.5 -39l76 6q23 2 43.5 7t42.5 11q8 2 14 2h14q28 0 56 -6q2 8 5.5 28.5t8.5 43t11 40.5t14 21q5 2 16.5 5.5t24.5 7t24.5 6t16.5 2.5t17 -3.5t25.5 -9t26 -10.5t17.5 -8 q1 0 2 -1q2 -2 2 -3q0 -19 4 -42t9 -47t9 -47.5t4 -43.5q0 -5 -6 -16t-14.5 -22.5t-17.5 -20t-15 -9.5q-9 -1 -23.5 -8t-31 -15.5t-33 -16.5t-29.5 -11q-45 -14 -88 -31t-88 -34q-10 -3 -26.5 -11t-33.5 -17.5t-31 -21t-19 -22.5q-3 -6 -5.5 -24t-4 -40t-2.5 -42t-3 -31 q-5 -41 -12.5 -81.5t-7.5 -80.5z" />
<glyph unicode="3" horiz-adv-x="786" d="M20 252q0 -19 1 -42t2 -42.5t4 -22.5q4 -6 21.5 -18t43 -27t55.5 -30.5t57 -28.5t48.5 -22t30.5 -11q3 -2 7 -2h7q42 0 88 10.5t86 22.5q10 2 39.5 17.5t63 35t64.5 37.5t44 25q13 8 25 22.5t21 31.5t14.5 35t5.5 33v86q0 28 -0.5 58.5t6.5 58.5q0 2 1 3.5t1 4.5 q0 13 -8 27.5t-20 28t-25 25.5t-23 20q-14 9 -34 18t-41.5 17.5t-43 16t-37.5 13.5l125 72q12 7 24.5 18t23 24t18.5 27t10 27q3 21 8 49t10.5 57.5t9 56.5t3.5 46q0 9 -2 27t-5.5 37t-8 35.5t-9.5 23.5q-7 9 -25 32.5t-38.5 49t-37.5 46.5t-22 24t-30 5.5t-55 5t-58 4.5 t-39 3q-37 5 -74.5 11.5t-75.5 6.5h-14q-10 -3 -33.5 -14.5t-49 -25.5t-48 -28t-29.5 -22q-7 -7 -13.5 -26.5t-12.5 -46t-11 -56.5t-9 -58t-6.5 -50.5t-4.5 -34.5q32 6 69.5 15.5t71.5 9.5q22 0 43.5 -2t42.5 -5q3 17 7 35t4 35q0 5 7 14t16.5 18t19 15.5t14.5 7.5 q12 2 24 2h25h19q14 0 29 -1.5t28 -3.5t16 -7q4 -4 10.5 -26t12.5 -48t10 -50t4 -32q0 -9 -7.5 -25.5t-18 -33.5t-22.5 -31.5t-21 -19.5q-35 -19 -58.5 -32.5t-45.5 -23.5t-48.5 -17t-67.5 -13q3 -22 3.5 -43.5t0.5 -42.5v-135q7 -1 33 -3t56 -5t55 -6t31 -5q9 -3 18 -11.5 t16.5 -20t13 -23.5t7.5 -21q4 -13 8.5 -36.5t8.5 -49t6.5 -49.5t2.5 -39q0 -7 -8.5 -19t-20 -24.5t-23.5 -23.5t-19 -15q-6 -4 -22.5 -9t-35 -9.5t-35.5 -7t-26 -2.5q-7 0 -13.5 14t-12.5 35t-11 46.5t-8.5 48.5t-6 40.5t-3.5 22.5q-56 -14 -111.5 -23t-112.5 -18v-50v-24z " />
<glyph unicode="4" horiz-adv-x="793" d="M0 520q75 5 151.5 10t151.5 13q3 2 7 2h7q26 0 51 -2.5t50 -5.5q-6 -47 -13.5 -92.5t-13.5 -92.5q-2 -18 -5 -38.5t-3 -39.5q0 -27 -2.5 -60t-6.5 -66.5t-7.5 -66.5t-6.5 -61q60 8 121 17.5t121 9.5h34q17 0 36 -2q-6 56 -9.5 107.5t-3.5 107.5q0 63 6 126t9 126l80 6 q5 23 7.5 46t2.5 44q0 20 -3 39t-3 39q0 14 1 26.5t1 26.5l-76 -12q-3 92 -6 180q-2 65 -0.5 130t-3.5 130q-6 70 -13.5 139t-15.5 140q-26 -26 -52.5 -54t-49.5 -57q-50 -66 -93 -136t-88 -138q-23 -34 -50 -67.5t-52 -65.5q-48 -60 -94 -120t-94 -120q-11 -13 -22 -35 t-20.5 -46t-17 -47.5t-12.5 -39.5zM260 696q43 78 94 148t99 145q-2 -69 -6 -137t-7 -137q-46 -5 -90.5 -8t-89.5 -11z" />
<glyph unicode="5" horiz-adv-x="831" d="M0 338q25 -17 60.5 -43t72 -54.5t68.5 -56t49 -47.5q9 -10 31.5 -23t49 -25t51.5 -20t40 -8q11 0 33 10t46.5 23.5t46.5 26.5t34 20q9 6 30 26.5t43.5 43.5t40.5 45t21 31q8 24 20.5 66t24.5 88t20.5 89t8.5 68q0 12 -2.5 23.5t-10.5 19.5q-4 5 -19.5 16.5t-36.5 26 t-45 30t-46 30t-40 25.5t-26 15q-25 14 -62 22.5t-76.5 13.5t-78.5 8.5t-69 7.5q3 24 5.5 49.5t2.5 50.5q0 23 -1 45t-3 45q69 -8 138 -17.5t138 -15.5q32 -3 62 -3l60 -2q30 0 60.5 -2t63.5 -7q2 46 3.5 89.5t4.5 88.5q-94 -2 -187.5 -5t-187.5 -3q-85 0 -168.5 10.5 t-167.5 26.5q2 -28 3 -57t1 -58q0 -45 -2.5 -93t-11.5 -91q-9 -48 -11 -99.5t-5 -101.5q11 -5 33 -17.5t46.5 -26t47 -24.5t33.5 -14q48 -14 93.5 -29.5t92.5 -29.5q9 -3 26 -8.5t34.5 -12.5t31.5 -14.5t18 -15.5q4 -7 4.5 -14t0.5 -13q0 -23 -5 -57t-17.5 -65.5t-32.5 -54 t-50 -22.5q-25 0 -52 8t-50 17q-23 8 -57.5 34t-70 57.5t-67 63.5t-49.5 52q-13 -28 -21.5 -46.5t-17 -35t-19 -34.5t-28.5 -46z" />
<glyph unicode="6" horiz-adv-x="915" d="M31 735q0 -17 2.5 -34.5t5.5 -34.5q6 -47 13.5 -92.5t10.5 -92.5q2 -19 11 -53t21 -70t25.5 -68.5t24.5 -47.5q12 -16 47 -43.5t76 -56.5t80 -55l60 -40q12 -8 23.5 -13t25.5 -5q26 0 53.5 10t52.5 18q16 4 51.5 22t73 41t68.5 46t39 37q2 4 6.5 21t9.5 41t11 52.5 t11.5 54.5t9.5 46t5 28q2 13 2 26v28q0 8 -0.5 29.5t-1 44.5t-1.5 43t-3 26q-3 9 -20 24.5t-38.5 32t-41.5 30.5t-29 20q-37 21 -77.5 32t-82 16t-83.5 6t-83 1h-59q-29 0 -58 -2q5 16 11.5 40t12.5 50t10.5 50.5t4.5 41.5q0 9 12 31t28.5 45t32.5 42t24 21q3 2 8 2h8 q32 0 65.5 -1.5t65.5 -6.5q12 -1 33 -12.5t43.5 -25.5t42.5 -28.5t31 -23.5q29 -23 54 -51.5t50 -54.5q12 38 20.5 62.5t18 45.5t20.5 43.5t27 56.5q-39 26 -92.5 63t-113 71t-119.5 58t-111 24q-13 0 -39 -3t-53.5 -7.5t-52 -10.5t-35.5 -12q-10 -6 -22.5 -18.5t-25 -27 t-23.5 -28t-18 -22.5q-35 -48 -66.5 -101t-49.5 -108q-9 -25 -16.5 -61t-13.5 -74t-9.5 -75t-3.5 -63zM268 604q38 0 78.5 -3.5t75.5 -14.5q10 -3 35 -14.5t50.5 -25.5t45.5 -28.5t20 -23.5q0 -12 -3 -39t-7.5 -57t-9 -56.5t-8.5 -36.5q-8 -20 -17.5 -35.5t-33.5 -15.5 q-16 0 -38 2t-44 6.5t-41.5 13t-30.5 21.5q-8 11 -16 33.5t-15 52t-13.5 62t-11.5 63t-9 56t-7 40.5z" />
<glyph unicode="7" horiz-adv-x="834" d="M10 1354q1 -3 4.5 -15.5t7.5 -27.5t7.5 -28t3.5 -17q0 -20 -2 -40t-2 -40q0 -23 7.5 -49t12.5 -47q47 12 96 21t97 9q71 0 140 2.5t140 7.5l-86 -198q-23 -54 -48 -110t-42 -111q-3 -11 -24.5 -49t-53 -90t-68.5 -111.5t-71 -113.5t-60.5 -96t-37.5 -58 q57 -14 99.5 -25.5t80.5 -25t77.5 -29.5t90.5 -39q18 63 38 125t40 125q9 29 17 61t22 59q12 28 24 58.5t24.5 61t26.5 60t29 54.5q4 8 9.5 27t12 44.5t13.5 54t13 55t10.5 48.5t7.5 33q11 56 32 111.5t45 110t48.5 108t42.5 106.5q-36 -5 -74.5 -10.5t-75.5 -5.5 q-56 0 -111.5 2t-111.5 -6q-66 -10 -132 -16.5t-132 -6.5q-47 0 -93.5 5.5t-93.5 15.5z" />
<glyph unicode="8" horiz-adv-x="825" d="M31 446q0 -51 9.5 -101t20.5 -99q6 -25 32 -52.5t60.5 -51t70.5 -40.5t61 -22q5 -2 11 -2h11q13 0 37 2t53.5 5t60.5 7l60 9q28 4 49 8.5t29 7.5q5 2 20 11t35 21.5t42 27t40 28.5t30.5 26t12.5 19q8 65 13.5 135t5.5 135q0 17 -7 46.5t-18 60t-24.5 57t-26.5 37.5 q-9 8 -25 15t-34 14t-34.5 12t-27.5 8q12 8 36 25.5t50 38t47 40.5t27 33q8 18 12.5 41.5t7.5 48t4 49t2 44.5v8q1 15 -4 40.5t-12.5 53t-17.5 52t-19 36.5q-7 11 -23 32.5t-34 44.5t-34.5 42t-25.5 24q-12 7 -26 8t-27 1q-23 0 -55 -1.5t-69 -4t-75 -6.5t-74 -8.5t-66 -10 t-50 -12.5q-18 -6 -36 -23.5t-34.5 -39.5t-30 -44.5t-20.5 -38.5q-8 -17 -9 -38t-1 -40q0 -31 2 -62t2 -63q0 -12 -1 -23t-1 -22q0 -16 4.5 -40.5t11.5 -50.5t15.5 -49.5t15.5 -37.5q4 -7 20.5 -17.5t36.5 -21.5t38 -19.5t24 -10.5q-22 -16 -43.5 -29.5t-44.5 -26.5 q-9 -5 -20 -26t-21 -45.5t-19 -48.5t-14 -35q-9 -22 -12.5 -45t-3.5 -46zM283 1145q0 14 4 26.5t16 20.5q10 7 24.5 13t29.5 11t30 8t27 3q6 0 11.5 -1t10.5 -3q10 -5 18.5 -8.5t16.5 -8.5q13 -8 22 -22t14.5 -30t9 -32t5.5 -30q5 -23 7.5 -47.5t2.5 -47.5t-5.5 -38.5 t-26.5 -24.5q-32 -11 -65 -26t-68 -15q-25 0 -39 12.5t-21.5 31.5t-9.5 41t-2 40q0 12 1 24t-1 23q-2 20 -7 39t-5 41zM289 500v10q0 6 2 12q11 31 17.5 64t13.5 65q11 11 24 18t29 7q11 0 21 -2t20 -2q15 0 28.5 5t28.5 5q14 0 22 -8t13 -21q9 -28 9 -56.5t5 -57.5 q6 -35 13.5 -71t7.5 -73v-14q-2 -13 -8 -28.5t-14.5 -30.5t-19 -28t-22.5 -20q-7 -5 -19.5 -8.5t-26 -5t-26.5 -2t-22 -0.5h-13q-8 0 -16.5 1t-16 2.5t-11.5 4.5q-6 5 -9 23t-5.5 39.5t-3.5 41.5t-3 29q-5 25 -11.5 50t-6.5 51z" />
<glyph unicode="9" horiz-adv-x="854" d="M31 1001q0 -13 0.5 -35t2 -45.5t4.5 -44.5t7 -32q6 -17 32.5 -36.5t64.5 -38t82.5 -35.5t86.5 -31t76.5 -23.5t52.5 -13.5q34 -8 69 -14.5t71 -12.5v-107q0 -1 0.5 -8t0.5 -16v-16q0 -7 -1 -9q-3 -8 -9.5 -26t-15 -37t-17.5 -34.5t-16 -18.5q-11 -5 -26.5 -6t-26.5 -1 q-14 0 -31.5 1t-29.5 6q-9 3 -33.5 22t-52.5 42t-53 45.5t-36 31.5q-7 7 -21.5 14.5t-31 14.5t-32.5 13t-25 9q-12 -34 -18 -52t-13 -33t-18 -33t-33 -50q31 -17 62 -37t57 -43q18 -16 42.5 -35.5t50.5 -39t51.5 -37t45.5 -29.5q10 -5 34.5 -13t52.5 -15t53 -12t36 -5 q15 0 31.5 8.5t32.5 21t30 26t23 22.5l37 37q21 21 43 44t40.5 46t27.5 41q8 17 14 48.5t9.5 67t5 68.5t1.5 53q0 29 -2 58.5t-2 60.5q0 71 4 142.5t4 142.5q0 63 -14 114t-43 107q-17 32 -33 55.5t-47 42.5q-11 6 -45 18.5t-74 25t-76 23t-51 13.5q-12 3 -24.5 5.5 t-26.5 2.5q-32 0 -65.5 -12t-61.5 -25q-17 -7 -36 -19t-37.5 -27t-35 -30.5t-28.5 -29.5q-11 -14 -25.5 -40.5t-28.5 -56.5t-24.5 -58.5t-13.5 -45.5q-3 -18 -3.5 -37.5t-0.5 -36.5zM256 967q0 15 2 29t8 28q11 34 19 69.5t20 69.5q5 10 16.5 20.5t25.5 19.5t29 14.5t25 5.5 q7 0 24.5 -4.5t37 -11t37 -12.5t24.5 -9q10 -5 18 -29.5t14 -59.5t10.5 -75t7.5 -76.5t5 -64.5t3 -39q-6 -1 -14.5 -4.5t-18 -6.5t-18 -5.5t-13.5 -2.5q-12 0 -26 4.5t-25 6.5q-25 5 -49.5 9t-48.5 7q-19 2 -39.5 13t-36.5 27.5t-26.5 36.5t-10.5 40z" />
<glyph unicode=":" horiz-adv-x="406" d="M41 129q0 -23 7 -48t13 -46q44 3 85.5 5.5t84.5 2.5q34 0 66.5 -3.5t67.5 -8.5q-7 52 -8 104t-3 105q-13 -4 -31 -9.5t-37 -11t-37 -9t-32 -3.5q-43 0 -86 1t-88 3q0 -22 -1 -42t-1 -40zM41 743q0 -24 7 -48t13 -46q32 2 64.5 5t64.5 3q35 0 67.5 -3.5t66.5 -8.5 q-7 53 -8 104.5t-3 104.5q-35 -11 -71.5 -21t-73.5 -10h-63q-31 0 -62 2q0 -21 -1 -41.5t-1 -40.5z" />
<glyph unicode=";" horiz-adv-x="371" d="M41 287q7 -28 10 -57t5.5 -58t6.5 -57.5t13 -57.5l121 13q-19 -39 -29 -62.5t-21.5 -42.5t-30 -39t-55.5 -53l121 -66q20 29 40.5 57.5t41.5 57.5q9 13 19.5 25t19.5 26q6 10 11 26t8.5 33t5.5 33.5t2 28.5v10q0 4 -2 9q-5 46 -4.5 93t0.5 93q-38 -6 -76.5 -12t-75.5 -6 q-66 0 -131 6zM41 743q0 -24 7 -48t13 -46q32 2 64.5 5t64.5 3q35 0 67.5 -3.5t66.5 -8.5q-7 53 -8 104.5t-3 104.5q-35 -11 -71.5 -21t-73.5 -10h-63q-31 0 -62 2q0 -21 -1 -41.5t-1 -40.5z" />
<glyph unicode="&#x3c;" horiz-adv-x="700" d="M20 700q53 -51 105.5 -102.5t103.5 -103.5q26 -26 53 -52.5t50 -54.5q37 -48 78.5 -92.5t83.5 -89.5q13 41 24.5 68.5t23 48t23.5 37t26.5 34.5t31 40.5t36.5 55.5q-58 38 -116 75t-115 77q-31 23 -62 44.5t-63 41.5q57 59 110.5 120t110.5 120q19 18 39.5 32.5 t40.5 28.5q-15 28 -33.5 57t-27.5 58q-3 8 -11.5 18.5t-18.5 20t-20.5 18.5t-17.5 14q-32 -51 -66 -101t-69 -99q-14 -19 -32.5 -40t-39 -41t-42.5 -38.5t-42 -32.5q-18 -13 -40 -34t-44.5 -44.5t-43.5 -46t-36 -37.5z" />
<glyph unicode="=" horiz-adv-x="936" d="M41 344q59 2 118 5t117 3q35 0 67.5 -9t64.5 -9q20 0 40.5 4t40.5 4q103 0 204.5 -3t201.5 -9q-3 32 -6.5 64.5t-3.5 64.5v127q-72 -12 -145.5 -25t-147 -24t-147.5 -18t-148 -7q-65 0 -128 6t-126 8zM41 672q59 2 118 5t117 3q35 0 67.5 -9t64.5 -9q20 0 40.5 4t40.5 4 q103 0 204.5 -3t201.5 -10q-3 32 -6.5 64.5t-3.5 64.5v127q-72 -11 -145.5 -24t-147 -24t-147.5 -18t-148 -7q-65 0 -128 6t-126 8z" />
<glyph unicode="&#x3e;" horiz-adv-x="700" d="M41 930q59 -37 117.5 -74.5t113.5 -79.5q31 -21 63 -42.5t64 -41.5q-58 -59 -112 -121t-111 -120q-17 -17 -38.5 -32.5t-41.5 -29.5q17 -26 34.5 -56t27.5 -59q3 -8 11.5 -18t19 -20t20.5 -18t16 -13q65 101 135 198q15 20 33.5 41t39 41.5t42 38.5t41.5 33q18 12 40 33 t45 44.5t43.5 46t35.5 38.5q-53 51 -104.5 101.5t-104.5 103.5q-25 26 -52 52.5t-50 55.5q-38 48 -78 92.5t-82 89.5q-13 -40 -25 -67.5t-23.5 -48.5t-24 -37.5t-26.5 -34.5t-31 -40.5t-38 -55.5z" />
<glyph unicode="?" horiz-adv-x="891" d="M10 1251q29 -51 55 -99.5t52 -100.5q1 1 22 16t52.5 38t68.5 49.5t69 49.5t55 38t26 15q2 0 21 -7t42 -15.5t45 -16.5t31 -10q18 -5 35 -25t29.5 -45.5t20 -52.5t7.5 -47q0 -6 -7.5 -28t-17 -46.5t-19 -44.5t-13.5 -22q-3 -2 -12 -2h-13q-40 0 -78.5 4t-79.5 4 q-7 0 -28.5 -17.5t-46 -40.5t-45 -44.5t-25.5 -30.5q-3 -3 -3.5 -8t-0.5 -10q0 -14 6 -46t15 -72t20 -85t21.5 -86t19 -74.5t12.5 -50.5l146 12q-4 50 -9.5 98.5t-5.5 98.5q0 25 3.5 50t6.5 50q25 5 59.5 13t70.5 19t69.5 25t54.5 29q26 18 40.5 32.5t23 29.5t14.5 34.5 t15 47.5q8 24 13 58t8 70.5t4 71.5t1 60q0 34 -17.5 58.5t-35.5 49.5q-5 8 -24.5 30t-42 47t-42.5 45.5t-26 25.5q-9 5 -33 13t-52 15t-52.5 12t-34.5 5q-16 0 -39 -3.5t-47 -9t-46 -13.5t-36 -17q-15 -9 -44.5 -23.5t-62 -28t-62.5 -24.5t-48 -14q-11 -3 -25 -9.5 t-29 -14.5t-28.5 -16t-22.5 -14zM256 150l10 -117q48 2 95 4t94 2q29 0 57.5 -3.5t56.5 -8.5l2 41q0 38 -5 73t-11 72q-74 -17 -149.5 -31t-149.5 -32z" />
<glyph unicode="@" horiz-adv-x="1335" d="M31 778q0 -37 2.5 -76.5t11.5 -76.5q7 -28 20.5 -73.5t30 -94.5t33.5 -92.5t29 -67.5q11 -20 29.5 -46.5t40.5 -52.5t45.5 -47.5t43.5 -31.5q16 -8 40 -17t49.5 -16.5t49.5 -12.5t42 -5q117 0 233 -10.5t234 -16.5l-9 154q-58 -11 -114.5 -18t-118.5 -7h-25q-12 0 -24 2 q-60 11 -119 19t-119 16q-24 3 -50 22.5t-50.5 49.5t-46.5 66t-38.5 72t-25.5 69t-8 55l2 10q2 35 7 70t12 70t13 70t9 70q1 15 6 39.5t12.5 53.5t17 61t19 61t18 52.5t15.5 36.5q6 11 26.5 33t45.5 43.5t48.5 39t35.5 19.5q26 3 54 4.5t54 1.5q6 0 23.5 -1.5t40.5 -3.5 t48.5 -5t47 -6t37 -5t18.5 -4q12 -7 29 -19t35 -26l36 -26q18 -14 31 -23q12 -8 25 -32t24 -52.5t20 -55.5t13 -42q11 -29 16 -59.5t5 -61.5q0 -25 -3.5 -63t-8.5 -78.5t-11.5 -78t-11.5 -61.5q-1 -5 -3.5 -13.5t-6 -17t-8.5 -14.5t-11 -6q-8 0 -14 -1t-12 -1 q-16 0 -23.5 5.5t-13.5 21.5q-3 10 -8.5 36t-12 60t-13 72t-12 71.5t-9.5 59.5t-5 35q-2 38 -3.5 76t-4.5 75l-108 -6q6 -30 6 -65q-34 0 -67.5 1t-67.5 1q-33 0 -54.5 -1.5t-36.5 -5t-26.5 -9.5t-24.5 -14.5t-30.5 -19.5t-44.5 -26q-7 -4 -17 -17.5t-19.5 -30t-16.5 -32 t-9 -23.5q-8 -29 -11 -61.5t-3 -63.5q0 -20 6 -43q4 -13 11.5 -39.5t17 -54.5t19.5 -51.5t18 -30.5q8 -9 25 -20.5t36.5 -22.5t38.5 -19.5t31 -12.5q20 -5 43 -7t45 -2q35 0 65 5.5t56.5 17t52 29t51.5 41.5q30 -23 53 -42.5t46.5 -34t52.5 -22.5t71 -8q15 0 33 4.5t36 11.5 t34 15.5t28 15.5q18 11 31.5 20.5t24 21t17 26.5t9.5 37q9 72 11 147t4 147l2 23q0 17 -1.5 47t-4.5 63t-7.5 62.5t-9.5 44.5q-19 56 -38 112.5t-42 110.5q-10 26 -22.5 55t-28.5 55t-38 46.5t-52 30.5q-69 23 -131 34t-123 15.5t-124 6t-134 5.5h-47q-75 0 -148 -28.5 t-123 -84.5q-18 -21 -39.5 -48t-40.5 -56.5t-33.5 -59.5t-19.5 -57q-14 -80 -27.5 -159t-33.5 -156q-5 -17 -5.5 -35t-0.5 -37zM590 633q0 13 1.5 36t5.5 47.5t10.5 45t15.5 29.5q4 4 6.5 14t6 21.5t9.5 22.5t17 17q14 10 32 12.5t33 2.5h19q9 0 18 -2q2 -28 3 -56.5 t7 -54.5q3 -16 7 -42.5t7.5 -55t6 -55t2.5 -42.5q0 -25 6 -51q-25 -8 -43.5 -14.5t-36.5 -11t-37.5 -7t-48.5 -2.5q-18 0 -28 18t-14 42.5t-4.5 49t-0.5 36.5z" />
<glyph unicode="A" horiz-adv-x="838" d="M-31 119q53 -1 87 -2t65.5 -4t67 -9t90.5 -18q11 35 22 67.5t20.5 64t17.5 64.5t13 70q31 -9 54 -13t44.5 -5t45.5 -0.5t57 0.5l25 -277q33 8 57.5 13.5t45 9.5t38.5 7.5t38 9.5t44 14.5t57 21.5q-2 9 -5 21t-6 25t-5 25.5t-2 20.5q0 11 -3.5 28t-8 35.5t-9.5 36t-8 27.5 q-22 85 -43 169t-41 169q-3 13 -8 30.5t-9.5 36t-8 36t-3.5 30.5q0 10 -5.5 30t-8.5 30q-4 18 -15 54t-22.5 75t-20 73t-8.5 48q0 10 -8.5 38.5t-22 66.5t-29.5 81.5t-30.5 82t-25.5 67t-15 38.5q-4 -14 -14 -46t-21.5 -67t-23.5 -65.5t-22 -42.5q-8 -11 -19 -36 t-23.5 -57.5t-25.5 -69.5t-25.5 -72t-23 -64t-17.5 -47q-51 -121 -99.5 -240t-90.5 -241q-29 -85 -57 -169.5t-56 -170.5zM373 596q25 97 53.5 189.5t48.5 189.5q11 -43 22 -91t11 -93q0 -48 11 -98.5t22 -96.5h-168z" />
<glyph unicode="B" horiz-adv-x="836" d="M20 72q48 -2 96.5 -3t96.5 -3q71 -5 140 -16t141 -11q45 0 91.5 10t80.5 41q9 9 27 38t36 62.5t31.5 64t13.5 42.5q0 21 -2.5 47t-5.5 53t-6.5 53t-5.5 48q-3 21 -8.5 42.5t-14.5 41t-22.5 35.5t-32.5 26q-40 23 -91.5 44t-95.5 40q36 16 71.5 30.5t70.5 28.5 q17 8 35.5 14.5t35.5 14.5q14 7 29 19t28.5 26.5t24.5 30.5t17 31q3 11 7 40t8 63t6.5 64.5t2.5 43.5q0 15 -12 36t-28.5 42.5t-33.5 41.5t-28 33q-9 12 -25 29.5t-34.5 34t-38 28t-35.5 11.5q-14 0 -31.5 -3.5t-36.5 -3.5q-60 0 -118 3.5t-116 5.5q-56 2 -112 2t-113 2 q2 -85 3.5 -168t1.5 -168v-4q0 -69 -3 -139.5t-6 -141.5q-3 -80 -5.5 -159.5t-8.5 -159.5q-5 -96 -11.5 -191.5t-13.5 -191.5zM283 637q14 -4 34 -8.5t41 -10t41 -11.5t33 -13q11 -6 22 -19t20 -28.5t14.5 -31.5t5.5 -28q0 -31 -5.5 -60t-5.5 -60q0 -11 -0.5 -24t-3.5 -26 t-8.5 -24t-15.5 -17q-6 -4 -30.5 -7t-53 -5.5t-53 -4t-30.5 -1.5q0 54 1.5 107.5t1.5 107.5q0 42 -2.5 82t-5.5 82zM301 852q2 48 5 95t3 93q0 31 -2.5 62.5t-5.5 62.5h174q8 0 17 -11t16.5 -26t12.5 -29.5t5 -21.5q0 -20 3 -41t3 -41q0 -9 -0.5 -17.5t-5.5 -16.5 q-10 -16 -40 -33t-65 -32t-68.5 -26.5t-51.5 -17.5z" />
<glyph unicode="C" horiz-adv-x="1044" d="M31 633q0 -67 8.5 -130.5t32 -119t63.5 -103t103 -83.5q14 -8 49 -23.5t81 -33.5t97 -36.5t97 -34t81 -25t49 -9.5q16 0 39 8.5t47 20t46 24t36 21.5q47 29 90.5 67.5t83.5 73.5q-18 29 -43.5 58.5t-53.5 59t-55.5 57.5t-50.5 52q-2 -3 -10 -16t-18.5 -30t-23 -36.5 t-23.5 -36.5t-19.5 -29t-11.5 -14q-8 -5 -13.5 -5.5t-15.5 -0.5q-18 0 -43 4.5t-51 11t-50 14t-42 13.5q-23 8 -53 28t-58 46.5t-49.5 55t-27.5 53.5q-4 8 -4.5 16t-0.5 16q0 29 2.5 69.5t6 83t9 82.5t11.5 68q5 23 16 45.5t26 43.5t32 40t33 35q12 13 29.5 35t38 43 t41.5 36t40 15q24 0 52 -14.5t57.5 -37.5t59.5 -51.5t56.5 -57t48 -53.5t35.5 -40q10 87 28 167t38 165q-26 17 -50.5 33.5t-47.5 36.5q-19 17 -54.5 31t-75 24.5t-77 16.5t-62.5 6q-59 0 -105.5 -18t-88.5 -60q-31 -31 -69 -60t-76.5 -57.5t-75.5 -58t-68 -62.5 q-37 -40 -58 -95.5t-26 -111.5q-3 -59 -7.5 -116.5t-4.5 -116.5z" />
<glyph unicode="D" horiz-adv-x="850" d="M31 0q55 -6 112.5 -13t114.5 -7q29 0 66 4t75.5 10t75 14t62.5 17q30 10 65.5 39t70 65t62.5 74t43 65q8 16 12.5 37t6.5 42.5t2.5 43t-0.5 39.5v39q0 45 4.5 89t10.5 88.5t10.5 88.5t4.5 88q0 18 -6 47t-15.5 62.5t-22 70t-25 69t-25 59t-22.5 40.5q-24 35 -59.5 60 t-76 43t-83 29t-80.5 18q-96 19 -189.5 36t-189.5 29q0 -52 2 -105t4 -107l4 -50q2 -25 4 -51v-63q0 -125 -5 -249t-5 -249q0 -128 -2.5 -256t-5.5 -256zM291 500q0 38 0.5 78.5t5.5 80.5q8 65 8 132v133v80q0 40 -2 81q13 -4 45.5 -17t67.5 -29.5t64 -34t36 -31.5 q10 -22 16.5 -50.5t10 -58.5t5 -59t1.5 -53v-58q-2 -34 -2 -81t-2 -95.5t-9 -92.5t-24 -73q-12 -19 -39.5 -41.5t-59.5 -44t-63 -39.5t-49 -28q-5 75 -7.5 150t-2.5 151z" />
<glyph unicode="E" horiz-adv-x="858" d="M-72 14q39 7 80.5 14t79.5 7q25 0 49.5 3.5t48.5 6.5q53 8 105 14t104 13q34 5 70 5q4 -1 7 -1h77q66 0 132 -1t132 -3v112q0 45 -2 90t-4 88q-23 -10 -53 -16t-61.5 -9t-62 -4t-55.5 -1q-29 0 -57 3t-57 3q-47 0 -93.5 -2.5t-93.5 -7.5q-5 88 -7 176t-11 176 q17 -2 33 -2t33 -2q6 0 17 -3.5t23.5 -8t23.5 -9t17 -6.5q38 -12 74 -24t74 -17q49 -8 97 -14t97 -12q0 38 2.5 77.5t2.5 77.5q0 31 -1.5 61.5t-3.5 59.5q-45 -6 -88 -10t-88 -4q-20 0 -40 1t-40 1q-45 0 -89 -2.5t-89 -5.5q0 43 -0.5 73.5t-2.5 58t-5.5 58t-9.5 72.5 q9 2 19 2h20q37 0 74 -6q27 -5 55.5 -5.5t56.5 -0.5q79 0 155 -4t154 -13l-14 238q-108 -10 -216.5 -19.5t-217.5 -9.5q-48 0 -100 1t-99 13q-43 11 -85.5 17.5t-86.5 11.5q5 -46 8 -94t11 -94q3 -20 11 -43t13 -41q8 -23 10 -48.5t2 -50.5q0 -58 -7.5 -116t-10.5 -117 q-4 -52 -4 -103q1 -6 1 -13q0 -58 1 -115.5t1 -115.5q0 -6 1 -13q0 -52 -4 -103q0 -10 -7.5 -29.5t-18.5 -44t-24 -51t-25.5 -50.5t-22.5 -42.5t-15 -26.5z" />
<glyph unicode="F" horiz-adv-x="807" d="M20 90q19 -6 54.5 -9t75 -4.5t75 -2t54.5 -2.5q2 21 3 42.5t1 43.5q0 71 -9.5 140t-9.5 140q0 110 12 213q18 0 44.5 0.5t55 0t55 -2t44.5 -6.5q28 -6 61.5 -5t61.5 1h48q24 0 48 2q-2 29 -3 59.5t-1 59.5q0 37 2.5 73.5t5.5 73.5h-63q-26 0 -52.5 -0.5t-52.5 -3.5 q-55 -8 -112 -10t-113 -3q9 21 13 53.5t6 68.5t2 70v55q114 -10 226 -14t226 -9v82q0 42 8 82v18q0 34 -5 67.5t-11 68.5q-45 -7 -89 -12.5t-89 -16.5q-57 -16 -120.5 -20.5t-123.5 -4.5q-158 0 -317 -12q8 -97 14 -192t12 -191q7 -130 8 -260t1 -260q0 -96 -13 -187.5 t-33 -185.5z" />
<glyph unicode="G" horiz-adv-x="1051" d="M31 500q0 -39 11.5 -81.5t29 -85t39.5 -82t43 -71.5q25 -41 72 -72t102.5 -51.5t113.5 -30.5t105 -10q43 0 87 3t87 8q11 1 32 9t46.5 20t52 27t49.5 30.5t39.5 29t20.5 23.5q5 11 13 38t15.5 57t13.5 57.5t7 39.5q2 28 2 56v55l8 246q-69 -5 -138 -11t-139 -6 q-60 0 -120 7.5t-119 13.5v-30q0 -57 -6 -113q-7 -70 -15 -142q41 3 78.5 9.5t75.5 17.5q15 5 29.5 5.5t31.5 0.5h29q15 0 31 -2v-98q0 -11 1 -24.5t-1 -23.5t-21.5 -25.5t-44.5 -30.5t-48.5 -25.5t-33.5 -10.5q-13 0 -42 15.5t-62 36t-62.5 40.5t-44.5 29 q-23 15 -38.5 50.5t-24.5 77.5t-13 83.5t-4 67.5q0 14 3 40.5t8 58.5t11.5 67t14.5 66t16.5 54.5t16.5 32.5q11 12 39 37.5t59.5 52t60.5 46.5t42 20q18 0 36 -6.5t34.5 -18t29.5 -26t21 -29.5l34 -70q17 -35 37 -69l230 65q-6 23 -16 56.5t-22 68.5t-24.5 67.5t-23.5 53.5 q-10 17 -34 35t-56.5 36t-70 34t-73 28t-65.5 19.5t-49 7.5q-27 0 -67.5 -14.5t-82 -36t-78 -45.5t-55.5 -44q-14 -13 -35.5 -37t-46.5 -54t-50.5 -63t-47.5 -64t-37.5 -57.5t-20.5 -43.5q-8 -32 -10 -68.5t-4 -68.5q-5 -65 -8.5 -129t-3.5 -129z" />
<glyph unicode="H" horiz-adv-x="842" d="M20 1356q14 -143 26.5 -292t12.5 -290q0 -51 -3 -100t-3 -99q0 -20 1 -40.5t1 -40.5q0 -107 -8.5 -213.5t-17.5 -212.5q28 0 55 -1t55 -1q42 0 81 -1.5t79 -11.5q-6 118 -13 232.5t-7 232.5v68q19 2 37 2h38q19 0 38.5 -1t37.5 -1q59 0 117 6q-3 -51 -9 -101.5t-8 -101.5 q-2 -72 -11.5 -143.5t-20.5 -143.5q20 2 38.5 6.5t36.5 4.5q29 0 58.5 -4.5t60.5 -4.5q34 0 69 1.5t70 3.5l-30 258q-14 137 -21 275t-18 276q-2 26 -2 54v56q0 71 3 140t11 141q-28 2 -56.5 4t-55.5 2q-33 0 -62 2t-61 10q5 -26 7.5 -53.5t2.5 -54.5q0 -50 2 -99t2 -98 q0 -48 -2 -94t-2 -94h-52.5t-52.5 6q-12 3 -25.5 3.5t-27.5 0.5q-26 0 -53 -1t-53 -3q6 74 11 148t11 149q3 48 6 95t11 95l-99 16q-48 8 -102.5 9.5t-102.5 3.5z" />
<glyph unicode="I" horiz-adv-x="389" d="M31 1350q6 -44 11 -87.5t5 -86.5q0 -72 6 -142t6 -141q0 -17 2.5 -34t4.5 -36q6 -45 12 -90.5t6 -91.5v-7q0 -4 -2 -9q-5 -60 -9.5 -120t-4.5 -120q0 -82 -4.5 -163t-12.5 -163q14 -11 33.5 -14.5t36.5 -3.5q25 0 50 3t50 3q34 0 68.5 -6t68.5 -14q-12 91 -17 177t-7 179 q-1 25 -1 55q0 15 0.5 30.5t0.5 31.5q0 32 -1 64q-1 48 -4.5 94t-11.5 81q-5 28 -5.5 57.5t-0.5 57.5q0 122 11.5 237.5t23.5 235.5q-45 2 -82.5 3t-73.5 3.5t-74 6.5t-85 10z" />
<glyph unicode="J" horiz-adv-x="862" d="M10 301q26 -23 53.5 -42.5t53.5 -39.5q51 -38 103 -79t108 -72q31 -17 66.5 -22t70.5 -5q20 0 40.5 0.5t39.5 5.5q9 3 29.5 14.5t45.5 28.5t52.5 37t51.5 38.5t41.5 33.5t22.5 22q8 11 14 33.5t11 51t8.5 60.5t5.5 61.5t3 54t1 38.5q0 26 -0.5 52t-3.5 51q-5 51 -21 103 t-30 101q-3 10 -4.5 38.5t-1.5 60.5v63v43q0 33 -3 72t-7.5 78.5t-9.5 78t-9 70.5q-69 -12 -137.5 -17.5t-136.5 -19.5q3 -45 9 -92t22 -90q11 -30 17.5 -67t12 -76t9.5 -77.5t10 -70.5q15 -91 21.5 -182t23.5 -182q2 -5 2 -10v-11q0 -29 -13.5 -56.5t-27.5 -53.5 q-6 -12 -17 -22t-24 -16.5t-27.5 -10t-27.5 -3.5q-14 0 -34 3.5t-40.5 8.5t-39 11.5t-30.5 13.5q-14 9 -39 31.5t-52 48.5t-51 50l-36 36q-32 -43 -62.5 -88t-62.5 -88z" />
<glyph unicode="K" horiz-adv-x="864" d="M20 1348q4 -44 9 -85.5t10 -84.5q4 -34 6.5 -68.5t5.5 -69t7.5 -69t13.5 -68.5t10.5 -69t1.5 -70q0 -181 -16 -358t-45 -357q52 2 105 7q38 4 75 4q15 0 30 -1h17q-2 130 -4 259.5t-2 259.5v55l127 -2q15 -1 26 -1t19.5 -2.5t16 -9t16.5 -20.5q6 -9 10.5 -30t8 -48 t6 -57.5t4 -59t2.5 -51.5t1 -35q0 -66 -8 -132.5t-20 -131.5q58 3 117 10t118 7q25 0 49.5 -1t50.5 -3q-12 42 -22.5 84t-13.5 86q-5 63 -18 129.5t-36 126.5q-18 52 -24 108q-1 6 -2 16.5t-2.5 22t-3.5 22t-4 15.5q-6 11 -23 19t-38 14.5t-41 11t-32 8.5q-31 9 -62 17 t-63 14q50 48 100 95t101 93q47 45 94.5 90.5t85.5 96.5q20 27 40 54.5t40 53.5q-17 6 -33.5 11.5t-31.5 13.5q-35 14 -75 20.5t-77 16.5q-49 12 -98 34q-22 -57 -44.5 -113.5t-45.5 -113.5q-15 -36 -38.5 -75.5t-50 -78.5t-54 -75.5t-52.5 -67.5q11 78 20.5 154t14.5 153 q2 26 7 56.5t12 62t14 62t12 55.5q-43 -6 -88 -14.5t-88 -8.5q-37 0 -73.5 4t-74.5 9z" />
<glyph unicode="L" horiz-adv-x="690" d="M0 1309q3 -10 8 -27.5t10.5 -36.5t9 -36t3.5 -27q0 -54 3 -113.5t17 -112.5q14 -49 19.5 -105.5t5.5 -109.5q0 -57 8 -115t8 -112q0 -51 -6.5 -103.5t-11.5 -103.5q-8 -60 -14.5 -119.5t-14.5 -119.5q28 2 55.5 5.5t55.5 6.5q31 3 62.5 2.5t62.5 -0.5q91 0 181 3.5 t181 12.5q6 32 14.5 67.5t8.5 67.5q0 41 1 79.5t3 76.5q-42 -18 -72 -30.5t-54 -20.5t-45 -13t-46 -9.5t-56 -8.5t-75 -10q-2 29 -2.5 59.5t-2.5 59.5q-2 60 -5 118t-3 117q0 99 -12 195q-2 9 -2 18v19q0 86 9 171.5t9 172.5q0 28 -1 54t-1 54q-18 -2 -38 -4.5t-40 -5.5 q-32 -5 -65.5 -15t-67.5 -10q-24 0 -49.5 3t-50.5 6z" />
<glyph unicode="M" horiz-adv-x="1192" d="M20 1260q16 -59 32.5 -120.5t21.5 -121.5q8 -69 11.5 -139.5t8.5 -141.5v-55q0 -84 -5.5 -162.5t-15 -156.5t-22 -156t-26.5 -160q40 -2 79.5 -5t79.5 -3q39 0 77.5 1t76.5 3q-12 59 -24.5 118t-24.5 118q-9 45 -14 94.5t-7.5 100t-3 101t-0.5 97.5q0 54 3.5 107.5 t8.5 107.5q52 -152 82 -314q13 -60 23.5 -121t26.5 -120q8 -30 13.5 -65.5t9.5 -72t6.5 -72t4.5 -65.5q60 -6 118.5 -7.5t117.5 -4.5q17 96 33 191.5t30 191.5q3 23 11 45.5t14 44.5q17 63 37.5 126t34.5 126q11 57 20.5 113.5t20.5 113.5q5 -34 7.5 -66.5t2.5 -66.5 q0 -25 -3 -49t-3 -49q0 -62 5 -122t5 -120q0 -80 -5 -158.5t-5 -156.5q0 -57 -10.5 -111.5t-24.5 -109.5q87 5 168 11.5t166 20.5q-2 47 -6 93.5t-15 91.5q-14 54 -22.5 109.5t-18.5 111.5q-6 38 -12 78.5t-6 79.5q0 72 -7 144t-15.5 143.5t-15.5 143t-7 142.5 q0 37 4.5 74.5t9.5 73.5q-25 0 -49 1t-49 1q-53 0 -103.5 -10t-103.5 -15q-17 -120 -47.5 -236t-61.5 -235q-21 -87 -44 -171t-46 -171q-12 37 -25.5 73.5t-27.5 73.5q-22 63 -42 126.5t-46 123.5q-13 29 -21.5 59t-16 60.5t-16.5 60t-24 56.5q-20 37 -34 77t-25 81h-8 q-36 0 -70.5 5t-69.5 5q-29 0 -60.5 -4t-60.5 -6z" />
<glyph unicode="N" horiz-adv-x="809" d="M31 1370q6 -53 10.5 -103.5t9.5 -103.5q6 -61 6 -122q-1 -5 -1 -10v-19q0 -57 3 -113q5 -72 9 -145t4 -148v-12q0 -6 -2 -12q-7 -75 -13.5 -147t-9.5 -146q-9 -118 -12 -230q69 10 136 18t138 13q-15 78 -24 160q-6 44 -6 89q1 9 1 19v24q0 41 -4 83q-2 9 -2 17v18 q0 40 4.5 78.5t10.5 76.5q4 27 4 57q-1 9 -1 18q-2 40 -1 77v96q5 -9 12 -23t13.5 -29.5t12.5 -30t7 -25.5q9 -60 28.5 -117t28.5 -117q6 -33 16.5 -65.5t22.5 -64.5l24 -64q12 -32 21 -64q6 -22 9.5 -49.5t6 -56.5t4.5 -56.5t3 -50.5q54 5 106.5 9.5t106.5 4.5h75 q-9 79 -18.5 158t-17.5 160q-7 46 -7 93v93v131q2 110 5.5 219t9.5 218q3 43 10.5 87.5t15.5 86.5h-16q-24 0 -48 2q-32 3 -65.5 7.5t-66 9.5t-64.5 9q11 -69 17 -130t6 -130q0 -28 -1 -56.5t-1 -55.5q0 -47 4 -94t4 -95q0 -66 -2.5 -133t-7.5 -133q-4 14 -11 43.5t-16 65.5 t-19 75.5t-19.5 74.5t-18.5 61t-15 36q-4 6 -15.5 37t-26.5 74.5t-32 94t-31.5 97t-25.5 82.5t-14 51q-22 -2 -42 -3t-42 -1t-42.5 5t-40.5 11t-40 11t-43 4h-20z" />
<glyph unicode="O" horiz-adv-x="1061" d="M31 733q0 -51 3.5 -101.5t6.5 -101.5q3 -38 5.5 -77t8.5 -76q5 -28 26.5 -59.5t50 -60t59.5 -52t55 -37.5q86 -51 183.5 -82t199.5 -31q54 0 102 12t100 27q33 10 60 32t48 51t36 62t24 64q12 36 18 76.5t9 82.5t3.5 83.5t0.5 79.5q0 65 -4 126.5t-29 122.5 q-16 39 -34.5 90.5t-41 103t-50 97t-62.5 72.5q-15 12 -42 27t-57 28.5t-59.5 24.5t-50.5 16h-6q-34 0 -67.5 -9t-67.5 -9q-15 0 -33 -11.5t-35 -27t-33 -31.5t-28 -26q-45 -36 -91 -70.5t-89 -71.5q-15 -12 -24.5 -31t-17 -40.5t-13 -43.5t-11.5 -40q-6 -19 -15 -43.5 t-17.5 -50t-14.5 -50t-6 -45.5zM281 536v15q0 18 1.5 49t5 69t9 78.5t12.5 76t16.5 62.5t20.5 38q26 26 56 50.5t53 55.5q12 16 20.5 31t18.5 26t24 18t37 7q26 0 55 -3.5t56 -14t48 -28t29 -46.5q6 -18 15.5 -34.5t19.5 -32.5t18.5 -32t12.5 -34q8 -22 9 -51t1 -52 q0 -40 -2.5 -79.5t-7.5 -81.5q-6 -59 -21 -115t-24 -115q-3 -16 -15 -37t-28.5 -40.5t-35 -34.5t-34.5 -19q-18 -5 -38.5 -6.5t-39.5 -1.5q-40 0 -79 11.5t-64 45.5q-11 16 -23 31t-24 29q-5 6 -20 22.5t-31.5 34.5t-29.5 34t-15 21q-2 6 -3.5 15t-2 18.5t-0.5 19.5z" />
<glyph unicode="P" horiz-adv-x="844" d="M31 1323q2 -124 8 -247t6 -247q0 -99 -1 -199v-22q0 -88 7 -176q2 -8 2 -16v-15q0 -80 -6 -158.5t-14 -156.5q65 6 128 14q51 7 103 6h25h26q2 20 2 39v39q0 39 -1.5 81.5t-10.5 80.5q-12 54 -14 112.5t-2 112.5q31 7 62.5 9.5t62.5 7.5q38 5 72.5 21t68 37t67.5 42 t70 35q41 15 65 39t36.5 54t16 65t3.5 73q0 17 -1.5 40.5t-10.5 37.5q-14 24 -28 50.5t-28.5 53t-29 51.5t-29.5 46q-10 14 -28 25.5t-38.5 20.5t-41.5 16t-37 12q-13 3 -25 3.5t-24 0.5q-35 0 -67.5 -3t-66.5 -3q-52 0 -105 4t-106 4q-29 0 -58 3.5t-58 6.5zM279 1114 q40 0 80.5 2t80.5 2q23 0 38.5 -9t21.5 -34q9 -35 13.5 -73.5t16.5 -73.5q2 -6 2 -10v-7q0 -5 -1.5 -18.5t-4 -28.5t-6 -27.5t-8.5 -15.5q-6 -4 -24.5 -11.5t-40.5 -16t-41 -14.5t-27 -7q-23 -2 -47 -2t-47 -2q1 44 1 87q0 130 -7 259z" />
<glyph unicode="Q" horiz-adv-x="1061" d="M31 733q0 -49 3.5 -99t6.5 -99q3 -39 5.5 -79.5t8.5 -78.5q5 -28 26.5 -59.5t50 -60t59.5 -52t55 -37.5q86 -51 184 -83q91 -30 185 -30h12h24q6 -37 11 -72.5t16 -72.5q11 -43 21.5 -85.5t25.5 -84.5q43 25 74 42.5t59 34.5t56.5 38t66.5 53q-7 7 -23.5 24.5t-34 37 t-32.5 38t-19 29.5q-6 15 -15.5 30t-20.5 29q32 11 58.5 33.5t46.5 51t34.5 60.5t23.5 62q12 36 18 76.5t9 82.5t3.5 83.5t0.5 79.5q0 65 -4 126.5t-29 122.5q-16 40 -34.5 91.5t-41 103t-50 96.5t-62.5 72q-15 12 -42 27t-57 28.5t-59.5 24.5t-50.5 16h-6q-34 0 -67.5 -9 t-67.5 -9q-15 0 -33 -11.5t-35 -27t-33 -31.5t-28 -26q-45 -36 -91 -70.5t-89 -71.5q-15 -12 -25 -31t-17.5 -40.5t-13 -43.5t-10.5 -40q-6 -20 -15 -44t-17.5 -49t-14.5 -49.5t-6 -46.5zM281 536v15q0 18 1.5 49t5 69t9 78.5t12.5 76t16.5 62.5t20.5 38q26 26 56 50.5 t53 55.5q12 16 20.5 31t18.5 26t24 18t37 7q26 0 55 -3.5t56 -14t48 -28t29 -46.5q6 -18 15 -34.5t19 -32.5t19 -32t13 -34q8 -22 9 -51t1 -52q0 -40 -2.5 -79.5t-7.5 -81.5q-6 -59 -21 -115t-24 -115q-5 -25 -19.5 -46t-31.5 -40q-17 45 -36 87t-38 85l-131 -35 q20 -48 33 -95t30 -95q-38 0 -77 11.5t-64 45.5q-11 14 -22 29t-23 29q-5 7 -20 23.5t-31.5 35t-30.5 34.5t-16 21q-2 6 -3.5 15t-2 19t-0.5 19z" />
<glyph unicode="R" horiz-adv-x="813" d="M20 1264q4 -8 10.5 -22.5t6.5 -22.5q0 -29 6 -62t6 -65q0 -79 7 -156t7 -156q0 -78 -0.5 -156.5t-5.5 -156.5q-3 -50 -3 -98t-1.5 -96t-6.5 -96t-19 -97q25 -2 49 -2h49q48 0 92 -5.5t90 -13.5q-5 22 -8.5 43.5t-3.5 44.5q0 85 -5 169t-7 169q7 -1 32.5 -3t54.5 -5.5 t53.5 -8t29.5 -9.5q15 -17 27 -46.5t12 -52.5q0 -49 1 -98t1 -98q0 -51 -9.5 -101t-23.5 -100q25 -2 49.5 -3t50.5 -1q50 0 96.5 -5t96.5 -13q-5 38 -8.5 76.5t-8.5 76.5q-5 48 -10.5 94t-5.5 93q0 46 -3 95.5t-16 92.5q-4 15 -14.5 27t-24.5 21.5t-28.5 18t-26.5 15.5 q-31 18 -60.5 36.5t-60.5 37.5q31 9 61.5 16.5t61.5 15.5q10 3 34 13.5t49 23.5t44 27t19 24q0 20 6 43.5t12.5 49.5t12.5 54t6 58q0 11 -0.5 26.5t-2.5 32t-5 31.5t-9 25q-18 37 -46 68.5t-48 66.5q-7 13 -33 24t-57.5 19t-61.5 12.5t-45 4.5q-32 0 -63.5 -3.5t-63.5 -3.5 q-55 0 -110 7.5t-111 7.5q-29 0 -58.5 -1t-58.5 -3zM264 907q0 38 6 77t6 77q19 -2 36.5 -3t35.5 -1q22 0 44.5 2t43.5 2q8 1 22 1h2q12 0 19 -5q8 -5 16.5 -23.5t16 -40.5t12 -42.5t4.5 -30.5q0 -17 -1.5 -44t-8 -52.5t-20.5 -43.5t-39 -18q-12 0 -37.5 -7.5t-53 -17.5 t-52 -21t-35.5 -18q-5 51 -11 104t-6 105z" />
<glyph unicode="S" horiz-adv-x="952" d="M31 262q31 -22 60.5 -43t60.5 -41q58 -38 119.5 -72t117.5 -77q12 -9 28 -17.5t32.5 -15.5t33 -11.5t31.5 -4.5q5 0 9 1t9 3q16 5 45 27.5t62 49.5t67 52t60 37q22 10 36 34.5t23.5 54.5t15.5 61t13 52q6 20 15 51.5t17.5 65.5t14.5 66t6 53q0 11 -13 28t-31 34 t-35.5 32.5t-26.5 24.5q-12 10 -38.5 21t-57 21t-59.5 19t-46 14q-22 8 -45.5 9t-47.5 0.5t-48 0t-47 7.5q-19 6 -28.5 16.5t-15.5 23t-10.5 27t-13.5 29.5q-6 9 -8 15.5t-2 17.5q0 29 14 49q3 4 13 17.5t23.5 31t29 37t28 36t21.5 27t10 11.5q8 3 24.5 3.5t24.5 0.5h14 q8 0 17.5 -0.5t17.5 -1t13 -2.5q6 -2 19 -12t30 -24t36 -30t36 -31t30 -27t19 -18q26 -28 51 -56t53 -54l10 35q6 21 12 43.5t11 44t6 34.5q9 91 45 175q-48 14 -100 29t-97 40q-19 11 -46 20t-56 16.5t-57.5 12.5t-50.5 8l-42 7q-24 4 -49 8t-48.5 7t-39.5 3 q-11 0 -30.5 -22t-40.5 -50.5t-40 -55.5t-28 -38q-16 -18 -36 -43.5t-39 -54t-35.5 -56.5t-26.5 -51q-17 -37 -29 -69.5t-12 -75.5q0 -22 4 -44t10 -44q11 -36 40 -67.5t66.5 -56t78.5 -42t75 -25.5q57 -14 115 -23t115 -26q5 -1 18.5 -5.5t27.5 -11t25 -15t11 -17.5 q0 -5 -3.5 -24t-7.5 -40.5t-8 -40.5t-6 -24q-2 -4 -12.5 -19t-22.5 -30.5t-23 -28t-14 -12.5q-10 0 -35.5 4t-54 9.5t-54.5 11t-38 8.5q-14 3 -28.5 12t-28 21t-25.5 25t-22 24q-28 29 -64.5 54t-71.5 48q-6 -22 -13 -42t-15 -40q-3 -9 -5 -19t-5 -18q-8 -24 -17 -47 t-20 -45z" />
<glyph unicode="T" horiz-adv-x="942" d="M20 1346q4 -20 6.5 -39.5t2.5 -40.5q0 -28 -1 -55.5t-1 -55.5l127 -14q14 -2 29 -4t30 -2q28 0 54.5 1t54.5 3q3 -57 6 -120t5 -127t3.5 -127t1.5 -120q0 -53 -8 -105.5t-15 -105.5q-2 -21 -3 -57t-2.5 -75t-4.5 -74.5t-8 -55.5q-11 -46 -21 -93t-22 -93q38 9 76.5 12.5 t77.5 3.5q46 0 90.5 -1t91.5 -1q2 50 2 98v99q0 54 1.5 123t3.5 142t3.5 142t1.5 123q0 47 0.5 100t2 108t3 108t2.5 100q31 2 61.5 2t59.5 2l-8 -2q0 -1 26 -2t58 -2.5t59.5 -2.5t30.5 -1q0 63 5.5 124.5t21.5 122.5q-70 -5 -138 -11.5t-137 -18.5q-33 -6 -71 -6 q-26 0 -53.5 2t-53.5 2h-21q-10 0 -22 -2q-69 -7 -138 -12t-138 -5q-32 0 -66 4t-66 9z" />
<glyph unicode="U" horiz-adv-x="825" d="M31 434q0 -45 18 -85t37 -79q8 -16 30.5 -43t50 -55t54 -53.5t41.5 -38.5t41.5 -24t55.5 -19t57.5 -12.5t48.5 -4.5q25 0 44 6t35.5 15t33 20t36.5 21q22 11 42 24.5t38 28.5q23 20 36.5 52t21 68t10 72t2.5 64q0 23 -1 45t-1 43q0 44 5 85.5t5 84.5q0 23 -2 45t-2 45 q0 44 3 87t11 85q8 39 9 78.5t0 77.5q0 60 3.5 111t10.5 112h-41q-25 0 -49.5 -2t-48.5 -2q-55 0 -111 6q8 -23 16.5 -53t8.5 -55q0 -62 -2.5 -123.5t-2.5 -124.5q0 -56 4.5 -109.5t4.5 -109.5q0 -51 -8.5 -102.5t-8.5 -102.5q0 -15 0.5 -33.5t0.5 -37.5t-2 -37t-7 -33 q-7 -21 -13.5 -39.5t-17 -33t-26.5 -22.5t-43 -8q-26 0 -49.5 9.5t-49.5 15.5q-26 7 -41 23t-22.5 37.5t-9.5 45.5t-2 47q0 75 4 149.5t4 149.5q0 63 1 127t9 129q8 60 24.5 119t28.5 119q5 25 17 51t24 49q-20 -3 -41 -6t-41 -8q-29 -8 -63 -7h-22q-22 0 -42 -1 q-34 -2 -69.5 -10.5t-69.5 -14.5q6 -67 6 -135q0 -38 -3.5 -77.5t-6.5 -78.5q-6 -54 -7 -107.5t-1 -107.5q0 -40 0.5 -80.5t5.5 -80.5v-37q0 -38 -6 -77t-6 -77z" />
<glyph unicode="V" horiz-adv-x="866" d="M-10 1413q9 -29 15.5 -58.5t14.5 -58.5q5 -20 13.5 -56.5t16.5 -76.5t14 -75.5t6 -53.5q0 -8 5 -34t13 -60.5t17.5 -73.5t18.5 -74t16.5 -61.5t11.5 -36.5q11 -28 17.5 -59t12.5 -62q6 -28 11.5 -69t11 -85t11 -86t11.5 -71q17 -83 46 -166.5t57 -165.5q18 20 35 46.5 t26 54.5q14 40 32 80t40 77q13 22 26.5 57.5t26.5 74t24 75.5t19 62q16 45 35 88.5t39 87.5q12 24 21 57t17.5 68t16 69t14.5 60q23 83 52.5 164.5t54.5 165.5q5 15 12.5 32t17 33.5t19.5 31.5t19 27q-65 10 -129 21t-130 22q-24 -112 -47.5 -223.5t-54.5 -222.5 q-17 -65 -34 -141.5t-36 -141.5q-12 -40 -25 -80.5t-26 -80.5q-4 18 -11.5 45t-14.5 56t-12 56.5t-5 46.5q0 39 -11.5 81.5t-21.5 80.5q-9 42 -17.5 90.5t-8.5 91.5q0 62 -7 123.5t-7 124.5q0 28 5.5 57t14.5 54q-25 -11 -50.5 -15t-51.5 -4q-51 0 -103.5 11t-103.5 20z" />
<glyph unicode="W" horiz-adv-x="1323" d="M-10 1266q12 -62 23 -123t22 -123q6 -31 9.5 -63.5t6.5 -65.5t7 -65t12 -64q9 -34 14 -70t10 -71q9 -63 16 -125t15 -125l37 -308q49 -12 100.5 -21t102.5 -9q21 0 42.5 0.5t43.5 3.5q2 37 4 76.5t8 76.5q12 60 29.5 119.5t37.5 118.5l38 118q20 59 38 118q13 40 24 78.5 t25 76.5q10 -37 15.5 -73.5t13.5 -73.5q6 -36 15 -72l18 -72q9 -36 16.5 -71.5t9.5 -71.5q7 -85 11.5 -169t7.5 -169q42 5 84 8.5t86 3.5q35 0 70.5 -1.5t70.5 -6.5q9 31 21.5 66t15.5 69q8 53 19 105.5t26 101.5q17 57 18 119t5 121q2 25 7 58.5t11.5 69t14.5 70t14 60.5 q14 57 35 112.5t38 112.5q10 34 19.5 67.5t17.5 67.5q-45 -6 -92 -6q-40 0 -82.5 11.5t-79.5 19.5q-5 -66 -8 -132l-6 -132q-6 -121 -27 -248t-36 -248q-19 62 -39.5 122t-46.5 120q-8 18 -15 54.5t-13 82.5t-10.5 97t-8 99t-5.5 88t-2 64q-40 -6 -83 -15t-85 -9t-91 10 t-91 18q-2 -45 -2 -89t-2 -87q-3 -57 -18.5 -114t-30.5 -113q-8 -30 -16 -64.5t-15.5 -70.5t-13.5 -71t-10 -67q-5 -43 -21.5 -87t-32.5 -85q-6 39 -14 79l-18 78q-8 40 -13.5 80t-5.5 79q0 18 2 36.5t2 36.5q0 53 -8 104.5t-8 102.5q0 136 18 271q-25 -10 -42 -15.5 t-42 -5.5q-59 0 -117.5 6.5t-115.5 14.5z" />
<glyph unicode="X" horiz-adv-x="844" d="M-31 18q56 0 109.5 5.5t107.5 5.5q20 54 41.5 101t53.5 95q24 35 47.5 73.5t42.5 76.5q3 9 7 17t9 16q16 -45 28.5 -90.5t24.5 -92.5q16 -51 41 -106t45 -103q26 2 50 5.5t49 9.5q5 2 8.5 3t9.5 1q26 0 52.5 -7.5t52.5 -7.5q24 0 49.5 1.5t50.5 1.5q-26 51 -52 104 t-57 102q-17 26 -31 57l-28 64l-28 64q-14 32 -31 61q-23 40 -48 79t-45 81q8 26 17 48.5t24 47.5q29 45 55.5 93t49.5 98q45 96 96.5 184.5t103.5 179.5q-60 3 -119 12t-118 9h-28q-14 0 -29 -2q-2 -73 -17 -145.5t-55 -135.5q-17 -26 -31.5 -53.5t-30.5 -55.5 q-11 54 -22.5 112t-11.5 112q0 43 -7.5 87.5t-13.5 86.5q-25 -4 -54.5 -10.5t-59.5 -13.5t-58.5 -12t-52.5 -5q-37 0 -75 3.5t-77 6.5q25 -59 47.5 -117t47.5 -116q27 -65 60.5 -127t63.5 -125q19 -41 36 -82.5t34 -83.5q-27 -55 -52 -110.5t-50.5 -110t-53.5 -108.5 t-61 -105q-29 -45 -57 -90t-60 -89z" />
<glyph unicode="Y" horiz-adv-x="823" d="M-20 1292q31 -72 53 -145q8 -25 21 -48.5t27 -47t26 -47.5t16 -50q8 -45 28 -84t42 -79q3 -6 10.5 -22.5t17 -38t20 -45.5t19 -45t14 -36.5t5.5 -19.5q0 -41 -4.5 -85t-11.5 -89t-15.5 -88.5t-16.5 -83.5q-9 -48 -17 -95t-19 -94q15 -2 29 -2h28q40 0 78.5 2t77.5 2 q34 0 68.5 -2t68.5 -8q-6 45 -11.5 91.5t-5.5 92.5v13q0 6 2 12q10 72 12 146t5 147q8 19 19.5 46.5t24 56.5t23 57t15.5 47q5 18 10.5 40t12.5 44.5t15.5 43t18.5 35.5q15 24 27.5 51t23 55.5t20.5 56.5t21 54q17 41 33 79.5t33 76.5q-32 -5 -67.5 -10.5t-69.5 -5.5 q-31 0 -62.5 3.5t-60.5 8.5q-6 -42 -12 -85t-13 -86t-17.5 -85.5t-25.5 -81.5q-14 -37 -30 -74t-31 -75q-13 40 -26 80.5t-30 78.5q-16 37 -29.5 78t-25 83t-22 84t-21.5 81q-28 -6 -53.5 -8t-52.5 -2q-25 0 -49 3.5t-48 7.5t-48 7.5t-50 3.5h-20z" />
<glyph unicode="Z" horiz-adv-x="813" d="M-31 129q48 -11 99.5 -21t99.5 -10q33 0 66.5 -4.5t67 -9.5t66.5 -9.5t64 -4.5h104q5 0 10 1q47 0 95 -5q34 -2 67.5 -5t67.5 -6q0 16 1 32.5t1 33.5q0 54 1.5 105.5t4.5 107.5q-26 -2 -52 -2t-52 -2q-50 -3 -98.5 -9t-98.5 -8q-43 -2 -86.5 -3t-87.5 -1q20 37 34 77.5 t19 82.5q3 29 15 55t27.5 50.5t32 48.5t28.5 49q10 19 23 37.5t26 36.5t25.5 36.5t21.5 38.5q9 18 25 45t34 55.5t35.5 55t30.5 41.5q7 8 22.5 32t31.5 51t29 52t15 35q10 31 27 62.5t33 60.5q-69 -14 -142.5 -26.5t-144.5 -12.5q-75 0 -149 3t-148 7q-54 2 -109 11.5 t-106 25.5q8 -32 12 -64.5t4 -66.5q0 -38 -7.5 -77.5t-18.5 -76.5q57 10 107 18t98 13.5t97.5 9.5t106.5 6q-29 -55 -61 -110.5t-59 -112.5q-12 -26 -23 -60.5t-21 -71t-19.5 -72.5t-20.5 -66q-8 -20 -21.5 -40.5t-25.5 -37.5q-31 -48 -64 -93.5t-59 -94.5 q-26 -48 -51 -96.5t-50 -96.5z" />
<glyph unicode="[" horiz-adv-x="668" d="M20 -180q72 9 144 17.5t143 8.5q54 0 108.5 -6t106.5 -12q2 42 4 78.5t9 77.5q-26 5 -51.5 6.5t-51.5 1.5q-29 0 -57.5 -4t-57.5 -4q-40 0 -79 12q8 60 10.5 118.5t7.5 118.5q4 53 11.5 105t15.5 104.5t14 104.5t6 104q0 22 -1 42t-1 40q0 71 2 145.5t16 145.5q6 32 9 65 t4.5 66t4 66t7.5 65q3 26 7 52.5t9 52.5q63 -7 124 -9t124 -4q1 36 0.5 63.5t1 53.5t6 52.5t13.5 60.5q-41 -5 -80.5 -10t-79.5 -5q-103 0 -208 3.5t-208 7.5q2 -51 6.5 -101.5t8.5 -101.5q6 -97 9 -193.5t5 -193.5v-21q3 -147 -5 -293.5t-19 -293t-22.5 -293t-15.5 -293.5z " />
<glyph unicode="\" horiz-adv-x="1229" d="M0 1335q13 -14 37 -41.5t53 -61.5t60 -71t58 -70.5t46.5 -60t26.5 -39.5q13 -24 37 -62.5t51.5 -79t54.5 -77t45 -57.5q32 -37 63 -77.5t62 -80.5q23 -32 49 -63.5t47 -65.5q35 -56 67 -111.5t66 -111.5q16 -25 30.5 -49t33.5 -47q23 -32 47 -62t49 -61q65 18 124.5 40.5 t121.5 45.5q-28 26 -56 53.5t-51 58.5q-57 72 -115.5 143t-121.5 136q-24 25 -59 68t-74 95.5t-79.5 110t-76 112t-63 101.5t-41.5 78q-39 88 -75.5 175t-74.5 175q-32 -8 -65.5 -15.5t-65.5 -16.5q-15 -6 -43.5 -8t-60 -3t-60.5 -0.5t-47 0.5z" />
<glyph unicode="]" horiz-adv-x="666" d="M41 1460q14 -5 29.5 -6.5t29.5 -1.5q13 0 23.5 1t21.5 1q54 0 110 -10t110 -23q-5 -14 -6 -28t-1 -29q0 -17 2 -34t2 -34q0 -25 -4 -50.5t-9 -50.5t-9 -50.5t-4 -50.5q0 -5 1 -9.5t1 -9.5q6 -96 7 -191.5t1 -191.5q0 -162 -5 -322.5t-5 -322.5q0 -20 2.5 -39t5.5 -39 q-20 6 -41 8.5t-41 2.5q-35 0 -70.5 -2.5t-70.5 -2.5q0 -15 1 -30.5t1 -30.5q0 -26 -3 -51.5t-3 -52.5v-33q12 -2 25 -2h24q35 0 70 2t69 2q26 0 52.5 -2t52.5 -2q11 0 24.5 3.5t29 7.5t32 7.5t34.5 3.5q28 0 58.5 -7.5t56.5 -12.5q-23 81 -36.5 166t-18.5 170 q-5 75 -11 150t-14 151q-5 38 -9.5 78.5t-4.5 78.5v291q0 356 18 713q-58 -6 -117 -10t-118 -4q-71 0 -144.5 12t-142.5 24z" />
<glyph unicode="^" horiz-adv-x="645" d="M41 803q74 -17 147.5 -30t147.5 -32q-2 31 -4 62.5t-2 62.5q0 37 4.5 81t12 89.5t16 89t16.5 80.5q11 -28 23 -57.5t18 -58.5q9 -32 9 -69.5t5 -72.5q3 -38 8 -76.5t9 -76.5l153 8q-20 68 -39 135.5t-47 132.5q-2 6 -6 34t-7.5 61t-6 63t-2.5 39q0 24 -5 49.5t-10 50.5 q-31 -5 -63.5 -10.5t-61.5 -5.5q-5 0 -17.5 3t-26.5 7l-25 9q-12 4 -17 5l-73 -188q-20 -54 -35.5 -110.5t-40.5 -110.5q-20 -42 -40 -82t-40 -82z" />
<glyph unicode="_" horiz-adv-x="649" d="M-102 -311q58 2 117 5t118 3q34 0 66.5 -9.5t64.5 -9.5q20 0 41 4.5t41 4.5q102 0 203.5 -3t202.5 -10q-3 32 -7 64.5t-4 64.5v127q-72 -11 -145 -24t-147 -24t-147.5 -18t-147.5 -7q-65 0 -128 6t-126 8z" />
<glyph unicode="`" d="M55 1499q13 -8 31.5 -18.5t38.5 -20t39.5 -17.5t34.5 -11q29 -7 69 -26.5t82 -43t82.5 -48t69.5 -42.5l98 123q-43 29 -88 57.5t-88 60.5q-16 11 -29.5 25.5t-25.5 28.5q-32 31 -62 62.5t-61 62.5q-31 -26 -54.5 -48.5t-45.5 -45t-43.5 -46.5t-47.5 -53z" />
<glyph unicode="a" horiz-adv-x="803" d="M-31 -6q73 6 145 9t144 9q1 20 1.5 38.5t3 36.5t8 36t14.5 37q49 12 98 16.5t100 9.5q-5 -21 -6.5 -41.5t-1.5 -42.5q0 -52 6 -108q44 5 86.5 7.5t85.5 2.5q47 0 91.5 -4.5t89.5 -9.5q-32 94 -68.5 184.5t-71.5 181.5q-21 56 -41.5 110.5t-34.5 111.5 q-35 154 -82.5 302.5t-103.5 297.5q-30 -75 -63 -148.5t-64.5 -147.5t-59.5 -149.5t-48 -154.5q-19 -77 -46.5 -150.5t-58 -145.5t-62.5 -143.5t-61 -144.5zM342 367l74 313l41 -299z" />
<glyph unicode="b" horiz-adv-x="811" d="M20 6q110 -11 220.5 -24t220.5 -13q48 0 100.5 8t96.5 30t73 60t29 97q0 28 -5 73t-15.5 91.5t-26.5 86.5t-37 58q-34 28 -76 49.5t-80 44.5q21 15 61.5 32t82.5 36t75.5 40.5t40.5 43.5q6 15 10 36.5t7 44.5t4.5 45t1.5 38v13q0 7 -2 13q-5 23 -24 47.5t-44 46.5 t-52 38.5t-48 21.5q-62 17 -125.5 28t-126.5 23q-18 5 -37 5q-2 -1 -4 -1h-41q-57 0 -113.5 -2.5t-113.5 -5.5q0 -72 5 -145.5t5 -145.5q0 -94 -19 -180q-15 -78 -23 -157t-11.5 -158.5t-5 -159t-3.5 -158.5zM312 219l7 256q37 -13 69.5 -26t57 -32.5t38.5 -49t14 -74.5 q0 -26 -8.5 -42.5t-23.5 -25.5t-34.5 -12.5t-42.5 -3.5q-20 0 -38.5 2.5t-38.5 7.5zM319 627q0 68 3.5 135t3.5 133q17 2 33.5 3t31.5 1q62 0 93.5 -26t31.5 -91q0 -31 -21.5 -55.5t-52 -43.5t-64.5 -32.5t-59 -23.5z" />
<glyph unicode="c" horiz-adv-x="1032" d="M31 438q0 -46 8 -86.5t22.5 -78t35 -74t44.5 -74.5q28 -42 75.5 -73t103 -50.5t112.5 -29t105 -9.5q43 0 86.5 2t87.5 8q12 2 33 10t46 20t51.5 26.5t49 29t38.5 28.5t21 24q20 43 29 94.5t18 99.5l-254 47q0 -21 2.5 -43.5t2.5 -44.5q0 -9 -19.5 -24.5t-45 -30.5 t-50 -26t-33.5 -11q-12 0 -42 15.5t-63 35.5t-63 40.5t-43 29.5q-43 31 -57.5 79t-14.5 99q0 27 4 59t11.5 63.5t19.5 61.5t27 52q8 12 35.5 38t59.5 52.5t62 46.5t44 20q2 0 10 -3t10 -5q40 -14 64.5 -36.5t42 -50t31.5 -59.5t34 -65l229 66q-8 28 -17 60t-19.5 64.5 t-23 63t-28.5 55.5q-11 18 -35.5 36.5t-56.5 36t-69 33.5t-72.5 28t-66.5 19t-52 7q-26 0 -65.5 -15t-80 -36t-76.5 -44.5t-54 -41.5q-14 -14 -37 -38t-48.5 -54t-52 -63t-48 -64t-36 -58t-16.5 -45q-6 -54 -11 -108.5t-5 -108.5z" />
<glyph unicode="d" horiz-adv-x="821" d="M10 -47q56 14 112.5 24t113.5 21q29 5 67.5 9t78 9.5t75 13t59.5 19.5q24 11 57.5 40t66.5 64t60.5 70t38.5 58q8 16 14.5 46t12.5 67.5t10.5 79.5t8 80.5t5 71.5t1.5 52v36q0 22 -1.5 45.5t-4 44t-7.5 32.5q-2 8 -12.5 24.5t-25 37.5t-32 43.5t-33 42t-28.5 34t-20 18.5 q-15 9 -43.5 15t-60 10t-61.5 6t-48 2q-94 0 -187.5 10t-187.5 23q3 -103 5.5 -207t2.5 -207q0 -186 -9 -367.5t-28 -367.5zM283 242q3 106 12.5 211.5t9.5 212.5q0 100 -6 200q12 -2 40 -7t57.5 -12t54.5 -14.5t32 -15.5q6 -6 12.5 -31t13 -59.5t12 -75t9.5 -77.5t6.5 -66 t2.5 -41t-1 -22t-8 -21q-20 -45 -45.5 -73t-56 -47t-67 -32.5t-78.5 -29.5z" />
<glyph unicode="e" horiz-adv-x="768" d="M-20 4q29 0 58 -1t60 -1q54 0 114 1t114 13q38 8 80.5 8.5t80.5 0.5q32 0 58.5 -1t51.5 -2t51.5 -2.5t58.5 -3.5l-7 226q-49 0 -91 -3t-83 -6.5t-83 -6.5t-91 -4h-78l11 265q26 -1 57 -2t62.5 -3t62 -6t55.5 -11q26 -7 46.5 -11t40.5 -6t41 -2.5t46 -1.5l-10 222 q-59 -9 -112 -14.5t-104.5 -10t-104.5 -9.5t-113 -14q-2 19 -3 38.5t-1 37.5q0 47 -2 90.5t-10 89.5q17 -3 33.5 -5.5t33.5 -2.5q47 0 92.5 5.5t93.5 5.5q36 0 65.5 -2t58 -5.5t58.5 -7t66 -6.5q-3 38 -7.5 79t-4.5 79q0 21 1 42.5t3 43.5q-40 -6 -78.5 -12.5t-77 -12 t-77.5 -9t-80 -3.5q-65 0 -130.5 -9t-131.5 -20h-15q-28 0 -55 6t-53 17q-2 -66 -3 -130.5t-1 -129.5q0 -70 4 -139.5t9 -139t9 -139t4 -139.5q0 -19 -9 -52t-21 -68t-24 -66.5t-19 -49.5z" />
<glyph unicode="f" horiz-adv-x="874" d="M0 1069q13 -91 26.5 -181.5t24 -181t17 -181.5t6.5 -183q0 -90 -7 -178t-24 -176q71 -5 140 -7.5t141 -13.5q-2 13 -3.5 25t-1.5 24q0 104 -3.5 206.5t-6.5 205.5q67 -10 134 -10h12h36q55 0 109 -2q-9 62 -10.5 124t-1.5 124q-23 -2 -46 -3.5t-46 -1.5q-25 0 -50.5 2.5 t-50.5 2.5q-23 0 -45 -1.5t-45 -3.5q-2 57 -5 112.5t-5 111.5q49 -5 97.5 -9t96.5 -10q23 -2 45.5 -7.5t45 -12t45 -12.5t45.5 -9q40 -5 78.5 -8t78.5 -6q0 71 4.5 140t12.5 138q-99 -9 -199 -20.5t-201 -11.5q-34 0 -67.5 3t-67.5 3q-35 0 -70.5 -4t-72.5 -4q-42 0 -83 4 t-83 12z" />
<glyph unicode="g" horiz-adv-x="1051" d="M31 457q0 -67 11.5 -111t35.5 -77.5t61 -64t88 -69.5q32 -24 79 -50.5t98.5 -49.5t102.5 -38t91 -15q32 0 68 10.5t73 28.5t73.5 42t69 50t59.5 53.5t46 52.5q12 16 19 39.5t10 49t3.5 50.5t0.5 45q0 53 -3 105t-3 106v39q-65 -11 -130.5 -16.5t-131.5 -5.5q-59 0 -116 4 t-116 4h-26q5 -28 9.5 -54.5t4.5 -54.5q0 -37 -1 -73.5t-3 -71.5q13 6 35.5 16t47.5 19.5t47.5 16.5t35.5 7q35 0 71 -9.5t70 -18.5q-10 -54 -22.5 -89.5t-35 -56t-58.5 -29t-95 -8.5q-43 0 -83 18t-74.5 47.5t-62.5 69t-48.5 82t-31.5 86t-11 82.5q0 50 13.5 82t36.5 57.5 t53 48t63 52.5q21 20 55.5 30.5t64.5 10.5q8 0 35 -11.5t62.5 -30t76 -40t76 -42t61 -37t32.5 -23.5q24 75 37 152.5t28 154.5q-14 4 -42 12.5t-62 19t-71 21.5t-69.5 20t-57 15t-34.5 6q-25 0 -55 -4.5t-60 -11.5t-59 -15.5t-53 -17.5q-87 -31 -158.5 -69.5t-122 -92 t-78.5 -126t-28 -171.5q0 -38 -1 -76t-1 -75z" />
<glyph unicode="h" horiz-adv-x="838" d="M20 1081q22 -115 37 -229t15 -229q0 -86 -6.5 -162.5t-14.5 -150.5t-16 -150.5t-10 -163.5q20 2 39.5 4t39.5 2q6 0 17 -4t24.5 -9t28.5 -9t27 -5q12 -2 24 -2h23h34q16 0 33 2q-6 61 -14 112.5t-16.5 101t-15 101.5t-9.5 113q34 8 67.5 14.5t67.5 6.5q17 0 33.5 -4.5 t32.5 -9.5q25 -8 51.5 -11.5t52.5 -3.5v-28v-27q1 -32 -1 -60q-2 -38 -5.5 -74t-6.5 -74.5t-3 -86.5v-49q32 5 66.5 10.5t66.5 5.5q34 0 67.5 -6t67.5 -12v51v20q1 83 -7 159q-8 84 -18.5 167t-19 167.5t-8.5 178.5q0 46 1 83t2.5 72.5t3.5 72.5t3 84q-9 -2 -18 -2h-19 q-37 0 -70.5 10t-70.5 10q-20 0 -40 -2.5t-40 -7.5q6 -57 11 -104t9 -92t7.5 -92.5t7.5 -104.5q-19 -3 -43 -8t-48.5 -9.5t-47.5 -8t-41 -3.5q-26 0 -53.5 2t-53.5 4q2 64 3.5 117.5t3.5 104.5t4.5 104t7.5 116h-43h-66q-34 0 -65 7h-23q-34 0 -66 -9z" />
<glyph unicode="i" horiz-adv-x="381" d="M31 -2q69 2 135 2t135 -12q-5 38 -10.5 76.5t-5.5 76.5q0 50 3 95.5t11 93.5q9 57 13.5 113.5t9.5 112.5t12 112.5t20 113.5q-29 -3 -58.5 -5.5t-59.5 -2.5h-96.5t-96.5 -10l-2 -31v-19q0 -28 2 -56q3 -38 7 -74.5t7.5 -74t3.5 -75.5q0 -109 -10.5 -218t-19.5 -218z M53 901q19 2 37 4t35 2q62 0 119 -16.5t114 -32.5q7 57 12 112.5t11 112.5h-64q-63 0 -127.5 -1.5t-126.5 -6.5z" />
<glyph unicode="j" horiz-adv-x="938" d="M10 291q23 -39 49 -79t57 -75.5t68 -64t82 -43.5q34 -13 68.5 -19t68.5 -20q32 -14 70.5 -26.5t75.5 -12.5q15 0 33 7t36 17t33.5 22.5t24.5 22.5q38 45 81.5 85.5t82.5 87.5q21 25 34.5 61t20.5 76t9.5 80t2.5 73q0 78 -8 156t-18 156t-18 156q-7 69 -7 139v18v27 q-38 0 -77.5 -4.5t-78.5 -4.5q-35 0 -69.5 5.5t-69.5 11.5q10 -93 21 -185.5t20 -185t15 -185t6 -186.5q0 -25 -13.5 -60t-36 -66.5t-50 -53.5t-56.5 -22q-19 0 -42.5 15.5t-48 40t-49 55t-45.5 60.5t-36.5 57t-22.5 44q-36 -28 -55.5 -50t-38.5 -42t-45 -41t-74 -47z" />
<glyph unicode="k" horiz-adv-x="850" d="M10 1126q14 -84 28.5 -179.5t26.5 -194t19.5 -194t7.5 -179.5q0 -94 -13.5 -185.5t-21.5 -183.5q33 0 63 -6l60 -12q30 -6 62 -9q24 -3 49 -3h12h29q-6 47 -14 93.5t-15.5 93t-12.5 94t-5 95.5q0 38 4 75t6 75q35 -63 68 -126t75 -122q44 -62 65 -126t32 -136 q66 18 127.5 23t130.5 8q-12 35 -28.5 66t-34 61t-33 62t-25.5 69q-1 6 -17 27t-40 50.5t-52 64t-54 65.5t-46.5 55.5t-28.5 34.5q47 59 98 114.5t102 110.5t101 111.5t94 117.5q-37 13 -74 23.5t-73.5 21t-73 23.5t-71.5 31q-25 -71 -51 -133t-55.5 -120.5t-63 -116.5 t-74.5 -120q-3 11 -3.5 21.5t-0.5 21.5q0 40 4.5 80t9.5 79.5t9.5 79.5t4.5 81v127q-40 -19 -85 -21t-89 -2q-34 0 -67.5 4t-65.5 10z" />
<glyph unicode="l" horiz-adv-x="618" d="M10 1108q8 -72 18 -152.5t13 -152.5q4 -93 9.5 -173t11 -157.5t9 -157.5t3.5 -172q0 -38 -7.5 -75t-15.5 -72q82 2 164 5t164 3q26 0 52 -2t52 -2q23 0 47.5 2t44.5 10q8 65 12.5 129t10.5 129q-74 -12 -148.5 -19t-148.5 -18q-1 68 -3 122q-2 53 -2 105q0 9 -1 18 q1 42 3 88q2 54 9 122q13 108 14 218t5 218q-70 -6 -142 -6q-45 0 -87 -1t-87 -9z" />
<glyph unicode="m" horiz-adv-x="1104" d="M20 8q36 3 70.5 6.5t69.5 3.5q49 0 99 -9t99 -11q-2 38 -8 76.5t-12 76.5t-11 74t-5 70v262q0 35 3.5 69.5t6.5 69.5q12 -34 22 -68t15 -69q5 -40 13 -78l18 -76q8 -38 15.5 -76t8.5 -79q3 -51 5.5 -100t2.5 -99q32 3 63.5 6.5t63.5 3.5q37 0 73.5 -1t74.5 -1 q2 39 3 77.5t1 76.5q0 65 7 127t17.5 123.5t22 122.5t20.5 125q8 -88 15.5 -175.5t7.5 -175.5q0 -92 -4.5 -187.5t-20.5 -186.5q35 3 69.5 10.5t69.5 7.5q41 0 83.5 -4.5t84.5 -7.5q-2 43 -5 84.5t-11 85.5q-9 48 -22 94t-25 92t-20.5 93t-8.5 98q0 91 -8 182t-8 182 q0 35 2.5 70.5t7.5 70.5q-23 -8 -46 -14t-46 -6q-59 0 -115.5 4t-113.5 4q-2 -49 -3 -98.5t-14 -97.5q-12 -54 -27.5 -107.5t-21.5 -107.5q-9 -70 -24 -136.5t-29 -132.5q-8 48 -20.5 95t-26 93.5t-25 94t-16.5 96.5q-5 48 -16.5 94t-23.5 92.5t-22.5 92.5t-13.5 94 q-22 3 -42 5.5t-42 2.5q-27 0 -53.5 3.5t-53 8t-53 8.5t-53.5 5q25 -90 39 -181t14 -184q0 -76 -10 -136t-24 -115t-28.5 -111t-23.5 -125q-8 -69 -15.5 -138.5t-15.5 -138.5z" />
<glyph unicode="n" horiz-adv-x="852" d="M20 1092q9 -56 20.5 -114.5t21.5 -117t17 -116.5t7 -115q0 -155 -16.5 -305t-34.5 -301q29 -8 58.5 -13.5t58.5 -5.5q31 0 62.5 1t61.5 1q-5 25 -7.5 49.5t-2.5 50.5q0 67 10 131t21 130q9 49 9 101v6q0 11 -1 21q0 44 2 87q39 -48 71.5 -91.5t56 -89.5t36 -97.5 t12.5 -115.5q0 -52 -4.5 -104t-9.5 -104q74 -7 146.5 -9.5t146.5 -7.5q-2 63 -8 127t-6 127q0 94 14.5 186t25.5 185q10 72 14 143t15 143q8 45 17 90.5t18 90.5h-22l-54 1q-38 2 -76 5.5t-75.5 6t-75.5 3.5q29 -74 48 -144t19 -151q0 -85 -5 -170t-11 -170q-17 34 -35 67.5 t-37 67.5q-24 44 -53.5 84.5t-54.5 85.5q-16 28 -27 71t-19.5 90.5t-16.5 94.5t-19 82q-35 2 -69.5 4t-69.5 2h-89q-42 0 -90 7z" />
<glyph unicode="o" horiz-adv-x="1067" d="M20 604q0 -59 12.5 -117.5t24.5 -115.5q6 -25 21.5 -54t36 -58.5t41.5 -56t37 -46.5q14 -19 38 -43.5t51 -48t54.5 -43.5t48.5 -31q32 -17 63 -21t68 -4q29 0 67.5 2.5t78.5 7.5t77 12.5t64 18.5q26 11 45 24.5t33 30t24 37.5t19 47q15 45 32.5 90.5t33 92t26 93.5 t10.5 95q0 14 -2 39.5t-5 56t-7.5 64t-10.5 63.5t-12.5 54t-13.5 36q-11 19 -36 47.5t-54 57t-58 51.5t-47 31q-30 14 -74.5 30.5t-92.5 30.5t-93.5 23.5t-77.5 9.5q-43 0 -81 -22.5t-71.5 -55.5t-63 -70.5t-56.5 -66.5q-24 -25 -50.5 -59.5t-48.5 -74t-36.5 -80 t-14.5 -77.5zM309 592q0 27 12.5 63t30.5 73t38.5 69.5t35.5 52.5q16 20 26.5 35t22.5 25.5t29.5 16t46.5 5.5q20 0 38.5 -3.5t35.5 -13.5q33 -16 59.5 -55.5t45 -87t28.5 -96.5t10 -84q0 -37 -6 -83.5t-17.5 -93.5t-29 -89.5t-41.5 -71.5q-11 -13 -24.5 -27t-28.5 -26 t-31.5 -19.5t-34.5 -7.5q-25 0 -53 1.5t-54 8.5t-48 21t-35 39q-5 9 -11 35t-12 60.5t-12 74t-10.5 75t-7.5 63.5t-3 40z" />
<glyph unicode="p" horiz-adv-x="786" d="M10 16q38 -10 77 -13.5t78 -6t78 -7.5t76 -18q-2 107 -8 213.5t-8 212.5q21 -6 49 -14.5t57.5 -16t57 -13t47.5 -5.5q21 0 43.5 13.5t44.5 33t41 40.5t33 36q10 12 20 40t19 64.5t16.5 78t13 80.5t8.5 71t3 49q0 51 -26.5 98t-68 83.5t-91 58.5t-95.5 22q-69 0 -138 -3 t-138 -3q-18 0 -41 1t-46.5 3.5t-46 7t-38.5 11.5q12 -82 23 -166.5t11 -167.5q0 -45 1.5 -87t9.5 -87q5 -23 6.5 -46.5t1.5 -46.5q0 -58 -1 -117t-7 -118q-1 -19 -6.5 -36t-11 -33.5t-10.5 -34t-7 -37.5q-3 -35 -11 -70.5t-16 -69.5zM281 909q14 -4 45.5 -10.5t65.5 -15 t62 -16.5t33 -15q3 -4 6 -25t5 -46.5t3 -48.5t1 -30v-18q0 -12 -1.5 -24.5t-4.5 -24t-9 -17.5t-15.5 -13t-20 -13t-21 -10t-18.5 -4q-31 0 -60.5 4.5t-58.5 7.5q-3 80 -6 159.5t-6 159.5z" />
<glyph unicode="q" d="M31 502q0 -102 26 -177t74 -133.5t115 -106t149 -95.5q28 -16 60.5 -20.5t64.5 -4.5l8 -235q88 23 175.5 44.5t175.5 49.5q-23 43 -43.5 87.5t-38.5 90.5q57 17 88.5 52.5t48.5 90.5q5 17 14 53.5t20 82.5t22.5 96.5t21.5 95.5t16 78.5t6 46.5q0 22 -4 57.5t-10.5 72.5 t-16 70.5t-20.5 51.5q-9 17 -34 46t-54.5 58t-58 52.5t-45.5 29.5q-54 20 -111 33t-111 33q-28 12 -56.5 20t-59.5 8q-22 0 -42 -4t-40 -12q-46 -46 -92 -90.5t-86.5 -93t-72.5 -103t-50 -120.5q-13 -50 -26 -101.5t-13 -103.5zM319 530q0 20 0.5 47.5t3 56t8 54t15.5 41.5 q22 37 49.5 68.5t48.5 66.5q5 7 11 18t12.5 22t13.5 20.5t13 13.5q12 9 31.5 11.5t33.5 2.5q35 0 61.5 -12.5t49 -32.5t42 -44.5t38.5 -49.5q8 -12 13 -30t8 -37.5t4 -39t1 -34.5q0 -22 -3 -57.5t-8.5 -77t-13.5 -85.5t-18.5 -83.5t-23 -70.5t-27.5 -46q-14 53 -33.5 102.5 t-38.5 100.5l-116 -41q12 -57 16 -115t6 -117q-22 3 -43 4t-39.5 5.5t-33.5 16t-25 36.5q-26 65 -41 141t-15 145z" />
<glyph unicode="r" horiz-adv-x="784" d="M20 1083q14 -61 18 -122.5t6 -123t5 -122.5t14 -123q11 -57 14 -116t3 -118q0 -46 -8 -90t-18 -88.5t-19.5 -89t-11.5 -90.5q24 5 48.5 6.5t49.5 1.5q46 0 92 -4.5t92 -7.5q-9 81 -21 160t-12 159v40q0 20 2 38q34 -4 62 -4q4 1 7 1q31 0 55 -1.5t42 -8.5t29.5 -25 t17 -50.5t5.5 -85.5q0 -62 -11 -122t-20 -120q49 5 97 13t97 8q46 0 88 -6q-1 40 -5.5 86.5t-11 94t-15 93.5t-19.5 84q-8 32 -27.5 54.5t-45 38.5t-55 26.5t-58.5 19.5q16 9 48.5 22t67 28t63 30t36.5 27q4 7 7.5 23.5t6.5 36t5 38t3 27.5q1 16 5 34l6 36q4 18 7 34.5 t3 30.5q0 25 -14.5 64t-36.5 78t-48.5 70t-50.5 40q-10 4 -28 6.5t-38 4t-39.5 2.5t-31.5 1q-8 0 -16.5 -1t-16.5 -3q-78 -18 -154 -26.5t-155 -8.5h-115zM272 918q25 5 50 8.5t51 3.5q20 0 36.5 -11.5t34.5 -17.5q43 -16 59.5 -31t21 -33.5t4 -43.5t8.5 -62q2 -3 2 -7v-7 q0 -16 -6 -27.5t-21 -19.5q-53 -25 -113 -37.5t-118 -16.5q2 59 2 114v37q-1 73 -11 151z" />
<glyph unicode="s" horiz-adv-x="848" d="M31 98q42 -8 81.5 -19t80.5 -22q63 -15 125.5 -27.5t125.5 -29.5q38 -9 75 -19t75 -10q62 0 104 31.5t68 79t37.5 103.5t11.5 106q0 49 -1.5 109t-6.5 110q-3 26 -18.5 43.5t-39 30t-52 20t-57.5 12.5t-55.5 9t-45.5 8q-42 9 -81 20t-79 27q-7 3 -23 8t-33 10.5 t-31.5 11.5t-17.5 11q-4 6 -6 17t-3 23.5t-1 24.5v19q0 17 1 27.5t6 16t15.5 7.5t28.5 2q58 0 100 -5.5t75.5 -15.5t61 -22.5t57 -26t64 -27.5t81.5 -26q23 65 37 126t26 130q-114 22 -226.5 44.5t-223.5 54.5q-19 5 -38.5 10.5t-37.5 5.5q-20 0 -43.5 -5.5t-45.5 -16 t-40 -25.5t-27 -33q-8 -16 -18 -46t-21 -66.5t-21.5 -76.5t-19 -76.5t-13.5 -67.5t-5 -48q0 -20 1 -39t1 -39q0 -17 10 -34t25 -31t33 -23.5t34 -11.5q35 -5 71 -6.5t71 -9.5q18 -5 36.5 -6t38.5 -1q19 0 40.5 1.5t39.5 -3.5q6 -1 22.5 -10t34.5 -19.5t33 -20t17 -13.5 q6 -9 7 -28.5t1 -28.5q0 -22 -5.5 -43.5t-17.5 -37.5t-32 -26t-49 -10q-45 0 -75.5 6.5t-56 16t-50.5 21.5t-58 23q-32 13 -62 30t-55 42q-15 -62 -25 -124.5t-36 -121.5z" />
<glyph unicode="t" horiz-adv-x="918" d="M10 737q13 1 40 4t56 7.5t54.5 10.5t34.5 13q37 8 77 16q29 6 58 6q11 0 22 -1h10q-2 -32 -6.5 -63t-9 -61t-7.5 -61t-3 -63q0 -63 2 -126q1 -21 1 -42q0 -42 -3 -86q-2 -41 -9 -81.5t-15 -81.5l-12 -80q-5 -34 -5 -70v-13l2 -33q63 5 127 12t129 7q28 0 57 -1t58 -1 q-20 66 -31.5 135.5t-11.5 140.5q0 22 1 44.5t1 45.5q0 50 -8.5 98t-8.5 99v72q0 40 -1.5 79.5t-5 77.5t-9.5 68q18 -3 37.5 -5.5t38.5 -2.5q51 0 99 -6q36 -4 74 -5q13 0 25 1h35q0 27 -3 54.5t-3 55.5q0 35 3.5 69.5t6.5 69.5q-14 -5 -35 -10.5t-36 -5.5h-115h-348 q-45 0 -89 7.5t-87.5 19t-86 25.5t-85.5 28q0 -59 4 -118t4 -118q0 -34 -7.5 -66.5t-15.5 -64.5z" />
<glyph unicode="u" horiz-adv-x="719" d="M20 508q0 -59 3 -125.5t18.5 -129.5t48 -116.5t90.5 -87.5q18 -11 51.5 -27.5t71 -32.5t72.5 -27t55 -11q22 0 46 7t47.5 17.5t46 24t40.5 25.5q8 5 16.5 27.5t16.5 54t14.5 68t11.5 70.5t8 60.5t3 38.5q0 31 -3 60.5t-3 60.5q0 131 7.5 261.5t16.5 260.5q-69 8 -139 10 t-139 7q2 -32 -4 -63.5t-6 -63.5q0 -109 6 -214.5t6 -211.5q0 -50 -5 -99t-5 -100q0 -15 -9 -26.5t-22.5 -19.5t-29 -12t-27.5 -4q-14 0 -27.5 2t-26.5 5q-16 6 -27 29.5t-18.5 57t-11.5 72.5t-6.5 76t-3 67.5t-0.5 45.5q0 56 4 126.5t11.5 143.5t19 142t26.5 122 q-52 -6 -100 -6q-31 0 -61.5 2.5t-61.5 5.5q6 -28 10 -55t4 -55q0 -58 -5.5 -116t-12 -116t-12 -115.5t-5.5 -115.5z" />
<glyph unicode="v" horiz-adv-x="834" d="M-20 1120q32 -65 63 -133t45 -139q22 -114 59 -236t76.5 -246.5t76.5 -248t60 -238.5q9 45 20 82.5t25.5 72.5t31.5 70.5t38 75.5q19 36 38.5 84.5t39 100t39 100t39.5 84.5q15 29 33 59.5t32 61.5q23 52 42.5 107.5t38.5 112t37.5 113.5t39.5 111q-20 2 -39 3t-39 1 q-34 0 -67.5 -7t-67.5 -7q-23 0 -44.5 2.5t-43.5 7.5q0 -43 2 -86t2 -86q0 -36 -9.5 -72t-21.5 -72t-24 -71.5t-17 -71.5q-19 -27 -29 -57q-10 -29 -18 -60l-16 -62q-8 -31 -19 -62q-6 62 -18 126.5t-35 123.5q2 51 5 104.5t8 106.5t13.5 105.5t22.5 102.5q-48 -2 -95 -3 t-95 -1q-29 0 -58 4.5t-57 11.5l-58 14q-28 7 -56 11z" />
<glyph unicode="w" horiz-adv-x="1112" d="M-10 1096q12 -39 22 -78.5t15 -81.5q4 -39 12 -77t17.5 -75.5t18.5 -75.5t13 -77q17 -146 27.5 -289.5t15.5 -290.5q15 -5 27 -10t23.5 -9t24.5 -6.5t30 -2.5q20 0 39.5 2t39.5 2q19 0 37.5 -4t36.5 -7q14 87 30 171t48 167q14 35 19 73.5t10 76.5q3 42 12 83t20 83 q8 -37 17.5 -73t9.5 -73q0 -71 5.5 -140t14.5 -138q9 -57 13 -113q3 -39 3 -78q0 -17 -1 -35v-34q45 1 90 1h44.5h45.5q44 0 88 1q6 65 16.5 129t30.5 127q13 42 23.5 82.5t15.5 85.5q8 57 25.5 110t36.5 107q11 30 20 69t17.5 82t17 87.5t17.5 84t20 72t24 51.5 q-65 11 -130 13.5t-130 13.5q-2 -165 -23.5 -327t-52.5 -324q-10 32 -16 65t-10 66l-10 66q-4 33 -11 65q-9 43 -18.5 83.5t-9.5 84.5q0 31 5 60t13 58q-29 4 -57.5 7.5t-57.5 3.5h-151q-16 -64 -36 -127.5t-40.5 -126.5t-40.5 -126t-35 -128q-5 49 -9.5 98t-4.5 100 q0 66 4 133.5t4 135.5q0 32 -1 65.5t-3 65.5h-84q-22 0 -42.5 -6.5t-43.5 -6.5q-35 0 -70.5 3.5t-70.5 5.5z" />
<glyph unicode="x" horiz-adv-x="891" d="M-31 1055q28 -47 56.5 -94.5t66.5 -88.5q26 -27 49 -62.5t41 -70.5q15 -30 35 -58.5t42 -56t44.5 -55t40.5 -55.5q-19 -29 -37 -62.5t-43 -58.5q-40 -38 -71.5 -84.5t-65.5 -91.5q-32 -43 -57.5 -92.5t-51.5 -97.5q31 2 62 2l52 -1q57 -2 116 -3q21 0 43.5 3.5t44.5 8.5 q8 35 20.5 71.5t29 72.5t35.5 69.5t40 62.5q18 -40 40 -77t31 -80q10 -38 24 -72l28 -68q45 0 86.5 7.5t85.5 7.5q37 0 73.5 -8.5t71.5 -14.5q-12 25 -25.5 51.5t-31.5 46.5q-19 23 -35.5 50t-31 56t-28 58.5t-26.5 55.5q-28 53 -70.5 95.5t-83.5 86.5q47 66 101 128.5 t96 133.5q40 68 78.5 134.5t77.5 135.5q-22 2 -43 3t-41 1q-35 0 -69.5 -5t-68.5 -5q-40 0 -84 6q-14 -46 -28.5 -89.5t-31.5 -85t-38.5 -81.5t-50.5 -79q-6 12 -15 24t-18 25q-24 28 -44 69.5t-36.5 87.5t-30.5 91.5t-26 82.5q-83 -15 -164 -18.5t-164 -11.5z" />
<glyph unicode="y" horiz-adv-x="766" d="M-10 1092q15 -55 28 -111.5t29.5 -112.5t37.5 -110t52 -103q9 -13 21 -37.5t23 -52t18.5 -53.5t7.5 -41q0 -41 -4.5 -81.5t-10 -80.5t-10 -80.5t-4.5 -81.5q0 -43 -5 -85.5t-11 -86.5q42 2 74.5 3t63.5 2t63.5 2.5t74.5 3.5q-5 42 -9.5 83t-4.5 83q0 65 3 126.5t9 124.5 q21 36 48.5 83t54 97.5t49 99t33.5 85.5q5 17 17 37t26 40.5t28 40.5t23 38q17 32 31.5 64.5t29.5 64.5q-21 6 -44 13t-46 7q-25 0 -49 -2t-47 -2q-25 0 -49.5 2.5t-48.5 5.5q-35 -125 -71.5 -249t-88.5 -242q-3 17 -6.5 33.5t-8.5 31.5q-4 18 -12.5 35.5t-16.5 35t-14 36 t-6 37.5q0 77 6.5 153t20.5 152q-31 1 -52 2t-40.5 2t-40.5 1.5t-53 0.5q-29 0 -59.5 -4.5t-59.5 -9.5z" />
<glyph unicode="z" horiz-adv-x="770" d="M-51 76q66 3 132 7.5t134 4.5q59 0 117 -12.5t117 -20.5q72 -11 144 -19.5t144 -21.5q-2 37 -2 73q-1 30 1 60q2 65 5 134q-29 3 -58 5.5t-58 2.5q-33 0 -65.5 -3.5t-65.5 -8t-66 -8t-66 -3.5h-28q-14 0 -27 2q62 118 123 232.5t127 228.5q15 27 35 52t41.5 49.5t42 49.5 t37.5 52q20 35 39.5 70.5t38.5 70.5q-69 -10 -143 -24t-149.5 -27t-149.5 -22t-142 -9q-12 0 -35 5.5t-49.5 13.5t-50.5 16t-37 12q5 -32 10.5 -63.5t5.5 -63.5t-7 -64.5t-13 -64.5q24 2 49.5 3t50.5 3q35 4 69 13.5t68 15.5t68.5 8t69.5 2h12q-23 -42 -45 -85t-45.5 -85 t-50 -82t-58.5 -77q-80 -91 -149.5 -202t-120.5 -220z" />
<glyph unicode="{" horiz-adv-x="616" d="M31 827l12 -114l143 -25q3 -17 8 -41t9 -49t7 -49t3 -41q0 -45 -8 -93t-21 -93q-6 -21 -14 -48t-15.5 -55.5t-12.5 -55.5t-5 -48q0 -15 9.5 -43.5t22.5 -59.5t27 -58.5t23 -39.5q14 -18 52 -32.5t82.5 -26t87.5 -19.5t67 -14l55 143q-13 4 -40 12.5t-56.5 20t-55 23.5 t-36.5 22q-19 17 -24 39t-5 47q0 42 7 84t16 83t17.5 82t10.5 83q2 37 10.5 73t16.5 70q5 16 8.5 32t3.5 30q0 4 -13.5 23t-30 41t-31.5 41.5t-17 23.5q2 3 15 26.5t28.5 51t28 51t12.5 26.5q0 17 -4 40.5t-10 47.5t-14 46t-17 36q-9 13 -18 35t-16.5 46t-12 47.5t-4.5 39.5 q0 6 5.5 28.5t12 48.5t13.5 48.5t10 28.5t13 9.5t22 5t24 1.5h17q29 2 59 4t61 4l6 97q-43 21 -96 30t-102 9q-19 0 -37 -10.5t-37 -16.5q-26 -8 -51.5 -12t-54.5 -15q-9 -3 -22 -24.5t-26.5 -48t-24 -51t-13.5 -33.5q-7 -21 -7 -41q0 -22 4.5 -50.5t12 -57.5t17 -56.5 t18.5 -48.5q7 -16 14.5 -35.5t14 -40t10.5 -40.5t4 -38q0 -6 -1 -12t-3 -13q-11 -34 -26 -55.5t-35 -35t-45.5 -22.5t-57.5 -18z" />
<glyph unicode="|" horiz-adv-x="334" d="M41 -129q35 11 72.5 14.5t74.5 3.5q26 0 52.5 -0.5t52.5 -3.5l-6 112l-6 112q-4 85 -4.5 170t-10.5 172q-6 69 -14 139t-16 139q-5 31 -10 64.5t-5 64.5q0 50 -6 97.5t-6 95.5q0 34 2 67.5t2 67.5q0 52 -4 103t-4 104q0 40 3 79.5t5 79.5q-17 -3 -35 -5.5t-37 -2.5 q-24 0 -48.5 2t-47.5 2q9 -115 18 -233t9 -234q0 -17 -2 -32.5t-2 -30.5q0 -25 6 -51t8 -52q2 -31 2 -61v-61q0 -42 -0.5 -83t-5.5 -81q-11 -91 -14.5 -182.5t-6.5 -184.5q-5 -99 -7.5 -195.5t-8.5 -195.5z" />
<glyph unicode="}" horiz-adv-x="571" d="M41 1626l10 -108q19 0 37 -1.5t37 -3.5q12 -2 33.5 -4.5t44 -6t42 -8t27.5 -11.5q12 -10 21 -30t15.5 -43t10 -45t3.5 -36q0 -20 -4 -47.5t-10.5 -56.5t-14 -57t-14.5 -48q-5 -16 -12.5 -42.5t-15 -55t-13 -55t-5.5 -41.5q0 -8 10.5 -22t24 -29t26.5 -27.5t17 -18.5 q-5 -4 -21 -17t-33.5 -28.5t-31 -30.5t-14.5 -22q-8 -42 -16.5 -88t-8.5 -88q0 -16 7 -48.5t16.5 -69t19 -70t15.5 -52.5q1 -4 4 -14.5t6 -22t5.5 -21.5t2.5 -13q0 -20 2 -40t2 -40q0 -12 -10 -40.5t-23.5 -59.5t-27 -56.5t-21.5 -30.5q-3 -2 -11 -2h-11q-17 0 -36 3t-36 8 l-2 -119q6 -2 25.5 -7.5t41 -11.5t41 -11t25.5 -5q12 0 27 2.5t30 6.5t29 9t23 11q14 8 29 29t29 45.5t25 48.5t17 39q29 58 29 118q0 42 -13.5 89.5t-30 96t-30.5 95.5t-14 86q0 40 5 80.5t11 81.5q38 15 75.5 23.5t78.5 19.5v82q-6 4 -26.5 18.5t-43.5 32.5t-41 35t-18 24 q0 16 10.5 42.5t23 56.5t23 61t10.5 57q0 28 3 56.5t3 56.5q0 20 -1.5 40t-6.5 40q-7 38 -18 77t-29.5 74t-46 63.5t-66.5 43.5q-19 8 -55.5 15.5t-78 14t-80 12.5t-62.5 11z" />
<glyph unicode="~" horiz-adv-x="813" d="M41 594q11 -6 25 -13.5t29 -14t30.5 -11t28.5 -4.5q67 0 131 -6v45q0 31 -2 61.5t-2 61.5q0 15 3 31t11 30q1 0 7.5 -0.5t15 -1t15 -1t7.5 -1.5q3 -2 8 -12.5t10.5 -23t11 -24.5t9.5 -18q5 -7 14.5 -22t21 -31.5t22.5 -29.5t18 -15q5 -1 19.5 -3.5t34.5 -5t43 -5 t43.5 -4.5t37 -3.5t22.5 -1.5h9q5 2 17.5 12t25.5 22t23.5 22.5t10.5 13.5q0 13 3.5 32.5t7.5 41t8.5 42.5t5.5 38q3 42 4.5 84t3.5 84q-40 -10 -65.5 -16t-48 -9.5t-48 -5.5t-65.5 -4q2 -5 6.5 -14.5t9 -20.5t7.5 -21t3 -16q0 -4 -5 -24.5t-11.5 -43.5t-13 -43t-8.5 -22 q-5 -6 -11 -7t-12 -1t-19 1.5t-18 6.5q-2 2 -5.5 15t-6.5 29.5t-5.5 31.5t-4.5 20q-3 9 -11 20.5t-18 22.5t-21 20t-20 13t-35 7.5t-55 6.5t-56 4.5t-38 1.5q-3 0 -6.5 1t-6.5 -1q-8 -2 -23.5 -25t-31.5 -51t-29 -54.5t-16 -36.5q-12 -39 -23 -77.5t-22 -76.5z" />
<glyph unicode="&#xa1;" horiz-adv-x="397" d="M41 -6q42 8 80.5 12.5t76.5 6t76.5 2t81.5 1.5q-5 48 -10.5 95.5t-5.5 95.5q1 35 -3 70t-9 69.5t-9 69.5t-4 69q0 100 -11 203t-17 203l-10 144q-5 72 -13 145l-137 -13q-3 -143 -6.5 -286.5t-3.5 -286.5q0 -51 -4.5 -102t-10 -103t-11 -103t-7.5 -102 q-2 -48 -15.5 -96.5t-27.5 -93.5zM55 1473q0 -42 2.5 -80t5.5 -78q28 2 55.5 4t53.5 2h76q37 0 76 -2v184q-70 -11 -135 -17.5t-134 -12.5z" />
<glyph unicode="&#xa2;" horiz-adv-x="643" d="M41 733q0 -72 20.5 -138.5t55.5 -129.5q11 -19 22.5 -30t25.5 -17t30.5 -9t37.5 -6q-3 -77 -13 -150t-19 -151q12 0 23 -1t24 -1q48 0 93 7t93 12q-5 17 -7.5 35t-2.5 36q0 27 -4.5 53.5t-10.5 52.5l-12 52q-6 26 -8 53q56 14 109 42t104 53q-25 48 -46 90.5t-40 93.5 q-5 -3 -20.5 -12t-36 -21.5t-44 -25.5t-44.5 -24.5t-38 -18.5t-24 -7q-11 0 -24.5 10.5t-22.5 16.5q-15 6 -21.5 19t-9 28.5t-3.5 31.5t-5 28q-4 13 -9.5 30.5t-10 36t-7.5 36.5t-3 32q0 8 10.5 27.5t24.5 39t28.5 34.5t22.5 15t35.5 -6t59 -13.5t60.5 -15t41 -10.5l76 123 q-40 17 -83.5 34.5t-86.5 25.5q8 42 17 84t12 84q2 27 2.5 54.5t3.5 55.5q-47 -8 -88.5 -15t-87.5 -5h-29q11 -60 15.5 -119t9.5 -119q-10 -2 -18 -4.5t-17 -7.5q-6 -2 -18.5 -16t-28.5 -34.5t-33 -44t-31.5 -45t-24.5 -39t-12 -24.5q-11 -38 -11.5 -83t-0.5 -83z" />
<glyph unicode="&#xa3;" horiz-adv-x="866" d="M41 39q78 -6 157.5 -13.5t157.5 -7.5q46 0 92 7t92.5 15.5t92.5 15.5t92 7q31 0 62 -7.5t59 -18.5q0 23 -2 46t-2 46q0 59 -1 111.5t-12 111.5q-37 -18 -75.5 -38t-77.5 -36.5t-80 -27t-84 -10.5q-16 0 -38 4.5t-45 10.5t-45.5 12.5t-39.5 11.5q28 71 51 139t29 143 q38 5 75.5 9.5t75.5 11.5q-3 21 -5.5 44t-2.5 46t2.5 46t5.5 46q-24 6 -48.5 11t-49.5 5q-21 0 -42.5 -1t-43.5 -3q-9 22 -12 47q-9 59 -28 114.5t-44 109.5q-2 6 -3 11t-1 11q0 24 13.5 41.5t34 29.5t44 17.5t43.5 5.5q4 0 18 -15.5t33 -39t40 -51.5l41 -54 q19 -26 33.5 -46t19.5 -27q31 57 47 114t35 119q-38 41 -73.5 79t-66.5 83q-7 10 -23.5 22.5t-35.5 23t-38 17.5t-32 7q-11 0 -31 -2t-42 -5.5t-41.5 -7.5t-30.5 -8q-18 -7 -41.5 -34t-44.5 -61t-35 -67t-14 -51l-2 -16q-1 -26 4 -51.5t12 -50.5t15 -50t14 -51q8 -43 14 -86 t14 -86l-168 -8q5 -28 9 -55.5t4 -55.5q0 -43 -10.5 -85.5t-16.5 -86.5q42 11 82 23.5t82 23.5q-15 -70 -34 -130t-41 -117t-45.5 -115t-47.5 -123z" />
<glyph unicode="&#xa5;" horiz-adv-x="823" d="M-20 1292q31 -72 53 -145q8 -25 21 -48.5t27 -47t26 -47.5t16 -50q8 -45 28 -84t42 -79q5 -10 18 -39.5t29 -63.5q-48 3 -94.5 7.5t-94.5 6.5l-2 -159q51 0 100 3t99 3h16q7 0 15 -2q-2 -32 -6 -66.5t-9 -68.5h-4q-54 0 -106.5 5t-106.5 7l-2 -160q48 2 96.5 5t96.5 3 l-7 -34q-9 -48 -17 -95t-19 -94q15 -2 29 -2h28q40 0 78.5 2t77.5 2q34 0 68.5 -2t68.5 -8q-6 45 -11.5 91.5t-5.5 92.5v13q0 6 2 12v12q60 -2 118.5 -3.5t117.5 -6.5q-3 28 -5.5 56.5t-2.5 56.5v112q-53 -9 -107 -19l-108 -20q2 26 2 51t2 50q56 -2 111.5 -3.5t111.5 -5.5 q-2 28 -5 56.5t-3 54.5v113q-34 -7 -69 -13l-70 -12q2 6 3 11t3 10q5 18 10.5 40t12.5 44.5t15.5 43t18.5 35.5q15 24 27.5 51t23 55.5t20.5 56.5t21 54q17 41 33 79.5t33 76.5q-32 -5 -67.5 -10.5t-69.5 -5.5q-31 0 -62.5 3.5t-60.5 8.5q-6 -42 -12 -85t-13 -86 t-17.5 -85.5t-25.5 -81.5q-14 -37 -30 -74t-31 -75q-13 40 -26 80.5t-30 78.5q-16 37 -29.5 78t-25 83t-22 84t-21.5 81q-28 -6 -53.5 -8t-52.5 -2q-25 0 -49 3.5t-48 7.5t-48 7.5t-50 3.5h-20z" />
<glyph unicode="&#xa6;" horiz-adv-x="348" d="M41 -178q68 3 134 6.5t134 9.5q-6 57 -10 113.5t-4 111.5v46q3 30 1 61t-5 61.5t-6.5 62t-3.5 62.5q0 41 3.5 81.5t6.5 80.5q-25 2 -50.5 5t-50.5 3h-52q-26 0 -52 -2q6 -79 6 -159q0 -55 -5.5 -125.5t-14 -145t-17 -145.5t-14.5 -127zM68 662q18 -2 36.5 -3.5t38.5 -1.5 q38 0 76 3t76 -1q-16 65 -28.5 133t-12.5 136q0 53 -4.5 105.5t-10 105t-10 105.5t-4.5 106q0 87 6 174q-12 5 -30.5 10.5t-30.5 5.5q-23 0 -48 -3.5t-46 -6.5l12 -288q6 -144 6 -288q0 -74 -7 -147t-19 -145z" />
<glyph unicode="&#xa7;" horiz-adv-x="924" d="M41 1206q0 -46 1 -92.5t7 -91.5q5 -33 17 -68t26 -71t27 -72t20 -72q2 -13 11.5 -40t21.5 -55.5t25.5 -52.5t23.5 -30q7 -4 35.5 -8.5t62 -8.5t64.5 -7.5t43 -4.5q43 -5 85.5 -20t84.5 -29q5 -32 10.5 -63.5t5.5 -63.5q0 -3 -1 -7t-1 -7q-19 -7 -50 -21.5t-64 -29 t-63 -25t-48 -10.5q-23 0 -59 4.5t-75 11.5t-76 14t-62 11l-31 -272h129q37 0 74 -4.5t74 -9.5t74.5 -9.5t74.5 -3.5l8 2q9 1 36.5 21.5t63 52t75.5 68.5t74 71t58 60.5t29 35.5q7 15 12.5 38t9.5 47.5t6.5 48t2.5 40.5q0 24 -6 45q-10 33 -14.5 66t-6.5 66l-6 68 q-2 33 -8 67q-2 8 -11.5 29.5t-21 45t-23 43.5t-18.5 25q-23 18 -72 33t-109 29.5t-124 30t-116.5 34.5t-86 43.5t-33.5 56.5q0 21 14 39.5t34.5 32t43.5 21.5t41 8q35 0 70.5 -5.5t71.5 -13t71.5 -16t69.5 -14.5q12 63 14.5 126.5t4.5 126.5q-47 -6 -94 -13t-95 -7 q-37 0 -73.5 2t-71.5 10q-17 3 -35 7t-37 4q-53 0 -91.5 -24t-64.5 -69q-3 -5 -12.5 -31t-20 -56t-18.5 -55.5t-8 -31.5zM262 864h78q74 0 144 -15.5t143 -31.5q3 -29 13.5 -57.5t10.5 -59.5q0 -12 -2.5 -25t-5.5 -26q-10 3 -36.5 9t-61.5 14.5t-73 18t-70.5 18.5t-54 16.5 t-23.5 11.5z" />
<glyph unicode="&#xa8;" d="M285 1522l24 -222l94 25l111 -12l-8 94l14 129l-114 -20zM602 1487l12 -141l68 -7l86 13l12 151l-106 -8z" />
<glyph unicode="&#xa9;" horiz-adv-x="1217" d="M41 639q-1 -41 7 -80.5t19 -79t24 -78.5t22 -79q6 -24 20.5 -61.5t33.5 -76t40.5 -71.5t42.5 -47q9 -6 33.5 -11.5t57 -10t69.5 -8t71.5 -7t62.5 -5.5t42 -4q12 -2 23 -2h22q30 0 52.5 5t42 13t39 19.5t44.5 24.5q27 15 51 33.5t47.5 38.5t46.5 40.5t47 38.5q45 32 73 73 t54 89q11 21 20 58t15 78t9.5 79.5t3.5 63.5q0 51 -7.5 102t-13.5 100q-8 53 -15 106t-20 105q-4 16 -17.5 46t-31 61t-35.5 57t-32 33q-22 12 -62 27t-83.5 29.5t-83.5 25t-64 12.5q-31 4 -61 12l-60 14q-30 8 -60.5 13.5t-62.5 5.5h-33q-52 -28 -105 -60t-100 -69l-46 -38 q-23 -19 -42.5 -40.5t-34 -46t-20.5 -55.5q-9 -40 -12 -79.5t-8 -80.5q-8 -74 -15.5 -147t-9.5 -148v-18zM227 696q0 62 11 122t28 120q10 26 19.5 52.5t15.5 53.5q3 12 14.5 28.5t26.5 33t29.5 30.5t23.5 21q10 8 26.5 16.5t34.5 15t35.5 11t30.5 4.5q10 0 16.5 -1.5 t14.5 -4.5q21 -9 48 -12.5t55 -6.5t56 -7.5t52 -14.5q17 -7 36 -19.5t37 -28t32.5 -33t21.5 -36.5q6 -21 8 -47.5t4 -48.5q6 -59 10 -117.5t15 -115.5q8 -35 13 -71t5 -73q0 -31 -10 -64t-27 -63t-41 -54t-53 -38q-33 -16 -68.5 -32.5t-72.5 -29.5t-75 -21.5t-75 -8.5 q-26 0 -52.5 5.5t-49.5 21.5q-16 11 -41.5 45t-51 74.5t-46.5 79t-29 59.5q-27 74 -27 155zM356 823q3 -51 7 -101t4 -101v-37q0 -28 9.5 -57.5t27 -53.5t42.5 -39.5t56 -15.5q46 0 86 6t76.5 18.5t71.5 31.5t71 46q-6 13 -16.5 26.5t-23.5 26t-27 22.5t-27 17l-19 -19 q-14 -14 -30.5 -29t-32 -26.5t-23.5 -11.5q-7 0 -18 4t-21.5 10.5t-19.5 13.5t-14 13q-3 4 -5 19.5t-3.5 36.5t-2.5 45t-1.5 46t-0.5 40v24q0 20 14 38t35 18q6 0 22 -6t33.5 -13.5t33 -14.5t20.5 -9q14 24 23 40.5t16 29t14 23t16.5 22t23.5 25t36 32.5q-3 5 -10.5 11 t-16.5 12t-18 10.5t-14 7.5q-47 21 -99.5 23.5t-101.5 2.5q-45 0 -81 -15t-65 -50q-9 -12 -17.5 -28.5t-15.5 -35t-11 -37t-3 -33.5v-8z" />
<glyph unicode="&#xaa;" horiz-adv-x="662" d="M31 651l178 -24l22 186q14 2 29 5t29 3q15 0 30.5 -1t30.5 -1q2 -46 4.5 -90.5t5.5 -89.5q32 5 67 11.5t67 6.5q27 0 55.5 -2t56.5 -4q-14 38 -27.5 81.5t-33.5 80.5q-10 18 -16 39t-10.5 42.5t-9.5 43t-13 39.5q-17 37 -25 77.5t-25 78.5q-23 51 -43 105t-34 108 q-6 22 -16 44.5t-22.5 45t-25.5 44t-24 40.5q-5 -19 -16.5 -62t-25 -91t-28 -90t-25.5 -58q-10 -17 -20 -49t-19 -67.5t-16 -69t-10 -54.5q-13 -82 -37.5 -165.5t-52.5 -162.5zM35 492l6 -148q74 12 149 12q23 0 46.5 -2t46.5 -2q21 0 40.5 7.5t36.5 7.5q38 0 74.5 -8.5 t71.5 -8.5h127v37q0 40 -4 77.5t-6 78.5q-54 -10 -111 -21.5t-111 -11.5q-45 0 -89 4t-89 4q-49 0 -94.5 -7.5t-93.5 -18.5zM244 948l8 72q3 27 9 49.5t16 48t28 68.5q9 -62 18 -123t17 -123z" />
<glyph unicode="&#xab;" horiz-adv-x="981" d="M31 668q14 -9 36.5 -24.5t48 -35t52.5 -41t50.5 -42t42 -38t26.5 -28.5q11 -16 28.5 -31t37.5 -28t40.5 -24t38.5 -20l78 181q-35 23 -68.5 44t-66.5 43t-65 45.5t-64 51.5q36 26 69.5 50.5t68 47.5t70.5 44t76 40q-45 31 -87.5 76.5t-67.5 93.5q-19 -22 -38.5 -43 t-39.5 -43q-37 -42 -69.5 -88.5t-69.5 -89.5q-32 -35 -64 -70.5t-63 -70.5zM440 668q15 -9 37 -24.5t48 -35t53 -41t50.5 -42t41.5 -38t26 -28.5q12 -16 29.5 -31t37.5 -28t40.5 -24t38.5 -20l78 181q-36 23 -69.5 44t-66.5 43t-65 45.5t-64 51.5q36 26 70 50.5t68 47.5 t70 44t77 40q-45 31 -88 76.5t-68 93.5q-18 -22 -37.5 -43t-39.5 -43q-38 -42 -70.5 -88.5t-69.5 -89.5q-32 -35 -64 -70.5t-63 -70.5z" />
<glyph unicode="&#xac;" horiz-adv-x="795" d="M41 815q3 -20 5.5 -38.5t2.5 -37.5q0 -28 -1 -55t-1 -55q117 9 231.5 25.5t231.5 19.5q-5 -35 -8.5 -70.5t-3.5 -71.5q0 -35 3 -70.5t3 -70.5q35 7 65 11.5t59 7t59.5 3.5t66.5 1v37q0 61 -10.5 120t-10.5 119q0 44 -3.5 80.5t-12.5 79.5q-58 -11 -107.5 -18.5t-98 -12.5 t-99 -7.5t-109.5 -2.5q-65 0 -130.5 3t-131.5 3z" />
<glyph unicode="&#xad;" horiz-adv-x="752" d="M27 672q58 2 117 5t118 3q34 0 66.5 -9t64.5 -9q20 0 41 4t41 4q33 0 53 -0.5t33.5 -1t23.5 -1.5t23.5 -2.5t33.5 -3.5t54 -4q-3 32 -6.5 64.5t-3.5 64.5v127q-48 -7 -83 -15.5t-63.5 -16.5t-54 -15.5t-54.5 -13t-64.5 -9t-85.5 -3.5q-63 0 -126 6t-126 8z" />
<glyph unicode="&#xae;" horiz-adv-x="1069" d="M41 944q0 -59 7 -117t7 -116q0 -8 -1 -14.5t-1 -12.5q0 -59 8.5 -118t16.5 -117q6 -50 11.5 -100t16.5 -99q6 -21 24.5 -40t42 -34t49 -26.5t44.5 -18.5q18 -6 50.5 -18t67.5 -24t66.5 -21t47.5 -9q15 0 48 5.5t68 13.5t65 18.5t40 20.5q20 20 39.5 44t38.5 46 q35 43 70 84.5t69 85.5q12 15 25 31.5t24 34.5t18 37.5t7 39.5q0 71 4 140.5t12 140.5q2 15 2 31v34q0 18 -1.5 47.5t-5 61t-8.5 60t-12 44.5q-12 29 -47 68.5t-78.5 77t-86.5 68t-72 42.5q-38 16 -76 26.5t-80 10.5q-57 0 -108 -18q-25 -9 -62 -18.5t-74.5 -22t-69.5 -29 t-48 -39.5q-16 -20 -29 -43t-27 -45q-10 -18 -27.5 -46t-34 -59t-28.5 -60t-12 -48zM217 874q0 24 10.5 52t25.5 55t32 51.5t30 42.5q17 7 52 14t73.5 12.5t74.5 9t54 3.5q96 0 161.5 -47t107.5 -131q15 -32 32 -64.5t17 -70.5q0 -16 -6.5 -49t-17 -73t-23.5 -83.5 t-26.5 -82.5t-26.5 -68.5t-23 -41.5q-9 -10 -28.5 -18.5t-43 -15.5t-45.5 -11t-35 -4q-20 0 -40 2t-40 2q-42 0 -82.5 -8t-80.5 -8q-17 0 -28.5 7.5t-21.5 21.5q-10 17 -16 43.5t-10.5 56t-8.5 58t-10 49.5q-9 34 -19 71.5t-18.5 76t-14 76.5t-5.5 72zM352 948 q6 -63 15.5 -126t17.5 -126q5 -34 5.5 -68t0.5 -69q0 -32 3.5 -66.5t8.5 -66.5l154 16q-13 45 -19.5 71t-10 47.5t-5.5 48t-6 73.5q38 14 81 29t77 37q23 15 46 28.5t48 26.5q-13 44 -20.5 66.5t-16.5 37.5q-7 16 -20 33t-41 49q-50 -53 -109 -100q-8 -7 -18.5 -16.5 t-20 -20t-17.5 -21.5t-11 -22q-10 40 -17.5 78.5t-15.5 77.5z" />
<glyph unicode="&#xaf;" d="M201 1358h22q31 0 62.5 4t62.5 4t60.5 -5t60.5 -5q25 0 62.5 0.5t76.5 0t74 -4t55 -11.5q6 -3 13.5 -3.5t13.5 -0.5q23 0 46 3t46 8q2 26 5 54t3 56q0 6 -3.5 20t-8 29t-8.5 28.5t-6 18.5q-31 -2 -60.5 -3.5t-60.5 -4.5q-35 -3 -62 -10.5t-53.5 -16t-57.5 -14.5t-75 -6 q-46 0 -92 4t-92 2h-78z" />
<glyph unicode="&#xb0;" horiz-adv-x="561" d="M41 1063q0 -38 9 -74.5t32 -68.5q23 -30 53 -45t63.5 -21t68.5 -6h69q26 0 42.5 4.5t27.5 14.5t19.5 25t18.5 36q10 17 19.5 34.5t21.5 34.5q35 53 35 115q0 34 -8 67.5t-16 65.5q-4 18 -24 37.5t-45.5 36t-51.5 29t-43 16.5q-5 0 -8.5 1t-8.5 1q-29 0 -63 -9.5 t-62 -19.5q-13 -4 -31.5 -8t-37.5 -9.5t-35.5 -14t-24.5 -21.5q-9 -54 -14.5 -109.5t-5.5 -111.5zM174 1061q0 3 1 7t1 7q6 25 10.5 50.5t8.5 50.5q7 7 18.5 15t25 14.5t27 11t23.5 4.5q18 0 29 -10.5t18 -25.5t9.5 -32t2.5 -31q0 -7 -0.5 -18.5t-2.5 -23.5t-5.5 -23 t-9.5 -17q-9 -7 -17 -16t-16.5 -16t-18.5 -12t-22 -5t-26.5 5.5t-27 15.5t-20.5 22.5t-8 26.5z" />
<glyph unicode="&#xb1;" horiz-adv-x="662" d="M41 98q51 2 101.5 5t101.5 3q29 0 56.5 -9t55.5 -9q19 0 36 4t34 4q29 0 46.5 -0.5t29.5 -1t20.5 -1.5t19.5 -2.5t28.5 -3t45.5 -3.5q-2 32 -5 64.5t-3 64.5v127q-41 -8 -71.5 -16.5t-55 -16.5t-46 -15.5t-46.5 -13t-56 -9t-73 -3.5q-56 0 -109.5 6.5t-107.5 8.5zM41 803 l6 -162q32 8 70.5 17.5t72.5 9.5q10 0 18 -1t17 -3v-17q0 -48 -6 -97t-14 -97q60 -13 114.5 -15.5t114.5 -5.5q-11 51 -19 101.5t-12 103.5q56 -9 110 -13t110 -8q-2 48 -7.5 94.5t-5.5 94.5v55l-215 -39q-2 11 -2 21v22q0 35 4 70t9 70q-57 0 -108 3.5t-108 12.5 q2 -34 3 -62.5t2.5 -55t4.5 -54.5t7 -62q-13 -2 -26 -3t-27 -1q-29 0 -58 5t-55 16z" />
<glyph unicode="&#xb2;" horiz-adv-x="541" d="M41 784q0 -27 2 -53q37 2 73.5 4t73.5 2q42 0 80.5 -10t79.5 -10q32 0 64.5 -1t64.5 -3q-2 18 -3 38t-1 40q0 12 4.5 27t7.5 28q-68 -2 -135 0.5t-133 7.5q30 29 71 67.5t81.5 81t74 86t48.5 80.5q2 7 3.5 17.5t2 21.5t0.5 22v17q0 19 -5.5 45.5t-15.5 53.5t-23.5 49.5 t-29.5 34.5q-17 12 -38.5 15t-41.5 3q-31 0 -73 -5.5t-82.5 -19t-73 -36t-45.5 -56.5q-10 -26 -20.5 -54.5t-10.5 -57.5q0 -19 2 -38.5t4 -39.5q29 11 47 15.5t33.5 6t33.5 1.5t48 1q-5 23 -7.5 46.5t-2.5 48.5q0 27 9.5 32.5t35.5 5.5q31 0 50 -12.5t19 -46.5t-9 -70.5 t-25 -71t-38.5 -64t-50.5 -48.5q-13 -9 -31 -17l-36 -18q-18 -8 -34 -17t-26 -20q-15 -14 -18.5 -34.5t-3.5 -40.5v-54z" />
<glyph unicode="&#xb3;" horiz-adv-x="565" d="M41 897q0 -14 0.5 -39t2 -52t4.5 -51t7 -36q7 -15 20.5 -28.5t30 -23.5t34.5 -16t34 -6h184q53 0 87 22.5t51 73.5q11 39 19.5 78.5t8.5 79.5q0 35 -18.5 65.5t-46 55t-60 43.5t-61.5 31q13 7 36 22t45 34t38 38.5t16 34.5q0 11 -2.5 29.5t-7 38.5t-9.5 38t-10 29 q-7 18 -30 37t-51.5 34.5t-57.5 26t-47 10.5q-11 0 -32 -4.5t-43.5 -11.5t-43 -14t-30.5 -13q-27 -15 -40 -38.5t-18.5 -51t-5.5 -56.5t-2 -56l150 6q0 12 -2.5 24.5t-2.5 24.5q0 18 9 25.5t26 7.5q7 0 18.5 -11t22 -26t18 -29.5t7.5 -21.5q0 -34 -10.5 -50.5t-28.5 -23 t-41 -8t-47 -6.5l14 -84q16 1 31.5 2.5t29 -0.5t26 -9t22.5 -24q4 -6 9.5 -20t10.5 -29t8.5 -28.5t3.5 -20.5q0 -9 -0.5 -27.5t-1.5 -38.5t-3 -37.5t-5 -23.5q-17 -7 -39 -7q-18 0 -29.5 16.5t-18.5 38.5t-12 45t-11 36z" />
<glyph unicode="&#xb4;" d="M465 1395l98 -123q28 17 45 27t26 16l15 10q5 3 34 19t65 35t69.5 34.5t48.5 18.5q13 2 33 10q17 7 44.5 20.5t66.5 36.5q-28 31 -45.5 50.5t-27.5 31.5q-11 14 -17 21q-7 7 -20 19q-11 11 -30.5 28t-50.5 43q-58 -61 -93 -96l-54 -54q-22 -22 -31 -29q-9 -6 -31 -21 q-19 -13 -54 -36z" />
<glyph unicode="&#xb5;" horiz-adv-x="733" d="M20 -352q17 2 36 5t36 3q19 0 41.5 -6.5t40.5 -9.5q12 121 21.5 242.5t9.5 246.5v23q0 11 -2 22q11 -34 35 -66.5t56 -58t69.5 -41.5t74.5 -16q38 0 82.5 11t79.5 28q13 5 25 20.5t22.5 34t19 38t15.5 32.5q12 20 17.5 42.5t5.5 45.5q0 35 -5.5 70.5t-7.5 70.5 q-6 142 -8.5 283t-7.5 284q-20 -8 -49 -15t-52 -7h-118q24 -95 35.5 -183t11.5 -186q0 -69 5 -138t5 -138q0 -18 -11.5 -32.5t-29 -24t-37 -14.5t-35.5 -5q-9 0 -22 8.5t-25.5 21t-21 26t-8.5 22.5q0 46 -6 96.5t-17 95.5q-19 94 -27 185.5t-14 185.5q-35 -3 -71.5 -11 t-71.5 -8q-20 0 -40 1.5t-40 3.5q8 -50 14 -101t6 -100q0 -81 8.5 -159t8.5 -159q0 -88 -12.5 -179t-18.5 -179z" />
<glyph unicode="&#xb6;" horiz-adv-x="1081" d="M40 864.5q-1 -43.5 3 -76t14 -57.5t33 -47.5t60 -45.5t94 -52q28 -17 61 -17q34 0 65.5 11.5t65.5 17.5q25 5 51 7t52 5q0 -158 -9.5 -321.5t-15.5 -321.5q22 -5 43.5 -9.5t44.5 -4.5h160q-19 173 -35 344t-29 344q-6 68 -13 135t-7 135v144q18 0 35.5 1t34.5 1h51 q-3 -44 -7 -86.5t-4 -85.5v-197q0 -46 4 -92t8.5 -92.5t8.5 -92.5t4 -92q0 -51 1.5 -101.5t6.5 -102.5q32 -3 65.5 -8t67.5 -5h107q-9 75 -19.5 147t-21.5 146q-6 46 -10.5 92.5t-10 92.5t-13.5 91.5t-21 90.5q-8 29 -10.5 58.5t-2.5 58.5q0 38 2 76.5t2 76.5q0 68 -10 136 t-18 137q-81 0 -158 -10t-153.5 -22t-153 -22t-156.5 -10q-12 0 -25.5 1t-25.5 1q-31 0 -65.5 -24.5t-65.5 -59.5t-53 -73t-27 -66q-3 -14 -3.5 -27.5t-0.5 -25.5q0 -59 -1 -102.5zM317 872q0 14 3.5 39t11.5 50t21 43t32 18q34 0 67.5 7t67.5 13q0 -68 7.5 -134t9.5 -134 q-36 -5 -71.5 -13.5t-72.5 -8.5q-26 0 -41 10.5t-23 28t-10 39t-2 42.5z" />
<glyph unicode="&#xb7;" horiz-adv-x="406" d="M41 907q0 -21 7 -47.5t13 -46.5q44 3 86 5.5t84 2.5q32 0 67 -3.5t67 -8.5q-7 53 -8 104.5t-3 104.5q-11 -4 -29.5 -9.5t-38 -10.5t-38.5 -9t-31 -4q-43 0 -86 1t-88 3q0 -21 -1 -41.5t-1 -40.5z" />
<glyph unicode="&#xb8;" d="M307 -440l185 -64q11 1 38 3.5t57 8t55.5 12.5t33.5 17q11 13 25 42t27 61.5t21.5 63t8.5 46.5q0 17 -5 40.5t-13.5 47t-20 43.5t-25.5 29q-10 6 -28 12.5t-38.5 12t-39 10t-29.5 6.5q3 18 14 42t24.5 48.5t27.5 47t22 38.5q-33 6 -65 6q-17 0 -32.5 -2t-31.5 -2 q-29 0 -57 5t-55 13q-2 -46 -6.5 -81.5t-12 -68t-18 -67.5t-25.5 -80q16 -2 31 -3t31 -1q11 0 21.5 1t21.5 1q20 1 39.5 -11t34.5 -30t24.5 -39.5t9.5 -39.5q0 -25 -7 -44.5t-36 -19.5q-51 0 -92 23t-78 55z" />
<glyph unicode="&#xb9;" horiz-adv-x="371" d="M41 1311q11 -31 16.5 -60.5t18.5 -60.5l80 10q-6 -44 -10 -89.5t-8.5 -91.5t-10.5 -90.5t-16 -86.5q-8 -34 -11.5 -68.5t-5.5 -68.5q34 -8 67.5 -10.5t67.5 -2.5q25 0 51.5 1.5t49.5 6.5q-8 121 -14.5 236t-6.5 235q0 51 1 101.5t-1 101.5q-12 -3 -39.5 -11.5t-56.5 -17 t-53.5 -15.5t-32.5 -7q-45 0 -86 -12z" />
<glyph unicode="&#xba;" horiz-adv-x="743" d="M31 1034q0 -51 6.5 -103.5t15.5 -103.5q4 -21 23 -47t44.5 -50.5t52 -44.5t44.5 -30q15 -7 34 -12t39.5 -7.5t41 -3.5t37.5 -1q26 0 53.5 2t52.5 10q21 5 35 11t23.5 15t16.5 22t13 32q14 42 30 67.5t30 48.5t23 51t9 75q0 25 -4 57.5t-10 66t-13.5 65.5t-13.5 56 q-4 16 -20 39.5t-36.5 47t-42 42t-36.5 25.5q-12 5 -36 14t-50 17t-50 14t-36 6q-13 0 -37 -5t-49.5 -12.5t-48 -17t-31.5 -18.5q-11 -29 -29.5 -71.5t-36.5 -88.5t-31 -90.5t-13 -77.5zM80 326q60 -2 119.5 -3t119.5 -1q59 0 117 9t117 9q40 0 81 -7.5t79 -15.5 q-5 34 -11 70t-6 70v51q0 26 -2 51q-54 -2 -112 -5t-111 -17q-49 -14 -101.5 -16.5t-103.5 -2.5q-43 0 -89 -6t-89 -12q0 -45 -2.5 -87t-5.5 -87zM242 938q0 13 0.5 41t1.5 63.5t3 74.5t5.5 72.5t8.5 57.5t13 31q11 9 23.5 12.5t26.5 3.5q10 0 27 -3.5t33.5 -10.5t29 -17 t12.5 -22q0 -16 2 -36.5t6 -41.5t8.5 -41t10.5 -35q5 -18 8.5 -38.5t5 -41.5t2 -42t0.5 -39q0 -25 -4.5 -45.5t-26.5 -34.5q-11 -7 -19.5 -17t-17 -19t-19 -15.5t-26.5 -6.5q-29 0 -50.5 14t-35.5 35.5t-21 48.5t-7 52z" />
<glyph unicode="&#xbb;" horiz-adv-x="981" d="M41 526q21 -15 43.5 -34t43.5 -41.5t39 -46.5t30 -48q18 23 37.5 44t37.5 42q39 42 71 88.5t71 90.5q31 35 63 70.5t64 70.5q-15 9 -37.5 24.5t-48.5 35t-52.5 41t-50 42t-41.5 38t-26 28.5q-12 16 -30 31t-38 28t-41 24t-39 19l-76 -180q36 -23 69.5 -44.5t66.5 -43.5 t65 -45.5t64 -50.5q-36 -26 -70 -50.5t-68 -47.5t-70 -44t-77 -41zM451 526q21 -15 43.5 -34t43 -41.5t38.5 -46.5t30 -48q19 23 38 44l38 42q38 42 70.5 88.5t70.5 90.5q31 35 63 70.5t64 70.5q-22 13 -60 41t-77.5 59.5t-73 61.5t-45.5 47q-12 16 -29.5 31t-37.5 28 t-41 24t-39 19l-76 -180q35 -23 68.5 -44.5t66.5 -43.5t65 -45.5t64 -50.5q-36 -26 -69.5 -50.5t-68 -47.5t-70 -44t-76.5 -41z" />
<glyph unicode="&#xbc;" horiz-adv-x="1237" d="M41 76q51 -17 101.5 -32.5t101.5 -35.5q5 13 18.5 44t30 65t32 63t25.5 39q24 24 47.5 62.5t47 81t47 84t47.5 71.5q35 45 61 98t51 108.5t52 110t63 101.5q14 18 30 36.5t32 38t30.5 40t24.5 41.5q26 52 61.5 100t61.5 100q14 28 30 54.5t31 52.5q-51 -3 -85.5 -1.5 t-64.5 7t-62 15t-79 22.5q-18 -48 -37 -95.5t-39 -95.5q-16 -39 -35 -76.5t-38.5 -74.5t-39 -75t-36.5 -77q-38 -90 -72 -180t-71 -180q-15 -39 -39.5 -83t-53 -88t-57.5 -85.5t-53 -75.5q-35 -48 -78 -93t-86 -87zM41 1311q11 -31 16.5 -60.5t18.5 -60.5l80 10 q-6 -44 -10 -89.5t-8.5 -91.5t-10.5 -90.5t-16 -86.5q-8 -34 -11.5 -68.5t-5.5 -68.5q34 -8 67.5 -10.5t67.5 -2.5q25 0 51.5 1.5t49.5 6.5q-8 121 -14.5 236t-6.5 235q0 51 1 101.5t-1 101.5q-12 -3 -39.5 -11.5t-56.5 -17t-53.5 -15.5t-32.5 -7q-45 0 -86 -12zM662 406 q14 -8 32 -15.5t35 -7.5q63 0 125 -2.5t125 -7.5q-3 -88 -11 -174t-16 -174q62 -5 122 -10.5t122 -14.5q-3 97 -14 192t-11 193q0 102 1 202.5t-3 203.5q-27 -2 -54.5 -4.5t-55.5 -2.5q-26 0 -52.5 2.5t-52.5 6.5q5 -72 10 -136t19 -133q-38 -8 -75.5 -10.5t-76.5 -5.5 q16 66 28.5 125.5t35.5 122.5q-34 6 -62.5 10.5t-62.5 15.5q-12 -50 -23.5 -97t-24 -93.5t-27 -92.5t-33.5 -93z" />
<glyph unicode="&#xbd;" horiz-adv-x="1128" d="M41 76q51 -17 101.5 -32.5t101.5 -35.5q5 13 18.5 44t30 65t32 63t25.5 39q24 24 47.5 62.5t47 81t47 84t47.5 71.5q35 45 61 98t51 108.5t52 110t63 101.5q14 18 30 36.5t32 38t30.5 40t24.5 41.5q26 52 61.5 100t61.5 100q14 28 30 54.5t31 52.5q-51 -3 -85.5 -1.5 t-64.5 7t-62 15t-79 22.5q-18 -48 -37 -95.5t-39 -95.5q-16 -39 -35 -76.5t-38.5 -74.5t-39 -75t-36.5 -77q-38 -90 -72 -180t-71 -180q-15 -39 -39.5 -83t-53 -88t-57.5 -85.5t-53 -75.5q-35 -48 -78 -93t-86 -87zM41 1311q11 -31 16.5 -60.5t18.5 -60.5l80 10 q-6 -44 -10 -89.5t-8.5 -91.5t-10.5 -90.5t-16 -86.5q-8 -34 -11.5 -68.5t-5.5 -68.5q34 -8 67.5 -10.5t67.5 -2.5q25 0 51.5 1.5t49.5 6.5q-8 121 -14.5 236t-6.5 235q0 51 1 101.5t-1 101.5q-12 -3 -39.5 -11.5t-56.5 -17t-53.5 -15.5t-32.5 -7q-45 0 -86 -12zM629 127 q0 -28 1 -54.5t1 -54.5q37 4 74 5.5t75 1.5q41 0 79.5 -10.5t78.5 -10.5q32 0 64.5 -1t64.5 -3q-2 20 -3 40t-1 40q0 12 4.5 26.5t7.5 26.5q-68 -2 -134 1t-134 9q30 28 71 66t81.5 80.5t73.5 86t48 81.5q7 14 6.5 38t-0.5 40q0 19 -5.5 45.5t-15 53t-23 50t-29.5 35.5 q-17 12 -37.5 15t-40.5 3q-32 0 -74.5 -6t-83 -19.5t-72.5 -36.5t-44 -57q-11 -26 -21 -54t-10 -56q0 -20 1 -40t3 -40q29 11 47 16t33.5 6.5t33.5 1.5t48 1q-5 23 -8 47t-3 47q0 28 10.5 33.5t34.5 5.5q31 0 50.5 -13t19.5 -47t-8.5 -70t-24.5 -70t-38.5 -63t-51.5 -49 q-13 -9 -30.5 -17.5t-35.5 -16.5t-34 -17t-27 -20q-14 -16 -18 -36t-4 -40z" />
<glyph unicode="&#xbe;" horiz-adv-x="1360" d="M41 897q0 -14 0.5 -39t2 -52t4.5 -51t7 -36q7 -15 20.5 -28.5t30 -23.5t34.5 -16t34 -6h184q53 0 87 22.5t51 73.5q11 39 19.5 78.5t8.5 79.5q0 35 -18.5 65.5t-46 55t-60 43.5t-61.5 31q13 7 36 22t45 34t38 38.5t16 34.5q0 11 -2.5 29.5t-7 38.5t-9.5 38t-10 29 q-7 18 -30 37t-51.5 34.5t-57.5 26t-47 10.5q-11 0 -32 -4.5t-43.5 -11.5t-43 -14t-30.5 -13q-27 -15 -40 -38.5t-18.5 -51t-5.5 -56.5t-2 -56l150 6q0 12 -2.5 24.5t-2.5 24.5q0 18 9 25.5t26 7.5q7 0 18.5 -11t22 -26t18 -29.5t7.5 -21.5q0 -34 -10.5 -50.5t-28.5 -23 t-41 -8t-47 -6.5l14 -84q16 1 31.5 2.5t29 -0.5t26 -9t22.5 -24q4 -6 9.5 -20t10.5 -29t8.5 -28.5t3.5 -20.5q0 -9 -0.5 -27.5t-1.5 -38.5t-3 -37.5t-5 -23.5q-17 -7 -39 -7q-18 0 -29.5 16.5t-18.5 38.5t-12 45t-11 36zM164 72q51 -19 101.5 -34.5t101.5 -35.5 q5 14 18.5 45t29.5 64.5t32 63t26 40.5q24 23 47.5 61t47 80.5t47 84t47.5 71.5q35 45 61 98t51 108.5t52 110t63 101.5q14 18 30 38l32 38q16 20 30.5 39.5t24.5 39.5q26 54 61 101.5t61 99.5q14 28 30 54.5t32 52.5q-51 -3 -85.5 -2t-64.5 7t-62 16t-79 24 q-19 -48 -37.5 -96.5t-38.5 -96.5q-32 -76 -73.5 -150t-75.5 -151q-38 -90 -72 -180.5t-72 -181.5q-15 -39 -39.5 -82.5t-52.5 -87.5t-57 -85t-53 -75q-35 -50 -78 -94t-86 -86zM784 406q14 -8 32.5 -15.5t35.5 -7.5q63 0 125 -2.5t125 -7.5q-3 -88 -11 -174t-16 -174 q31 -3 61.5 -1.5t60.5 3.5t60.5 2.5t61.5 -4.5q-1 48 -5.5 92t-8.5 87t-7.5 87.5t-3.5 93.5q0 102 0.5 202.5t-2.5 203.5q-28 -2 -55 -4.5t-55 -2.5q-26 0 -52.5 2.5t-52.5 6.5q5 -71 10 -135.5t19 -133.5q-38 -8 -75.5 -10.5t-76.5 -5.5q16 66 28.5 125.5t35.5 122.5 q-34 6 -62.5 10.5t-62.5 15.5q-12 -50 -23.5 -97t-24 -93.5t-27 -92.5t-34.5 -93z" />
<glyph unicode="&#xbf;" horiz-adv-x="891" d="M31 328q0 -17 5 -31.5t13 -27.5t17 -25.5t18 -24.5q6 -7 25.5 -29.5t42 -47t42.5 -45t27 -25.5q8 -6 32 -13.5t51.5 -14.5t52 -12t34.5 -5q16 0 39.5 3t47.5 8.5t46 13t35 16.5q15 10 44.5 24.5t62 28.5t62.5 25t48 14q11 3 25 9.5t29 14t28.5 15.5t22.5 14 q-29 51 -55 99.5t-52 101.5l-21 -16q-21 -16 -52.5 -39t-68.5 -50t-69.5 -50t-55.5 -38.5t-26 -15.5q-2 0 -21 7t-42 16t-44.5 17.5t-29.5 10.5q-19 5 -36 25t-30 46t-20.5 53t-7.5 46q0 5 7.5 27t17.5 46.5t19 45t13 22.5q3 2 13 2h12q40 0 78.5 -4t78.5 -4q5 0 16.5 8.5 t27 21.5t32 28.5t31.5 30.5t25.5 26.5t13.5 17.5q3 3 3.5 8.5t0.5 10.5q0 14 -6 45.5t-15 72t-20 85.5t-21.5 86t-19 74t-12.5 50l-146 -12q3 -49 9 -98.5t6 -97.5q0 -25 -3 -50.5t-5 -50.5q-25 -4 -60.5 -12.5t-71.5 -19.5t-69.5 -25t-54.5 -29q-26 -18 -40.5 -32t-23 -29 t-14.5 -34t-15 -48q-7 -24 -12 -58t-8 -70.5t-4.5 -71.5t-1.5 -60zM322 1397q-2 -38 3.5 -73.5t10.5 -72.5q75 17 150 31t149 33l-10 117q-48 -2 -94.5 -4.5t-94.5 -2.5q-29 0 -58 4t-56 9v-41z" />
<glyph unicode="&#xc0;" horiz-adv-x="838" d="M-31 119q53 -1 87 -2t65.5 -4t67 -9t90.5 -18q11 35 22 67.5t20.5 64t17.5 64.5t13 70q31 -9 54 -13t44.5 -5t45.5 -0.5t57 0.5l25 -277q33 8 57.5 13.5t45 9.5t38.5 7.5t38 9.5t44 14.5t57 21.5q-2 9 -5 21t-6 25t-5 25.5t-2 20.5q0 11 -3.5 28t-8 35.5t-9.5 36t-8 27.5 q-22 85 -43 169t-41 169q-3 13 -8 30.5t-9.5 36t-8 36t-3.5 30.5q0 10 -5.5 30t-8.5 30q-4 18 -15 54t-22.5 75t-20 73t-8.5 48q0 10 -8.5 38.5t-22 66.5t-29.5 81.5t-30.5 82t-25.5 67t-15 38.5q-4 -14 -14 -46t-21.5 -67t-23.5 -65.5t-22 -42.5q-8 -11 -19 -36 t-23.5 -57.5t-25.5 -69.5t-25.5 -72t-23 -64t-17.5 -47q-51 -121 -99.5 -240t-90.5 -241q-29 -85 -57 -169.5t-56 -170.5zM373 596q25 97 53.5 189.5t48.5 189.5q11 -43 22 -91t11 -93q0 -48 11 -98.5t22 -96.5h-168zM-108 1622q13 -8 31.5 -18.5t38.5 -20t39.5 -17.5 t34.5 -11q29 -7 69 -26.5t82 -43t82.5 -48t69.5 -42.5l98 123q-43 29 -88 57.5t-88 60.5q-16 11 -29.5 25.5t-25.5 28.5q-32 31 -62 62.5t-61 62.5q-31 -26 -54.5 -48.5t-45.5 -45t-43.5 -46.5t-47.5 -53z" />
<glyph unicode="&#xc1;" horiz-adv-x="838" d="M-31 119q53 -1 87 -2t65.5 -4t67 -9t90.5 -18q11 35 22 67.5t20.5 64t17.5 64.5t13 70q31 -9 54 -13t44.5 -5t45.5 -0.5t57 0.5l25 -277q33 8 57.5 13.5t45 9.5t38.5 7.5t38 9.5t44 14.5t57 21.5q-2 9 -5 21t-6 25t-5 25.5t-2 20.5q0 11 -3.5 28t-8 35.5t-9.5 36t-8 27.5 q-22 85 -43 169t-41 169q-3 13 -8 30.5t-9.5 36t-8 36t-3.5 30.5q0 10 -5.5 30t-8.5 30q-4 18 -15 54t-22.5 75t-20 73t-8.5 48q0 10 -8.5 38.5t-22 66.5t-29.5 81.5t-30.5 82t-25.5 67t-15 38.5q-4 -14 -14 -46t-21.5 -67t-23.5 -65.5t-22 -42.5q-8 -11 -19 -36 t-23.5 -57.5t-25.5 -69.5t-25.5 -72t-23 -64t-17.5 -47q-51 -121 -99.5 -240t-90.5 -241q-29 -85 -57 -169.5t-56 -170.5zM373 596q25 97 53.5 189.5t48.5 189.5q11 -43 22 -91t11 -93q0 -48 11 -98.5t22 -96.5h-168zM526 1518l98 -123q28 17 45 27t26 16l15 10q5 3 34 19 t65 35t69.5 34.5t48.5 18.5q13 2 33 10q17 7 44.5 20.5t66.5 36.5q-28 31 -45.5 50.5t-27.5 31.5q-11 14 -17 21q-7 7 -20 19q-11 11 -30.5 28t-50.5 43q-58 -61 -93 -96l-54 -54q-22 -22 -31 -29q-9 -6 -31 -21q-19 -13 -54 -36z" />
<glyph unicode="&#xc2;" horiz-adv-x="838" d="M-31 119q53 -1 87 -2t65.5 -4t67 -9t90.5 -18q11 35 22 67.5t20.5 64t17.5 64.5t13 70q31 -9 54 -13t44.5 -5t45.5 -0.5t57 0.5l25 -277q33 8 57.5 13.5t45 9.5t38.5 7.5t38 9.5t44 14.5t57 21.5q-2 9 -5 21t-6 25t-5 25.5t-2 20.5q0 11 -3.5 28t-8 35.5t-9.5 36t-8 27.5 q-22 85 -43 169t-41 169q-3 13 -8 30.5t-9.5 36t-8 36t-3.5 30.5q0 10 -5.5 30t-8.5 30q-4 18 -15 54t-22.5 75t-20 73t-8.5 48q0 10 -8.5 38.5t-22 66.5t-29.5 81.5t-30.5 82t-25.5 67t-15 38.5q-4 -14 -14 -46t-21.5 -67t-23.5 -65.5t-22 -42.5q-8 -11 -19 -36 t-23.5 -57.5t-25.5 -69.5t-25.5 -72t-23 -64t-17.5 -47q-51 -121 -99.5 -240t-90.5 -241q-29 -85 -57 -169.5t-56 -170.5zM373 596q25 97 53.5 189.5t48.5 189.5q11 -43 22 -91t11 -93q0 -48 11 -98.5t22 -96.5h-168zM130 1450q70 -10 139 -20.5t138 -18.5q15 65 32.5 123 t39.5 120q27 -51 49.5 -102t44.5 -107q43 0 72 1t53.5 4t51 9.5t64.5 16.5q-65 79 -124.5 160t-124.5 162q-23 -3 -49.5 -9t-51.5 -6q-28 0 -55 4t-55 7q-29 -44 -55.5 -87.5t-53.5 -87t-55 -86t-60 -83.5z" />
<glyph unicode="&#xc3;" horiz-adv-x="838" d="M-31 119q53 -1 87 -2t65.5 -4t67 -9t90.5 -18q11 35 22 67.5t20.5 64t17.5 64.5t13 70q31 -9 54 -13t44.5 -5t45.5 -0.5t57 0.5l25 -277q33 8 57.5 13.5t45 9.5t38.5 7.5t38 9.5t44 14.5t57 21.5q-2 9 -5 21t-6 25t-5 25.5t-2 20.5q0 11 -3.5 28t-8 35.5t-9.5 36t-8 27.5 q-22 85 -43 169t-41 169q-3 13 -8 30.5t-9.5 36t-8 36t-3.5 30.5q0 10 -5.5 30t-8.5 30q-4 18 -15 54t-22.5 75t-20 73t-8.5 48q0 10 -8.5 38.5t-22 66.5t-29.5 81.5t-30.5 82t-25.5 67t-15 38.5q-4 -14 -14 -46t-21.5 -67t-23.5 -65.5t-22 -42.5q-8 -11 -19 -36 t-23.5 -57.5t-25.5 -69.5t-25.5 -72t-23 -64t-17.5 -47q-51 -121 -99.5 -240t-90.5 -241q-29 -85 -57 -169.5t-56 -170.5zM373 596q25 97 53.5 189.5t48.5 189.5q11 -43 22 -91t11 -93q0 -48 11 -98.5t22 -96.5h-168zM118 1503q29 -5 58.5 -8.5t59.5 -3.5q31 0 60.5 -4 t60.5 -12q-3 31 -5.5 62t-2.5 63q0 7 1.5 20t5 25.5t10 22t16.5 9.5q8 0 15 -11.5t12.5 -26.5t10 -29.5t7.5 -20.5q5 -7 18 -24t28 -35t28.5 -33t19.5 -20q8 -5 22 -8t29 -5t30 -3t24 -1q11 0 21.5 1t21.5 6q54 22 85 63t50 91.5t32 104t31 101.5q-36 -11 -69.5 -16 t-66.5 -7t-67 -2t-71 -2q1 -3 4 -14.5t6.5 -25t6.5 -25.5t3 -15q0 -4 -2.5 -18t-6.5 -28t-9.5 -25.5t-11.5 -11.5q-7 0 -16 7t-16.5 17t-13 20t-6.5 17q-2 9 -3.5 21.5t-4.5 23.5t-9.5 20t-18.5 11q-50 11 -105 21.5t-106 10.5q-19 0 -37.5 -18.5t-35.5 -48t-32 -65t-27 -69 t-21 -61.5t-13 -41z" />
<glyph unicode="&#xc4;" horiz-adv-x="838" d="M-31 119q53 -1 87 -2t65.5 -4t67 -9t90.5 -18q11 35 22 67.5t20.5 64t17.5 64.5t13 70q31 -9 54 -13t44.5 -5t45.5 -0.5t57 0.5l25 -277q33 8 57.5 13.5t45 9.5t38.5 7.5t38 9.5t44 14.5t57 21.5q-2 9 -5 21t-6 25t-5 25.5t-2 20.5q0 11 -3.5 28t-8 35.5t-9.5 36t-8 27.5 q-22 85 -43 169t-41 169q-3 13 -8 30.5t-9.5 36t-8 36t-3.5 30.5q0 10 -5.5 30t-8.5 30q-4 18 -15 54t-22.5 75t-20 73t-8.5 48q0 10 -8.5 38.5t-22 66.5t-29.5 81.5t-30.5 82t-25.5 67t-15 38.5q-4 -14 -14 -46t-21.5 -67t-23.5 -65.5t-22 -42.5q-8 -11 -19 -36 t-23.5 -57.5t-25.5 -69.5t-25.5 -72t-23 -64t-17.5 -47q-51 -121 -99.5 -240t-90.5 -241q-29 -85 -57 -169.5t-56 -170.5zM373 596q25 97 53.5 189.5t48.5 189.5q11 -43 22 -91t11 -93q0 -48 11 -98.5t22 -96.5h-168zM204 1747l24 -222l94 25l111 -12l-8 94l14 129l-114 -20 zM521 1712l12 -141l68 -7l86 13l12 151l-106 -8z" />
<glyph unicode="&#xc5;" horiz-adv-x="838" d="M-31 119q53 -1 87 -2t65.5 -4t67 -9t90.5 -18q11 35 22 67.5t20.5 64t17.5 64.5t13 70q31 -9 54 -13t44.5 -5t45.5 -0.5t57 0.5l25 -277q33 8 57.5 13.5t45 9.5t38.5 7.5t38 9.5t44 14.5t57 21.5q-2 9 -5 21t-6 25t-5 25.5t-2 20.5q0 11 -3.5 28t-8 35.5t-9.5 36t-8 27.5 q-22 85 -43 169t-41 169q-3 13 -8 30.5t-9.5 36t-8 36t-3.5 30.5q0 10 -5.5 30t-8.5 30q-4 18 -15 54t-22.5 75t-20 73t-8.5 48q0 10 -9 40t-23 70.5t-30.5 85t-31.5 82.5q12 6 25.5 15.5t27 19.5t26 19.5t22.5 15.5q14 8 26 22t21 31t14 35t4 33v4q-1 8 -9 27.5t-18 41 t-19.5 41t-14.5 25.5q-7 8 -25 14.5t-38.5 10.5t-39.5 6t-30 2q-29 0 -64.5 -9t-66 -26.5t-51.5 -43.5t-21 -61q0 -29 8.5 -60.5t17.5 -57.5q19 -48 56 -73t82 -34q-6 -19 -13 -38.5t-13.5 -36t-13 -29.5t-11.5 -19q-8 -11 -19 -36t-23.5 -57.5t-25.5 -69.5t-25.5 -72 t-23 -64t-17.5 -47q-51 -121 -99.5 -240t-90.5 -241q-29 -85 -57 -169.5t-56 -170.5zM373 596q25 97 53.5 189.5t48.5 189.5q11 -43 22 -91t11 -93q0 -48 11 -98.5t22 -96.5h-168zM436 1624q0 25 14.5 34t38.5 9q20 0 31.5 -11t17 -26.5t6.5 -33.5t1 -33q0 -23 -7.5 -30 t-29.5 -7q-20 0 -33.5 9.5t-22 23.5t-12.5 31.5t-4 33.5z" />
<glyph unicode="&#xc6;" horiz-adv-x="1427" d="M-51 98q81 -3 152 -9t151 -23q34 66 66 131.5t55 134.5q32 -11 61.5 -15t63.5 -4h71l-16 -190q-14 -28 -28 -55.5t-29 -53.5q117 20 233 32.5t234 25.5q21 3 42.5 3.5t43.5 0.5q83 0 165.5 -1t167.5 -3q0 74 -2.5 146t-5.5 144q-23 -10 -52.5 -16t-61 -9t-62 -4t-55.5 -1 q-28 0 -56.5 3t-56.5 3q-48 0 -94 -2.5t-94 -7.5q-3 88 -5.5 176t-13.5 176q17 -2 34 -1.5t34 -2.5q20 -2 40.5 -10.5t39.5 -16.5q37 -14 74 -24.5t75 -16.5q48 -8 95.5 -14.5t97.5 -11.5q0 38 2 76.5t2 78.5q0 31 -1 61.5t-3 59.5q-44 -6 -87.5 -10t-86.5 -4q-20 0 -40 1 t-40 1q-47 0 -91 -2.5t-89 -5.5q0 66 -4 131t-15 131q11 2 20 2h19q20 0 37.5 -1.5t36.5 -4.5q29 -5 57 -5.5t55 -0.5q79 0 156.5 -4t155.5 -13l-15 238q-121 -11 -241 -20t-244 -9q-37 0 -74.5 2.5t-72.5 11.5q-10 48 -20 95.5t-19 95.5q-10 -21 -24.5 -52t-31 -63t-33 -61 t-30.5 -45q-23 -26 -39.5 -56.5t-32.5 -58.5q-32 -59 -61.5 -117.5t-63.5 -113.5q-71 -121 -140 -239.5t-134 -242.5q-44 -85 -86.5 -169t-85.5 -171zM436 575q42 96 87 189t83 190q2 -27 4 -54.5t2 -55.5q0 -40 -6 -79t-6 -77q0 -29 1 -57t3 -56h-168z" />
<glyph unicode="&#xc7;" horiz-adv-x="1044" d="M31 633q0 -67 8.5 -130.5t32 -119t63.5 -103t103 -83.5q17 -11 63 -30t105 -42q-3 -41 -7.5 -73t-12 -62.5t-18 -63.5t-24.5 -76q16 -2 31 -3t31 -1q11 0 21.5 1t21.5 1q20 1 39.5 -11t34.5 -30t24.5 -39.5t9.5 -39.5q0 -25 -7 -44.5t-36 -19.5q-51 0 -92 23t-78 55 l-37 -182l185 -64q11 1 38 3.5t57 8t55.5 12.5t33.5 17q11 13 25 42t27 61.5t21.5 63t8.5 46.5q0 17 -5 40.5t-13.5 47t-20 43.5t-25.5 29q-10 6 -28 12.5t-38.5 12t-39 10t-29.5 6.5q3 22 16.5 49t30.5 55q31 -9 53 -14.5t33 -5.5q16 0 39 8.5t47 20t46 24t36 21.5 q47 29 90.5 67.5t83.5 73.5q-18 29 -43.5 58.5t-53.5 59t-55.5 57.5t-50.5 52q-2 -3 -10 -16t-18.5 -30t-23 -36.5t-23.5 -36.5t-19.5 -29t-11.5 -14q-8 -5 -13.5 -5.5t-15.5 -0.5q-18 0 -43 4.5t-51 11t-50 14t-42 13.5q-23 8 -53 28t-58 46.5t-49.5 55t-27.5 53.5 q-4 8 -4.5 16t-0.5 16q0 29 2.5 69.5t6 83t9 82.5t11.5 68q5 23 16 45.5t26 43.5t32 40t33 35q12 13 29.5 35t38 43t41.5 36t40 15q24 0 52 -14.5t57.5 -37.5t59.5 -51.5t56.5 -57t48 -53.5t35.5 -40q10 87 28 167t38 165q-26 17 -50.5 33.5t-47.5 36.5q-19 17 -54.5 31 t-75 24.5t-77 16.5t-62.5 6q-59 0 -105.5 -18t-88.5 -60q-31 -31 -69 -60t-76.5 -57.5t-75.5 -58t-68 -62.5q-37 -40 -58 -95.5t-26 -111.5q-3 -59 -7.5 -116.5t-4.5 -116.5z" />
<glyph unicode="&#xc8;" horiz-adv-x="858" d="M-72 14q39 7 80.5 14t79.5 7q25 0 49.5 3.5t48.5 6.5q53 8 105 14t104 13q34 5 70 5q4 -1 7 -1h77q66 0 132 -1t132 -3v112q0 45 -2 90t-4 88q-23 -10 -53 -16t-61.5 -9t-62 -4t-55.5 -1q-29 0 -57 3t-57 3q-47 0 -93.5 -2.5t-93.5 -7.5q-5 88 -7 176t-11 176 q17 -2 33 -2t33 -2q6 0 17 -3.5t23.5 -8t23.5 -9t17 -6.5q38 -12 74 -24t74 -17q49 -8 97 -14t97 -12q0 38 2.5 77.5t2.5 77.5q0 31 -1.5 61.5t-3.5 59.5q-45 -6 -88 -10t-88 -4q-20 0 -40 1t-40 1q-45 0 -89 -2.5t-89 -5.5q0 43 -0.5 73.5t-2.5 58t-5.5 58t-9.5 72.5 q9 2 19 2h20q37 0 74 -6q27 -5 55.5 -5.5t56.5 -0.5q79 0 155 -4t154 -13l-14 238q-108 -10 -216.5 -19.5t-217.5 -9.5q-48 0 -100 1t-99 13q-43 11 -85.5 17.5t-86.5 11.5q5 -46 8 -94t11 -94q3 -20 11 -43t13 -41q8 -23 10 -48.5t2 -50.5q0 -58 -7.5 -116t-10.5 -117 q-4 -52 -4 -103q1 -6 1 -13q0 -58 1 -115.5t1 -115.5q0 -6 1 -13q0 -52 -4 -103q0 -10 -7.5 -29.5t-18.5 -44t-24 -51t-25.5 -50.5t-22.5 -42.5t-15 -26.5zM15 1560q13 -8 31.5 -18.5t38.5 -20t39.5 -17.5t34.5 -11q29 -7 69 -26.5t82 -43t82.5 -48t69.5 -42.5l98 123 q-43 29 -88 57.5t-88 60.5q-16 11 -29.5 25.5t-25.5 28.5q-32 31 -62 62.5t-61 62.5q-31 -26 -54.5 -48.5t-45.5 -45t-43.5 -46.5t-47.5 -53z" />
<glyph unicode="&#xc9;" horiz-adv-x="858" d="M-72 14q39 7 80.5 14t79.5 7q25 0 49.5 3.5t48.5 6.5q53 8 105 14t104 13q34 5 70 5q4 -1 7 -1h77q66 0 132 -1t132 -3v112q0 45 -2 90t-4 88q-23 -10 -53 -16t-61.5 -9t-62 -4t-55.5 -1q-29 0 -57 3t-57 3q-47 0 -93.5 -2.5t-93.5 -7.5q-5 88 -7 176t-11 176 q17 -2 33 -2t33 -2q6 0 17 -3.5t23.5 -8t23.5 -9t17 -6.5q38 -12 74 -24t74 -17q49 -8 97 -14t97 -12q0 38 2.5 77.5t2.5 77.5q0 31 -1.5 61.5t-3.5 59.5q-45 -6 -88 -10t-88 -4q-20 0 -40 1t-40 1q-45 0 -89 -2.5t-89 -5.5q0 43 -0.5 73.5t-2.5 58t-5.5 58t-9.5 72.5 q9 2 19 2h20q37 0 74 -6q27 -5 55.5 -5.5t56.5 -0.5q79 0 155 -4t154 -13l-14 238q-108 -10 -216.5 -19.5t-217.5 -9.5q-48 0 -100 1t-99 13q-43 11 -85.5 17.5t-86.5 11.5q5 -46 8 -94t11 -94q3 -20 11 -43t13 -41q8 -23 10 -48.5t2 -50.5q0 -58 -7.5 -116t-10.5 -117 q-4 -52 -4 -103q1 -6 1 -13q0 -58 1 -115.5t1 -115.5q0 -6 1 -13q0 -52 -4 -103q0 -10 -7.5 -29.5t-18.5 -44t-24 -51t-25.5 -50.5t-22.5 -42.5t-15 -26.5zM302 1477l98 -123q28 17 45 27t26 16l15 10q5 3 34 19t65 35t69.5 34.5t48.5 18.5q13 2 33 10q17 7 44.5 20.5 t66.5 36.5q-28 31 -45.5 50.5t-27.5 31.5q-11 14 -17 21q-7 7 -20 19q-11 11 -30.5 28t-50.5 43q-58 -61 -93 -96l-54 -54q-22 -22 -31 -29q-9 -6 -31 -21q-19 -13 -54 -36z" />
<glyph unicode="&#xca;" horiz-adv-x="858" d="M-72 14q39 7 80.5 14t79.5 7q25 0 49.5 3.5t48.5 6.5q53 8 105 14t104 13q34 5 70 5q4 -1 7 -1h77q66 0 132 -1t132 -3v112q0 45 -2 90t-4 88q-23 -10 -53 -16t-61.5 -9t-62 -4t-55.5 -1q-29 0 -57 3t-57 3q-47 0 -93.5 -2.5t-93.5 -7.5q-5 88 -7 176t-11 176 q17 -2 33 -2t33 -2q6 0 17 -3.5t23.5 -8t23.5 -9t17 -6.5q38 -12 74 -24t74 -17q49 -8 97 -14t97 -12q0 38 2.5 77.5t2.5 77.5q0 31 -1.5 61.5t-3.5 59.5q-45 -6 -88 -10t-88 -4q-20 0 -40 1t-40 1q-45 0 -89 -2.5t-89 -5.5q0 43 -0.5 73.5t-2.5 58t-5.5 58t-9.5 72.5 q9 2 19 2h20q37 0 74 -6q27 -5 55.5 -5.5t56.5 -0.5q79 0 155 -4t154 -13l-14 238q-108 -10 -216.5 -19.5t-217.5 -9.5q-48 0 -100 1t-99 13q-43 11 -85.5 17.5t-86.5 11.5q5 -46 8 -94t11 -94q3 -20 11 -43t13 -41q8 -23 10 -48.5t2 -50.5q0 -58 -7.5 -116t-10.5 -117 q-4 -52 -4 -103q1 -6 1 -13q0 -58 1 -115.5t1 -115.5q0 -6 1 -13q0 -52 -4 -103q0 -10 -7.5 -29.5t-18.5 -44t-24 -51t-25.5 -50.5t-22.5 -42.5t-15 -26.5zM89 1389q70 -10 139 -20.5t138 -18.5q15 65 32.5 123t39.5 120q27 -51 49.5 -102t44.5 -107q43 0 72 1t53.5 4 t51 9.5t64.5 16.5q-65 79 -124.5 160t-124.5 162q-23 -3 -49.5 -9t-51.5 -6q-28 0 -55 4t-55 7q-29 -44 -55.5 -87.5t-53.5 -87t-55 -86t-60 -83.5z" />
<glyph unicode="&#xcb;" horiz-adv-x="858" d="M-72 14q39 7 80.5 14t79.5 7q25 0 49.5 3.5t48.5 6.5q53 8 105 14t104 13q34 5 70 5q4 -1 7 -1h77q66 0 132 -1t132 -3v112q0 45 -2 90t-4 88q-23 -10 -53 -16t-61.5 -9t-62 -4t-55.5 -1q-29 0 -57 3t-57 3q-47 0 -93.5 -2.5t-93.5 -7.5q-5 88 -7 176t-11 176 q17 -2 33 -2t33 -2q6 0 17 -3.5t23.5 -8t23.5 -9t17 -6.5q38 -12 74 -24t74 -17q49 -8 97 -14t97 -12q0 38 2.5 77.5t2.5 77.5q0 31 -1.5 61.5t-3.5 59.5q-45 -6 -88 -10t-88 -4q-20 0 -40 1t-40 1q-45 0 -89 -2.5t-89 -5.5q0 43 -0.5 73.5t-2.5 58t-5.5 58t-9.5 72.5 q9 2 19 2h20q37 0 74 -6q27 -5 55.5 -5.5t56.5 -0.5q79 0 155 -4t154 -13l-14 238q-108 -10 -216.5 -19.5t-217.5 -9.5q-48 0 -100 1t-99 13q-43 11 -85.5 17.5t-86.5 11.5q5 -46 8 -94t11 -94q3 -20 11 -43t13 -41q8 -23 10 -48.5t2 -50.5q0 -58 -7.5 -116t-10.5 -117 q-4 -52 -4 -103q1 -6 1 -13q0 -58 1 -115.5t1 -115.5q0 -6 1 -13q0 -52 -4 -103q0 -10 -7.5 -29.5t-18.5 -44t-24 -51t-25.5 -50.5t-22.5 -42.5t-15 -26.5zM163 1583l24 -222l94 25l111 -12l-8 94l14 129l-114 -20zM480 1548l12 -141l68 -7l86 13l12 151l-106 -8z" />
<glyph unicode="&#xcc;" horiz-adv-x="389" d="M31 1350q6 -44 11 -87.5t5 -86.5q0 -72 6 -142t6 -141q0 -17 2.5 -34t4.5 -36q6 -45 12 -90.5t6 -91.5v-7q0 -4 -2 -9q-5 -60 -9.5 -120t-4.5 -120q0 -82 -4.5 -163t-12.5 -163q14 -11 33.5 -14.5t36.5 -3.5q25 0 50 3t50 3q34 0 68.5 -6t68.5 -14q-12 91 -17 177t-7 179 q-1 25 -1 55q0 15 0.5 30.5t0.5 31.5q0 32 -1 64q-1 48 -4.5 94t-11.5 81q-5 28 -5.5 57.5t-0.5 57.5q0 122 11.5 237.5t23.5 235.5q-45 2 -82.5 3t-73.5 3.5t-74 6.5t-85 10zM-272 1622q13 -8 31.5 -18.5t38.5 -20t39.5 -17.5t34.5 -11q29 -7 69 -26.5t82 -43t82.5 -48 t69.5 -42.5l98 123q-43 29 -88 57.5t-88 60.5q-16 11 -29.5 25.5t-25.5 28.5q-32 31 -62 62.5t-61 62.5q-31 -26 -54.5 -48.5t-45.5 -45t-43.5 -46.5t-47.5 -53z" />
<glyph unicode="&#xcd;" horiz-adv-x="389" d="M31 1350q6 -44 11 -87.5t5 -86.5q0 -72 6 -142t6 -141q0 -17 2.5 -34t4.5 -36q6 -45 12 -90.5t6 -91.5v-7q0 -4 -2 -9q-5 -60 -9.5 -120t-4.5 -120q0 -82 -4.5 -163t-12.5 -163q14 -11 33.5 -14.5t36.5 -3.5q25 0 50 3t50 3q34 0 68.5 -6t68.5 -14q-12 91 -17 177t-7 179 q-1 25 -1 55q0 15 0.5 30.5t0.5 31.5q0 32 -1 64q-1 48 -4.5 94t-11.5 81q-5 28 -5.5 57.5t-0.5 57.5q0 122 11.5 237.5t23.5 235.5q-45 2 -82.5 3t-73.5 3.5t-74 6.5t-85 10zM179 1518l98 -123q28 17 45 27t26 16l15 10q5 3 34 19t65 35t69.5 34.5t48.5 18.5q13 2 33 10 q17 7 44.5 20.5t66.5 36.5q-28 31 -45.5 50.5t-27.5 31.5q-11 14 -17 21q-7 7 -20 19q-11 11 -30.5 28t-50.5 43q-58 -61 -93 -96l-54 -54q-22 -22 -31 -29q-9 -6 -31 -21q-19 -13 -54 -36z" />
<glyph unicode="&#xce;" horiz-adv-x="389" d="M31 1350q6 -44 11 -87.5t5 -86.5q0 -72 6 -142t6 -141q0 -17 2.5 -34t4.5 -36q6 -45 12 -90.5t6 -91.5v-7q0 -4 -2 -9q-5 -60 -9.5 -120t-4.5 -120q0 -82 -4.5 -163t-12.5 -163q14 -11 33.5 -14.5t36.5 -3.5q25 0 50 3t50 3q34 0 68.5 -6t68.5 -14q-12 91 -17 177t-7 179 q-1 25 -1 55q0 15 0.5 30.5t0.5 31.5q0 32 -1 64q-1 48 -4.5 94t-11.5 81q-5 28 -5.5 57.5t-0.5 57.5q0 122 11.5 237.5t23.5 235.5q-45 2 -82.5 3t-73.5 3.5t-74 6.5t-85 10zM-137 1450q70 -10 139 -20.5t138 -18.5q15 65 32.5 123t39.5 120q27 -51 49.5 -102t44.5 -107 q43 0 72 1t53.5 4t51 9.5t64.5 16.5q-65 79 -124.5 160t-124.5 162q-23 -3 -49.5 -9t-51.5 -6q-28 0 -55 4t-55 7q-29 -44 -55.5 -87.5t-53.5 -87t-55 -86t-60 -83.5z" />
<glyph unicode="&#xcf;" horiz-adv-x="389" d="M31 1350q6 -44 11 -87.5t5 -86.5q0 -72 6 -142t6 -141q0 -17 2.5 -34t4.5 -36q6 -45 12 -90.5t6 -91.5v-7q0 -4 -2 -9q-5 -60 -9.5 -120t-4.5 -120q0 -82 -4.5 -163t-12.5 -163q14 -11 33.5 -14.5t36.5 -3.5q25 0 50 3t50 3q34 0 68.5 -6t68.5 -14q-12 91 -17 177t-7 179 q-1 25 -1 55q0 15 0.5 30.5t0.5 31.5q0 32 -1 64q-1 48 -4.5 94t-11.5 81q-5 28 -5.5 57.5t-0.5 57.5q0 122 11.5 237.5t23.5 235.5q-45 2 -82.5 3t-73.5 3.5t-74 6.5t-85 10zM-83 1624l24 -222l94 25l111 -12l-8 94l14 129l-114 -20zM234 1589l12 -141l68 -7l86 13l12 151 l-106 -8z" />
<glyph unicode="&#xd0;" horiz-adv-x="1012" d="M20 549q29 1 46 2t31 2.5t31 2.5t46 1h19v-45q0 -128 -3 -256l-6 -256q56 -6 113.5 -13t114.5 -7q28 0 65.5 4t76 10t74.5 14t62 17q30 10 66 39t70.5 65t62.5 74t43 65q8 16 12 37t6 42.5t2.5 43t-0.5 39.5v39q0 45 5 89t10.5 88.5t10.5 88.5t5 88q0 18 -6 47 t-15.5 62.5t-22 70t-25.5 69t-25.5 59t-22.5 40.5q-24 35 -59 60t-75.5 43t-83 29t-81.5 18q-96 19 -189.5 36t-189.5 29q0 -52 2.5 -105t4.5 -107l4 -50q2 -25 4 -51v-63q0 -75 -2 -148t-4 -145h-2q-32 0 -51.5 2t-36 4.5t-35 4.5t-49.5 3zM444 500v45q25 0 38.5 -0.5 t28 -2t36 -3.5t61.5 -4q-3 32 -6.5 64.5t-3.5 64.5v127q-45 -8 -79 -15.5t-62 -15.5q3 40 2.5 81t-0.5 83v80q0 39 -2 81q13 -4 45.5 -17t67 -29.5t64 -34t36.5 -31.5q10 -22 16 -50.5t9.5 -58.5t5 -59t1.5 -53v-58q-2 -34 -1.5 -81t-1.5 -95.5t-9 -92.5t-24 -73 q-12 -19 -39.5 -41.5t-59.5 -44t-63 -39.5t-49 -28q-5 75 -8 150t-3 151z" />
<glyph unicode="&#xd1;" horiz-adv-x="809" d="M31 1370q6 -53 10.5 -103.5t9.5 -103.5q6 -61 6 -122q-1 -5 -1 -10v-19q0 -57 3 -113q5 -72 9 -145t4 -148v-12q0 -6 -2 -12q-7 -75 -13.5 -147t-9.5 -146q-9 -118 -12 -230q69 10 136 18t138 13q-15 78 -24 160q-6 44 -6 89q1 9 1 19v24q0 41 -4 83q-2 9 -2 17v18 q0 40 4.5 78.5t10.5 76.5q4 27 4 57q-1 9 -1 18q-2 40 -1 77v96q5 -9 12 -23t13.5 -29.5t12.5 -30t7 -25.5q9 -60 28.5 -117t28.5 -117q6 -33 16.5 -65.5t22.5 -64.5l24 -64q12 -32 21 -64q6 -22 9.5 -49.5t6 -56.5t4.5 -56.5t3 -50.5q54 5 106.5 9.5t106.5 4.5h75 q-9 79 -18.5 158t-17.5 160q-7 46 -7 93v93v131q2 110 5.5 219t9.5 218q3 43 10.5 87.5t15.5 86.5h-16q-24 0 -48 2q-32 3 -65.5 7.5t-66 9.5t-64.5 9q11 -69 17 -130t6 -130q0 -28 -1 -56.5t-1 -55.5q0 -47 4 -94t4 -95q0 -66 -2.5 -133t-7.5 -133q-4 14 -11 43.5t-16 65.5 t-19 75.5t-19.5 74.5t-18.5 61t-15 36q-4 6 -15.5 37t-26.5 74.5t-32 94t-31.5 97t-25.5 82.5t-14 51q-22 -2 -42 -3t-42 -1t-42.5 5t-40.5 11t-40 11t-43 4h-20zM16 1462q29 -5 58.5 -8.5t59.5 -3.5q31 0 60.5 -4t60.5 -12q-3 31 -5.5 62t-2.5 63q0 7 1.5 20t5 25.5t10 22 t16.5 9.5q8 0 15 -11.5t12.5 -26.5t10 -29.5t7.5 -20.5q5 -7 18 -24t28 -35t28.5 -33t19.5 -20q8 -5 22 -8t29 -5t30 -3t24 -1q11 0 21.5 1t21.5 6q54 22 85 63t50 91.5t32 104t31 101.5q-36 -11 -69.5 -16t-66.5 -7t-67 -2t-71 -2q1 -3 4 -14.5t6.5 -25t6.5 -25.5t3 -15 q0 -4 -2.5 -18t-6.5 -28t-9.5 -25.5t-11.5 -11.5q-7 0 -16 7t-16.5 17t-13 20t-6.5 17q-2 9 -3.5 21.5t-4.5 23.5t-9.5 20t-18.5 11q-50 11 -105 21.5t-106 10.5q-19 0 -37.5 -18.5t-35.5 -48t-32 -65t-27 -69t-21 -61.5t-13 -41z" />
<glyph unicode="&#xd2;" horiz-adv-x="1061" d="M31 733q0 -51 3.5 -101.5t6.5 -101.5q3 -38 5.5 -77t8.5 -76q5 -28 26.5 -59.5t50 -60t59.5 -52t55 -37.5q86 -51 183.5 -82t199.5 -31q54 0 102 12t100 27q33 10 60 32t48 51t36 62t24 64q12 36 18 76.5t9 82.5t3.5 83.5t0.5 79.5q0 65 -4 126.5t-29 122.5 q-16 39 -34.5 90.5t-41 103t-50 97t-62.5 72.5q-15 12 -42 27t-57 28.5t-59.5 24.5t-50.5 16h-6q-34 0 -67.5 -9t-67.5 -9q-15 0 -33 -11.5t-35 -27t-33 -31.5t-28 -26q-45 -36 -91 -70.5t-89 -71.5q-15 -12 -24.5 -31t-17 -40.5t-13 -43.5t-11.5 -40q-6 -19 -15 -43.5 t-17.5 -50t-14.5 -50t-6 -45.5zM281 536v15q0 18 1.5 49t5 69t9 78.5t12.5 76t16.5 62.5t20.5 38q26 26 56 50.5t53 55.5q12 16 20.5 31t18.5 26t24 18t37 7q26 0 55 -3.5t56 -14t48 -28t29 -46.5q6 -18 15.5 -34.5t19.5 -32.5t18.5 -32t12.5 -34q8 -22 9 -51t1 -52 q0 -40 -2.5 -79.5t-7.5 -81.5q-6 -59 -21 -115t-24 -115q-3 -16 -15 -37t-28.5 -40.5t-35 -34.5t-34.5 -19q-18 -5 -38.5 -6.5t-39.5 -1.5q-40 0 -79 11.5t-64 45.5q-11 16 -23 31t-24 29q-5 6 -20 22.5t-31.5 34.5t-29.5 34t-15 21q-2 6 -3.5 15t-2 18.5t-0.5 19.5z M75 1622q13 -8 31.5 -18.5t38.5 -20t39.5 -17.5t34.5 -11q29 -7 69 -26.5t82 -43t82.5 -48t69.5 -42.5l98 123q-43 29 -88 57.5t-88 60.5q-16 11 -29.5 25.5t-25.5 28.5q-32 31 -62 62.5t-61 62.5q-31 -26 -54.5 -48.5t-45.5 -45t-43.5 -46.5t-47.5 -53z" />
<glyph unicode="&#xd3;" horiz-adv-x="1061" d="M31 733q0 -51 3.5 -101.5t6.5 -101.5q3 -38 5.5 -77t8.5 -76q5 -28 26.5 -59.5t50 -60t59.5 -52t55 -37.5q86 -51 183.5 -82t199.5 -31q54 0 102 12t100 27q33 10 60 32t48 51t36 62t24 64q12 36 18 76.5t9 82.5t3.5 83.5t0.5 79.5q0 65 -4 126.5t-29 122.5 q-16 39 -34.5 90.5t-41 103t-50 97t-62.5 72.5q-15 12 -42 27t-57 28.5t-59.5 24.5t-50.5 16h-6q-34 0 -67.5 -9t-67.5 -9q-15 0 -33 -11.5t-35 -27t-33 -31.5t-28 -26q-45 -36 -91 -70.5t-89 -71.5q-15 -12 -24.5 -31t-17 -40.5t-13 -43.5t-11.5 -40q-6 -19 -15 -43.5 t-17.5 -50t-14.5 -50t-6 -45.5zM281 536v15q0 18 1.5 49t5 69t9 78.5t12.5 76t16.5 62.5t20.5 38q26 26 56 50.5t53 55.5q12 16 20.5 31t18.5 26t24 18t37 7q26 0 55 -3.5t56 -14t48 -28t29 -46.5q6 -18 15.5 -34.5t19.5 -32.5t18.5 -32t12.5 -34q8 -22 9 -51t1 -52 q0 -40 -2.5 -79.5t-7.5 -81.5q-6 -59 -21 -115t-24 -115q-3 -16 -15 -37t-28.5 -40.5t-35 -34.5t-34.5 -19q-18 -5 -38.5 -6.5t-39.5 -1.5q-40 0 -79 11.5t-64 45.5q-11 16 -23 31t-24 29q-5 6 -20 22.5t-31.5 34.5t-29.5 34t-15 21q-2 6 -3.5 15t-2 18.5t-0.5 19.5z M506 1518l98 -123q28 17 45 27t26 16l15 10q5 3 34 19t65 35t69.5 34.5t48.5 18.5q13 2 33 10q17 7 44.5 20.5t66.5 36.5q-28 31 -45.5 50.5t-27.5 31.5q-11 14 -17 21q-7 7 -20 19q-11 11 -30.5 28t-50.5 43q-58 -61 -93 -96l-54 -54q-22 -22 -31 -29q-9 -6 -31 -21 q-19 -13 -54 -36z" />
<glyph unicode="&#xd4;" horiz-adv-x="1061" d="M31 733q0 -51 3.5 -101.5t6.5 -101.5q3 -38 5.5 -77t8.5 -76q5 -28 26.5 -59.5t50 -60t59.5 -52t55 -37.5q86 -51 183.5 -82t199.5 -31q54 0 102 12t100 27q33 10 60 32t48 51t36 62t24 64q12 36 18 76.5t9 82.5t3.5 83.5t0.5 79.5q0 65 -4 126.5t-29 122.5 q-16 39 -34.5 90.5t-41 103t-50 97t-62.5 72.5q-15 12 -42 27t-57 28.5t-59.5 24.5t-50.5 16h-6q-34 0 -67.5 -9t-67.5 -9q-15 0 -33 -11.5t-35 -27t-33 -31.5t-28 -26q-45 -36 -91 -70.5t-89 -71.5q-15 -12 -24.5 -31t-17 -40.5t-13 -43.5t-11.5 -40q-6 -19 -15 -43.5 t-17.5 -50t-14.5 -50t-6 -45.5zM281 536v15q0 18 1.5 49t5 69t9 78.5t12.5 76t16.5 62.5t20.5 38q26 26 56 50.5t53 55.5q12 16 20.5 31t18.5 26t24 18t37 7q26 0 55 -3.5t56 -14t48 -28t29 -46.5q6 -18 15.5 -34.5t19.5 -32.5t18.5 -32t12.5 -34q8 -22 9 -51t1 -52 q0 -40 -2.5 -79.5t-7.5 -81.5q-6 -59 -21 -115t-24 -115q-3 -16 -15 -37t-28.5 -40.5t-35 -34.5t-34.5 -19q-18 -5 -38.5 -6.5t-39.5 -1.5q-40 0 -79 11.5t-64 45.5q-11 16 -23 31t-24 29q-5 6 -20 22.5t-31.5 34.5t-29.5 34t-15 21q-2 6 -3.5 15t-2 18.5t-0.5 19.5z M231 1409q70 -10 139 -20.5t138 -18.5q15 65 32.5 123t39.5 120q27 -51 49.5 -102t44.5 -107q43 0 72 1t53.5 4t51 9.5t64.5 16.5q-65 79 -124.5 160t-124.5 162q-23 -3 -49.5 -9t-51.5 -6q-28 0 -55 4t-55 7q-29 -44 -55.5 -87.5t-53.5 -87t-55 -86t-60 -83.5z" />
<glyph unicode="&#xd5;" horiz-adv-x="1061" d="M31 733q0 -51 3.5 -101.5t6.5 -101.5q3 -38 5.5 -77t8.5 -76q5 -28 26.5 -59.5t50 -60t59.5 -52t55 -37.5q86 -51 183.5 -82t199.5 -31q54 0 102 12t100 27q33 10 60 32t48 51t36 62t24 64q12 36 18 76.5t9 82.5t3.5 83.5t0.5 79.5q0 65 -4 126.5t-29 122.5 q-16 39 -34.5 90.5t-41 103t-50 97t-62.5 72.5q-15 12 -42 27t-57 28.5t-59.5 24.5t-50.5 16h-6q-34 0 -67.5 -9t-67.5 -9q-15 0 -33 -11.5t-35 -27t-33 -31.5t-28 -26q-45 -36 -91 -70.5t-89 -71.5q-15 -12 -24.5 -31t-17 -40.5t-13 -43.5t-11.5 -40q-6 -19 -15 -43.5 t-17.5 -50t-14.5 -50t-6 -45.5zM281 536v15q0 18 1.5 49t5 69t9 78.5t12.5 76t16.5 62.5t20.5 38q26 26 56 50.5t53 55.5q12 16 20.5 31t18.5 26t24 18t37 7q26 0 55 -3.5t56 -14t48 -28t29 -46.5q6 -18 15.5 -34.5t19.5 -32.5t18.5 -32t12.5 -34q8 -22 9 -51t1 -52 q0 -40 -2.5 -79.5t-7.5 -81.5q-6 -59 -21 -115t-24 -115q-3 -16 -15 -37t-28.5 -40.5t-35 -34.5t-34.5 -19q-18 -5 -38.5 -6.5t-39.5 -1.5q-40 0 -79 11.5t-64 45.5q-11 16 -23 31t-24 29q-5 6 -20 22.5t-31.5 34.5t-29.5 34t-15 21q-2 6 -3.5 15t-2 18.5t-0.5 19.5z M178 1441q29 -5 58.5 -8.5t59.5 -3.5q31 0 60.5 -4t60.5 -12q-3 31 -5.5 62t-2.5 63q0 7 1.5 20t5 25.5t10 22t16.5 9.5q8 0 15 -11.5t12.5 -26.5t10 -29.5t7.5 -20.5q5 -7 18 -24t28 -35t28.5 -33t19.5 -20q8 -5 22 -8t29 -5t30 -3t24 -1q11 0 21.5 1t21.5 6q54 22 85 63 t50 91.5t32 104t31 101.5q-36 -11 -69.5 -16t-66.5 -7t-67 -2t-71 -2q1 -3 4 -14.5t6.5 -25t6.5 -25.5t3 -15q0 -4 -2.5 -18t-6.5 -28t-9.5 -25.5t-11.5 -11.5q-7 0 -16 7t-16.5 17t-13 20t-6.5 17q-2 9 -3.5 21.5t-4.5 23.5t-9.5 20t-18.5 11q-50 11 -105 21.5t-106 10.5 q-19 0 -37.5 -18.5t-35.5 -48t-32 -65t-27 -69t-21 -61.5t-13 -41z" />
<glyph unicode="&#xd6;" horiz-adv-x="1061" d="M31 733q0 -51 3.5 -101.5t6.5 -101.5q3 -38 5.5 -77t8.5 -76q5 -28 26.5 -59.5t50 -60t59.5 -52t55 -37.5q86 -51 183.5 -82t199.5 -31q54 0 102 12t100 27q33 10 60 32t48 51t36 62t24 64q12 36 18 76.5t9 82.5t3.5 83.5t0.5 79.5q0 65 -4 126.5t-29 122.5 q-16 39 -34.5 90.5t-41 103t-50 97t-62.5 72.5q-15 12 -42 27t-57 28.5t-59.5 24.5t-50.5 16h-6q-34 0 -67.5 -9t-67.5 -9q-15 0 -33 -11.5t-35 -27t-33 -31.5t-28 -26q-45 -36 -91 -70.5t-89 -71.5q-15 -12 -24.5 -31t-17 -40.5t-13 -43.5t-11.5 -40q-6 -19 -15 -43.5 t-17.5 -50t-14.5 -50t-6 -45.5zM281 536v15q0 18 1.5 49t5 69t9 78.5t12.5 76t16.5 62.5t20.5 38q26 26 56 50.5t53 55.5q12 16 20.5 31t18.5 26t24 18t37 7q26 0 55 -3.5t56 -14t48 -28t29 -46.5q6 -18 15.5 -34.5t19.5 -32.5t18.5 -32t12.5 -34q8 -22 9 -51t1 -52 q0 -40 -2.5 -79.5t-7.5 -81.5q-6 -59 -21 -115t-24 -115q-3 -16 -15 -37t-28.5 -40.5t-35 -34.5t-34.5 -19q-18 -5 -38.5 -6.5t-39.5 -1.5q-40 0 -79 11.5t-64 45.5q-11 16 -23 31t-24 29q-5 6 -20 22.5t-31.5 34.5t-29.5 34t-15 21q-2 6 -3.5 15t-2 18.5t-0.5 19.5z M285 1624l24 -222l94 25l111 -12l-8 94l14 129l-114 -20zM602 1589l12 -141l68 -7l86 13l12 151l-106 -8z" />
<glyph unicode="&#xd7;" horiz-adv-x="725" d="M41 481q38 -11 62.5 -18t44.5 -15t42 -20t56 -35q32 50 64 101t69 98q26 -31 44 -51.5t32 -40.5t26 -45t27 -64q40 45 82 89.5t74 97.5q-34 18 -58 31t-44.5 27.5t-41 32t-47.5 42.5q31 38 67.5 70.5t67.5 70.5q19 25 37.5 49.5t38.5 48.5q-57 5 -108 17t-107 18 q-25 -42 -51 -83t-53 -83q-42 50 -76 96.5t-66 102.5l-174 -105q7 -4 23 -14.5t36.5 -24t42 -29t40.5 -30.5t32.5 -28t16.5 -21q8 -14 16.5 -27.5t19.5 -25.5q-55 -62 -115 -118.5t-120 -113.5z" />
<glyph unicode="&#xd8;" horiz-adv-x="1059" d="M-51 72q63 -23 122 -45.5t124 -40.5q24 31 49.5 61t48.5 62q5 6 8 12t8 12q76 -35 156 -56.5t164 -21.5q54 0 102 12t100 27q33 10 60 32t48 51t36 62t24 64q12 36 18 76.5t9 82.5t3.5 83.5t0.5 79.5q0 65 -4 126.5t-29 122.5q-15 35 -31 79t-34 89q25 33 61 76.5t72 86 t67 78t46 52.5q-18 0 -47.5 -0.5t-60.5 0.5t-59.5 3t-43.5 8q-32 9 -64.5 16.5t-66.5 15.5q-25 -61 -54 -123q-19 12 -43.5 24t-49.5 22.5t-48.5 19t-40.5 12.5h-6q-34 0 -67.5 -9t-67.5 -9q-15 0 -33 -11.5t-35 -27t-33 -31.5t-28 -26q-45 -36 -91 -70.5t-89 -71.5 q-15 -12 -24.5 -31t-17 -40.5t-13 -43.5t-11.5 -40q-6 -19 -15 -43.5t-17.5 -50t-14.5 -50t-6 -45.5q0 -51 3.5 -101.5t6.5 -101.5q3 -38 5.5 -77t8.5 -76q5 -26 23.5 -54.5t44.5 -56.5q-17 -20 -33.5 -41t-32.5 -41q-24 -31 -52 -58.5t-56 -53.5zM281 536v15q0 18 1.5 49 t5 69t9 78.5t12.5 76t16.5 62.5t20.5 38q26 26 56 50.5t53 55.5q12 16 20.5 31t18.5 26t24 18t37 7q18 0 38 -1.5t40.5 -6t39.5 -12t34 -19.5l-21 -45q-14 -31 -41 -77t-62.5 -100t-75 -111t-78 -109t-73.5 -95t-59 -69q-10 13 -10 16q-2 6 -3.5 15t-2 18.5t-0.5 19.5z M422 322q17 26 32.5 53t32.5 53q23 34 48.5 65.5t50.5 63.5q29 40 60 80.5t65 77.5q18 21 46.5 61.5t57.5 83.5q3 -18 3.5 -38.5t0.5 -37.5q0 -40 -2.5 -79.5t-7.5 -81.5q-6 -59 -21 -115t-24 -115q-3 -16 -15 -37t-28.5 -40.5t-35 -34.5t-34.5 -19q-18 -5 -38.5 -6.5 t-39.5 -1.5q-40 0 -79 11.5t-64 45.5z" />
<glyph unicode="&#xd9;" horiz-adv-x="825" d="M31 434q0 -45 18 -85t37 -79q8 -16 30.5 -43t50 -55t54 -53.5t41.5 -38.5t41.5 -24t55.5 -19t57.5 -12.5t48.5 -4.5q25 0 44 6t35.5 15t33 20t36.5 21q22 11 42 24.5t38 28.5q23 20 36.5 52t21 68t10 72t2.5 64q0 23 -1 45t-1 43q0 44 5 85.5t5 84.5q0 23 -2 45t-2 45 q0 44 3 87t11 85q8 39 9 78.5t0 77.5q0 60 3.5 111t10.5 112h-41q-25 0 -49.5 -2t-48.5 -2q-55 0 -111 6q8 -23 16.5 -53t8.5 -55q0 -62 -2.5 -123.5t-2.5 -124.5q0 -56 4.5 -109.5t4.5 -109.5q0 -51 -8.5 -102.5t-8.5 -102.5q0 -15 0.5 -33.5t0.5 -37.5t-2 -37t-7 -33 q-7 -21 -13.5 -39.5t-17 -33t-26.5 -22.5t-43 -8q-26 0 -49.5 9.5t-49.5 15.5q-26 7 -41 23t-22.5 37.5t-9.5 45.5t-2 47q0 75 4 149.5t4 149.5q0 63 1 127t9 129q8 60 24.5 119t28.5 119q5 25 17 51t24 49q-20 -3 -41 -6t-41 -8q-29 -8 -63 -7h-22q-22 0 -42 -1 q-34 -2 -69.5 -10.5t-69.5 -14.5q6 -67 6 -135q0 -38 -3.5 -77.5t-6.5 -78.5q-6 -54 -7 -107.5t-1 -107.5q0 -40 0.5 -80.5t5.5 -80.5v-37q0 -38 -6 -77t-6 -77zM36 1601q13 -8 31.5 -18.5t38.5 -20t39.5 -17.5t34.5 -11q29 -7 69 -26.5t82 -43t82.5 -48t69.5 -42.5l98 123 q-43 29 -88 57.5t-88 60.5q-16 11 -29.5 25.5t-25.5 28.5q-32 31 -62 62.5t-61 62.5q-31 -26 -54.5 -48.5t-45.5 -45t-43.5 -46.5t-47.5 -53z" />
<glyph unicode="&#xda;" horiz-adv-x="825" d="M31 434q0 -45 18 -85t37 -79q8 -16 30.5 -43t50 -55t54 -53.5t41.5 -38.5t41.5 -24t55.5 -19t57.5 -12.5t48.5 -4.5q25 0 44 6t35.5 15t33 20t36.5 21q22 11 42 24.5t38 28.5q23 20 36.5 52t21 68t10 72t2.5 64q0 23 -1 45t-1 43q0 44 5 85.5t5 84.5q0 23 -2 45t-2 45 q0 44 3 87t11 85q8 39 9 78.5t0 77.5q0 60 3.5 111t10.5 112h-41q-25 0 -49.5 -2t-48.5 -2q-55 0 -111 6q8 -23 16.5 -53t8.5 -55q0 -62 -2.5 -123.5t-2.5 -124.5q0 -56 4.5 -109.5t4.5 -109.5q0 -51 -8.5 -102.5t-8.5 -102.5q0 -15 0.5 -33.5t0.5 -37.5t-2 -37t-7 -33 q-7 -21 -13.5 -39.5t-17 -33t-26.5 -22.5t-43 -8q-26 0 -49.5 9.5t-49.5 15.5q-26 7 -41 23t-22.5 37.5t-9.5 45.5t-2 47q0 75 4 149.5t4 149.5q0 63 1 127t9 129q8 60 24.5 119t28.5 119q5 25 17 51t24 49q-20 -3 -41 -6t-41 -8q-29 -8 -63 -7h-22q-22 0 -42 -1 q-34 -2 -69.5 -10.5t-69.5 -14.5q6 -67 6 -135q0 -38 -3.5 -77.5t-6.5 -78.5q-6 -54 -7 -107.5t-1 -107.5q0 -40 0.5 -80.5t5.5 -80.5v-37q0 -38 -6 -77t-6 -77zM384 1477l98 -123q28 17 45 27t26 16l15 10q5 3 34 19t65 35t69.5 34.5t48.5 18.5q13 2 33 10q17 7 44.5 20.5 t66.5 36.5q-28 31 -45.5 50.5t-27.5 31.5q-11 14 -17 21q-7 7 -20 19q-11 11 -30.5 28t-50.5 43q-58 -61 -93 -96l-54 -54q-22 -22 -31 -29q-9 -6 -31 -21q-19 -13 -54 -36z" />
<glyph unicode="&#xdb;" horiz-adv-x="825" d="M31 434q0 -45 18 -85t37 -79q8 -16 30.5 -43t50 -55t54 -53.5t41.5 -38.5t41.5 -24t55.5 -19t57.5 -12.5t48.5 -4.5q25 0 44 6t35.5 15t33 20t36.5 21q22 11 42 24.5t38 28.5q23 20 36.5 52t21 68t10 72t2.5 64q0 23 -1 45t-1 43q0 44 5 85.5t5 84.5q0 23 -2 45t-2 45 q0 44 3 87t11 85q8 39 9 78.5t0 77.5q0 60 3.5 111t10.5 112h-41q-25 0 -49.5 -2t-48.5 -2q-55 0 -111 6q8 -23 16.5 -53t8.5 -55q0 -62 -2.5 -123.5t-2.5 -124.5q0 -56 4.5 -109.5t4.5 -109.5q0 -51 -8.5 -102.5t-8.5 -102.5q0 -15 0.5 -33.5t0.5 -37.5t-2 -37t-7 -33 q-7 -21 -13.5 -39.5t-17 -33t-26.5 -22.5t-43 -8q-26 0 -49.5 9.5t-49.5 15.5q-26 7 -41 23t-22.5 37.5t-9.5 45.5t-2 47q0 75 4 149.5t4 149.5q0 63 1 127t9 129q8 60 24.5 119t28.5 119q5 25 17 51t24 49q-20 -3 -41 -6t-41 -8q-29 -8 -63 -7h-22q-22 0 -42 -1 q-34 -2 -69.5 -10.5t-69.5 -14.5q6 -67 6 -135q0 -38 -3.5 -77.5t-6.5 -78.5q-6 -54 -7 -107.5t-1 -107.5q0 -40 0.5 -80.5t5.5 -80.5v-37q0 -38 -6 -77t-6 -77zM89 1430q70 -10 139 -20.5t138 -18.5q15 65 32.5 123t39.5 120q27 -51 49.5 -102t44.5 -107q43 0 72 1t53.5 4 t51 9.5t64.5 16.5q-65 79 -124.5 160t-124.5 162q-23 -3 -49.5 -9t-51.5 -6q-28 0 -55 4t-55 7q-29 -44 -55.5 -87.5t-53.5 -87t-55 -86t-60 -83.5z" />
<glyph unicode="&#xdc;" horiz-adv-x="825" d="M31 434q0 -45 18 -85t37 -79q8 -16 30.5 -43t50 -55t54 -53.5t41.5 -38.5t41.5 -24t55.5 -19t57.5 -12.5t48.5 -4.5q25 0 44 6t35.5 15t33 20t36.5 21q22 11 42 24.5t38 28.5q23 20 36.5 52t21 68t10 72t2.5 64q0 23 -1 45t-1 43q0 44 5 85.5t5 84.5q0 23 -2 45t-2 45 q0 44 3 87t11 85q8 39 9 78.5t0 77.5q0 60 3.5 111t10.5 112h-41q-25 0 -49.5 -2t-48.5 -2q-55 0 -111 6q8 -23 16.5 -53t8.5 -55q0 -62 -2.5 -123.5t-2.5 -124.5q0 -56 4.5 -109.5t4.5 -109.5q0 -51 -8.5 -102.5t-8.5 -102.5q0 -15 0.5 -33.5t0.5 -37.5t-2 -37t-7 -33 q-7 -21 -13.5 -39.5t-17 -33t-26.5 -22.5t-43 -8q-26 0 -49.5 9.5t-49.5 15.5q-26 7 -41 23t-22.5 37.5t-9.5 45.5t-2 47q0 75 4 149.5t4 149.5q0 63 1 127t9 129q8 60 24.5 119t28.5 119q5 25 17 51t24 49q-20 -3 -41 -6t-41 -8q-29 -8 -63 -7h-22q-22 0 -42 -1 q-34 -2 -69.5 -10.5t-69.5 -14.5q6 -67 6 -135q0 -38 -3.5 -77.5t-6.5 -78.5q-6 -54 -7 -107.5t-1 -107.5q0 -40 0.5 -80.5t5.5 -80.5v-37q0 -38 -6 -77t-6 -77zM184 1624l24 -222l94 25l111 -12l-8 94l14 129l-114 -20zM501 1589l12 -141l68 -7l86 13l12 151l-106 -8z" />
<glyph unicode="&#xdd;" horiz-adv-x="823" d="M-20 1292q31 -72 53 -145q8 -25 21 -48.5t27 -47t26 -47.5t16 -50q8 -45 28 -84t42 -79q3 -6 10.5 -22.5t17 -38t20 -45.5t19 -45t14 -36.5t5.5 -19.5q0 -41 -4.5 -85t-11.5 -89t-15.5 -88.5t-16.5 -83.5q-9 -48 -17 -95t-19 -94q15 -2 29 -2h28q40 0 78.5 2t77.5 2 q34 0 68.5 -2t68.5 -8q-6 45 -11.5 91.5t-5.5 92.5v13q0 6 2 12q10 72 12 146t5 147q8 19 19.5 46.5t24 56.5t23 57t15.5 47q5 18 10.5 40t12.5 44.5t15.5 43t18.5 35.5q15 24 27.5 51t23 55.5t20.5 56.5t21 54q17 41 33 79.5t33 76.5q-32 -5 -67.5 -10.5t-69.5 -5.5 q-31 0 -62.5 3.5t-60.5 8.5q-6 -42 -12 -85t-13 -86t-17.5 -85.5t-25.5 -81.5q-14 -37 -30 -74t-31 -75q-13 40 -26 80.5t-30 78.5q-16 37 -29.5 78t-25 83t-22 84t-21.5 81q-28 -6 -53.5 -8t-52.5 -2q-25 0 -49 3.5t-48 7.5t-48 7.5t-50 3.5h-20zM343 1415l98 -123 q28 17 45 27t26 16l15 10q5 3 34 19t65 35t69.5 34.5t48.5 18.5q13 2 33 10q17 7 44.5 20.5t66.5 36.5q-28 31 -45.5 50.5t-27.5 31.5q-11 14 -17 21q-7 7 -20 19q-11 11 -30.5 28t-50.5 43q-58 -61 -93 -96l-54 -54q-22 -22 -31 -29q-9 -6 -31 -21q-19 -13 -54 -36z" />
<glyph unicode="&#xde;" horiz-adv-x="834" d="M20 1397q0 -189 7.5 -376t7.5 -376q0 -99 -1 -198.5t7 -198.5q2 -8 2 -16v-15q0 -40 -1.5 -70t-4.5 -57.5t-6.5 -57.5t-7.5 -69q32 2 64 6t64 7.5t64 6t64 1.5h26q2 20 2 38v39q0 41 -4.5 81t-9.5 80.5t-9.5 81.5t-4.5 83q30 6 61.5 8.5t62.5 7.5q38 5 73 21.5t68.5 37.5 t67.5 42t70 35q41 15 65 39t36.5 54t16 65t3.5 73q0 17 -1.5 40.5t-10.5 37.5q-14 24 -28 50.5t-28.5 53t-29 51.5t-29.5 46q-10 14 -28 25t-39 20.5t-42 16.5t-37 11q-12 3 -24 3.5t-25 0.5q-34 0 -66.5 -3t-66.5 -3h-35q-18 0 -37 2l11 271zM268 930q41 0 81.5 2t80.5 2 q23 0 38 -9t21 -34q10 -35 14.5 -73.5t16.5 -74.5q2 -5 2 -9v-7q0 -5 -1.5 -18.5t-4 -28.5t-6 -27.5t-8.5 -15.5q-6 -4 -25 -11.5t-40.5 -16t-40.5 -14.5t-27 -7q-23 -2 -47.5 -2t-47.5 -2q3 174 -6 346z" />
<glyph unicode="&#xdf;" horiz-adv-x="1245" d="M20 90q30 -9 62.5 -12.5t66 -4t66.5 0t64 -1.5q2 21 3 42.5t1 43.5q0 71 -9.5 140t-9.5 140q0 89 8.5 176t19.5 174t21 174t13 175q13 -1 34.5 -1.5t45.5 -2t48.5 -5t44 -11.5t32 -21t12.5 -33q0 -9 -2.5 -18.5t-5.5 -18.5q-13 -32 -30 -83.5t-32.5 -106.5t-26 -106.5 t-10.5 -84.5q0 -20 1 -39t1 -39q0 -18 10 -34t25.5 -29.5t33.5 -23t34 -13.5q35 -6 70.5 -8t70.5 -8q35 -7 76 -7q18 0 39.5 1.5t40.5 -3.5q6 -1 22.5 -10t34.5 -19.5t32.5 -20t16.5 -13.5q6 -13 7 -29t1 -28q0 -51 -25 -84t-79 -33q-40 0 -69.5 5.5t-55.5 14.5t-53 21.5 t-62 25.5q-32 13 -61 30t-55 42q-8 -31 -13.5 -62t-12 -62.5t-15 -62t-21.5 -59.5q42 -8 82 -19l80 -22q63 -15 126 -27.5t126 -29.5q37 -9 74 -19t75 -10q62 0 104 31.5t68 79t37.5 103.5t11.5 106v51q0 42 -1 84t-7 84q-7 39 -38 60.5t-72 33.5t-84 17.5t-74 11.5 q-42 9 -81 21t-79 26q-7 3 -23 8t-33 10.5t-31 11.5t-17 11q-4 7 -6 18t-3 23t-1 24v19q0 15 9 44t20.5 62t23.5 63.5t18 47.5q16 37 26.5 76t10.5 80q0 51 -21.5 85t-56.5 56.5t-80 34.5t-92 17t-92.5 6t-81.5 1q-158 0 -317 -12q14 -183 24.5 -361.5t10.5 -361.5v-180 q0 -94 -13 -187t-33 -186z" />
<glyph unicode="&#xe0;" horiz-adv-x="803" d="M-31 -6q73 6 145 9t144 9q1 20 1.5 38.5t3 36.5t8 36t14.5 37q49 12 98 16.5t100 9.5q-5 -21 -6.5 -41.5t-1.5 -42.5q0 -52 6 -108q44 5 86.5 7.5t85.5 2.5q47 0 91.5 -4.5t89.5 -9.5q-32 94 -68.5 184.5t-71.5 181.5q-21 56 -41.5 110.5t-34.5 111.5 q-35 154 -82.5 302.5t-103.5 297.5q-30 -75 -63 -148.5t-64.5 -147.5t-59.5 -149.5t-48 -154.5q-19 -77 -46.5 -150.5t-58 -145.5t-62.5 -143.5t-61 -144.5zM342 367l74 313l41 -299zM-26 1459q13 -8 31.5 -18.5t38.5 -20t39.5 -17.5t34.5 -11q29 -7 69 -26.5t82 -43 t82.5 -48t69.5 -42.5l98 123q-43 29 -88 57.5t-88 60.5q-16 11 -29.5 25.5t-25.5 28.5q-32 31 -62 62.5t-61 62.5q-31 -26 -54.5 -48.5t-45.5 -45t-43.5 -46.5t-47.5 -53z" />
<glyph unicode="&#xe1;" horiz-adv-x="803" d="M-31 -6q73 6 145 9t144 9q1 20 1.5 38.5t3 36.5t8 36t14.5 37q49 12 98 16.5t100 9.5q-5 -21 -6.5 -41.5t-1.5 -42.5q0 -52 6 -108q44 5 86.5 7.5t85.5 2.5q47 0 91.5 -4.5t89.5 -9.5q-32 94 -68.5 184.5t-71.5 181.5q-21 56 -41.5 110.5t-34.5 111.5 q-35 154 -82.5 302.5t-103.5 297.5q-30 -75 -63 -148.5t-64.5 -147.5t-59.5 -149.5t-48 -154.5q-19 -77 -46.5 -150.5t-58 -145.5t-62.5 -143.5t-61 -144.5zM342 367l74 313l41 -299zM405 1335l98 -123q28 17 45 27t26 16l15 10q5 3 34 19t65 35t69.5 34.5t48.5 18.5 q13 2 33 10q17 7 44.5 20.5t66.5 36.5q-28 31 -45.5 50.5t-27.5 31.5q-11 14 -17 21q-7 7 -20 19q-11 11 -30.5 28t-50.5 43q-58 -61 -93 -96l-54 -54q-22 -22 -31 -29q-9 -6 -31 -21q-19 -13 -54 -36z" />
<glyph unicode="&#xe2;" horiz-adv-x="803" d="M-31 -6q73 6 145 9t144 9q1 20 1.5 38.5t3 36.5t8 36t14.5 37q49 12 98 16.5t100 9.5q-5 -21 -6.5 -41.5t-1.5 -42.5q0 -52 6 -108q44 5 86.5 7.5t85.5 2.5q47 0 91.5 -4.5t89.5 -9.5q-32 94 -68.5 184.5t-71.5 181.5q-21 56 -41.5 110.5t-34.5 111.5 q-35 154 -82.5 302.5t-103.5 297.5q-30 -75 -63 -148.5t-64.5 -147.5t-59.5 -149.5t-48 -154.5q-19 -77 -46.5 -150.5t-58 -145.5t-62.5 -143.5t-61 -144.5zM342 367l74 313l41 -299zM68 1185q70 -10 139 -20.5t138 -18.5q15 65 32.5 123t39.5 120q27 -51 49.5 -102 t44.5 -107q43 0 72 1t53.5 4t51 9.5t64.5 16.5q-65 79 -124.5 160t-124.5 162q-23 -3 -49.5 -9t-51.5 -6q-28 0 -55 4t-55 7q-29 -44 -55.5 -87.5t-53.5 -87t-55 -86t-60 -83.5z" />
<glyph unicode="&#xe3;" horiz-adv-x="803" d="M-31 -6q73 6 145 9t144 9q1 20 1.5 38.5t3 36.5t8 36t14.5 37q49 12 98 16.5t100 9.5q-5 -21 -6.5 -41.5t-1.5 -42.5q0 -52 6 -108q44 5 86.5 7.5t85.5 2.5q47 0 91.5 -4.5t89.5 -9.5q-32 94 -68.5 184.5t-71.5 181.5q-21 56 -41.5 110.5t-34.5 111.5 q-35 154 -82.5 302.5t-103.5 297.5q-30 -75 -63 -148.5t-64.5 -147.5t-59.5 -149.5t-48 -154.5q-19 -77 -46.5 -150.5t-58 -145.5t-62.5 -143.5t-61 -144.5zM342 367l74 313l41 -299zM36 1258q29 -5 58.5 -8.5t59.5 -3.5q31 0 60.5 -4t60.5 -12q-3 31 -5.5 62t-2.5 63 q0 7 1.5 20t5 25.5t10 22t16.5 9.5q8 0 15 -11.5t12.5 -26.5t10 -29.5t7.5 -20.5q5 -7 18 -24t28 -35t28.5 -33t19.5 -20q8 -5 22 -8t29 -5t30 -3t24 -1q11 0 21.5 1t21.5 6q54 22 85 63t50 91.5t32 104t31 101.5q-36 -11 -69.5 -16t-66.5 -7t-67 -2t-71 -2q1 -3 4 -14.5 t6.5 -25t6.5 -25.5t3 -15q0 -4 -2.5 -18t-6.5 -28t-9.5 -25.5t-11.5 -11.5q-7 0 -16 7t-16.5 17t-13 20t-6.5 17q-2 9 -3.5 21.5t-4.5 23.5t-9.5 20t-18.5 11q-50 11 -105 21.5t-106 10.5q-19 0 -37.5 -18.5t-35.5 -48t-32 -65t-27 -69t-21 -61.5t-13 -41z" />
<glyph unicode="&#xe4;" horiz-adv-x="803" d="M-31 -6q73 6 145 9t144 9q1 20 1.5 38.5t3 36.5t8 36t14.5 37q49 12 98 16.5t100 9.5q-5 -21 -6.5 -41.5t-1.5 -42.5q0 -52 6 -108q44 5 86.5 7.5t85.5 2.5q47 0 91.5 -4.5t89.5 -9.5q-32 94 -68.5 184.5t-71.5 181.5q-21 56 -41.5 110.5t-34.5 111.5 q-35 154 -82.5 302.5t-103.5 297.5q-30 -75 -63 -148.5t-64.5 -147.5t-59.5 -149.5t-48 -154.5q-19 -77 -46.5 -150.5t-58 -145.5t-62.5 -143.5t-61 -144.5zM342 367l74 313l41 -299zM163 1462l24 -222l94 25l111 -12l-8 94l14 129l-114 -20zM480 1427l12 -141l68 -7l86 13 l12 151l-106 -8z" />
<glyph unicode="&#xe5;" horiz-adv-x="803" d="M-31 -6q73 6 145 9t144 9q1 20 1.5 38.5t3 36.5t8 36t14.5 37q49 12 98 16.5t100 9.5q-5 -21 -6.5 -41.5t-1.5 -42.5q0 -52 6 -108q44 5 86.5 7.5t85.5 2.5q47 0 91.5 -4.5t89.5 -9.5q-32 94 -68.5 184.5t-71.5 181.5q-21 56 -41.5 110.5t-34.5 111.5 q-30 134 -70.5 264.5t-88.5 261.5q13 5 27.5 14.5t28 19.5t26 20t22.5 16q14 8 26.5 21.5t21.5 30.5t14 35t4 33v4q-1 8 -9 28t-18 41.5t-20 41t-15 25.5q-7 8 -24.5 14t-38 10t-40 6t-30.5 2q-29 0 -64.5 -9t-66 -26t-51.5 -43t-21 -61q0 -29 9 -61t18 -58q19 -49 57 -73 t84 -35q-27 -64 -55.5 -128.5t-55 -129t-50 -130.5t-41.5 -134q-19 -77 -46.5 -150.5t-58 -145.5t-62.5 -143.5t-61 -144.5zM342 367l74 313l41 -299zM375 1317q0 25 14 34t39 9q20 0 31 -11t16.5 -27t6.5 -34t1 -33q0 -23 -7.5 -29.5t-29.5 -6.5q-20 0 -33.5 9.5t-22 23.5 t-12 31.5t-3.5 33.5z" />
<glyph unicode="&#xe6;" horiz-adv-x="1229" d="M-51 -6q72 6 145 9t146 9q12 42 23 76.5t36 71.5q51 12 101.5 16.5t103.5 9.5q-20 -45 -28.5 -94.5t-14.5 -97.5q52 5 96.5 6.5t95.5 1.5q43 0 71.5 3.5t53.5 8t51.5 8t65.5 3.5q69 0 136.5 -3t135.5 -6l-6 226q-88 0 -174 -9.5t-174 -9.5h-78l13 264q58 -3 118 -5 t117 -17q45 -11 87 -15t87 -6l-10 222q-108 -17 -216 -24.5t-216 -23.5q-7 65 -7.5 128.5t-11.5 127.5q17 -3 34 -5.5t34 -2.5q48 0 93 5.5t93 5.5q62 0 123.5 -8t124.5 -13q-3 40 -7.5 79t-4.5 79q0 21 1 42.5t3 43.5q-79 -11 -156 -24t-155 -13q-30 0 -53.5 -2t-45.5 -5.5 t-45.5 -8t-52.5 -9.5q-5 35 -10 70.5t-10 69.5q-46 -75 -94.5 -148t-95.5 -147t-91 -149.5t-82 -155.5q-36 -78 -78.5 -151.5t-88 -145.5t-92 -143t-91.5 -144zM399 367l133 297q0 -13 2.5 -26t0.5 -24l-17 -233z" />
<glyph unicode="&#xe7;" horiz-adv-x="1032" d="M31 438q0 -46 8 -86.5t22.5 -78t35 -74t44.5 -74.5q18 -28 46 -50.5t61 -40.5t70.5 -31.5t74.5 -22.5q-7 -39 -19.5 -78t-29.5 -92q16 -2 31 -3.5t31 -1.5q11 0 21.5 1t21.5 1q20 1 39.5 -10.5t34.5 -30t24.5 -40t9.5 -39.5q0 -25 -7 -44.5t-36 -19.5q-51 0 -92 23 t-78 55l-37 -182l185 -64q11 1 38 3.5t57 8t55.5 12.5t33.5 17q11 13 25 42t27 61.5t21.5 63t8.5 46.5q0 17 -5 40.5t-13.5 47t-20 43.5t-25.5 29q-10 6 -28 12.5t-38.5 12t-39 10t-29.5 6.5q2 11 7 24.5t12 28.5q34 2 67.5 3.5t65.5 6.5q12 2 33 10t46 20t51.5 26.5t49 29 t38.5 28.5t21 24q20 43 29 94.5t18 99.5l-254 47q0 -21 2.5 -43.5t2.5 -44.5q0 -9 -19.5 -24.5t-45 -30.5t-50 -26t-33.5 -11q-12 0 -42 15.5t-63 35.5t-63 40.5t-43 29.5q-43 31 -57.5 79t-14.5 99q0 27 4 59t11.5 63.5t19.5 61.5t27 52q8 12 35.5 38t59.5 52.5t62 46.5 t44 20q2 0 10 -3t10 -5q40 -14 64.5 -36.5t42 -50t31.5 -59.5t34 -65l229 66q-8 28 -17 60t-19.5 64.5t-23 63t-28.5 55.5q-11 18 -35.5 36.5t-56.5 36t-69 33.5t-72.5 28t-66.5 19t-52 7q-26 0 -65.5 -15t-80 -36t-76.5 -44.5t-54 -41.5q-14 -14 -37 -38t-48.5 -54t-52 -63 t-48 -64t-36 -58t-16.5 -45q-6 -54 -11 -108.5t-5 -108.5z" />
<glyph unicode="&#xe8;" horiz-adv-x="768" d="M-20 4q29 0 58 -1t60 -1q54 0 114 1t114 13q38 8 80.5 8.5t80.5 0.5q32 0 58.5 -1t51.5 -2t51.5 -2.5t58.5 -3.5l-7 226q-49 0 -91 -3t-83 -6.5t-83 -6.5t-91 -4h-78l11 265q26 -1 57 -2t62.5 -3t62 -6t55.5 -11q26 -7 46.5 -11t40.5 -6t41 -2.5t46 -1.5l-10 222 q-59 -9 -112 -14.5t-104.5 -10t-104.5 -9.5t-113 -14q-2 19 -3 38.5t-1 37.5q0 47 -2 90.5t-10 89.5q17 -3 33.5 -5.5t33.5 -2.5q47 0 92.5 5.5t93.5 5.5q36 0 65.5 -2t58 -5.5t58.5 -7t66 -6.5q-3 38 -7.5 79t-4.5 79q0 21 1 42.5t3 43.5q-40 -6 -78.5 -12.5t-77 -12 t-77.5 -9t-80 -3.5q-65 0 -130.5 -9t-131.5 -20h-15q-28 0 -55 6t-53 17q-2 -66 -3 -130.5t-1 -129.5q0 -70 4 -139.5t9 -139t9 -139t4 -139.5q0 -19 -9 -52t-21 -68t-24 -66.5t-19 -49.5zM-46 1377q13 -8 31.5 -18.5t38.5 -20t39.5 -17.5t34.5 -11q29 -7 69 -26.5t82 -43 t82.5 -48t69.5 -42.5l98 123q-43 29 -88 57.5t-88 60.5q-16 11 -29.5 25.5t-25.5 28.5q-32 31 -62 62.5t-61 62.5q-31 -26 -54.5 -48.5t-45.5 -45t-43.5 -46.5t-47.5 -53z" />
<glyph unicode="&#xe9;" horiz-adv-x="768" d="M-20 4q29 0 58 -1t60 -1q54 0 114 1t114 13q38 8 80.5 8.5t80.5 0.5q32 0 58.5 -1t51.5 -2t51.5 -2.5t58.5 -3.5l-7 226q-49 0 -91 -3t-83 -6.5t-83 -6.5t-91 -4h-78l11 265q26 -1 57 -2t62.5 -3t62 -6t55.5 -11q26 -7 46.5 -11t40.5 -6t41 -2.5t46 -1.5l-10 222 q-59 -9 -112 -14.5t-104.5 -10t-104.5 -9.5t-113 -14q-2 19 -3 38.5t-1 37.5q0 47 -2 90.5t-10 89.5q17 -3 33.5 -5.5t33.5 -2.5q47 0 92.5 5.5t93.5 5.5q36 0 65.5 -2t58 -5.5t58.5 -7t66 -6.5q-3 38 -7.5 79t-4.5 79q0 21 1 42.5t3 43.5q-40 -6 -78.5 -12.5t-77 -12 t-77.5 -9t-80 -3.5q-65 0 -130.5 -9t-131.5 -20h-15q-28 0 -55 6t-53 17q-2 -66 -3 -130.5t-1 -129.5q0 -70 4 -139.5t9 -139t9 -139t4 -139.5q0 -19 -9 -52t-21 -68t-24 -66.5t-19 -49.5zM261 1253l98 -123q28 17 45 27t26 16l15 10q5 3 34 19t65 35t69.5 34.5t48.5 18.5 q13 2 33 10q17 7 44.5 20.5t66.5 36.5q-28 31 -45.5 50.5t-27.5 31.5q-11 14 -17 21q-7 7 -20 19q-11 11 -30.5 28t-50.5 43q-58 -61 -93 -96l-54 -54q-22 -22 -31 -29q-9 -6 -31 -21q-19 -13 -54 -36z" />
<glyph unicode="&#xea;" horiz-adv-x="768" d="M-20 4q29 0 58 -1t60 -1q54 0 114 1t114 13q38 8 80.5 8.5t80.5 0.5q32 0 58.5 -1t51.5 -2t51.5 -2.5t58.5 -3.5l-7 226q-49 0 -91 -3t-83 -6.5t-83 -6.5t-91 -4h-78l11 265q26 -1 57 -2t62.5 -3t62 -6t55.5 -11q26 -7 46.5 -11t40.5 -6t41 -2.5t46 -1.5l-10 222 q-59 -9 -112 -14.5t-104.5 -10t-104.5 -9.5t-113 -14q-2 19 -3 38.5t-1 37.5q0 47 -2 90.5t-10 89.5q17 -3 33.5 -5.5t33.5 -2.5q47 0 92.5 5.5t93.5 5.5q36 0 65.5 -2t58 -5.5t58.5 -7t66 -6.5q-3 38 -7.5 79t-4.5 79q0 21 1 42.5t3 43.5q-40 -6 -78.5 -12.5t-77 -12 t-77.5 -9t-80 -3.5q-65 0 -130.5 -9t-131.5 -20h-15q-28 0 -55 6t-53 17q-2 -66 -3 -130.5t-1 -129.5q0 -70 4 -139.5t9 -139t9 -139t4 -139.5q0 -19 -9 -52t-21 -68t-24 -66.5t-19 -49.5zM27 1185q70 -10 139 -20.5t138 -18.5q15 65 32.5 123t39.5 120q27 -51 49.5 -102 t44.5 -107q43 0 72 1t53.5 4t51 9.5t64.5 16.5q-65 79 -124.5 160t-124.5 162q-23 -3 -49.5 -9t-51.5 -6q-28 0 -55 4t-55 7q-29 -44 -55.5 -87.5t-53.5 -87t-55 -86t-60 -83.5z" />
<glyph unicode="&#xeb;" horiz-adv-x="768" d="M-20 4q29 0 58 -1t60 -1q54 0 114 1t114 13q38 8 80.5 8.5t80.5 0.5q32 0 58.5 -1t51.5 -2t51.5 -2.5t58.5 -3.5l-7 226q-49 0 -91 -3t-83 -6.5t-83 -6.5t-91 -4h-78l11 265q26 -1 57 -2t62.5 -3t62 -6t55.5 -11q26 -7 46.5 -11t40.5 -6t41 -2.5t46 -1.5l-10 222 q-59 -9 -112 -14.5t-104.5 -10t-104.5 -9.5t-113 -14q-2 19 -3 38.5t-1 37.5q0 47 -2 90.5t-10 89.5q17 -3 33.5 -5.5t33.5 -2.5q47 0 92.5 5.5t93.5 5.5q36 0 65.5 -2t58 -5.5t58.5 -7t66 -6.5q-3 38 -7.5 79t-4.5 79q0 21 1 42.5t3 43.5q-40 -6 -78.5 -12.5t-77 -12 t-77.5 -9t-80 -3.5q-65 0 -130.5 -9t-131.5 -20h-15q-28 0 -55 6t-53 17q-2 -66 -3 -130.5t-1 -129.5q0 -70 4 -139.5t9 -139t9 -139t4 -139.5q0 -19 -9 -52t-21 -68t-24 -66.5t-19 -49.5zM143 1380l24 -222l94 25l111 -12l-8 94l14 129l-114 -20zM460 1345l12 -141l68 -7 l86 13l12 151l-106 -8z" />
<glyph unicode="&#xec;" horiz-adv-x="381" d="M31 -2q69 2 135 2t135 -12q-5 38 -10.5 76.5t-5.5 76.5q0 50 3 95.5t11 93.5q9 57 13.5 113.5t9.5 112.5t12 112.5t20 113.5q-29 -3 -58.5 -5.5t-59.5 -2.5q-51 0 -96.5 -0.5t-96.5 -9.5l-2 -31q-1 -37 2 -74.5t7 -74.5t7.5 -74.5t3.5 -75.5q0 -109 -10.5 -218 t-19.5 -218zM-231 1377q13 -8 31.5 -18.5t38.5 -20t39.5 -17.5t34.5 -11q29 -7 69 -26.5t82 -43t82.5 -48t69.5 -42.5l98 123q-43 29 -88 57.5t-88 60.5q-16 11 -29.5 25.5t-25.5 28.5q-32 31 -62 62.5t-61 62.5q-31 -26 -54.5 -48.5t-45.5 -45t-43.5 -46.5t-47.5 -53z" />
<glyph unicode="&#xed;" horiz-adv-x="381" d="M31 -2q69 2 135 2t135 -12q-5 38 -10.5 76.5t-5.5 76.5q0 50 3 95.5t11 93.5q9 57 13.5 113.5t9.5 112.5t12 112.5t20 113.5q-29 -3 -58.5 -5.5t-59.5 -2.5q-51 0 -96.5 -0.5t-96.5 -9.5l-2 -31q-1 -37 2 -74.5t7 -74.5t7.5 -74.5t3.5 -75.5q0 -109 -10.5 -218 t-19.5 -218zM179 1253l98 -123q28 17 45 27t26 16l15 10q5 3 34 19t65 35t69.5 34.5t48.5 18.5q13 2 33 10q17 7 44.5 20.5t66.5 36.5q-28 31 -45.5 50.5t-27.5 31.5q-11 14 -17 21q-7 7 -20 19q-11 11 -30.5 28t-50.5 43q-58 -61 -93 -96l-54 -54q-22 -22 -31 -29 q-9 -6 -31 -21q-19 -13 -54 -36z" />
<glyph unicode="&#xee;" horiz-adv-x="381" d="M31 -2q69 2 135 2t135 -12q-5 38 -10.5 76.5t-5.5 76.5q0 50 3 95.5t11 93.5q9 57 13.5 113.5t9.5 112.5t12 112.5t20 113.5q-29 -3 -58.5 -5.5t-59.5 -2.5q-51 0 -96.5 -0.5t-96.5 -9.5l-2 -31q-1 -37 2 -74.5t7 -74.5t7.5 -74.5t3.5 -75.5q0 -109 -10.5 -218 t-19.5 -218zM-116 1185q70 -10 139 -20.5t138 -18.5q15 65 32.5 123t39.5 120q27 -51 49.5 -102t44.5 -107q43 0 72 1t53.5 4t51 9.5t64.5 16.5q-65 79 -124.5 160t-124.5 162q-23 -3 -49.5 -9t-51.5 -6q-28 0 -55 4t-55 7q-29 -44 -55.5 -87.5t-53.5 -87t-55 -86t-60 -83.5 z" />
<glyph unicode="&#xef;" horiz-adv-x="381" d="M31 -2q69 2 135 2t135 -12q-5 38 -10.5 76.5t-5.5 76.5q0 50 3 95.5t11 93.5q9 57 13.5 113.5t9.5 112.5t12 112.5t20 113.5q-29 -3 -58.5 -5.5t-59.5 -2.5q-51 0 -96.5 -0.5t-96.5 -9.5l-2 -31q-1 -37 2 -74.5t7 -74.5t7.5 -74.5t3.5 -75.5q0 -109 -10.5 -218 t-19.5 -218zM-42 1380l24 -222l94 25l111 -12l-8 94l14 129l-114 -20zM275 1345l12 -141l68 -7l86 13l12 151l-106 -8z" />
<glyph unicode="&#xf0;" horiz-adv-x="995" d="M20 467q29 1 46 2t31 2.5t31 2.5t46 1q11 0 21.5 -1t21.5 -3q-3 -130 -11.5 -259t-21.5 -259q56 14 112.5 24t113.5 21q29 5 67.5 9t78 9.5t75 13t59.5 19.5q24 11 57.5 40t66.5 64t60.5 70t38.5 58q8 16 14.5 46t12.5 67.5t10.5 79.5t8 80.5t5 71.5t1.5 52v36 q0 22 -1.5 45.5t-4 44t-7.5 32.5q-2 8 -12.5 24.5t-25 37.5t-32 43.5t-33 42t-28.5 34t-20 18.5q-15 9 -43.5 15t-60 10t-61.5 6t-48 2q-94 0 -187.5 10t-187.5 23q3 -103 5.5 -207t2.5 -207v-53h-26q-32 0 -51.5 2t-36 4.5t-35 4.5t-49.5 3zM457 242q2 55 5.5 110t8.5 111 q15 -1 25 -1.5t23.5 -2t34 -3t54.5 -3.5q-3 32 -6.5 64.5t-3.5 64.5v127q-37 -7 -65.5 -13t-53.5 -12q0 91 -6 182q12 -2 40 -7t57.5 -12t54.5 -14.5t32 -15.5q6 -6 12.5 -31t13 -59.5t12 -75t9.5 -77.5t6.5 -66t2.5 -41t-1 -22t-7 -21q-20 -45 -45.5 -73t-56.5 -47 t-67.5 -32.5t-78.5 -29.5z" />
<glyph unicode="&#xf1;" horiz-adv-x="852" d="M20 1092q9 -56 20.5 -114.5t21.5 -117t17 -116.5t7 -115q0 -155 -16.5 -305t-34.5 -301q29 -8 58.5 -13.5t58.5 -5.5q31 0 62.5 1t61.5 1q-5 25 -7.5 49.5t-2.5 50.5q0 67 10 131t21 130q9 49 9 101v6q0 11 -1 21q0 44 2 87q39 -48 71.5 -91.5t56 -89.5t36 -97.5 t12.5 -115.5q0 -52 -4.5 -104t-9.5 -104q74 -7 146.5 -9.5t146.5 -7.5q-2 63 -8 127t-6 127q0 94 14.5 186t25.5 185q10 72 14 143t15 143q8 45 17 90.5t18 90.5h-22l-54 1q-38 2 -76 5.5t-75.5 6t-75.5 3.5q29 -74 48 -144t19 -151q0 -85 -5 -170t-11 -170q-17 34 -35 67.5 t-37 67.5q-24 44 -53.5 84.5t-54.5 85.5q-16 28 -27 71t-19.5 90.5t-16.5 94.5t-19 82q-35 2 -69.5 4t-69.5 2h-89q-42 0 -90 7zM57 1197q29 -5 58.5 -8.5t59.5 -3.5q31 0 60.5 -4t60.5 -12q-3 31 -5.5 62t-2.5 63q0 7 1.5 20t5 25.5t10 22t16.5 9.5q8 0 15 -11.5 t12.5 -26.5t10 -29.5t7.5 -20.5q5 -7 18 -24t28 -35t28.5 -33t19.5 -20q8 -5 22 -8t29 -5t30 -3t24 -1q11 0 21.5 1t21.5 6q54 22 85 63t50 91.5t32 104t31 101.5q-36 -11 -69.5 -16t-66.5 -7t-67 -2t-71 -2q1 -3 4 -14.5t6.5 -25t6.5 -25.5t3 -15q0 -4 -2.5 -18t-6.5 -28 t-9.5 -25.5t-11.5 -11.5q-7 0 -16 7t-16.5 17t-13 20t-6.5 17q-2 9 -3.5 21.5t-4.5 23.5t-9.5 20t-18.5 11q-50 11 -105 21.5t-106 10.5q-19 0 -37.5 -18.5t-35.5 -48t-32 -65t-27 -69t-21 -61.5t-13 -41z" />
<glyph unicode="&#xf2;" horiz-adv-x="1067" d="M20 604q0 -59 12.5 -117.5t24.5 -115.5q6 -25 21.5 -54t36 -58.5t41.5 -56t37 -46.5q14 -19 38 -43.5t51 -48t54.5 -43.5t48.5 -31q32 -17 63 -21t68 -4q29 0 67.5 2.5t78.5 7.5t77 12.5t64 18.5q26 11 45 24.5t33 30t24 37.5t19 47q15 45 32.5 90.5t33 92t26 93.5 t10.5 95q0 14 -2 39.5t-5 56t-7.5 64t-10.5 63.5t-12.5 54t-13.5 36q-11 19 -36 47.5t-54 57t-58 51.5t-47 31q-30 14 -74.5 30.5t-92.5 30.5t-93.5 23.5t-77.5 9.5q-43 0 -81 -22.5t-71.5 -55.5t-63 -70.5t-56.5 -66.5q-24 -25 -50.5 -59.5t-48.5 -74t-36.5 -80 t-14.5 -77.5zM309 592q0 27 12.5 63t30.5 73t38.5 69.5t35.5 52.5q16 20 26.5 35t22.5 25.5t29.5 16t46.5 5.5q20 0 38.5 -3.5t35.5 -13.5q33 -16 59.5 -55.5t45 -87t28.5 -96.5t10 -84q0 -37 -6 -83.5t-17.5 -93.5t-29 -89.5t-41.5 -71.5q-11 -13 -24.5 -27t-28.5 -26 t-31.5 -19.5t-34.5 -7.5q-25 0 -53 1.5t-54 8.5t-48 21t-35 39q-5 9 -11 35t-12 60.5t-12 74t-10.5 75t-7.5 63.5t-3 40zM36 1418q13 -8 31.5 -18.5t38.5 -20t39.5 -17.5t34.5 -11q29 -7 69 -26.5t82 -43t82.5 -48t69.5 -42.5l98 123q-43 29 -88 57.5t-88 60.5 q-16 11 -29.5 25.5t-25.5 28.5q-32 31 -62 62.5t-61 62.5q-31 -26 -54.5 -48.5t-45.5 -45t-43.5 -46.5t-47.5 -53z" />
<glyph unicode="&#xf3;" horiz-adv-x="1067" d="M20 604q0 -59 12.5 -117.5t24.5 -115.5q6 -25 21.5 -54t36 -58.5t41.5 -56t37 -46.5q14 -19 38 -43.5t51 -48t54.5 -43.5t48.5 -31q32 -17 63 -21t68 -4q29 0 67.5 2.5t78.5 7.5t77 12.5t64 18.5q26 11 45 24.5t33 30t24 37.5t19 47q15 45 32.5 90.5t33 92t26 93.5 t10.5 95q0 14 -2 39.5t-5 56t-7.5 64t-10.5 63.5t-12.5 54t-13.5 36q-11 19 -36 47.5t-54 57t-58 51.5t-47 31q-30 14 -74.5 30.5t-92.5 30.5t-93.5 23.5t-77.5 9.5q-43 0 -81 -22.5t-71.5 -55.5t-63 -70.5t-56.5 -66.5q-24 -25 -50.5 -59.5t-48.5 -74t-36.5 -80 t-14.5 -77.5zM309 592q0 27 12.5 63t30.5 73t38.5 69.5t35.5 52.5q16 20 26.5 35t22.5 25.5t29.5 16t46.5 5.5q20 0 38.5 -3.5t35.5 -13.5q33 -16 59.5 -55.5t45 -87t28.5 -96.5t10 -84q0 -37 -6 -83.5t-17.5 -93.5t-29 -89.5t-41.5 -71.5q-11 -13 -24.5 -27t-28.5 -26 t-31.5 -19.5t-34.5 -7.5q-25 0 -53 1.5t-54 8.5t-48 21t-35 39q-5 9 -11 35t-12 60.5t-12 74t-10.5 75t-7.5 63.5t-3 40zM405 1314l98 -123q28 17 45 27t26 16l15 10q5 3 34 19t65 35t69.5 34.5t48.5 18.5q13 2 33 10q17 7 44.5 20.5t66.5 36.5q-28 31 -45.5 50.5 t-27.5 31.5q-11 14 -17 21q-7 7 -20 19q-11 11 -30.5 28t-50.5 43q-58 -61 -93 -96l-54 -54q-22 -22 -31 -29q-9 -6 -31 -21q-19 -13 -54 -36z" />
<glyph unicode="&#xf4;" horiz-adv-x="1067" d="M20 604q0 -59 12.5 -117.5t24.5 -115.5q6 -25 21.5 -54t36 -58.5t41.5 -56t37 -46.5q14 -19 38 -43.5t51 -48t54.5 -43.5t48.5 -31q32 -17 63 -21t68 -4q29 0 67.5 2.5t78.5 7.5t77 12.5t64 18.5q26 11 45 24.5t33 30t24 37.5t19 47q15 45 32.5 90.5t33 92t26 93.5 t10.5 95q0 14 -2 39.5t-5 56t-7.5 64t-10.5 63.5t-12.5 54t-13.5 36q-11 19 -36 47.5t-54 57t-58 51.5t-47 31q-30 14 -74.5 30.5t-92.5 30.5t-93.5 23.5t-77.5 9.5q-43 0 -81 -22.5t-71.5 -55.5t-63 -70.5t-56.5 -66.5q-24 -25 -50.5 -59.5t-48.5 -74t-36.5 -80 t-14.5 -77.5zM309 592q0 27 12.5 63t30.5 73t38.5 69.5t35.5 52.5q16 20 26.5 35t22.5 25.5t29.5 16t46.5 5.5q20 0 38.5 -3.5t35.5 -13.5q33 -16 59.5 -55.5t45 -87t28.5 -96.5t10 -84q0 -37 -6 -83.5t-17.5 -93.5t-29 -89.5t-41.5 -71.5q-11 -13 -24.5 -27t-28.5 -26 t-31.5 -19.5t-34.5 -7.5q-25 0 -53 1.5t-54 8.5t-48 21t-35 39q-5 9 -11 35t-12 60.5t-12 74t-10.5 75t-7.5 63.5t-3 40zM171 1185q70 -10 139 -20.5t138 -18.5q15 65 32.5 123t39.5 120q27 -51 49.5 -102t44.5 -107q43 0 72 1t53.5 4t51 9.5t64.5 16.5q-65 79 -124.5 160 t-124.5 162q-23 -3 -49.5 -9t-51.5 -6q-28 0 -55 4t-55 7q-29 -44 -55.5 -87.5t-53.5 -87t-55 -86t-60 -83.5z" />
<glyph unicode="&#xf5;" horiz-adv-x="1067" d="M20 604q0 -59 12.5 -117.5t24.5 -115.5q6 -25 21.5 -54t36 -58.5t41.5 -56t37 -46.5q14 -19 38 -43.5t51 -48t54.5 -43.5t48.5 -31q32 -17 63 -21t68 -4q29 0 67.5 2.5t78.5 7.5t77 12.5t64 18.5q26 11 45 24.5t33 30t24 37.5t19 47q15 45 32.5 90.5t33 92t26 93.5 t10.5 95q0 14 -2 39.5t-5 56t-7.5 64t-10.5 63.5t-12.5 54t-13.5 36q-11 19 -36 47.5t-54 57t-58 51.5t-47 31q-30 14 -74.5 30.5t-92.5 30.5t-93.5 23.5t-77.5 9.5q-43 0 -81 -22.5t-71.5 -55.5t-63 -70.5t-56.5 -66.5q-24 -25 -50.5 -59.5t-48.5 -74t-36.5 -80 t-14.5 -77.5zM309 592q0 27 12.5 63t30.5 73t38.5 69.5t35.5 52.5q16 20 26.5 35t22.5 25.5t29.5 16t46.5 5.5q20 0 38.5 -3.5t35.5 -13.5q33 -16 59.5 -55.5t45 -87t28.5 -96.5t10 -84q0 -37 -6 -83.5t-17.5 -93.5t-29 -89.5t-41.5 -71.5q-11 -13 -24.5 -27t-28.5 -26 t-31.5 -19.5t-34.5 -7.5q-25 0 -53 1.5t-54 8.5t-48 21t-35 39q-5 9 -11 35t-12 60.5t-12 74t-10.5 75t-7.5 63.5t-3 40zM158 1176q29 -5 58.5 -8.5t59.5 -3.5q31 0 60.5 -4t60.5 -12q-3 31 -5.5 62t-2.5 63q0 7 1.5 20t5 25.5t10 22t16.5 9.5q8 0 15 -11.5t12.5 -26.5 t10 -29.5t7.5 -20.5q5 -7 18 -24t28 -35t28.5 -33t19.5 -20q8 -5 22 -8t29 -5t30 -3t24 -1q11 0 21.5 1t21.5 6q54 22 85 63t50 91.5t32 104t31 101.5q-36 -11 -69.5 -16t-66.5 -7t-67 -2t-71 -2q1 -3 4 -14.5t6.5 -25t6.5 -25.5t3 -15q0 -4 -2.5 -18t-6.5 -28t-9.5 -25.5 t-11.5 -11.5q-7 0 -16 7t-16.5 17t-13 20t-6.5 17q-2 9 -3.5 21.5t-4.5 23.5t-9.5 20t-18.5 11q-50 11 -105 21.5t-106 10.5q-19 0 -37.5 -18.5t-35.5 -48t-32 -65t-27 -69t-21 -61.5t-13 -41z" />
<glyph unicode="&#xf6;" horiz-adv-x="1067" d="M20 604q0 -59 12.5 -117.5t24.5 -115.5q6 -25 21.5 -54t36 -58.5t41.5 -56t37 -46.5q14 -19 38 -43.5t51 -48t54.5 -43.5t48.5 -31q32 -17 63 -21t68 -4q29 0 67.5 2.5t78.5 7.5t77 12.5t64 18.5q26 11 45 24.5t33 30t24 37.5t19 47q15 45 32.5 90.5t33 92t26 93.5 t10.5 95q0 14 -2 39.5t-5 56t-7.5 64t-10.5 63.5t-12.5 54t-13.5 36q-11 19 -36 47.5t-54 57t-58 51.5t-47 31q-30 14 -74.5 30.5t-92.5 30.5t-93.5 23.5t-77.5 9.5q-43 0 -81 -22.5t-71.5 -55.5t-63 -70.5t-56.5 -66.5q-24 -25 -50.5 -59.5t-48.5 -74t-36.5 -80 t-14.5 -77.5zM309 592q0 27 12.5 63t30.5 73t38.5 69.5t35.5 52.5q16 20 26.5 35t22.5 25.5t29.5 16t46.5 5.5q20 0 38.5 -3.5t35.5 -13.5q33 -16 59.5 -55.5t45 -87t28.5 -96.5t10 -84q0 -37 -6 -83.5t-17.5 -93.5t-29 -89.5t-41.5 -71.5q-11 -13 -24.5 -27t-28.5 -26 t-31.5 -19.5t-34.5 -7.5q-25 0 -53 1.5t-54 8.5t-48 21t-35 39q-5 9 -11 35t-12 60.5t-12 74t-10.5 75t-7.5 63.5t-3 40zM266 1400l24 -222l94 25l111 -12l-8 94l14 129l-114 -20zM583 1365l12 -141l68 -7l86 13l12 151l-106 -8z" />
<glyph unicode="&#xf7;" horiz-adv-x="700" d="M41 649q14 2 27.5 5t27.5 3q50 0 100 -6t101 -6q48 0 81 0.5t59 0.5t47.5 -1t45.5 -4t53 -8.5t70 -14.5q-2 62 -0.5 116t6.5 116q-18 -4 -41 -11t-47 -14t-47.5 -11.5t-42.5 -4.5q-63 0 -131 -11t-131 -22q-14 -2 -28.5 -3t-28.5 -1q-28 0 -56 4.5t-53 18.5zM190 375 q37 -8 71 -13t67 -8t67.5 -4.5t71.5 -3.5q0 50 1.5 96.5t6.5 96.5q-31 6 -65.5 13t-65.5 7q-37 0 -74.5 -5.5t-72.5 -10.5zM197 899q31 -3 61.5 -6.5t60.5 -3.5q41 0 81.5 8.5t80.5 17.5q-8 42 -8 87.5t2 87.5q-68 0 -133 -9.5t-133 -11.5q2 -42 -4 -84.5t-8 -85.5z" />
<glyph unicode="&#xf8;" d="M-51 -51q63 -23 122 -45.5t124 -40.5q24 31 49.5 61t48.5 62q9 12 17 24.5t16 26.5q20 -16 37.5 -27.5t31.5 -19.5q32 -17 63 -21t68 -4q29 0 67.5 2.5t78.5 7.5t77 12.5t64 18.5q26 11 45 24.5t33 30t24 37.5t19 47q15 45 32.5 90.5t33 92t26 93.5t10.5 95q0 14 -2 39.5 t-5 56t-7.5 64t-10.5 63.5t-12.5 54t-13.5 36q-8 14 -25 34.5t-38 43.5q24 32 60.5 76.5t75 89t71.5 83t49 56.5q-18 0 -47.5 -0.5t-60.5 0.5t-59.5 3t-43.5 8q-32 9 -64.5 16.5t-66.5 15.5q-23 -55 -46.5 -109t-46.5 -110q-33 13 -72.5 26.5t-79 24t-75.5 17t-63 6.5 q-44 0 -82 -22.5t-71.5 -55.5t-63 -70.5t-56.5 -66.5q-24 -25 -50 -59.5t-48 -74t-36.5 -80t-14.5 -77.5q0 -59 12 -117.5t25 -115.5q4 -19 14 -41t24 -44.5t30 -44.5l32 -42q-29 -34 -57 -69t-54 -69q-24 -31 -52 -58.5t-56 -53.5zM319 592q0 27 12.5 63t30.5 73t38.5 69.5 t35.5 52.5q16 20 26.5 35t22.5 25.5t29.5 16t46.5 5.5q20 0 38.5 -3.5t35.5 -13.5q11 -5 21.5 -12t19.5 -18q-22 -44 -62 -108t-87 -132.5t-96 -134t-89 -113.5q-4 30 -8.5 60.5t-7.5 57t-5 47t-2 30.5zM424 199q15 26 30.5 53t32.5 53q23 34 48.5 65.5t50.5 63.5 q29 40 60 80.5t65 77.5q11 14 25.5 33.5t33.5 44.5q3 -22 5.5 -41.5t2.5 -36.5q0 -37 -5.5 -83.5t-17.5 -93.5t-29.5 -89.5t-41.5 -71.5q-11 -13 -24.5 -27t-28.5 -26t-31.5 -19.5t-34.5 -7.5q-34 0 -72 4t-69 21z" />
<glyph unicode="&#xf9;" horiz-adv-x="719" d="M20 508q0 -59 3 -125.5t18.5 -129.5t48 -116.5t90.5 -87.5q18 -11 51.5 -27.5t71 -32.5t72.5 -27t55 -11q22 0 46 7t47.5 17.5t46 24t40.5 25.5q8 5 16.5 27.5t16.5 54t14.5 68t11.5 70.5t8 60.5t3 38.5q0 31 -3 60.5t-3 60.5q0 131 7.5 261.5t16.5 260.5q-69 8 -139 10 t-139 7q2 -32 -4 -63.5t-6 -63.5q0 -109 6 -214.5t6 -211.5q0 -50 -5 -99t-5 -100q0 -15 -9 -26.5t-22.5 -19.5t-29 -12t-27.5 -4q-14 0 -27.5 2t-26.5 5q-16 6 -27 29.5t-18.5 57t-11.5 72.5t-6.5 76t-3 67.5t-0.5 45.5q0 56 4 126.5t11.5 143.5t19 142t26.5 122 q-52 -6 -100 -6q-31 0 -61.5 2.5t-61.5 5.5q6 -28 10 -55t4 -55q0 -58 -5.5 -116t-12 -116t-12 -115.5t-5.5 -115.5zM-67 1357q13 -8 31.5 -18.5t38.5 -20t39.5 -17.5t34.5 -11q29 -7 69 -26.5t82 -43t82.5 -48t69.5 -42.5l98 123q-43 29 -88 57.5t-88 60.5 q-16 11 -29.5 25.5t-25.5 28.5q-32 31 -62 62.5t-61 62.5q-31 -26 -54.5 -48.5t-45.5 -45t-43.5 -46.5t-47.5 -53z" />
<glyph unicode="&#xfa;" horiz-adv-x="719" d="M20 508q0 -59 3 -125.5t18.5 -129.5t48 -116.5t90.5 -87.5q18 -11 51.5 -27.5t71 -32.5t72.5 -27t55 -11q22 0 46 7t47.5 17.5t46 24t40.5 25.5q8 5 16.5 27.5t16.5 54t14.5 68t11.5 70.5t8 60.5t3 38.5q0 31 -3 60.5t-3 60.5q0 131 7.5 261.5t16.5 260.5q-69 8 -139 10 t-139 7q2 -32 -4 -63.5t-6 -63.5q0 -109 6 -214.5t6 -211.5q0 -50 -5 -99t-5 -100q0 -15 -9 -26.5t-22.5 -19.5t-29 -12t-27.5 -4q-14 0 -27.5 2t-26.5 5q-16 6 -27 29.5t-18.5 57t-11.5 72.5t-6.5 76t-3 67.5t-0.5 45.5q0 56 4 126.5t11.5 143.5t19 142t26.5 122 q-52 -6 -100 -6q-31 0 -61.5 2.5t-61.5 5.5q6 -28 10 -55t4 -55q0 -58 -5.5 -116t-12 -116t-12 -115.5t-5.5 -115.5zM261 1232l98 -123q28 17 45 27t26 16l15 10q5 3 34 19t65 35t69.5 34.5t48.5 18.5q13 2 33 10q17 7 44.5 20.5t66.5 36.5q-28 31 -45.5 50.5t-27.5 31.5 q-11 14 -17 21q-7 7 -20 19q-11 11 -30.5 28t-50.5 43q-58 -61 -93 -96l-54 -54q-22 -22 -31 -29q-9 -6 -31 -21q-19 -13 -54 -36z" />
<glyph unicode="&#xfb;" horiz-adv-x="719" d="M20 508q0 -59 3 -125.5t18.5 -129.5t48 -116.5t90.5 -87.5q18 -11 51.5 -27.5t71 -32.5t72.5 -27t55 -11q22 0 46 7t47.5 17.5t46 24t40.5 25.5q8 5 16.5 27.5t16.5 54t14.5 68t11.5 70.5t8 60.5t3 38.5q0 31 -3 60.5t-3 60.5q0 131 7.5 261.5t16.5 260.5q-69 8 -139 10 t-139 7q2 -32 -4 -63.5t-6 -63.5q0 -109 6 -214.5t6 -211.5q0 -50 -5 -99t-5 -100q0 -15 -9 -26.5t-22.5 -19.5t-29 -12t-27.5 -4q-14 0 -27.5 2t-26.5 5q-16 6 -27 29.5t-18.5 57t-11.5 72.5t-6.5 76t-3 67.5t-0.5 45.5q0 56 4 126.5t11.5 143.5t19 142t26.5 122 q-52 -6 -100 -6q-31 0 -61.5 2.5t-61.5 5.5q6 -28 10 -55t4 -55q0 -58 -5.5 -116t-12 -116t-12 -115.5t-5.5 -115.5zM27 1185q70 -10 139 -20.5t138 -18.5q15 65 32.5 123t39.5 120q27 -51 49.5 -102t44.5 -107q43 0 72 1t53.5 4t51 9.5t64.5 16.5q-65 79 -124.5 160 t-124.5 162q-23 -3 -49.5 -9t-51.5 -6q-28 0 -55 4t-55 7q-29 -44 -55.5 -87.5t-53.5 -87t-55 -86t-60 -83.5z" />
<glyph unicode="&#xfc;" horiz-adv-x="719" d="M20 508q0 -59 3 -125.5t18.5 -129.5t48 -116.5t90.5 -87.5q18 -11 51.5 -27.5t71 -32.5t72.5 -27t55 -11q22 0 46 7t47.5 17.5t46 24t40.5 25.5q8 5 16.5 27.5t16.5 54t14.5 68t11.5 70.5t8 60.5t3 38.5q0 31 -3 60.5t-3 60.5q0 131 7.5 261.5t16.5 260.5q-69 8 -139 10 t-139 7q2 -32 -4 -63.5t-6 -63.5q0 -109 6 -214.5t6 -211.5q0 -50 -5 -99t-5 -100q0 -15 -9 -26.5t-22.5 -19.5t-29 -12t-27.5 -4q-14 0 -27.5 2t-26.5 5q-16 6 -27 29.5t-18.5 57t-11.5 72.5t-6.5 76t-3 67.5t-0.5 45.5q0 56 4 126.5t11.5 143.5t19 142t26.5 122 q-52 -6 -100 -6q-31 0 -61.5 2.5t-61.5 5.5q6 -28 10 -55t4 -55q0 -58 -5.5 -116t-12 -116t-12 -115.5t-5.5 -115.5zM122 1380l24 -222l94 25l111 -12l-8 94l14 129l-114 -20zM439 1345l12 -141l68 -7l86 13l12 151l-106 -8z" />
<glyph unicode="&#xfd;" horiz-adv-x="766" d="M-10 1092q15 -55 28 -111.5t29.5 -112.5t37.5 -110t52 -103q9 -13 21 -37.5t23 -52t18.5 -53.5t7.5 -41q0 -41 -4.5 -81.5t-10 -80.5t-10 -80.5t-4.5 -81.5q0 -43 -5 -85.5t-11 -86.5q42 2 74.5 3t63.5 2t63.5 2.5t74.5 3.5q-5 42 -9.5 83t-4.5 83q0 65 3 126.5t9 124.5 q21 36 48.5 83t54 97.5t49 99t33.5 85.5q5 17 17 37t26 40.5t28 40.5t23 38q17 32 31.5 64.5t29.5 64.5q-21 6 -44 13t-46 7q-25 0 -49 -2t-47 -2q-25 0 -49.5 2.5t-48.5 5.5q-35 -125 -71.5 -249t-88.5 -242q-3 17 -6.5 33.5t-8.5 31.5q-4 18 -12.5 35.5t-16.5 35t-14 36 t-6 37.5q0 77 6.5 153t20.5 152q-31 1 -52 2t-40.5 2t-40.5 1.5t-53 0.5q-29 0 -59.5 -4.5t-59.5 -9.5zM302 1232l98 -123q28 17 45 27t26 16l15 10q5 3 34 19t65 35t69.5 34.5t48.5 18.5q13 2 33 10q17 7 44.5 20.5t66.5 36.5q-28 31 -45.5 50.5t-27.5 31.5q-11 14 -17 21 q-7 7 -20 19q-11 11 -30.5 28t-50.5 43q-58 -61 -93 -96l-54 -54q-22 -22 -31 -29q-9 -6 -31 -21q-19 -13 -54 -36z" />
<glyph unicode="&#xfe;" horiz-adv-x="797" d="M20 16q38 -10 77 -13.5t78 -6t78 -7.5t77 -18q-2 107 -8.5 213.5t-8.5 212.5q22 -6 49.5 -14.5t56.5 -16t56.5 -13t48.5 -5.5q20 0 43.5 13.5t45.5 33t41.5 40.5t31.5 36q10 13 20 41t19 65t16.5 78t13 79t8.5 70t3 50q0 49 -26 96t-67 84t-90.5 59.5t-97.5 22.5 q-46 0 -93 -1t-93 -3l10 285l-289 37q9 -102 12.5 -203t8.5 -202.5t14 -202t27 -201.5q6 -32 7 -65.5t1 -67.5q0 -48 -1 -97.5t-7 -97.5q-5 -37 -17.5 -70.5t-17.5 -70.5q-5 -35 -11 -70t-16 -70zM291 909q12 -4 44.5 -10.5t67 -15t62.5 -16.5t33 -15q3 -4 5.5 -24.5 t4.5 -45.5t3 -48t1 -32v-20q0 -11 -1.5 -23t-4.5 -23t-8 -18q-6 -6 -15.5 -13t-20.5 -13t-21.5 -10t-18.5 -4q-31 0 -60.5 4.5t-58.5 7.5q-3 80 -6 159.5t-6 159.5z" />
<glyph unicode="&#xff;" horiz-adv-x="766" d="M-10 1092q15 -55 28 -111.5t29.5 -112.5t37.5 -110t52 -103q9 -13 21 -37.5t23 -52t18.5 -53.5t7.5 -41q0 -41 -4.5 -81.5t-10 -80.5t-10 -80.5t-4.5 -81.5q0 -43 -5 -85.5t-11 -86.5q42 2 74.5 3t63.5 2t63.5 2.5t74.5 3.5q-5 42 -9.5 83t-4.5 83q0 65 3 126.5t9 124.5 q21 36 48.5 83t54 97.5t49 99t33.5 85.5q5 17 17 37t26 40.5t28 40.5t23 38q17 32 31.5 64.5t29.5 64.5q-21 6 -44 13t-46 7q-25 0 -49 -2t-47 -2q-25 0 -49.5 2.5t-48.5 5.5q-35 -125 -71.5 -249t-88.5 -242q-3 17 -6.5 33.5t-8.5 31.5q-4 18 -12.5 35.5t-16.5 35t-14 36 t-6 37.5q0 77 6.5 153t20.5 152q-31 1 -52 2t-40.5 2t-40.5 1.5t-53 0.5q-29 0 -59.5 -4.5t-59.5 -9.5zM143 1400l24 -222l94 25l111 -12l-8 94l14 129l-114 -20zM460 1365l12 -141l68 -7l86 13l12 151l-106 -8z" />
<glyph unicode="&#x131;" horiz-adv-x="381" d="M31 -2q69 2 135 2t135 -12q-5 38 -10.5 76.5t-5.5 76.5q0 50 3 95.5t11 93.5q9 57 13.5 113.5t9.5 112.5t12 112.5t20 113.5q-29 -3 -58.5 -5.5t-59.5 -2.5q-51 0 -96.5 -0.5t-96.5 -9.5l-2 -31q-1 -37 2 -74.5t7 -74.5t7.5 -74.5t3.5 -75.5q0 -109 -10.5 -218 t-19.5 -218z" />
<glyph unicode="&#x152;" horiz-adv-x="1636" d="M31 733q0 -51 3.5 -101.5t6.5 -101.5q3 -38 5.5 -77t8.5 -76q5 -28 26.5 -59.5t50 -60t59.5 -52t55 -37.5q86 -51 183.5 -82t199.5 -31q55 0 106 13q-9 -19 -16 -33t-12 -21q38 7 79.5 14t79.5 7q25 0 49.5 3.5t49.5 6.5q52 8 104 14t105 13q37 5 76.5 4.5t76.5 -0.5 q66 0 132 -1t132 -3v112q0 45 -2 90t-4 88q-23 -10 -52.5 -16t-61 -9t-62.5 -4t-55 -1q-29 0 -57.5 3t-57.5 3q-46 0 -93 -2.5t-93 -7.5q-5 88 -7 176t-12 176q17 -2 33 -2t33 -2q6 0 17 -3.5t23.5 -8t24 -9t17.5 -6.5q37 -12 73 -24t74 -17q50 -8 97.5 -14t97.5 -12 q0 38 2 77.5t2 77.5q0 31 -1 61.5t-3 59.5q-45 -6 -88 -10t-88 -4q-20 0 -40 1t-40 1q-45 0 -89 -2.5t-89 -5.5q0 43 -0.5 73.5t-3 58t-6 58t-9.5 72.5q9 2 19 2h20q37 0 74 -6q28 -5 56.5 -5.5t55.5 -0.5q79 0 155 -4t155 -13l-15 238q-108 -10 -216 -19.5t-218 -9.5 q-48 0 -100 1t-99 13q-43 11 -85.5 17.5t-86.5 11.5q2 -19 3.5 -38t3.5 -38q-19 12 -44.5 24.5t-52.5 24.5t-52.5 21.5t-43.5 13.5h-6q-34 0 -67.5 -9t-67.5 -9q-15 0 -33 -11.5t-35 -27t-33 -31.5t-28 -26q-45 -36 -91 -70.5t-89 -71.5q-15 -12 -24.5 -31t-17 -40.5 t-13 -43.5t-11.5 -40q-6 -19 -15 -43.5t-17.5 -50t-14.5 -50t-6 -45.5zM281 536v15q0 18 1.5 49t5 69t9 78.5t12.5 76t16.5 62.5t20.5 38q26 26 56 50.5t53 55.5q12 16 20.5 31t18.5 26t24 18t37 7q26 0 55 -3.5t56 -14t48 -28t29 -46.5q6 -18 15.5 -34.5t19.5 -32.5 t18.5 -32t12.5 -34q8 -22 9 -51t1 -52q0 -40 -2.5 -79.5t-7.5 -81.5q-6 -59 -21 -115t-24 -115q-3 -16 -15 -37t-28.5 -40.5t-35 -34.5t-34.5 -19q-18 -5 -38.5 -6.5t-39.5 -1.5q-40 0 -79 11.5t-64 45.5q-11 16 -23 31t-24 29q-5 6 -20 22.5t-31.5 34.5t-29.5 34t-15 21 q-2 6 -3.5 15t-2 18.5t-0.5 19.5z" />
<glyph unicode="&#x153;" horiz-adv-x="1536" d="M31 604q0 -59 12 -117.5t25 -115.5q5 -25 21 -54t36 -58.5t41 -56t37 -46.5q15 -19 38.5 -43.5t50.5 -48t54.5 -43.5t48.5 -31q32 -17 63 -21t68 -4q29 0 66 2t75.5 6.5t75 12t64.5 18.5q14 0 29 -1t30 -1q54 0 114 1t114 13q38 8 80.5 8.5t80.5 0.5q32 0 58.5 -1 t51.5 -2t51.5 -2.5t58.5 -3.5l-7 226q-49 0 -91 -3t-83 -6.5t-83 -6.5t-91 -3h-78l11 264q26 -1 57 -2t62.5 -3t62 -6t55.5 -11q26 -7 46.5 -11t40.5 -6t41 -2.5t46 -1.5l-10 222q-58 -9 -110.5 -14.5t-103.5 -10t-102.5 -8.5t-109.5 -12q-3 20 -6 42l-6 44q0 43 -2 83.5 t-10 83.5q17 -3 33.5 -5.5t33.5 -2.5q47 0 92.5 5.5t93.5 5.5q36 0 65.5 -2t58 -5.5t58.5 -7t66 -6.5q-3 38 -7.5 79t-4.5 79q0 21 1 42.5t3 43.5q-40 -6 -78.5 -12.5t-77 -12t-77.5 -9t-80 -3.5q-65 0 -130.5 -9t-131.5 -20h-15q-28 0 -55 6.5t-53 16.5l-2 -43q-2 2 -6 2 q-30 14 -74.5 30.5t-92.5 30.5t-93.5 23.5t-77.5 9.5q-44 0 -82 -22.5t-71.5 -55.5t-63 -70.5t-56.5 -66.5q-24 -25 -50 -59.5t-48 -74t-36.5 -80t-14.5 -77.5zM319 592q0 27 12.5 63t30.5 73t38.5 69.5t35.5 52.5q16 20 26.5 35t22.5 25.5t29.5 16t46.5 5.5q20 0 38.5 -3.5 t35.5 -13.5q33 -16 59.5 -55.5t45 -87t28.5 -96.5t10 -84q0 -37 -5.5 -83.5t-17.5 -93.5t-29.5 -89.5t-41.5 -71.5q-11 -13 -24.5 -27t-28.5 -26t-31.5 -19.5t-34.5 -7.5q-24 0 -52 1.5t-54 8.5t-48.5 21t-35.5 39q-5 9 -11 35t-12 60.5t-12 74t-10.5 75t-7.5 63.5t-3 40z " />
<glyph unicode="&#x178;" horiz-adv-x="823" d="M-20 1292q31 -72 53 -145q8 -25 21 -48.5t27 -47t26 -47.5t16 -50q8 -45 28 -84t42 -79q3 -6 10.5 -22.5t17 -38t20 -45.5t19 -45t14 -36.5t5.5 -19.5q0 -41 -4.5 -85t-11.5 -89t-15.5 -88.5t-16.5 -83.5q-9 -48 -17 -95t-19 -94q15 -2 29 -2h28q40 0 78.5 2t77.5 2 q34 0 68.5 -2t68.5 -8q-6 45 -11.5 91.5t-5.5 92.5v13q0 6 2 12q10 72 12 146t5 147q8 19 19.5 46.5t24 56.5t23 57t15.5 47q5 18 10.5 40t12.5 44.5t15.5 43t18.5 35.5q15 24 27.5 51t23 55.5t20.5 56.5t21 54q17 41 33 79.5t33 76.5q-32 -5 -67.5 -10.5t-69.5 -5.5 q-31 0 -62.5 3.5t-60.5 8.5q-6 -42 -12 -85t-13 -86t-17.5 -85.5t-25.5 -81.5q-14 -37 -30 -74t-31 -75q-13 40 -26 80.5t-30 78.5q-16 37 -29.5 78t-25 83t-22 84t-21.5 81q-28 -6 -53.5 -8t-52.5 -2q-25 0 -49 3.5t-48 7.5t-48 7.5t-50 3.5h-20zM184 1604l24 -222l94 25 l111 -12l-8 94l14 129l-114 -20zM501 1569l12 -141l68 -7l86 13l12 151l-106 -8z" />
<glyph unicode="&#x2c6;" d="M190 1348q70 -10 139 -20.5t138 -18.5q15 65 32.5 123t39.5 120q27 -51 49.5 -102t44.5 -107q43 0 72 1t53.5 4t51 9.5t64.5 16.5q-65 79 -124.5 160t-124.5 162q-23 -3 -49.5 -9t-51.5 -6q-28 0 -55 4t-55 7q-29 -44 -55.5 -87.5t-53.5 -87t-55 -86t-60 -83.5z" />
<glyph unicode="&#x2dc;" d="M158 1339q29 -5 58.5 -8.5t59.5 -3.5q31 0 60.5 -4t60.5 -12q-3 31 -5.5 62t-2.5 63q0 7 1.5 20t5 25.5t10 22t16.5 9.5q8 0 15 -11.5t12.5 -26.5t10 -29.5t7.5 -20.5q5 -7 18 -24t28 -35t28.5 -33t19.5 -20q8 -5 22 -8t29 -5t30 -3t24 -1q11 0 21.5 1t21.5 6 q54 22 85 63t50 91.5t32 104t31 101.5q-36 -11 -69.5 -16t-66.5 -7t-67 -2t-71 -2q1 -3 4 -14.5t6.5 -25t6.5 -25.5t3 -15q0 -4 -2.5 -18t-6.5 -28t-9.5 -25.5t-11.5 -11.5q-7 0 -16 7t-16.5 17t-13 20t-6.5 17q-2 9 -3.5 21.5t-4.5 23.5t-9.5 20t-18.5 11q-50 11 -105 21.5 t-106 10.5q-19 0 -37.5 -18.5t-35.5 -48t-32 -65t-27 -69t-21 -61.5t-13 -41z" />
<glyph unicode="&#x2000;" horiz-adv-x="913" />
<glyph unicode="&#x2001;" horiz-adv-x="1827" />
<glyph unicode="&#x2002;" horiz-adv-x="913" />
<glyph unicode="&#x2003;" horiz-adv-x="1827" />
<glyph unicode="&#x2004;" horiz-adv-x="609" />
<glyph unicode="&#x2005;" horiz-adv-x="456" />
<glyph unicode="&#x2006;" horiz-adv-x="304" />
<glyph unicode="&#x2007;" horiz-adv-x="304" />
<glyph unicode="&#x2008;" horiz-adv-x="228" />
<glyph unicode="&#x2009;" horiz-adv-x="365" />
<glyph unicode="&#x200a;" horiz-adv-x="101" />
<glyph unicode="&#x2010;" horiz-adv-x="752" d="M27 672q58 2 117 5t118 3q34 0 66.5 -9t64.5 -9q20 0 41 4t41 4q33 0 53 -0.5t33.5 -1t23.5 -1.5t23.5 -2.5t33.5 -3.5t54 -4q-3 32 -6.5 64.5t-3.5 64.5v127q-48 -7 -83 -15.5t-63.5 -16.5t-54 -15.5t-54.5 -13t-64.5 -9t-85.5 -3.5q-63 0 -126 6t-126 8z" />
<glyph unicode="&#x2011;" horiz-adv-x="752" d="M27 672q58 2 117 5t118 3q34 0 66.5 -9t64.5 -9q20 0 41 4t41 4q33 0 53 -0.5t33.5 -1t23.5 -1.5t23.5 -2.5t33.5 -3.5t54 -4q-3 32 -6.5 64.5t-3.5 64.5v127q-48 -7 -83 -15.5t-63.5 -16.5t-54 -15.5t-54.5 -13t-64.5 -9t-85.5 -3.5q-63 0 -126 6t-126 8z" />
<glyph unicode="&#x2012;" horiz-adv-x="752" d="M27 672q58 2 117 5t118 3q34 0 66.5 -9t64.5 -9q20 0 41 4t41 4q33 0 53 -0.5t33.5 -1t23.5 -1.5t23.5 -2.5t33.5 -3.5t54 -4q-3 32 -6.5 64.5t-3.5 64.5v127q-48 -7 -83 -15.5t-63.5 -16.5t-54 -15.5t-54.5 -13t-64.5 -9t-85.5 -3.5q-63 0 -126 6t-126 8z" />
<glyph unicode="&#x2013;" horiz-adv-x="1024" d="M0 672q29 1 78 2t101.5 2.5t101 2.5t77.5 1q17 0 49.5 -3t68 -6t68 -6t48.5 -3q10 0 30 1.5t41.5 3t41.5 2.5t30 1q51 0 83.5 -1t61 -2.5t61 -4t83.5 -5.5q-3 32 -6.5 64.5t-3.5 64.5v127q-72 -11 -153 -24t-163.5 -24t-163.5 -18t-155 -7q-32 0 -83 2t-106 4.5 t-105.5 4.5t-82.5 3z" />
<glyph unicode="&#x2014;" horiz-adv-x="2048" d="M0 672q20 1 54.5 1.5t77 1.5t88.5 2t88.5 1.5t77.5 1t54 0.5q11 0 37.5 -1.5t60 -3.5t71 -4t71 -4t59.5 -3.5t37 -1.5q7 0 44 0.5t89.5 1.5t112.5 2t112.5 2t89.5 1.5t44 0.5q34 0 95.5 -0.5t137 -1t157.5 -1.5t157.5 -2.5t137 -3.5t95.5 -4q-3 32 -6.5 64.5t-3.5 64.5 v127q-36 -6 -115 -12t-185 -12t-232 -12t-255.5 -11.5t-255.5 -10t-232.5 -8t-185.5 -5.5t-116 -2q-21 0 -58 1t-81 2.5t-91.5 3t-91.5 3t-80 2.5t-57 2z" />
<glyph unicode="&#x2018;" horiz-adv-x="371" d="M41 1436q0 -4 2 -9q5 -46 4.5 -92.5t-0.5 -93.5q37 6 75 12.5t77 6.5q32 0 65.5 -2t65.5 -5q-7 29 -10.5 58t-6 57.5t-6.5 57.5t-12 57l-121 -13q19 39 29 62.5t21 42.5t29.5 39t55.5 53l-121 66q-20 -29 -40 -57t-42 -56q-9 -14 -19 -26.5t-19 -24.5q-6 -11 -11 -27 t-8.5 -33.5t-5.5 -34t-2 -28.5v-10z" />
<glyph unicode="&#x2019;" horiz-adv-x="371" d="M41 1720q7 -28 10 -56.5t5.5 -57.5t6.5 -57.5t13 -57.5l121 12q-19 -39 -29 -62t-21.5 -42t-30 -39t-55.5 -53l121 -66q20 29 40.5 57.5t41.5 57.5q9 12 19.5 24.5t19.5 26.5q6 10 11 26t8.5 33t5.5 33.5t2 28.5v9q0 4 -2 9q-5 47 -4.5 93.5t0.5 93.5q-38 -7 -76.5 -13 t-75.5 -6q-66 0 -131 6z" />
<glyph unicode="&#x201a;" horiz-adv-x="371" d="M41 287q7 -28 10 -57t5.5 -58t6.5 -57.5t13 -57.5l121 13q-19 -39 -29 -62.5t-21.5 -42.5t-30 -39t-55.5 -53l121 -66q20 29 40.5 57.5t41.5 57.5q9 13 19.5 25t19.5 26q6 10 11 26t8.5 33t5.5 33.5t2 28.5v10q0 4 -2 9q-5 46 -4.5 93t0.5 93q-38 -6 -76.5 -12t-75.5 -6 q-66 0 -131 6z" />
<glyph unicode="&#x201c;" horiz-adv-x="739" d="M41 1436q0 -4 2 -9q5 -46 4.5 -92.5t-0.5 -93.5q37 6 75 12.5t77 6.5q32 0 65.5 -2t65.5 -5q-7 29 -10.5 58t-6 57.5t-6.5 57.5t-12 57l-121 -13q19 39 29 62.5t21 42.5t29.5 39t55.5 53l-121 66q-20 -29 -40 -57t-42 -56q-9 -14 -19 -26.5t-19 -24.5q-6 -11 -11 -27 t-8.5 -33.5t-5.5 -34t-2 -28.5v-10zM389 1436q0 -4 2 -9q5 -46 4.5 -92.5t-0.5 -93.5q37 6 75.5 12.5t76.5 6.5q32 0 65.5 -2t65.5 -5q-7 29 -10 58t-6 57.5t-6.5 57.5t-12.5 57l-121 -13q19 39 29 62.5t21 42.5t29.5 39t55.5 53l-120 66q-20 -29 -40.5 -57t-41.5 -56 q-10 -14 -20 -26.5t-19 -24.5q-6 -11 -11 -27t-8.5 -33.5t-5.5 -34t-2 -28.5v-10z" />
<glyph unicode="&#x201d;" horiz-adv-x="739" d="M41 1720q7 -28 10 -56.5t5.5 -57.5t6.5 -57.5t13 -57.5l121 12q-19 -39 -29 -62t-21.5 -42t-30 -39t-55.5 -53l121 -66q20 29 40.5 57.5t41.5 57.5q9 12 19.5 24.5t19.5 26.5q6 10 11 26t8.5 33t5.5 33.5t2 28.5v9q0 4 -2 9q-5 47 -4.5 93.5t0.5 93.5q-38 -7 -76.5 -13 t-75.5 -6q-66 0 -131 6zM389 1720q7 -28 10 -56.5t6 -57.5t6.5 -57.5t12.5 -57.5l121 12q-19 -39 -29 -62t-21 -42t-29.5 -39t-55.5 -53l120 -66q20 29 40.5 57.5t41.5 57.5q10 12 20 24.5t19 26.5q6 10 11 26t8.5 33t5.5 33.5t2 28.5v9q0 4 -2 9q-5 47 -4.5 93.5t0.5 93.5 q-37 -7 -76 -13t-76 -6q-66 0 -131 6z" />
<glyph unicode="&#x201e;" horiz-adv-x="739" d="M41 287q7 -28 10 -57t5.5 -58t6.5 -57.5t13 -57.5l121 13q-19 -39 -29 -62.5t-21.5 -42.5t-30 -39t-55.5 -53l121 -66q20 29 40.5 57.5t41.5 57.5q9 13 19.5 25t19.5 26q6 10 11 26t8.5 33t5.5 33.5t2 28.5v10q0 4 -2 9q-5 46 -4.5 93t0.5 93q-38 -6 -76.5 -12t-75.5 -6 q-66 0 -131 6zM389 287q7 -28 10 -57l6 -58q3 -29 6.5 -57.5t12.5 -57.5l121 13q-19 -39 -29 -62.5t-21 -42.5t-29.5 -39t-55.5 -53l120 -66q20 29 40.5 57.5t41.5 57.5q10 13 20 25t19 26q6 10 11 26t8.5 33t5.5 33.5t2 28.5v10q0 4 -2 9q-5 46 -4.5 93t0.5 93 q-37 -6 -76 -12t-76 -6q-66 0 -131 6z" />
<glyph unicode="&#x2022;" horiz-adv-x="469" d="M41 690q0 -58 8 -93.5t27.5 -58t53.5 -37t85 -30.5q6 -2 11 -2h10q26 0 53.5 12.5t44.5 34.5q10 14 26 38t31.5 51t27 52.5t11.5 42.5q0 30 -9 67.5t-27.5 70t-46 55t-64.5 22.5q-17 0 -50.5 -7.5t-68.5 -20t-64 -28t-37 -30.5q-6 -12 -10 -30t-7 -37.5t-4 -38.5t-1 -33z " />
<glyph unicode="&#x2026;" horiz-adv-x="1223" d="M41 129q0 -22 7 -48t13 -46q44 3 86 5.5t84 2.5q32 0 67 -3.5t67 -8.5q-7 52 -8 104t-3 105q-11 -4 -29.5 -9.5t-38 -11t-38.5 -9t-31 -3.5q-43 0 -86 1t-88 3q0 -22 -1 -42t-1 -40zM451 129q0 -22 7 -48t13 -46q43 3 85.5 5.5t84.5 2.5q32 0 66.5 -3.5t66.5 -8.5 q-6 52 -7 104t-3 105q-12 -4 -30 -9.5t-38 -11t-38.5 -9t-30.5 -3.5q-44 0 -86.5 1t-87.5 3q0 -22 -1 -42t-1 -40zM860 129q0 -22 7 -48t14 -46q43 3 85.5 5.5t84.5 2.5q32 0 66.5 -3.5t66.5 -8.5q-6 52 -7 104t-3 105q-12 -4 -30 -9.5t-38 -11t-39 -9t-31 -3.5q-43 0 -86 1 t-88 3q0 -22 -1 -42t-1 -40z" />
<glyph unicode="&#x202f;" horiz-adv-x="365" />
<glyph unicode="&#x2039;" horiz-adv-x="571" d="M31 668q14 -9 36.5 -24.5t48 -35t52.5 -41t50.5 -42t42 -38t26.5 -28.5q11 -16 28.5 -31t37.5 -28t40.5 -24t38.5 -20l78 181q-35 23 -68.5 44t-66.5 43t-65 45.5t-64 51.5q36 26 69.5 50.5t68 47.5t70.5 44t76 40q-45 31 -87.5 76.5t-67.5 93.5q-19 -22 -38.5 -43 t-39.5 -43q-37 -42 -69.5 -88.5t-69.5 -89.5q-32 -35 -64 -70.5t-63 -70.5z" />
<glyph unicode="&#x203a;" horiz-adv-x="571" d="M41 526q21 -15 43.5 -34t43.5 -41.5t39 -46.5t30 -48q18 23 37.5 44t37.5 42q39 42 71 88.5t71 90.5q31 35 63 70.5t64 70.5q-15 9 -37.5 24.5t-48.5 35t-52.5 41t-50 42t-41.5 38t-26 28.5q-12 16 -30 31t-38 28t-41 24t-39 19l-76 -180q36 -23 69.5 -44.5t66.5 -43.5 t65 -45.5t64 -50.5q-36 -26 -70 -50.5t-68 -47.5t-70 -44t-77 -41z" />
<glyph unicode="&#x205f;" horiz-adv-x="456" />
<glyph unicode="&#x20ac;" horiz-adv-x="1196" d="M0 336q51 0 102.5 2t102.5 2q12 -57 38.5 -108t61.5 -107q27 -42 74 -73t102 -50.5t112 -29t105 -9.5q44 0 87.5 2t86.5 8q12 2 33.5 10t46.5 20t52 26.5t50 29t39 28.5t21 24q20 43 28 94.5t19 99.5l-256 47q2 -21 3 -43.5t1 -44.5q0 -9 -19.5 -24.5t-44 -30.5 t-48.5 -26t-33 -11q-8 0 -24.5 7t-37.5 18.5t-43.5 25.5t-43.5 27.5t-37.5 25t-24.5 17.5q-12 9 -21.5 18.5t-17.5 20.5q68 0 136 -1.5t134 -4.5q-3 20 -6.5 40t-3.5 40q0 18 1 37.5t1 39.5q-74 -8 -147 -16t-148 -16q0 5 -1 9.5t-1 10.5q0 14 1.5 30.5t4.5 33.5 q76 -2 150.5 -4t148.5 -5q-3 20 -6.5 40t-3.5 40t1 39t1 39q-65 -6 -130 -14t-130 -15q5 14 12 27.5t15 24.5q5 8 19.5 22.5t33.5 32t41 36t42 33t37 24t25 9.5q2 0 11.5 -3t11.5 -5q40 -14 64.5 -36.5t41.5 -50t31.5 -59.5t34.5 -65l229 66q-8 28 -17 60t-19.5 64.5 t-23.5 63t-28 55.5q-11 18 -35.5 36.5t-56.5 36t-69 33.5t-72.5 28t-67 19t-51.5 7q-26 0 -65.5 -15t-80.5 -36t-77 -44.5t-56 -41.5q-14 -14 -36 -38t-47.5 -54t-51.5 -63t-47.5 -64t-36 -58t-16.5 -45l-2 -16q-53 0 -103.5 3t-103.5 5l-2 -110q50 0 99.5 2t99.5 2 q-2 -26 -3 -52t-1 -51q-50 2 -97.5 4t-95.5 4z" />
<glyph unicode="&#x2122;" horiz-adv-x="1260" d="M41 1057q8 1 24 2.5t33.5 4.5t32.5 6t21 7q23 5 47 10t47 3h6q-2 -39 -8 -74.5t-6 -73.5t1 -76.5t-1 -77.5q-4 -49 -15 -97t-10 -97v-21q38 4 76.5 7.5t77.5 3.5h67q-11 40 -17.5 81t-6.5 85v53q0 29 -4.5 58.5t-4.5 60.5v42q0 24 -1 48.5t-3 47t-6 40.5q11 -2 22.5 -4 t22.5 -2q31 0 60.5 -3.5t58.5 -3.5l23 3q-2 15 -3.5 31.5t-1.5 33.5q0 22 2.5 42t4.5 42q-10 -3 -22 -6.5t-21 -3.5h-70h-209q-54 0 -105 15t-104 32q0 -35 3 -70.5t3 -70.5q0 -20 -4.5 -39t-9.5 -39zM582 618q21 4 41.5 5.5t42.5 1.5q29 0 59 -5.5t59 -5.5 q-3 45 -12.5 90.5t-9.5 86.5v157q0 22 2 42.5t4 41.5q8 -20 13.5 -40t9.5 -42q3 -24 8 -46.5t10 -45.5t9 -46.5t5 -47.5q2 -29 3 -59.5t1 -59.5q20 2 39 4t39 2h45q22 0 43 -2q2 23 2 46v46q0 39 4.5 77t11 74.5t13.5 73.5t12 74l10 -104q5 -52 5 -105q0 -57 -2.5 -114 t-12.5 -111q20 2 40.5 6t41.5 4q25 0 50.5 -2t50.5 -4q0 25 -2 50.5t-7 50.5q-5 29 -13 56.5t-15.5 55t-13 56t-5.5 59.5q0 54 -4 108.5t-4 110.5q0 22 1 42t3 42q-12 -5 -26 -8.5t-29 -3.5q-34 0 -68 2t-69 2q0 -29 -1 -58.5t-8 -58.5q-8 -32 -16.5 -64.5t-13.5 -64.5 q-5 -42 -14.5 -81.5t-18.5 -80.5q-4 29 -11 57.5t-15 56.5t-15 56.5t-10 57.5q-3 28 -10 55.5t-14 55.5t-13 56t-8 56q-28 6 -51 6q-32 0 -63.5 6t-63.5 8q14 -54 22 -108.5t8 -110.5q0 -45 -6 -80.5t-14 -68.5t-17 -66.5t-14 -75.5q-5 -43 -9 -84.5t-9 -83.5z" />
<glyph unicode="&#xe000;" horiz-adv-x="1085" d="M0 1085h1085v-1085h-1085v1085z" />
<glyph unicode="&#xfb01;" horiz-adv-x="1239" d="M0 1069q13 -91 26.5 -181.5t24 -181t17 -181.5t6.5 -183q0 -90 -7 -178t-24 -176q71 -5 140 -7.5t141 -13.5q-2 13 -3.5 25t-1.5 24q0 104 -3.5 206.5t-6.5 205.5q73 -11 146 -10t145 -2q-9 62 -10.5 124t-1.5 124q-23 -2 -46 -3.5t-46 -1.5q-25 0 -50.5 2.5t-50.5 2.5 q-23 0 -45 -1.5t-45 -3.5q-2 57 -5 112.5t-5 111.5q49 -5 97.5 -9t96.5 -10q23 -2 45.5 -7.5t45 -12t45 -12.5t45.5 -9q40 -5 78.5 -8t78.5 -6q0 71 4.5 140t12.5 138q-99 -9 -199 -20.5t-201 -11.5q-34 0 -67.5 3t-67.5 3q-35 0 -70.5 -4t-72.5 -4q-42 0 -83 4t-83 12z M891 -2q69 2 135 2t135 -12q-5 38 -10.5 76.5t-5.5 76.5q0 50 3 95.5t11 93.5q9 57 13.5 113.5t9.5 112.5t12 112.5t20 113.5q-29 -3 -58 -5.5t-60 -2.5q-51 0 -96.5 -0.5t-96.5 -9.5l-2 -31q-1 -37 2.5 -74.5t7.5 -74.5t7.5 -74.5t3.5 -75.5q0 -109 -11 -218t-20 -218z M913 901q19 2 37 4t35 2q62 0 119.5 -16.5t114.5 -32.5q0 57 8 112.5t14 112.5h-63q-63 0 -127.5 -1.5t-126.5 -6.5z" />
<glyph unicode="&#xfb02;" horiz-adv-x="1497" d="M0 1069q13 -91 26.5 -181.5t24 -181t17 -181.5t6.5 -183q0 -90 -7 -178t-24 -176q71 -5 140 -7.5t141 -13.5q-2 13 -3.5 25t-1.5 24q0 104 -3.5 206.5t-6.5 205.5q73 -11 146 -10t145 -2q-9 62 -10.5 124t-1.5 124q-23 -2 -46 -3.5t-46 -1.5q-25 0 -50.5 2.5t-50.5 2.5 q-23 0 -45 -1.5t-45 -3.5q-2 57 -5 112.5t-5 111.5q49 -5 97.5 -9t96.5 -10q23 -2 45.5 -7.5t45 -12t45 -12.5t45.5 -9q40 -5 78.5 -8t78.5 -6q0 71 4.5 140t12.5 138q-99 -9 -199 -20.5t-201 -11.5q-34 0 -67.5 3t-67.5 3q-35 0 -70.5 -4t-72.5 -4q-42 0 -83 4t-83 12z M891 1108q8 -72 18 -152.5t13 -152.5q4 -93 9.5 -173t10.5 -157.5t8.5 -157.5t3.5 -172q0 -38 -7 -75t-15 -72q81 2 163.5 5t164.5 3q26 0 52 -2t52 -2q23 0 47.5 2t44.5 10q8 65 12 129t11 129q-75 -12 -149 -19t-148 -18q-1 68 -3 122t-2.5 105.5t1.5 106t10 121.5 q12 108 12.5 218t5.5 218q-70 -6 -141 -6q-45 0 -87 -1t-87 -9z" />
<glyph unicode="&#xfb03;" horiz-adv-x="2129" d="M1779 -2q69 2 135 2t135 -12q-5 38 -10.5 76.5t-5.5 76.5q0 50 3 95.5t11 93.5q9 57 13.5 113.5t9.5 112.5t12 112.5t20 113.5q-29 -3 -58.5 -5.5t-59.5 -2.5h-96.5t-96.5 -10l-2 -31v-19q0 -28 2 -56q3 -38 7 -74.5t7.5 -74t3.5 -75.5q0 -109 -10.5 -218t-19.5 -218z M1801 901q19 2 37 4t35 2q62 0 119 -16.5t114 -32.5q7 57 12 112.5t11 112.5h-64q-63 0 -127.5 -1.5t-126.5 -6.5zM874 1069q13 -91 26.5 -181.5t24 -181t17 -181.5t6.5 -183q0 -90 -7 -178t-24 -176q71 -5 140 -7.5t141 -13.5q-2 13 -3.5 25t-1.5 24q0 104 -3.5 206.5 t-6.5 205.5q67 -10 134 -10h12h36q55 0 109 -2q-9 62 -10.5 124t-1.5 124q-23 -2 -46 -3.5t-46 -1.5q-25 0 -50.5 2.5t-50.5 2.5q-23 0 -45 -1.5t-45 -3.5q-2 57 -5 112.5t-5 111.5q49 -5 97.5 -9t96.5 -10q23 -2 45.5 -7.5t45 -12t45 -12.5t45.5 -9q40 -5 78.5 -8t78.5 -6 q0 71 4.5 140t12.5 138q-99 -9 -199 -20.5t-201 -11.5q-34 0 -67.5 3t-67.5 3q-35 0 -70.5 -4t-72.5 -4q-42 0 -83 4t-83 12zM0 1069q13 -91 26.5 -181.5t24 -181t17 -181.5t6.5 -183q0 -90 -7 -178t-24 -176q71 -5 140 -7.5t141 -13.5q-2 13 -3.5 25t-1.5 24 q0 104 -3.5 206.5t-6.5 205.5q67 -10 134 -10h12h36q55 0 109 -2q-9 62 -10.5 124t-1.5 124q-23 -2 -46 -3.5t-46 -1.5q-25 0 -50.5 2.5t-50.5 2.5q-23 0 -45 -1.5t-45 -3.5q-2 57 -5 112.5t-5 111.5q49 -5 97.5 -9t96.5 -10q23 -2 45.5 -7.5t45 -12t45 -12.5t45.5 -9 q40 -5 78.5 -8t78.5 -6q0 71 4.5 140t12.5 138q-99 -9 -199 -20.5t-201 -11.5q-34 0 -67.5 3t-67.5 3q-35 0 -70.5 -4t-72.5 -4q-42 0 -83 4t-83 12z" />
<glyph unicode="&#xfb04;" horiz-adv-x="2366" d="M1758 1108q8 -72 18 -152.5t13 -152.5q4 -93 9.5 -173t11 -157.5t9 -157.5t3.5 -172q0 -38 -7.5 -75t-15.5 -72q82 2 164 5t164 3q26 0 52 -2t52 -2q23 0 47.5 2t44.5 10q8 65 12.5 129t10.5 129q-74 -12 -148.5 -19t-148.5 -18q-1 68 -3 122q-2 53 -2 105q0 9 -1 18 q1 42 3 88q2 54 9 122q13 108 14 218t5 218q-70 -6 -142 -6q-45 0 -87 -1t-87 -9zM874 1069q13 -91 26.5 -181.5t24 -181t17 -181.5t6.5 -183q0 -90 -7 -178t-24 -176q71 -5 140 -7.5t141 -13.5q-2 13 -3.5 25t-1.5 24q0 104 -3.5 206.5t-6.5 205.5q67 -10 134 -10h12h36 q55 0 109 -2q-9 62 -10.5 124t-1.5 124q-23 -2 -46 -3.5t-46 -1.5q-25 0 -50.5 2.5t-50.5 2.5q-23 0 -45 -1.5t-45 -3.5q-2 57 -5 112.5t-5 111.5q49 -5 97.5 -9t96.5 -10q23 -2 45.5 -7.5t45 -12t45 -12.5t45.5 -9q40 -5 78.5 -8t78.5 -6q0 71 4.5 140t12.5 138 q-99 -9 -199 -20.5t-201 -11.5q-34 0 -67.5 3t-67.5 3q-35 0 -70.5 -4t-72.5 -4q-42 0 -83 4t-83 12zM0 1069q13 -91 26.5 -181.5t24 -181t17 -181.5t6.5 -183q0 -90 -7 -178t-24 -176q71 -5 140 -7.5t141 -13.5q-2 13 -3.5 25t-1.5 24q0 104 -3.5 206.5t-6.5 205.5 q67 -10 134 -10h12h36q55 0 109 -2q-9 62 -10.5 124t-1.5 124q-23 -2 -46 -3.5t-46 -1.5q-25 0 -50.5 2.5t-50.5 2.5q-23 0 -45 -1.5t-45 -3.5q-2 57 -5 112.5t-5 111.5q49 -5 97.5 -9t96.5 -10q23 -2 45.5 -7.5t45 -12t45 -12.5t45.5 -9q40 -5 78.5 -8t78.5 -6 q0 71 4.5 140t12.5 138q-99 -9 -199 -20.5t-201 -11.5q-34 0 -67.5 3t-67.5 3q-35 0 -70.5 -4t-72.5 -4q-42 0 -83 4t-83 12z" />
</font>
</defs>
</svg>
