<?xml version="1.0" standalone="no"?>
<!DOCTYPE svg PUBLIC "-//W3C//DTD SVG 1.1//EN" "http://www.w3.org/Graphics/SVG/1.1/DTD/svg11.dtd" >
<svg xmlns="http://www.w3.org/2000/svg">
<metadata>
This is a custom SVG webfont generated by Font Squirrel.
Copyright   : Copyright c 2012 by Disney All rights reserved Designed by Michael Cina and Matthew Desmond of Cina Associates
Designer    : Cina Associates
Foundry     : Disney
Foundry URL : httpmichaelcinaassociatescom
</metadata>
<defs>
<font id="MatterhornBold" horiz-adv-x="1409" >
<font-face units-per-em="2048" ascent="1536" descent="-512" />
<missing-glyph horiz-adv-x="532" />
<glyph unicode=" "  horiz-adv-x="532" />
<glyph unicode="&#x09;" horiz-adv-x="532" />
<glyph unicode="&#xa0;" horiz-adv-x="532" />
<glyph unicode="!" horiz-adv-x="606" d="M102 172q0 88 57.5 144.5t143.5 56.5t143.5 -56.5t57.5 -144.5t-57.5 -144.5t-143.5 -56.5t-143.5 56.5t-57.5 144.5zM131 1434h344l-29 -916h-286z" />
<glyph unicode="&#x22;" horiz-adv-x="1015" d="M102 1462h326l-33 -639h-284zM608 1462h326l-33 -639h-285z" />
<glyph unicode="#" horiz-adv-x="1443" d="M102 348v213h224l41 311h-201v213h227l45 349h250l-45 -349h252l45 349h250l-45 -349h196v-213h-223l-41 -311h201v-213h-227l-45 -348h-250l45 348h-252l-45 -348h-250l45 348h-197zM575 561h252l41 311h-252z" />
<glyph unicode="$" horiz-adv-x="1134" d="M102 68v301q162 -113 365 -113q115 0 173 40t58 103q0 51 -44 93.5t-109.5 72t-141 71.5t-141 88t-109.5 128t-44 186q0 162 96 267.5t264 140.5v190h246v-178q162 -14 266 -78v-290q-162 96 -319 96q-98 0 -154.5 -36t-56.5 -97q0 -57 61 -104.5t147 -87.5t173.5 -91 t148.5 -141t61 -211q0 -160 -92 -268.5t-248 -151.5v-240h-245v215q-203 9 -355 95z" />
<glyph unicode="%" horiz-adv-x="2078" d="M102 1018q0 184 110 300t282 116t281.5 -116t109.5 -300t-109.5 -300t-281.5 -116t-282 116t-110 300zM350 1018q0 -98 39 -155.5t104.5 -57.5t104.5 57.5t39 155.5t-39 155.5t-104.5 57.5t-104.5 -57.5t-39 -155.5zM561 -29l703 1491h254l-703 -1491h-254zM1194 415.5 q0 184.5 109.5 300t281.5 115.5t281.5 -115.5t109.5 -300t-109.5 -300t-281.5 -115.5t-281.5 115.5t-109.5 300zM1442 415.5q0 -98.5 39 -155.5t104.5 -57t104.5 57t39 155.5t-39 156t-104.5 57.5t-104.5 -57.5t-39 -156z" />
<glyph unicode="&#x26;" horiz-adv-x="1427" d="M102 348q0 139 81 245.5t223 203.5q-137 176 -138 331q0 143 107.5 238.5t302.5 95.5q172 0 277.5 -79.5t105.5 -223.5q0 -127 -78 -217t-217 -180l213 -240q31 72 53 174h244q-39 -207 -125 -366l295 -330h-359l-104 121q-170 -150 -420 -150q-211 0 -336 103.5 t-125 273.5zM408 393q0 -82 58 -126t148 -44q121 0 215 78l-276 322q-145 -113 -145 -230zM545 1120q0 -86 71 -184q172 119 172 213q0 51 -34.5 84t-86 33t-87 -37t-35.5 -109z" />
<glyph unicode="'" horiz-adv-x="509" d="M102 1462h326l-33 -639h-284z" />
<glyph unicode="(" horiz-adv-x="872" d="M143 659q0 539 351 959h317q-143 -166 -241.5 -411.5t-98.5 -547t98.5 -546t241.5 -410.5h-315q-353 413 -353 956z" />
<glyph unicode=")" horiz-adv-x="872" d="M61 -297q143 166 241.5 410.5t98.5 546t-98 547t-242 411.5h318q350 -420 350 -959q0 -543 -352 -956h-316z" />
<glyph unicode="*" horiz-adv-x="1130" d="M102 1067l72 238l289 -115l-23 305h246l-20 -305l288 115l74 -238l-297 -74l197 -235l-201 -146l-162 258l-162 -258l-200 146l194 235z" />
<glyph unicode="+" horiz-adv-x="1337" d="M102 453v278h426v447h279v-447h428v-278h-428v-449h-279v449h-426z" />
<glyph unicode="," horiz-adv-x="540" d="M70 174q0 88 57 143.5t143 55.5q90 0 145.5 -62.5t55.5 -175.5q0 -129 -72.5 -265t-222.5 -249l-94 103q63 51 109.5 118.5t52.5 130.5q-78 8 -126 63.5t-48 137.5z" />
<glyph unicode="-" horiz-adv-x="794" d="M102 475v268h590v-268h-590z" />
<glyph unicode="." horiz-adv-x="540" d="M70 172q0 88 57 144.5t143 56.5t143.5 -56.5t57.5 -144.5t-57.5 -144.5t-143.5 -56.5t-143 56.5t-57 144.5z" />
<glyph unicode="/" horiz-adv-x="800" d="M20 -152l476 1737h284l-475 -1737h-285z" />
<glyph unicode="0" horiz-adv-x="1359" d="M113 717q0 338 152.5 541.5t414.5 203.5t414.5 -203.5t152.5 -541.5t-152.5 -542t-414.5 -204t-414.5 204t-152.5 542zM453 717q0 -221 59 -349t167.5 -128t168 128t59.5 349t-59.5 349t-168 128t-167.5 -128t-59 -349z" />
<glyph unicode="1" horiz-adv-x="794" d="M31 1176v258h569v-1434h-321v1176h-248z" />
<glyph unicode="2" horiz-adv-x="1142" d="M51 0v133l387 461q129 154 181.5 248t52.5 176q0 78 -57.5 128t-159.5 50q-172 0 -371 -160v303q180 123 410 123q225 0 364 -121.5t139 -312.5q0 -115 -64.5 -229.5t-199.5 -272.5l-229 -268h526v-258h-979z" />
<glyph unicode="3" horiz-adv-x="1130" d="M92 39v272q156 -76 324 -75q127 0 202.5 62t75.5 155q0 98 -83 159.5t-244 61.5l-88 -6v147l288 361h-471v258h891v-134l-340 -426q162 -33 266.5 -144.5t104.5 -276.5q0 -205 -146.5 -343.5t-414.5 -138.5q-201 0 -365 68z" />
<glyph unicode="4" horiz-adv-x="1210" d="M10 262v195l756 977h184v-924h189v-248h-189v-262h-311v262h-629zM317 510h322v416z" />
<glyph unicode="5" horiz-adv-x="1193" d="M113 43v270q184 -86 346 -86q129 0 211 57.5t82 162t-82 163t-211 58.5q-143 0 -301 -58l49 824h809v-258h-551l-19 -273q74 8 109 8q223 0 371.5 -121.5t148.5 -343.5q0 -209 -153.5 -342t-432.5 -133q-208 0 -376 72z" />
<glyph unicode="6" horiz-adv-x="1247" d="M72 449q0 162 131 350l440 635h385l-383 -510q25 2 53 2q193 0 330 -137.5t137 -342.5q0 -213 -151.5 -344t-395 -131t-395 132.5t-151.5 345.5zM395 450.5q0 -102.5 63.5 -166t160 -63.5t160 63.5t63.5 166t-63.5 167t-160 64.5t-160 -64.5t-63.5 -167z" />
<glyph unicode="7" horiz-adv-x="1071" d="M35 1176v258h1005v-134l-596 -1300h-342l547 1176h-614z" />
<glyph unicode="8" horiz-adv-x="1286" d="M102 375q0 82 31 148.5t82 109.5t98 69.5t101 45.5q-121 55 -188.5 132.5t-67.5 202.5q0 180 145.5 279.5t351.5 99.5q211 0 347.5 -98t136.5 -258q0 -131 -81 -217t-186 -131q139 -63 225.5 -150.5t86.5 -230.5q0 -182 -152.5 -294t-392.5 -112t-388.5 113t-148.5 291z M426 379q0 -74 61.5 -124t155.5 -50q92 0 154.5 48t62.5 122q0 43 -17.5 80t-33.5 58.5t-63.5 51t-64.5 38.5t-77 38q-178 -92 -178 -262zM481 1094q0 -43 15.5 -77t48.5 -62.5t61.5 -47t77.5 -43.5q131 92 131 228q0 59 -44 98t-114 39q-72 0 -124 -38t-52 -97z" />
<glyph unicode="9" horiz-adv-x="1247" d="M82 987q0 213 151.5 344t395 131t395.5 -132t152 -345q0 -162 -132 -350l-440 -635h-385l383 510q-25 -2 -53 -2q-193 0 -330 137t-137 342zM406 983q0 -102 63 -166.5t159.5 -64.5t160 64.5t63.5 166.5t-63.5 165.5t-160 63.5t-159.5 -63.5t-63 -165.5z" />
<glyph unicode=":" horiz-adv-x="606" d="M102 172q0 88 57.5 144.5t143.5 56.5t143.5 -56.5t57.5 -144.5t-57.5 -144.5t-143.5 -56.5t-143.5 56.5t-57.5 144.5zM102 864q0 88 57.5 144.5t143.5 56.5t143.5 -56.5t57.5 -144.5t-57.5 -144t-143.5 -56t-143.5 56t-57.5 144z" />
<glyph unicode=";" horiz-adv-x="606" d="M102 174q0 88 57.5 143.5t143.5 55.5q90 0 145.5 -62.5t55.5 -175.5q0 -129 -73 -265t-222 -249l-94 103q63 51 109 118.5t52 130.5q-78 8 -126 63.5t-48 137.5zM102 864q0 88 57.5 144.5t143.5 56.5t143.5 -56.5t57.5 -144.5t-57.5 -144t-143.5 -56t-143.5 56t-57.5 144 z" />
<glyph unicode="&#x3c;" horiz-adv-x="1245" d="M61 451v280l1041 451v-308l-699 -284l699 -283v-307z" />
<glyph unicode="=" horiz-adv-x="1501" d="M184 197v278h1133v-278h-1133zM184 707v278h1133v-278h-1133z" />
<glyph unicode="&#x3e;" horiz-adv-x="1245" d="M143 0v307l699 283l-699 284v308l1041 -451v-280z" />
<glyph unicode="?" horiz-adv-x="901" d="M92 1128v261q150 74 316 73q195 0 309 -90t114 -244q0 -84 -34.5 -152.5t-86 -116.5t-101.5 -92t-85 -98.5t-35 -115.5q0 -23 3 -35h-267q-6 43 -6 78q0 90 44 172t96.5 130t96.5 103.5t44 98.5q0 104 -142 104q-127 0 -266 -76zM158 172q0 88 57 144.5t143 56.5 t143.5 -56.5t57.5 -144.5t-57.5 -144.5t-143.5 -56.5t-143 56.5t-57 144.5z" />
<glyph unicode="@" horiz-adv-x="1861" d="M102 547q0 252 110 459.5t313.5 331.5t459.5 124q336 0 555 -202.5t219 -520.5q0 -256 -127 -406.5t-315 -150.5q-152 0 -225 111l-9 12q-125 -98 -258 -98q-150 0 -229.5 96t-79.5 264q0 205 107.5 344.5t267.5 139.5q115 0 199 -88l8 79h221l-53 -559 q-8 -104 71.5 -104t134 89t54.5 263q0 238 -150.5 383.5t-390.5 145.5q-287 0 -468 -202t-181 -499q0 -268 154.5 -412.5t408.5 -144.5q205 0 356 96l103 -178q-215 -127 -479 -127q-346 0 -561.5 201t-215.5 553zM762 600q0 -178 135 -178q74 0 141 49l33 320 q-51 51 -129 51q-88 0 -134 -72t-46 -170z" />
<glyph unicode="A" d="M2 0l559 1434h287l559 -1434h-346l-84 236h-545l-84 -236h-346zM514 469h379l-188 535z" />
<glyph unicode="B" horiz-adv-x="1370" d="M174 0v1434h508q266 0 398 -99.5t132 -261.5q0 -111 -63.5 -196.5t-183.5 -116.5v-4q150 -27 236.5 -123t86.5 -227q0 -184 -150.5 -295t-441.5 -111h-522zM502 254h162q283 0 282.5 188.5t-282.5 188.5h-162v-377zM502 877h153q115 0 163 45t48 106q0 152 -211 152h-153 v-303z" />
<glyph unicode="C" horiz-adv-x="1316" d="M92 716.5q0 327.5 205 536.5t518 209q238 0 399 -96v-326q-164 139 -360 140q-195 0 -306.5 -127t-111.5 -336t111.5 -336t306.5 -127q197 0 360 139v-325q-162 -96 -399 -97q-313 0 -518 209t-205 536.5z" />
<glyph unicode="D" horiz-adv-x="1486" d="M174 0v1434h373q422 0 635 -197t213 -520.5t-213 -520t-635 -196.5h-373zM502 266h45q252 0 378 116t126 335t-126 334.5t-378 115.5h-45v-901z" />
<glyph unicode="E" horiz-adv-x="1218" d="M174 0v1434h922v-267h-594v-297h491v-266h-491v-338h594v-266h-922z" />
<glyph unicode="F" horiz-adv-x="1136" d="M174 0v1434h881v-267h-553v-338h471v-266h-471v-563h-328z" />
<glyph unicode="G" horiz-adv-x="1460" d="M92 716.5q0 327.5 211 536.5t533 209q258 0 440 -96v-305q-178 119 -402 119q-205 0 -321.5 -127t-116.5 -336t111.5 -336t306.5 -127q74 0 135 12v258h-172v238h500v-694q-213 -96 -502 -97q-313 0 -518 209t-205 536.5z" />
<glyph unicode="H" horiz-adv-x="1581" d="M174 0v1434h328v-553h577v553h328v-1434h-328v614h-577v-614h-328z" />
<glyph unicode="I" horiz-adv-x="675" d="M174 0v1434h328v-1434h-328z" />
<glyph unicode="J" horiz-adv-x="911" d="M0 16v287q106 -53 227 -53q88 0 140.5 50t52.5 142v992h328v-985q0 -240 -126 -359t-339 -119q-185 0 -283 45z" />
<glyph unicode="K" d="M174 0v1434h328v-619l471 619h413l-512 -629l553 -805h-395l-358 555l-172 -149v-406h-328z" />
<glyph unicode="L" horiz-adv-x="1095" d="M174 0v1434h328v-1168h594v-266h-922z" />
<glyph unicode="M" horiz-adv-x="1896" d="M174 0v1434h287l487 -684l488 684h286v-1434h-327v897l-396 -555h-102l-395 555v-897h-328z" />
<glyph unicode="N" horiz-adv-x="1654" d="M174 0v1434h287l692 -895v895h328v-1434h-287l-692 895v-895h-328z" />
<glyph unicode="O" horiz-adv-x="1667" d="M92 717q0 330 206 537.5t535.5 207.5t535.5 -207.5t206 -537.5t-206 -538t-535.5 -208t-535.5 208t-206 538zM436 717q0 -213 108.5 -339t289 -126t289 126t108.5 339t-108.5 338t-289 125t-289 -125t-108.5 -338z" />
<glyph unicode="P" horiz-adv-x="1296" d="M174 0v1434h510q260 0 402.5 -142.5t142.5 -355.5t-142.5 -355.5t-402.5 -142.5h-182v-438h-328zM502 705h143q240 0 240 231t-240 231h-143v-462z" />
<glyph unicode="Q" horiz-adv-x="1667" d="M92 717q0 330 206 537.5t535.5 207.5t535.5 -207.5t206 -537.5q0 -303 -178 -508l258 -295h-334l-121 141q-162 -84 -366 -84q-330 0 -536 208t-206 538zM436 717q0 -213 108.5 -339t289.5 -126q88 0 167 35l-194 227l190 154l179 -207q55 115 55 256q0 213 -108.5 338 t-289 125t-289 -125t-108.5 -338z" />
<glyph unicode="R" horiz-adv-x="1353" d="M174 0v1434h522q250 0 391.5 -137.5t141.5 -340.5q0 -127 -57.5 -232.5t-165.5 -168.5l366 -555h-379l-299 479h-192v-479h-328zM502 745h135q248 0 248 211t-248 211h-135v-422z" />
<glyph unicode="S" horiz-adv-x="1134" d="M102 68v301q162 -113 365 -113q115 0 173 40t58 103q0 51 -44 93.5t-109.5 72t-141 71.5t-141 88t-109.5 128t-44 186q0 201 142 312.5t382 111.5q215 0 348 -82v-290q-162 96 -319 96q-98 0 -154.5 -36t-56.5 -97q0 -57 61 -104.5t147 -87.5t173.5 -91t148.5 -141 t61 -211q0 -209 -154.5 -328t-389.5 -119q-230 1 -396 97z" />
<glyph unicode="T" horiz-adv-x="1175" d="M2 1167v267h1172v-267h-422v-1167h-328v1167h-422z" />
<glyph unicode="U" horiz-adv-x="1556" d="M164 582v852h328v-854q0 -330 286.5 -330t286.5 330v854h328v-852q0 -303 -165 -457t-450 -154q-287 0 -450.5 150t-163.5 461z" />
<glyph unicode="V" horiz-adv-x="1368" d="M2 1434h346l336 -1010l336 1010h346l-539 -1434h-286z" />
<glyph unicode="W" horiz-adv-x="1970" d="M2 1434h328l245 -914l267 914h286l267 -914l245 914h328l-412 -1434h-286l-285 975l-285 -975h-286z" />
<glyph unicode="X" horiz-adv-x="1376" d="M25 0l477 741l-447 693h387l246 -430l246 430h387l-447 -693l478 -741h-387l-277 477l-276 -477h-387z" />
<glyph unicode="Y" horiz-adv-x="1286" d="M-10 1434h362l291 -594l291 594h362l-489 -908v-526h-328v526z" />
<glyph unicode="Z" horiz-adv-x="1204" d="M70 0v225l624 942h-604v267h1014v-226l-625 -942h656v-266h-1065z" />
<glyph unicode="[" horiz-adv-x="944" d="M225 -297v1915h596v-266h-268v-1383h268v-266h-596z" />
<glyph unicode="\" horiz-adv-x="800" d="M20 1585h285l475 -1737h-284z" />
<glyph unicode="]" horiz-adv-x="944" d="M123 -31h268v1383h-268v266h596v-1915h-596v266z" />
<glyph unicode="^" horiz-adv-x="1206" d="M102 735l336 727h330l336 -727h-313l-189 479l-186 -479h-314z" />
<glyph unicode="_" horiz-adv-x="1179" d="M-41 -287h1262v-225h-1262v225z" />
<glyph unicode="`" horiz-adv-x="819" d="M82 1556h397l238 -301h-285z" />
<glyph unicode="a" horiz-adv-x="1153" d="M72 309q0 145 112.5 243.5t317.5 98.5q88 0 180 -20v63q0 160 -207 160q-190 -2 -325 -88v258q145 70 376 70q223 0 345 -94.5t122 -274.5v-403q0 -106 82 -107l47 10v-205q-66 -33 -186 -32q-164 0 -217 131h-2q-111 -147 -309 -148q-147 0 -241.5 87t-94.5 251z M383 328q0 -53 38 -89t101 -36q86 0 160 69v177q-55 10 -107 10q-96 0 -144 -37t-48 -94z" />
<glyph unicode="b" horiz-adv-x="1337" d="M139 0q14 113 15 270v1225h311v-506q125 104 297 105q211 0 352 -161t141 -400.5t-141 -400.5t-350 -161q-109 0 -199 44t-143 108l-23 -123h-260zM465 293q86 -61 203 -62q121 0 196.5 76t75.5 225q0 158 -82 240t-201 82q-111 0 -192 -63v-498z" />
<glyph unicode="c" horiz-adv-x="1054" d="M82 532.5q0 260.5 153.5 411t401.5 150.5q190 0 326 -72v-270q-115 100 -275 100q-139 0 -215 -84t-76 -235.5t76 -235.5t215 -84q160 0 275 100v-270q-135 -72 -326 -72q-248 0 -401.5 150.5t-153.5 411z" />
<glyph unicode="d" horiz-adv-x="1337" d="M82 532.5q0 239.5 141.5 400.5t351.5 161q172 0 297 -105v506h312v-1225q0 -70 4 -137t8 -100l2 -33h-260q-14 63 -23 123q-55 -63 -145 -107.5t-197 -44.5q-209 0 -350 161t-141 400.5zM397 532q0 -150 76 -225.5t197 -75.5q117 0 202 62v498q-82 63 -192 63 q-119 0 -201 -82t-82 -240z" />
<glyph unicode="e" horiz-adv-x="1193" d="M82 535q0 246 151.5 402.5t387.5 156.5q215 0 353 -134.5t138 -355.5l-8 -145h-696q29 -250 313 -250q186 0 338 108v-235q-156 -111 -404 -111q-260 0 -416.5 155t-156.5 409zM408 651h395v15q0 85 -45 143q-49 63 -137 63q-96 0 -152.5 -64.5t-60.5 -156.5z" />
<glyph unicode="f" horiz-adv-x="794" d="M41 821v244h172v82q0 172 92 260t250 88q145 0 219 -31v-245q-74 31 -149 30q-104 0 -105 -94v-90h242v-244h-242v-821h-307v821h-172z" />
<glyph unicode="g" horiz-adv-x="1339" d="M82 547q0 238 135 392.5t340 154.5q221 0 361 -152l22 123h260q-14 -113 -14 -270v-775q0 -252 -163 -392t-419 -140q-152 0 -277.5 44t-179.5 87v279q66 -59 178.5 -113.5t247.5 -54.5q137 0 219 66.5t82 203.5v68q-119 -76 -266 -76q-236 0 -381 154.5t-145 400.5z M397 541q0 -141 71 -224.5t191 -83.5q68 0 128.5 24t86.5 48v453q-98 76 -223 76q-113 0 -183.5 -75t-70.5 -218z" />
<glyph unicode="h" horiz-adv-x="1325" d="M154 0v1495h311v-590q125 188 338 189q102 0 179 -36t118 -95.5t60.5 -126t19.5 -142.5v-694h-312v633q0 209 -194 209q-66 0 -122 -32t-87 -71v-739h-311z" />
<glyph unicode="i" horiz-adv-x="618" d="M133 1378.5q0 75.5 48 116.5t128 41t128 -41t48 -116.5t-48 -116.5t-128 -41t-128 41t-48 116.5zM154 0v1065h311v-1065h-311z" />
<glyph unicode="j" horiz-adv-x="618" d="M-100 -250q47 -18 112 -18q141 0 142 149v1184h311v-1159q0 -221 -89 -320.5t-280 -99.5q-47 0 -96 7t-74 13l-26 7v237zM133 1378.5q0 75.5 48 116.5t128 41t128 -41t48 -116.5t-48 -116.5t-128 -41t-128 41t-48 116.5z" />
<glyph unicode="k" horiz-adv-x="1204" d="M154 0v1495h311v-864l352 434h357l-386 -453l426 -612h-354l-256 412l-139 -105v-307h-311z" />
<glyph unicode="l" horiz-adv-x="735" d="M154 391v1104h311v-1108q0 -150 141 -149q29 0 57.5 4t41.5 8l14 6v-258q-92 -27 -197 -27q-190 0 -279 99.5t-89 320.5z" />
<glyph unicode="m" horiz-adv-x="1941" d="M139 1065h291q14 -70 25 -172q127 201 323 201q240 0 322 -211q154 211 344 211q186 0 269 -118t83 -282v-694h-311v633q0 209 -170 209q-113 0 -187 -105q2 -14 2 -43v-694h-311v633q0 209 -170 209q-57 0 -107 -32t-77 -71v-739h-311v795q0 70 -3.5 137t-7.5 100z" />
<glyph unicode="n" horiz-adv-x="1325" d="M139 1065h291q14 -70 25 -172q133 201 348 201q102 0 179 -36t118 -95.5t60.5 -126t19.5 -142.5v-694h-312v633q0 209 -194 209q-66 0 -122 -32t-87 -71v-739h-311v795q0 70 -3.5 137t-7.5 100z" />
<glyph unicode="o" horiz-adv-x="1294" d="M82 532.5q0 247.5 157.5 404.5t407.5 157t407.5 -157t157.5 -404.5t-157.5 -404.5t-407.5 -157t-407.5 157t-157.5 404.5zM401 532.5q0 -151.5 68 -235.5t178.5 -84t178 84t67.5 235.5t-67.5 235.5t-178 84t-178.5 -84t-68 -235.5z" />
<glyph unicode="p" horiz-adv-x="1337" d="M139 1065h260q14 -63 23 -123q53 63 143 107.5t199 44.5q209 0 350 -161t141 -400.5t-141 -400.5t-352 -161q-172 0 -297 105v-588h-311v1307q0 70 -3.5 137t-7.5 100zM465 274q82 -63 192 -63q119 0 201 82t82 239q0 150 -76 226t-196 76q-117 0 -203 -62v-498z" />
<glyph unicode="q" horiz-adv-x="1337" d="M82 532.5q0 239.5 141.5 400.5t349.5 161q106 0 196.5 -44t145.5 -108l23 123h260q-14 -113 -14 -270v-1307h-312v588q-125 -104 -297 -105q-211 0 -352 161t-141 400.5zM397 532q0 -158 82 -239.5t201 -81.5q111 0 192 63v498q-86 61 -202 62q-121 0 -197 -76t-76 -226z " />
<glyph unicode="r" horiz-adv-x="888" d="M139 1065h291q20 -100 21 -193h4q23 47 55.5 91.5t102 87.5t149.5 43q29 0 57.5 -4.5t44.5 -8.5l15 -6v-284q-55 18 -158 18q-74 0 -138.5 -21.5t-90.5 -42.5l-27 -22v-723h-311v795q0 70 -3.5 137t-7.5 100z" />
<glyph unicode="s" horiz-adv-x="1009" d="M102 51v258q170 -98 349 -98q78 0 118.5 24.5t40.5 61.5q0 43 -51 74.5t-125 58.5t-147.5 61.5t-124.5 106.5t-51 172q0 152 119.5 238t312.5 86q188 0 319 -66v-254q-55 35 -144 57.5t-159 22.5q-66 0 -103.5 -21.5t-37.5 -54.5q0 -37 51 -66.5t125 -56t147.5 -63.5 t125 -108.5t51.5 -172.5q0 -156 -125 -248t-328 -92q-106 0 -209 24.5t-154 55.5z" />
<glyph unicode="t" horiz-adv-x="839" d="M41 821v244h172v246l311 61v-307h250v-244h-250v-434q0 -150 142 -149q29 0 57.5 4t42.5 8l12 6v-258q-92 -27 -196 -27q-190 0 -279.5 99.5t-89.5 320.5v430h-172z" />
<glyph unicode="u" horiz-adv-x="1325" d="M145 371v694h312v-633q0 -209 194 -209q66 0 122 32t87 71v739h311v-795q0 -70 4.5 -137t8.5 -100l2 -33h-291q-14 70 -25 172q-133 -201 -348 -201q-102 0 -179 36t-118 95.5t-60.5 126t-19.5 142.5z" />
<glyph unicode="v" horiz-adv-x="1134" d="M2 1065h315l250 -653l250 653h316l-453 -1065h-225z" />
<glyph unicode="w" horiz-adv-x="1695" d="M2 1065h307l205 -600l221 600h226l221 -600l204 600h308l-381 -1065h-226l-239 674l-240 -674h-225z" />
<glyph unicode="x" horiz-adv-x="1146" d="M8 0l406 551l-379 514h358l180 -279l181 279h358l-381 -514l408 -551h-359l-207 315l-206 -315h-359z" />
<glyph unicode="y" horiz-adv-x="1103" d="M2 -211q59 -23 139 -22q72 0 146.5 52t118.5 177l12 37l-412 1032h324l233 -645l209 645h322l-379 -1065q-102 -291 -234.5 -401.5t-322.5 -110.5q-43 0 -82 7t-56 13l-18 9v272z" />
<glyph unicode="z" horiz-adv-x="993" d="M41 0v172l475 659h-453v234h859v-172l-476 -660h496v-233h-901z" />
<glyph unicode="{" horiz-adv-x="829" d="M102 549v223q174 0 174 164q0 47 -34.5 179t-34.5 198q0 164 118.5 234.5t381.5 70.5v-215q-92 0 -132 -27.5t-40 -85.5q0 -59 30.5 -181t30.5 -181q0 -111 -63.5 -179.5t-167.5 -80.5v-15q104 -12 167.5 -80.5t63.5 -179.5q0 -59 -30.5 -181t-30.5 -181q0 -57 39.5 -85 t132.5 -28v-215q-262 0 -381 70.5t-119 234.5q0 66 34.5 198t34.5 179q0 164 -174 164z" />
<glyph unicode="|" horiz-adv-x="778" d="M225 -348v2007h328v-2007h-328z" />
<glyph unicode="}" horiz-adv-x="829" d="M123 -82q92 0 132 27.5t40 85.5q0 59 -31 181t-31 181q0 111 63.5 179.5t168.5 80.5v15q-104 12 -168 80.5t-64 179.5q0 59 31 181t31 181q0 57 -40 85t-132 28v215q262 0 381 -70.5t119 -234.5q0 -66 -35 -198t-35 -179q0 -164 174 -164v-223q-174 0 -174 -164 q0 -47 35 -179t35 -198q0 -164 -119 -234.5t-381 -70.5v215z" />
<glyph unicode="~" horiz-adv-x="1513" d="M143 412q0 199 91.5 317.5t265.5 118.5q115 0 271.5 -73t217.5 -73q129 0 129 150h252q0 -199 -93 -317.5t-265 -118.5q-113 0 -269.5 72.5t-218.5 72.5q-66 0 -97.5 -41t-31.5 -108h-252z" />
<glyph unicode="&#xa1;" horiz-adv-x="606" d="M102 893q0 88 57.5 144.5t143.5 56.5t143.5 -56.5t57.5 -144.5t-57.5 -144.5t-143.5 -56.5t-143.5 56.5t-57.5 144.5zM131 -369l29 916h286l29 -916h-344z" />
<glyph unicode="&#xa2;" horiz-adv-x="1064" d="M92 532q0 248 139.5 396.5t370.5 163.5l43 227h232l-50 -246q80 -18 146 -51v-270q-115 100 -275 100q-139 0 -214.5 -84t-75.5 -235.5t75.5 -235.5t214.5 -84q160 0 275 100v-270q-135 -72 -326 -72l-29 2l-36 -198h-232l45 245q-141 61 -222 193.5t-81 318.5z" />
<glyph unicode="&#xa3;" horiz-adv-x="1140" d="M102 125q8 4 21.5 11t47.5 35t59.5 58.5t47 83t21.5 107.5q0 80 -31 198h-157v185h106q-29 123 -29 244q0 197 138.5 306t355.5 109q164 0 281 -67v-256q-117 70 -281 69q-76 0 -123 -43t-47 -131q0 -119 25 -231h315v-185h-272q12 -86 12 -141q0 -152 -92 -215l-8 -6 l4 -8q29 10 82 10q39 0 118.5 -11t122.5 -11q63 0 117.5 15t79.5 32l22 14v-254q-6 -8 -20 -20.5t-65.5 -32t-110.5 -19.5q-102 0 -224 41t-196 41q-119 0 -223 -84z" />
<glyph unicode="&#xa4;" horiz-adv-x="1331" d="M102 287l142 143q-66 115 -66 250q0 137 66 250l-142 143l170 170l144 -143q113 68 250 67q135 0 247 -67l146 143l170 -170l-144 -143q68 -117 68 -250q0 -137 -68 -250l144 -143l-170 -170l-144 143q-117 -68 -249 -67q-135 0 -250 65l-144 -141zM424 680 q0 -115 67.5 -189.5t174 -74.5t174 74.5t67.5 189.5t-67.5 189.5t-174 74.5t-174 -74.5t-67.5 -189.5z" />
<glyph unicode="&#xa5;" horiz-adv-x="1310" d="M2 1434h363l290 -594l291 594h363l-394 -729h226v-179h-322v-120h322v-179h-322v-227h-327v227h-318v179h318v120h-318v179h221z" />
<glyph unicode="&#xa6;" horiz-adv-x="778" d="M225 -348v899h328v-899h-328zM225 760v899h328v-899h-328z" />
<glyph unicode="&#xa7;" horiz-adv-x="1226" d="M143 -59q160 -104 353 -105q231 0 231 137q0 53 -59.5 92t-144.5 72t-170 76t-144 127t-59 203q0 162 135 262q-135 100 -135 260q0 186 142 291.5t378 105.5q223 0 352 -76v-274q-162 92 -317 92q-98 0 -153.5 -33.5t-55.5 -95.5q0 -43 44 -78.5t108.5 -59.5t141 -59.5 t141 -77.5t108.5 -118t44 -176q0 -162 -139 -264q139 -106 139 -258q0 -193 -154.5 -303.5t-389.5 -110.5q-231 0 -396 90v281zM455 553q0 -37 35.5 -69.5t74.5 -52t117 -52.5q86 39 86 117q0 53 -54.5 90t-166.5 82q-92 -35 -92 -115z" />
<glyph unicode="&#xa8;" horiz-adv-x="980" d="M102 1403q0 66 44 109.5t114 43.5q66 0 109 -44t43 -109.5t-44 -110.5t-108 -45q-68 0 -113 44t-45 112zM569 1403q0 66 44 109.5t114 43.5q66 0 109 -44t43 -109.5t-44 -110.5t-108 -45q-68 0 -113 44t-45 112z" />
<glyph unicode="&#xa9;" horiz-adv-x="1736" d="M123 717q0 309 218 527t527.5 218t527.5 -218t218 -527t-218 -527.5t-527.5 -218.5t-527.5 218.5t-218 527.5zM324 717q0 -250 155.5 -411t389 -161t389 161t155.5 411t-155.5 410.5t-389 160.5t-389 -160.5t-155.5 -410.5zM498 717q0 180 112.5 294.5t284.5 114.5 q133 0 221 -53v-188q-90 86 -198.5 86t-169 -70t-60.5 -184.5t60.5 -184t169 -69.5t198.5 86v-189q-88 -53 -221 -53q-172 0 -284.5 115t-112.5 295z" />
<glyph unicode="&#xaa;" horiz-adv-x="950" d="M123 430v148h704v-148h-704zM125 948q0 100 78 169t217 69q63 0 119 -12v24q0 102 -136 102q-61 0 -117.5 -17t-82.5 -34l-27 -18v172q98 59 260 59q147 0 227 -62.5t80 -178.5v-267q0 -68 54 -67l30 4v-133q-49 -23 -122 -23q-109 0 -142 80q-78 -90 -205 -90 q-100 0 -166.5 58.5t-66.5 164.5zM328 956q0 -37 28.5 -59.5t77.5 -22.5q55 0 105 46v129q-35 6 -70 6q-72 0 -106.5 -28t-34.5 -71z" />
<glyph unicode="&#xab;" horiz-adv-x="1232" d="M72 410v280l487 410v-273l-266 -278l266 -277v-272zM561 410v280l488 410v-273l-267 -278l267 -277v-272z" />
<glyph unicode="&#xac;" horiz-adv-x="1449" d="M102 635v268h1205v-649h-269v381h-936z" />
<glyph unicode="&#xad;" horiz-adv-x="794" d="M102 475v268h590v-268h-590z" />
<glyph unicode="&#xae;" horiz-adv-x="1736" d="M123 717q0 309 218 527t527.5 218t527.5 -218t218 -527t-218 -527.5t-527.5 -218.5t-527.5 218.5t-218 527.5zM322 717q0 -246 158.5 -409t388 -163t387 163t157.5 409t-157.5 408.5t-387 162.5t-388 -162.5t-158.5 -408.5zM592 322v788h287q137 0 214.5 -74.5 t77.5 -187.5q0 -150 -122 -221l200 -305h-215l-153 264h-109v-264h-180zM772 733h74q135 0 135 115q0 117 -135 117h-74v-232z" />
<glyph unicode="&#xaf;" horiz-adv-x="868" d="M102 1317v227h664v-227h-664z" />
<glyph unicode="&#xb0;" horiz-adv-x="858" d="M61 1093.5q0 153.5 106.5 261t260.5 107.5t261.5 -107.5t107.5 -261t-107.5 -260t-261.5 -106.5t-260.5 106.5t-106.5 260zM281 1093.5q0 -65.5 42 -109.5t105 -44q66 0 108 44t42 110q0 68 -42 111.5t-108 43.5q-63 0 -105 -45t-42 -110.5z" />
<glyph unicode="&#xb1;" horiz-adv-x="1501" d="M184 0v258h1133v-258h-1133zM184 655v258h437v269h258v-269h438v-258h-438v-288h-258v288h-437z" />
<glyph unicode="&#xb2;" horiz-adv-x="733" d="M102 688v105l193 229q104 127 104 184q0 25 -19.5 40.5t-53.5 15.5q-74 0 -209 -93v207q104 72 227 72q121 0 195.5 -66.5t74.5 -171.5q0 -111 -131 -258l-71 -82h219v-182h-529z" />
<glyph unicode="&#xb3;" horiz-adv-x="708" d="M102 707v186q106 -31 193 -31q45 0 70.5 20.5t25.5 47.5q0 80 -201 80v82l125 159h-211v183h486v-103l-141 -180q158 -55 157 -221q0 -111 -80 -183.5t-225 -72.5q-101 0 -199 33z" />
<glyph unicode="&#xb4;" horiz-adv-x="839" d="M102 1255l238 301h397l-350 -301h-285z" />
<glyph unicode="&#xb5;" horiz-adv-x="1423" d="M154 -367v1432h311v-633q0 -209 194 -209q66 0 122.5 32t86.5 71v739h312v-700q0 -129 120 -129q25 0 47.5 5t32.5 9l13 4v-256q-80 -29 -176 -29q-258 0 -324 203h-4q-47 -78 -137 -139.5t-222 -61.5q-25 0 -65 4v-342h-311z" />
<glyph unicode="&#xb6;" horiz-adv-x="1669" d="M102 927.5q0 231.5 141.5 369t397.5 137.5h844v-1946h-303v1679h-228v-1679h-303v934h-10q-256 0 -397.5 137t-141.5 368.5z" />
<glyph unicode="&#xb7;" horiz-adv-x="688" d="M143 704.5q0 88.5 57.5 144.5t143.5 56t143.5 -56t57.5 -144.5t-57.5 -144.5t-143.5 -56t-143.5 56t-57.5 144.5z" />
<glyph unicode="&#xb8;" horiz-adv-x="679" d="M102 -367q74 -33 154 -32q88 0 88 82q0 47 -61.5 76.5t-155.5 29.5l119 211h221l-74 -119q86 -20 138.5 -72.5t52.5 -125.5q0 -106 -89 -166t-212 -60q-43 0 -88 6.5t-68 12.5l-25 6v151z" />
<glyph unicode="&#xb9;" horiz-adv-x="536" d="M102 1251v183h332v-746h-213v563h-119z" />
<glyph unicode="&#xba;" horiz-adv-x="987" d="M123 422v156h741v-156h-741zM123 1093.5q0 161.5 103.5 265t267 103.5t267 -103.5t103.5 -265t-103.5 -265t-267 -103.5t-267 103.5t-103.5 265zM332 1093.5q0 -100.5 44 -154.5t117.5 -54t117.5 54t44 154.5t-44 155t-117.5 54.5t-117.5 -54.5t-44 -155z" />
<glyph unicode="&#xbb;" horiz-adv-x="1232" d="M184 0v272l267 277l-267 278v273l488 -410v-280zM674 0v272l266 277l-266 278v273l487 -410v-280z" />
<glyph unicode="&#xbc;" horiz-adv-x="1574" d="M102 1251v183h332v-746h-213v563h-119zM274 -29l703 1491h254l-703 -1491h-254zM874 125v131l377 489h131v-444h91v-176h-91v-125h-208v125h-300zM1051 301h123v158z" />
<glyph unicode="&#xbd;" horiz-adv-x="1638" d="M102 1251v183h332v-746h-213v563h-119zM274 -29l703 1491h254l-703 -1491h-254zM1008 0v104l192 230q104 127 105 184q0 25 -19.5 40t-54.5 15q-74 0 -209 -92v207q104 72 227 72q121 0 196 -66.5t75 -171.5q0 -111 -131 -258l-72 -82h219v-182h-528z" />
<glyph unicode="&#xbe;" horiz-adv-x="1687" d="M102 707v186q106 -31 193 -31q45 0 70.5 20.5t25.5 47.5q0 80 -201 80v82l125 159h-211v183h486v-103l-141 -180q158 -55 157 -221q0 -111 -80 -183.5t-225 -72.5q-101 0 -199 33zM387 -29l703 1491h253l-702 -1491h-254zM987 125v131l377 489h131v-444h90v-176h-90v-125 h-209v125h-299zM1163 301h123v158z" />
<glyph unicode="&#xbf;" horiz-adv-x="944" d="M102 -63q0 84 35 152.5t86 116.5t101.5 92t85 98.5t34.5 115.5q0 23 -2 35h267q6 -43 6 -78q0 -90 -44 -172t-96.5 -130t-96.5 -103.5t-44 -98.5q0 -104 141 -104q127 0 267 76v-261q-150 -74 -316 -73q-195 0 -309.5 90t-114.5 244zM375 893q0 88 57 144.5t143.5 56.5 t143.5 -56.5t57 -144.5t-57 -144.5t-143.5 -56.5t-143.5 56.5t-57 144.5z" />
<glyph unicode="&#xc0;" d="M2 0l559 1434h287l559 -1434h-346l-84 236h-545l-84 -236h-346zM305 1925h397l238 -301h-285zM514 469h379l-188 535z" />
<glyph unicode="&#xc1;" d="M2 0l559 1434h287l559 -1434h-346l-84 236h-545l-84 -236h-346zM469 1624l238 301h397l-350 -301h-285zM514 469h379l-188 535z" />
<glyph unicode="&#xc2;" d="M2 0l559 1434h287l559 -1434h-346l-84 236h-545l-84 -236h-346zM297 1624l250 322h315l250 -322h-264l-143 156l-144 -156h-264zM514 469h379l-188 535z" />
<glyph unicode="&#xc3;" d="M2 0l559 1434h287l559 -1434h-346l-84 236h-545l-84 -236h-346zM266 1651q0 147 65.5 254.5t200.5 107.5q74 0 135.5 -35.5t107.5 -72.5t83 -37q94 0 94 141h191q0 -150 -66.5 -256t-204.5 -106q-78 0 -138 36.5t-105 72.5t-84 36q-88 0 -88 -141h-191zM514 469h379 l-188 535z" />
<glyph unicode="&#xc4;" d="M2 0l559 1434h287l559 -1434h-346l-84 236h-545l-84 -236h-346zM317 1772q0 66 44.5 109.5t113.5 43.5q66 0 109 -44t43 -109.5t-44 -110.5t-108 -45q-70 0 -114 44t-44 112zM514 469h379l-188 535zM784 1772q0 66 44 109.5t114 43.5q66 0 109 -44t43 -109.5t-44 -110.5 t-108 -45q-70 0 -114 44t-44 112z" />
<glyph unicode="&#xc5;" d="M2 0l559 1434h287l559 -1434h-346l-84 236h-545l-84 -236h-346zM408 1614q0 129 83.5 210t213 81t213 -81t83.5 -210t-83.5 -212t-213 -83t-213 83t-83.5 212zM514 469h379l-188 535zM592 1614q0 -57 30.5 -92t82 -35t82 34.5t30.5 92.5q0 53 -30.5 88t-82 35t-82 -35 t-30.5 -88z" />
<glyph unicode="&#xc6;" horiz-adv-x="2056" d="M2 0l877 1434h1054v-267h-594v-297h492v-266h-492v-338h594v-266h-921v236h-500l-141 -236h-369zM653 469h359v594z" />
<glyph unicode="&#xc7;" horiz-adv-x="1316" d="M92 716.5q0 327.5 205 536.5t518 209q238 0 399 -96v-326q-164 139 -360 140q-195 0 -306.5 -127t-111.5 -336t111.5 -336t306.5 -127q197 0 360 139v-325q-162 -96 -399 -97q-313 0 -518 209t-205 536.5zM541 -367q74 -33 153 -32q88 0 88 82q0 47 -61.5 76.5 t-155.5 29.5l119 211h221l-74 -119q86 -20 138.5 -72.5t52.5 -125.5q0 -106 -89 -166t-212 -60q-43 0 -88 6.5t-68 12.5l-24 6v151z" />
<glyph unicode="&#xc8;" horiz-adv-x="1218" d="M174 0v1434h922v-267h-594v-297h491v-266h-491v-338h594v-266h-922zM199 1925h397l238 -301h-285z" />
<glyph unicode="&#xc9;" horiz-adv-x="1218" d="M174 0v1434h922v-267h-594v-297h491v-266h-491v-338h594v-266h-922zM383 1624l238 301h397l-350 -301h-285z" />
<glyph unicode="&#xca;" horiz-adv-x="1218" d="M174 0v1434h922v-267h-594v-297h491v-266h-491v-338h594v-266h-922zM211 1624l250 322h315l250 -322h-264l-144 156l-143 -156h-264z" />
<glyph unicode="&#xcb;" horiz-adv-x="1218" d="M174 0v1434h922v-267h-594v-297h491v-266h-491v-338h594v-266h-922zM252 1772q0 66 44 109.5t114 43.5q66 0 108.5 -44t42.5 -109.5t-44 -110.5t-107 -45q-70 0 -114 44t-44 112zM719 1772q0 66 44 109.5t114 43.5q66 0 108.5 -44t42.5 -109.5t-44 -110.5t-107 -45 q-70 0 -114 44t-44 112z" />
<glyph unicode="&#xcc;" horiz-adv-x="675" d="M-61 1925h397l237 -301h-284zM174 0v1434h328v-1434h-328z" />
<glyph unicode="&#xcd;" horiz-adv-x="675" d="M82 1624l237 301h398l-350 -301h-285zM174 0v1434h328v-1434h-328z" />
<glyph unicode="&#xce;" horiz-adv-x="675" d="M-70 1624l250 322h316l249 -322h-264l-143 156l-143 -156h-265zM174 0v1434h328v-1434h-328z" />
<glyph unicode="&#xcf;" horiz-adv-x="675" d="M-49 1772q0 66 44 109.5t114 43.5q66 0 108.5 -44t42.5 -109.5t-44 -110.5t-107 -45q-68 0 -113 44t-45 112zM174 0v1434h328v-1434h-328zM418 1772q0 66 44 109.5t113 43.5q66 0 109 -44t43 -109.5t-44 -110.5t-108 -45q-68 0 -112.5 44t-44.5 112z" />
<glyph unicode="&#xd0;" horiz-adv-x="1490" d="M20 563v199h158v672h373q422 0 635 -197t213 -520.5t-213 -520t-635 -196.5h-373v563h-158zM506 266h45q252 0 378 116t126 335t-126 334.5t-378 115.5h-45v-405h233v-199h-233v-297z" />
<glyph unicode="&#xd1;" horiz-adv-x="1654" d="M174 0v1434h287l692 -895v895h328v-1434h-287l-692 895v-895h-328zM369 1651q0 147 65.5 254.5t200.5 107.5q74 0 135 -35.5t107.5 -72.5t83.5 -37q94 0 94 141h190q0 -150 -66.5 -256t-203.5 -106q-78 0 -138.5 36.5t-105.5 72.5t-84 36q-88 0 -88 -141h-190z" />
<glyph unicode="&#xd2;" horiz-adv-x="1667" d="M92 717q0 330 206 537.5t535.5 207.5t535.5 -207.5t206 -537.5t-206 -538t-535.5 -208t-535.5 208t-206 538zM373 1925h397l238 -301h-285zM436 717q0 -213 108.5 -339t289 -126t289 126t108.5 339t-108.5 338t-289 125t-289 -125t-108.5 -338z" />
<glyph unicode="&#xd3;" horiz-adv-x="1667" d="M92 717q0 330 206 537.5t535.5 207.5t535.5 -207.5t206 -537.5t-206 -538t-535.5 -208t-535.5 208t-206 538zM436 717q0 -213 108.5 -339t289 -126t289 126t108.5 339t-108.5 338t-289 125t-289 -125t-108.5 -338zM618 1624l238 301h397l-350 -301h-285z" />
<glyph unicode="&#xd4;" horiz-adv-x="1667" d="M92 717q0 330 206 537.5t535.5 207.5t535.5 -207.5t206 -537.5t-206 -538t-535.5 -208t-535.5 208t-206 538zM424 1624l250 322h315l250 -322h-264l-144 156l-143 -156h-264zM436 717q0 -213 108.5 -339t289 -126t289 126t108.5 339t-108.5 338t-289 125t-289 -125 t-108.5 -338z" />
<glyph unicode="&#xd5;" horiz-adv-x="1667" d="M92 717q0 330 206 537.5t535.5 207.5t535.5 -207.5t206 -537.5t-206 -538t-535.5 -208t-535.5 208t-206 538zM391 1651q0 147 65.5 254.5t200.5 107.5q74 0 135.5 -35.5t107.5 -72.5t83 -37q94 0 94 141h191q0 -150 -66.5 -256t-204.5 -106q-78 0 -138 36.5t-105 72.5 t-84 36q-88 0 -88 -141h-191zM436 717q0 -213 108.5 -339t289 -126t289 126t108.5 339t-108.5 338t-289 125t-289 -125t-108.5 -338z" />
<glyph unicode="&#xd6;" horiz-adv-x="1667" d="M92 717q0 330 206 537.5t535.5 207.5t535.5 -207.5t206 -537.5t-206 -538t-535.5 -208t-535.5 208t-206 538zM436 717q0 -213 108.5 -339t289 -126t289 126t108.5 339t-108.5 338t-289 125t-289 -125t-108.5 -338zM465 1772q0 66 44 109.5t114 43.5q66 0 108.5 -44 t42.5 -109.5t-44 -110.5t-107 -45q-70 0 -114 44t-44 112zM932 1772q0 66 44 109.5t114 43.5q66 0 108.5 -44t42.5 -109.5t-44 -110.5t-107 -45q-70 0 -114 44t-44 112z" />
<glyph unicode="&#xd7;" horiz-adv-x="1376" d="M102 201l390 389l-390 391l197 197l389 -392l389 390l197 -197l-389 -389l389 -387l-197 -197l-389 387l-389 -389z" />
<glyph unicode="&#xd8;" horiz-adv-x="1646" d="M82 -29l186 228q-186 205 -186 518q0 330 206 537.5t535 207.5q219 0 394 -100l81 100h267l-187 -229q186 -203 187 -516q0 -330 -206 -538t-536 -208q-223 0 -395 99l-80 -99h-266zM426 717q0 -152 55 -256l543 665q-88 53 -201 54q-180 0 -288.5 -125t-108.5 -338z M621 305q88 -53 202 -53q180 0 289 126t109 339q0 141 -56 256z" />
<glyph unicode="&#xd9;" horiz-adv-x="1556" d="M164 582v852h328v-854q0 -330 286.5 -330t286.5 330v854h328v-852q0 -303 -165 -457t-450 -154q-287 0 -450.5 150t-163.5 461zM358 1925h398l237 -301h-284z" />
<glyph unicode="&#xda;" horiz-adv-x="1556" d="M164 582v852h328v-854q0 -330 286.5 -330t286.5 330v854h328v-852q0 -303 -165 -457t-450 -154q-287 0 -450.5 150t-163.5 461zM543 1624l237 301h398l-351 -301h-284z" />
<glyph unicode="&#xdb;" horiz-adv-x="1556" d="M164 582v852h328v-854q0 -330 286.5 -330t286.5 330v854h328v-852q0 -303 -165 -457t-450 -154q-287 0 -450.5 150t-163.5 461zM371 1624l250 322h315l250 -322h-264l-144 156l-143 -156h-264z" />
<glyph unicode="&#xdc;" horiz-adv-x="1576" d="M174 582v852h328v-854q0 -330 286.5 -330t286.5 330v854h328v-852q0 -303 -165 -457t-450 -154q-287 0 -450.5 150t-163.5 461zM399 1772q0 66 44 109.5t114 43.5q66 0 109 -44t43 -109.5t-44 -110.5t-108 -45q-70 0 -114 44t-44 112zM866 1772q0 66 44 109.5t114 43.5 q66 0 109 -44t43 -109.5t-44.5 -110.5t-107.5 -45q-70 0 -114 44t-44 112z" />
<glyph unicode="&#xdd;" horiz-adv-x="1286" d="M-10 1434h362l291 -594l291 594h362l-489 -908v-526h-328v526zM469 1624l238 301h397l-350 -301h-285z" />
<glyph unicode="&#xde;" horiz-adv-x="1308" d="M184 0v1434h328v-207h182q260 0 402.5 -136.5t142.5 -341t-142.5 -341t-402.5 -136.5h-182v-272h-328zM512 539h143q240 0 240 211t-240 211h-143v-422z" />
<glyph unicode="&#xdf;" horiz-adv-x="1423" d="M164 0v1090q0 182 137 293.5t364.5 111.5t360.5 -87t133 -230q0 -68 -25.5 -122.5t-61.5 -87t-70.5 -60t-60.5 -56.5t-26 -57q0 -35 47.5 -65t114 -59.5t134 -68.5t114.5 -109.5t47 -162.5q0 -162 -129 -260.5t-334 -98.5q-184 0 -309 80v234q53 -35 143.5 -65t157.5 -30 q84 0 124 40t40 94q0 51 -47 89t-114.5 65.5t-135.5 59t-115 90t-47 138.5q0 61 23.5 108.5t56.5 75t65.5 52t56 58.5t23.5 79q0 70 -52 104.5t-115 34.5q-76 0 -136.5 -49t-60.5 -137v-1092h-303z" />
<glyph unicode="&#xe0;" horiz-adv-x="1153" d="M72 309q0 145 112.5 243.5t317.5 98.5q88 0 180 -20v63q0 160 -207 160q-190 -2 -325 -88v258q145 70 376 70q223 0 345 -94.5t122 -274.5v-403q0 -106 82 -107l47 10v-205q-66 -33 -186 -32q-164 0 -217 131h-2q-111 -147 -309 -148q-147 0 -241.5 87t-94.5 251z M145 1556h398l237 -301h-284zM383 328q0 -53 38 -89t101 -36q86 0 160 69v177q-55 10 -107 10q-96 0 -144 -37t-48 -94z" />
<glyph unicode="&#xe1;" horiz-adv-x="1153" d="M72 309q0 145 112.5 243.5t317.5 98.5q88 0 180 -20v63q0 160 -207 160q-190 -2 -325 -88v258q145 70 376 70q223 0 345 -94.5t122 -274.5v-403q0 -106 82 -107l47 10v-205q-66 -33 -186 -32q-164 0 -217 131h-2q-111 -147 -309 -148q-147 0 -241.5 87t-94.5 251z M289 1255l237 301h398l-351 -301h-284zM383 328q0 -53 38 -89t101 -36q86 0 160 69v177q-55 10 -107 10q-96 0 -144 -37t-48 -94z" />
<glyph unicode="&#xe2;" horiz-adv-x="1153" d="M72 309q0 145 112.5 243.5t317.5 98.5q88 0 180 -20v63q0 160 -207 160q-190 -2 -325 -88v258q145 70 376 70q223 0 345 -94.5t122 -274.5v-403q0 -106 82 -107l47 10v-205q-66 -33 -186 -32q-164 0 -217 131h-2q-111 -147 -309 -148q-147 0 -241.5 87t-94.5 251z M147 1255l250 322h316l250 -322h-265l-143 156l-143 -156h-265zM383 328q0 -53 38 -89t101 -36q86 0 160 69v177q-55 10 -107 10q-96 0 -144 -37t-48 -94z" />
<glyph unicode="&#xe3;" horiz-adv-x="1153" d="M72 309q0 145 112.5 243.5t317.5 98.5q88 0 180 -20v63q0 160 -207 160q-190 -2 -325 -88v258q145 70 376 70q223 0 345 -94.5t122 -274.5v-403q0 -106 82 -107l47 10v-205q-66 -33 -186 -32q-164 0 -217 131h-2q-111 -147 -309 -148q-147 0 -241.5 87t-94.5 251z M96 1282q0 147 65.5 255t200.5 108q74 0 135.5 -36t107.5 -73t83 -37q94 0 94 141h191q0 -150 -66.5 -256t-204.5 -106q-78 0 -138 37t-105 72.5t-84 35.5q-88 0 -88 -141h-191zM383 328q0 -53 38 -89t101 -36q86 0 160 69v177q-55 10 -107 10q-96 0 -144 -37t-48 -94z" />
<glyph unicode="&#xe4;" horiz-adv-x="1153" d="M72 309q0 145 112.5 243.5t317.5 98.5q88 0 180 -20v63q0 160 -207 160q-190 -2 -325 -88v258q145 70 376 70q223 0 345 -94.5t122 -274.5v-403q0 -106 82 -107l47 10v-205q-66 -33 -186 -32q-164 0 -217 131h-2q-111 -147 -309 -148q-147 0 -241.5 87t-94.5 251z M158 1403q0 66 44 109.5t113 43.5q66 0 109 -44t43 -109.5t-44 -110.5t-108 -45q-70 0 -113.5 44t-43.5 112zM383 328q0 -53 38 -89t101 -36q86 0 160 69v177q-55 10 -107 10q-96 0 -144 -37t-48 -94zM625 1403q0 66 44 109.5t113 43.5q66 0 109 -44t43 -109.5t-44 -110.5 t-108 -45q-70 0 -113.5 44t-43.5 112z" />
<glyph unicode="&#xe5;" horiz-adv-x="1153" d="M72 309q0 145 112.5 243.5t317.5 98.5q88 0 180 -20v63q0 160 -207 160q-190 -2 -325 -88v258q145 70 376 70q223 0 345 -94.5t122 -274.5v-403q0 -106 82 -107l47 10v-205q-66 -33 -186 -32q-164 0 -217 131h-2q-111 -147 -309 -148q-147 0 -241.5 87t-94.5 251z M248 1509q0 129 84 210t213 81t213 -81t84 -210t-84 -212t-213 -83t-213 83t-84 212zM383 328q0 -53 38 -89t101 -36q86 0 160 69v177q-55 10 -107 10q-96 0 -144 -37t-48 -94zM432 1509q0 -57 31 -92t82 -35t81.5 35t30.5 92q0 53 -30.5 88t-81.5 35t-82 -35t-31 -88z" />
<glyph unicode="&#xe6;" horiz-adv-x="1814" d="M72 311q0 154 117.5 257.5t332.5 103.5q88 0 180 -21v39q0 160 -206 160q-193 0 -338 -102l-8 -7v263q16 10 48.5 25t136 40t212.5 25q238 0 358 -111q143 111 336 111q215 0 353.5 -134.5t138.5 -355.5l-9 -145h-696q29 -250 313 -250q186 0 338 108v-235 q-156 -111 -403 -111q-260 0 -418 154q-94 -80 -188.5 -117t-220.5 -37q-174 0 -275.5 86t-101.5 254zM383 324q0 -53 43 -90t117 -37q86 0 159 69v197q-55 10 -106 10q-106 0 -159.5 -41.5t-53.5 -107.5zM1028 651h395q4 94 -45 157.5t-137 63.5q-96 0 -152.5 -64.5 t-60.5 -156.5z" />
<glyph unicode="&#xe7;" horiz-adv-x="1054" d="M82 532.5q0 260.5 153.5 411t401.5 150.5q190 0 326 -72v-270q-115 100 -275 100q-139 0 -215 -84t-76 -235.5t76 -235.5t215 -84q160 0 275 100v-270q-135 -72 -326 -72q-248 0 -401.5 150.5t-153.5 411zM383 -367q74 -33 154 -32q88 0 88 82q0 47 -61.5 76.5 t-155.5 29.5l118 211h222l-74 -119q86 -20 138 -72.5t52 -125.5q0 -106 -89 -166t-212 -60q-43 0 -88 6.5t-69 12.5l-23 6v151z" />
<glyph unicode="&#xe8;" horiz-adv-x="1193" d="M82 535q0 246 151.5 402.5t387.5 156.5q215 0 353 -134.5t138 -355.5l-8 -145h-696q29 -250 313 -250q186 0 338 108v-235q-156 -111 -404 -111q-260 0 -416.5 155t-156.5 409zM217 1556h397l238 -301h-285zM408 651h395q4 94 -45 157.5t-137 63.5q-96 0 -152.5 -64.5 t-60.5 -156.5z" />
<glyph unicode="&#xe9;" horiz-adv-x="1193" d="M82 535q0 246 151.5 402.5t387.5 156.5q215 0 353 -134.5t138 -355.5l-8 -145h-696q29 -250 313 -250q186 0 338 108v-235q-156 -111 -404 -111q-260 0 -416.5 155t-156.5 409zM340 1255l238 301h397l-350 -301h-285zM408 651h395q4 94 -45 157.5t-137 63.5 q-96 0 -152.5 -64.5t-60.5 -156.5z" />
<glyph unicode="&#xea;" horiz-adv-x="1193" d="M82 535q0 246 151.5 402.5t387.5 156.5q215 0 353 -134.5t138 -355.5l-8 -145h-696q29 -250 313 -250q186 0 338 108v-235q-156 -111 -404 -111q-260 0 -416.5 155t-156.5 409zM209 1255l250 322h315l250 -322h-264l-144 156l-143 -156h-264zM408 651h395q4 94 -45 157.5 t-137 63.5q-96 0 -152.5 -64.5t-60.5 -156.5z" />
<glyph unicode="&#xeb;" horiz-adv-x="1193" d="M82 535q0 246 151.5 402.5t387.5 156.5q215 0 353 -134.5t138 -355.5l-8 -145h-696q29 -250 313 -250q186 0 338 108v-235q-156 -111 -404 -111q-260 0 -416.5 155t-156.5 409zM229 1403q0 66 44 109.5t114 43.5q66 0 109 -44t43 -109.5t-44 -110.5t-108 -45 q-68 0 -113 44t-45 112zM408 651h395q4 94 -45 157.5t-137 63.5q-96 0 -152.5 -64.5t-60.5 -156.5zM696 1403q0 66 44 109.5t114 43.5q66 0 109 -44t43 -109.5t-44 -110.5t-108 -45q-68 0 -113 44t-45 112z" />
<glyph unicode="&#xec;" horiz-adv-x="618" d="M-70 1556h398l237 -301h-284zM154 0v1065h311v-1065h-311z" />
<glyph unicode="&#xed;" horiz-adv-x="618" d="M74 1255l237 301h398l-351 -301h-284zM154 0v1065h311v-1065h-311z" />
<glyph unicode="&#xee;" horiz-adv-x="618" d="M-98 1255l250 322h315l250 -322h-264l-144 156l-143 -156h-264zM154 0v1065h311v-1065h-311z" />
<glyph unicode="&#xef;" horiz-adv-x="618" d="M-78 1403q0 66 44 109.5t114 43.5q66 0 108.5 -44t42.5 -109.5t-44 -110.5t-107 -45q-68 0 -113 44t-45 112zM154 0v1065h311v-1065h-311zM389 1403q0 66 44 109.5t114 43.5q66 0 108.5 -44t42.5 -109.5t-44 -110.5t-107 -45q-68 0 -113 44t-45 112z" />
<glyph unicode="&#xf0;" horiz-adv-x="1253" d="M82 492q0 215 133 361t334 146q156 0 272 -88q-47 121 -135 242l-223 -102l-45 98l196 88q-57 59 -120 104l122 154q111 -76 201 -166l195 90l45 -96l-164 -76q279 -332 278 -704q0 -250 -152.5 -411t-397.5 -161q-233 0 -386 147t-153 374zM401 491.5 q0 -133.5 61.5 -206t164 -72.5t164 72.5t61.5 206t-61.5 206t-164 72.5t-164 -72.5t-61.5 -206z" />
<glyph unicode="&#xf1;" horiz-adv-x="1325" d="M139 1065h291q14 -70 25 -172q133 201 348 201q102 0 179 -36t118 -95.5t60.5 -126t19.5 -142.5v-694h-312v633q0 209 -194 209q-66 0 -122 -32t-87 -71v-739h-311v795q0 70 -3.5 137t-7.5 100zM225 1282q0 147 65.5 255t201.5 108q74 0 135 -36t107 -73t83 -37 q94 0 94 141h191q0 -150 -66.5 -256t-204.5 -106q-78 0 -138 37t-105 72.5t-84 35.5q-88 0 -88 -141h-191z" />
<glyph unicode="&#xf2;" horiz-adv-x="1294" d="M82 532.5q0 247.5 157.5 404.5t407.5 157t407.5 -157t157.5 -404.5t-157.5 -404.5t-407.5 -157t-407.5 157t-157.5 404.5zM207 1556h397l238 -301h-285zM401 532.5q0 -151.5 68 -235.5t178.5 -84t178 84t67.5 235.5t-67.5 235.5t-178 84t-178.5 -84t-68 -235.5z" />
<glyph unicode="&#xf3;" horiz-adv-x="1294" d="M82 532.5q0 247.5 157.5 404.5t407.5 157t407.5 -157t157.5 -404.5t-157.5 -404.5t-407.5 -157t-407.5 157t-157.5 404.5zM371 1255l237 301h398l-351 -301h-284zM401 532.5q0 -151.5 68 -235.5t178.5 -84t178 84t67.5 235.5t-67.5 235.5t-178 84t-178.5 -84t-68 -235.5z " />
<glyph unicode="&#xf4;" horiz-adv-x="1294" d="M82 532.5q0 247.5 157.5 404.5t407.5 157t407.5 -157t157.5 -404.5t-157.5 -404.5t-407.5 -157t-407.5 157t-157.5 404.5zM238 1255l249 322h316l250 -322h-265l-143 156l-143 -156h-264zM401 532.5q0 -151.5 68 -235.5t178.5 -84t178 84t67.5 235.5t-67.5 235.5t-178 84 t-178.5 -84t-68 -235.5z" />
<glyph unicode="&#xf5;" horiz-adv-x="1294" d="M82 532.5q0 247.5 157.5 404.5t407.5 157t407.5 -157t157.5 -404.5t-157.5 -404.5t-407.5 -157t-407.5 157t-157.5 404.5zM209 1282q0 147 65.5 255t200.5 108q74 0 135.5 -36t107.5 -73t83 -37q94 0 94 141h190q0 -150 -66.5 -256t-203.5 -106q-78 0 -138.5 37 t-105.5 72.5t-84 35.5q-88 0 -88 -141h-190zM401 532.5q0 -151.5 68 -235.5t178.5 -84t178 84t67.5 235.5t-67.5 235.5t-178 84t-178.5 -84t-68 -235.5z" />
<glyph unicode="&#xf6;" horiz-adv-x="1294" d="M82 532.5q0 247.5 157.5 404.5t407.5 157t407.5 -157t157.5 -404.5t-157.5 -404.5t-407.5 -157t-407.5 157t-157.5 404.5zM258 1403q0 66 44 109.5t114 43.5q66 0 108.5 -44t42.5 -109.5t-44 -110.5t-107 -45q-68 0 -113 44t-45 112zM401 532.5q0 -151.5 68 -235.5 t178.5 -84t178 84t67.5 235.5t-67.5 235.5t-178 84t-178.5 -84t-68 -235.5zM725 1403q0 66 44 109.5t114 43.5q66 0 108.5 -44t42.5 -109.5t-44 -110.5t-107 -45q-68 0 -113 44t-45 112z" />
<glyph unicode="&#xf7;" horiz-adv-x="1277" d="M102 459v266h1074v-266h-1074zM438 172q0 78 57.5 129t143.5 51t143.5 -51t57.5 -129t-57.5 -129t-143.5 -51t-143.5 51t-57.5 129zM438 1012q0 78 57.5 129t143.5 51t143.5 -51t57.5 -129t-57.5 -129.5t-143.5 -51.5t-143.5 51.5t-57.5 129.5z" />
<glyph unicode="&#xf8;" horiz-adv-x="1294" d="M82 -29l141 172q-141 154 -141 389q0 248 157.5 405t407.5 157q160 0 293 -72l59 72h213l-141 -174q141 -154 141 -388q0 -248 -157.5 -404.5t-407.5 -156.5q-162 0 -295 72l-57 -72h-213zM401 532q0 -86 21 -145l350 430q-53 35 -125 35q-111 0 -178.5 -84t-67.5 -236z M520 248q53 -35 127 -35q111 0 178.5 84t67.5 235q0 74 -21 146z" />
<glyph unicode="&#xf9;" horiz-adv-x="1325" d="M145 371v694h312v-633q0 -209 194 -209q66 0 122 32t87 71v739h311v-795q0 -70 4.5 -137t8.5 -100l2 -33h-291q-14 70 -25 172q-133 -201 -348 -201q-102 0 -179 36t-118 95.5t-60.5 126t-19.5 142.5zM203 1556h397l238 -301h-285z" />
<glyph unicode="&#xfa;" horiz-adv-x="1325" d="M145 371v694h312v-633q0 -209 194 -209q66 0 122 32t87 71v739h311v-795q0 -70 4.5 -137t8.5 -100l2 -33h-291q-14 70 -25 172q-133 -201 -348 -201q-102 0 -179 36t-118 95.5t-60.5 126t-19.5 142.5zM428 1255l238 301h397l-350 -301h-285z" />
<glyph unicode="&#xfb;" horiz-adv-x="1325" d="M145 371v694h312v-633q0 -209 194 -209q66 0 122 32t87 71v739h311v-795q0 -70 4.5 -137t8.5 -100l2 -33h-291q-14 70 -25 172q-133 -201 -348 -201q-102 0 -179 36t-118 95.5t-60.5 126t-19.5 142.5zM256 1255l250 322h315l250 -322h-264l-143 156l-144 -156h-264z" />
<glyph unicode="&#xfc;" horiz-adv-x="1325" d="M145 371v694h312v-633q0 -209 194 -209q66 0 122 32t87 71v739h311v-795q0 -70 4.5 -137t8.5 -100l2 -33h-291q-14 70 -25 172q-133 -201 -348 -201q-102 0 -179 36t-118 95.5t-60.5 126t-19.5 142.5zM276 1403q0 66 44.5 109.5t113.5 43.5q66 0 109 -44t43 -109.5 t-44 -110.5t-108 -45q-70 0 -114 44t-44 112zM743 1403q0 66 44 109.5t114 43.5q66 0 109 -44t43 -109.5t-44 -110.5t-108 -45q-70 0 -114 44t-44 112z" />
<glyph unicode="&#xfd;" horiz-adv-x="1103" d="M2 -211q59 -23 139 -22q72 0 146.5 52t118.5 177l12 37l-412 1032h324l233 -645l209 645h322l-379 -1065q-102 -291 -234.5 -401.5t-322.5 -110.5q-43 0 -82 7t-56 13l-18 9v272zM356 1255l238 301h397l-350 -301h-285z" />
<glyph unicode="&#xfe;" horiz-adv-x="1357" d="M164 -512v1946h311v-459q123 119 297 119q211 0 352.5 -161t141.5 -400.5t-141.5 -400.5t-352.5 -161q-170 0 -297 103v-586h-311zM475 274q82 -63 193 -63q119 0 200.5 82t81.5 239q0 150 -75.5 226t-196.5 76q-117 0 -203 -62v-498z" />
<glyph unicode="&#xff;" horiz-adv-x="1103" d="M2 -211q59 -23 139 -22q72 0 146.5 52t118.5 177l12 37l-412 1032h324l233 -645l209 645h322l-379 -1065q-102 -291 -234.5 -401.5t-322.5 -110.5q-43 0 -82 7t-56 13l-18 9v272zM176 1403q0 66 44 109.5t114 43.5q66 0 108.5 -44t42.5 -109.5t-44 -110.5t-107 -45 q-68 0 -113 44t-45 112zM643 1403q0 66 44 109.5t114 43.5q66 0 108.5 -44t42.5 -109.5t-44 -110.5t-107 -45q-68 0 -113 44t-45 112z" />
<glyph unicode="&#x152;" horiz-adv-x="2084" d="M92 716.5q0 327.5 205 536.5t518 209q111 0 225 -28h922v-267h-594v-297h492v-266h-492v-338h594v-266h-922q-111 -29 -225 -29q-313 0 -518 209t-205 536.5zM436 717q0 -209 111.5 -336t306.5 -127q98 0 186 37v852q-88 37 -186 37q-195 0 -306.5 -127t-111.5 -336z" />
<glyph unicode="&#x153;" horiz-adv-x="2002" d="M82 532.5q0 247.5 157.5 404.5t407.5 157q244 0 402 -154q150 154 381 154q215 0 353 -134.5t138 -355.5l-8 -145h-696q29 -250 313 -250q186 0 338 108v-235q-156 -111 -404 -111q-260 0 -413 154q-158 -154 -404 -154q-250 0 -407.5 157t-157.5 404.5zM401 532.5 q0 -151.5 68 -235.5t178.5 -84t178 84t67.5 235.5t-67.5 235.5t-178 84t-178.5 -84t-68 -235.5zM1217 651h395q4 94 -45 157.5t-137 63.5q-96 0 -152.5 -64.5t-60.5 -156.5z" />
<glyph unicode="&#x178;" horiz-adv-x="1310" d="M2 1434h363l290 -594l291 594h363l-490 -908v-526h-327v526zM268 1772q0 66 44 109.5t114 43.5q66 0 109 -44t43 -109.5t-44.5 -110.5t-107.5 -45q-70 0 -114 44t-44 112zM735 1772q0 66 44 109.5t114 43.5q66 0 108.5 -44t42.5 -109.5t-44 -110.5t-107 -45 q-70 0 -114 44t-44 112z" />
<glyph unicode="&#x2c6;" horiz-adv-x="1019" d="M102 1255l250 322h316l250 -322h-265l-143 156l-143 -156h-265z" />
<glyph unicode="&#x2dc;" horiz-adv-x="1081" d="M102 1282q0 147 65.5 255t201.5 108q74 0 135 -36t107 -73t83 -37q94 0 94 141h191q0 -150 -66.5 -256t-203.5 -106q-78 0 -138.5 37t-105.5 72.5t-84 35.5q-88 0 -88 -141h-191z" />
<glyph unicode="&#x2000;" horiz-adv-x="1005" />
<glyph unicode="&#x2001;" horiz-adv-x="2013" />
<glyph unicode="&#x2002;" horiz-adv-x="1005" />
<glyph unicode="&#x2003;" horiz-adv-x="2013" />
<glyph unicode="&#x2004;" horiz-adv-x="669" />
<glyph unicode="&#x2005;" horiz-adv-x="501" />
<glyph unicode="&#x2006;" horiz-adv-x="333" />
<glyph unicode="&#x2007;" horiz-adv-x="333" />
<glyph unicode="&#x2008;" horiz-adv-x="249" />
<glyph unicode="&#x2009;" horiz-adv-x="401" />
<glyph unicode="&#x200a;" horiz-adv-x="110" />
<glyph unicode="&#x2010;" horiz-adv-x="794" d="M102 475v268h590v-268h-590z" />
<glyph unicode="&#x2011;" horiz-adv-x="794" d="M102 475v268h590v-268h-590z" />
<glyph unicode="&#x2012;" horiz-adv-x="794" d="M102 475v268h590v-268h-590z" />
<glyph unicode="&#x2013;" horiz-adv-x="1286" d="M102 475v268h1082v-268h-1082z" />
<glyph unicode="&#x2014;" horiz-adv-x="2263" d="M102 475v268h2059v-268h-2059z" />
<glyph unicode="&#x2018;" horiz-adv-x="573" d="M70 948q0 129 72.5 265.5t222.5 248.5l94 -102q-63 -51 -109.5 -118.5t-52.5 -131.5q78 -8 126 -63.5t48 -137.5q0 -88 -57.5 -143t-143.5 -55q-90 0 -145 62t-55 175z" />
<glyph unicode="&#x2019;" horiz-adv-x="573" d="M102 1264q0 88 57.5 143t143.5 55q90 0 145.5 -62.5t55.5 -174.5q0 -129 -73 -265.5t-222 -248.5l-94 102q63 51 109 118.5t52 131.5q-78 8 -126 63.5t-48 137.5z" />
<glyph unicode="&#x201a;" horiz-adv-x="540" d="M70 174q0 88 57 143.5t143 55.5q90 0 145.5 -62.5t55.5 -175.5q0 -129 -72.5 -265t-222.5 -249l-94 103q63 51 109.5 118.5t52.5 130.5q-78 8 -126 63.5t-48 137.5z" />
<glyph unicode="&#x201c;" horiz-adv-x="1054" d="M70 948q0 129 72.5 265.5t222.5 248.5l94 -102q-63 -51 -109.5 -118.5t-52.5 -131.5q78 -8 126 -63.5t48 -137.5q0 -88 -57.5 -143t-143.5 -55q-90 0 -145 62t-55 175zM551 948q0 129 72.5 265.5t222.5 248.5l94 -102q-63 -51 -109.5 -118.5t-52.5 -131.5 q78 -8 126 -63.5t48 -137.5q0 -88 -57 -143t-143 -55q-90 0 -145.5 62t-55.5 175z" />
<glyph unicode="&#x201d;" horiz-adv-x="1054" d="M102 1264q0 88 57.5 143t143.5 55q90 0 145.5 -62.5t55.5 -174.5q0 -129 -73 -265.5t-222 -248.5l-94 102q63 51 109 118.5t52 131.5q-78 8 -126 63.5t-48 137.5zM584 1264q0 88 57 143t143 55q90 0 145.5 -62.5t55.5 -174.5q0 -129 -72.5 -265.5t-222.5 -248.5l-94 102 q63 51 109.5 118.5t52.5 131.5q-78 8 -126 63.5t-48 137.5z" />
<glyph unicode="&#x201e;" horiz-adv-x="1021" d="M70 174q0 88 57 143.5t143 55.5q90 0 145.5 -62.5t55.5 -175.5q0 -129 -72.5 -265t-222.5 -249l-94 103q63 51 109.5 118.5t52.5 130.5q-78 8 -126 63.5t-48 137.5zM551 174q0 88 57.5 143.5t143.5 55.5q90 0 145 -62.5t55 -175.5q0 -129 -72.5 -265t-222.5 -249l-94 103 q63 51 109.5 118.5t52.5 130.5q-78 8 -126 63.5t-48 137.5z" />
<glyph unicode="&#x2022;" horiz-adv-x="899" d="M143 676q0 129 88 218t217.5 89t218.5 -89t89 -218t-89 -217t-218 -88q-131 0 -218.5 87t-87.5 218z" />
<glyph unicode="&#x2026;" horiz-adv-x="1695" d="M70 172q0 88 57 144.5t143 56.5t143.5 -56.5t57.5 -144.5t-57.5 -144.5t-143.5 -56.5t-143 56.5t-57 144.5zM647 172q0 88 57.5 144.5t143.5 56.5t143.5 -56.5t57.5 -144.5t-57.5 -144.5t-143.5 -56.5t-143.5 56.5t-57.5 144.5zM1225 172q0 88 57 144.5t143 56.5 t143.5 -56.5t57.5 -144.5t-57.5 -144.5t-143.5 -56.5t-143 56.5t-57 144.5z" />
<glyph unicode="&#x202f;" horiz-adv-x="401" />
<glyph unicode="&#x2039;" horiz-adv-x="743" d="M72 410v280l487 410v-273l-266 -278l266 -277v-272z" />
<glyph unicode="&#x203a;" horiz-adv-x="743" d="M184 0v272l267 277l-267 278v273l488 -410v-280z" />
<glyph unicode="&#x205f;" horiz-adv-x="501" />
<glyph unicode="&#x20ac;" horiz-adv-x="1505" d="M102 471v184h136q-2 29 -2 62l2 63h-136v185h168q70 227 255.5 362t432.5 135q266 0 445 -123l-129 -245q-121 86 -277 86q-260 0 -366 -215h577l-96 -185h-530q-4 -29 -4 -63l4 -62h465l-97 -184h-319q104 -217 366 -217q156 0 277 86l129 -246q-184 -123 -445 -123 q-248 0 -433 135.5t-255 364.5h-168z" />
<glyph unicode="&#x2122;" horiz-adv-x="2009" d="M61 1262v172h715v-172h-250v-654h-217v654h-248zM868 608v826h193l287 -394l286 394h191v-826h-215v488l-234 -320h-59l-232 320v-488h-217z" />
<glyph unicode="&#xe000;" horiz-adv-x="1065" d="M0 1065h1065v-1065h-1065v1065z" />
<glyph unicode="&#xfb01;" horiz-adv-x="1441" d="M31 821v244h172v82q0 172 92 260t250 88q145 0 219 -31v-245q-74 31 -150 30q-104 0 -104 -94v-90h242v-244h-242v-821h-307v821h-172zM946 1378.5q0 75.5 48 116.5t128 41t128 -41t48 -116.5t-48 -116.5t-128 -41t-128 41t-48 116.5zM967 0v1065h311v-1065h-311z" />
<glyph unicode="&#xfb02;" horiz-adv-x="1556" d="M31 821v244h172v82q0 172 92 260t250 88q145 0 219 -31v-245q-74 31 -150 30q-104 0 -104 -94v-90h242v-244h-242v-821h-307v821h-172zM967 391v1104h311v-1108q0 -150 141 -149q29 0 57.5 4t43.5 8l12 6v-258q-92 -27 -197 -27q-190 0 -279 99.5t-89 320.5z" />
<glyph unicode="&#xfb03;" horiz-adv-x="2207" d="M1722 1378.5q0 75.5 48 116.5t128 41t128 -41t48 -116.5t-48 -116.5t-128 -41t-128 41t-48 116.5zM1743 0v1065h311v-1065h-311zM836 821v244h172v82q0 172 92 260t250 88q145 0 219 -31v-245q-74 31 -149 30q-104 0 -105 -94v-90h242v-244h-242v-821h-307v821h-172z M41 821v244h172v82q0 172 92 260t250 88q145 0 219 -31v-245q-74 31 -149 30q-104 0 -105 -94v-90h242v-244h-242v-821h-307v821h-172z" />
<glyph unicode="&#xfb04;" horiz-adv-x="2324" d="M1743 391v1104h311v-1108q0 -150 141 -149q29 0 57.5 4t41.5 8l14 6v-258q-92 -27 -197 -27q-190 0 -279 99.5t-89 320.5zM836 821v244h172v82q0 172 92 260t250 88q145 0 219 -31v-245q-74 31 -149 30q-104 0 -105 -94v-90h242v-244h-242v-821h-307v821h-172zM41 821 v244h172v82q0 172 92 260t250 88q145 0 219 -31v-245q-74 31 -149 30q-104 0 -105 -94v-90h242v-244h-242v-821h-307v821h-172z" />
</font>
</defs>
</svg>
