<?xml  version="1.0" encoding="UTF-8"?>
<!DOCTYPE svg PUBLIC "-//W3C//DTD SVG 1.0//EN" "http://www.w3.org/TR/2001/REC-SVG-20010904/DTD/svg10.dtd" >
<svg xmlns="http://www.w3.org/2000/svg" >
<metadata>
<version>1.0</version>
<id><![CDATA[Bell Gothic W01 Bold]]></id>
<vendor>Monotype Imaging Inc.</vendor>
<credits>
<name>Fonts.com WebFonts</name>
<URL>http://webfonts.fonts.com</URL>
<role>Home of the Web fonts</role>
</credits>
<license>
<URL>http://webfonts.fonts.com/Legal</URL>
</license>
<copyright><![CDATA[Copyright © 1992, 2001 Adobe Systems Incorporated.  All Rights Reserved.]]></copyright>
<trademark><![CDATA[Bell Gothic]]></trademark>
<licensee>
<name></name>
</licensee>
</metadata>
<defs >
<font horiz-adv-x="532" id="de92c99d-1cb6-4df4-885e-c86446e1ffe0">
<font-face font-family="" panose-1="2 11 6 6 2 2 3 2 2 4" ascent="966" descent="-250" units-per-em="1000" alphabetic="0">
</font-face>
<missing-glyph horiz-adv-x="275" />

<glyph unicode="&#xA;" />
<glyph unicode="&#xD;" />
<glyph unicode=" " horiz-adv-x="275" />
<glyph unicode="!" horiz-adv-x="389" d="M245 738L244 677L225 248H161L142 677L141 738H245ZM196 -5Q162 -5 144 16T126 63Q126 93 147 112T195 132Q222 132 243 112T264 63Q264 37 245 16T196 -5Z"  />
<glyph unicode="&quot;" horiz-adv-x="333" d="M197 734H279V463H197V734ZM55 734H135V463H55V734Z"  />
<glyph unicode="#" horiz-adv-x="600" d="M517 214H417L387 0H315L345 214H226L196 0H124L154 214H55L54 278H163L183 422H84L83 486H192L221 700H294L264 486H383L412 700H485L455 486H545L546 422H446L426 278H516L517 214ZM255 422L235 278H354L374 422H255Z"  />
<glyph unicode="$" horiz-adv-x="556" d="M256 822H310V737Q352 732 385 723T441 702T479 680T500 663L444 586Q424 607 406 620T372 641T340 653T310 660V429Q344 414 367 404T407 384T437 363T466 336Q492 308 503 276T514 207Q514 168 503 133T462 68Q432 36 393 22T310 5V-129H256V2Q224 5 199 9T148 22T96 47T36 91L82 172Q102 154 122 138T163 109T206 89T255 80V347Q211 364 181 378T120 418Q89 444 70 480T51 553Q51 562 52 577T58 611T76 650T110 689Q129 705 149 714T188 728T225 734T256 737V822ZM255 662Q233 662 212 658T175 643T148 615T138 572Q138 547 148 527T174 492T211 467T255 450V662ZM310 79Q335 80 357 89T395 113T420 149T430 194Q430 222 419 246T384 287Q370 297 348 308T310 324V79Z"  />
<glyph unicode="%" horiz-adv-x="1000" d="M762 363Q797 363 830 349T888 311T929 253T944 182Q944 144 930 111T891 52T833 13T762 -1Q725 -1 691 12T632 50T591 107T576 180Q576 220 591 253T631 311T691 349T762 363ZM655 184Q655 159 664 139T688 105T722 83T762 75Q785 75 804 84T837 108T858 142T866 182Q866 204 857 223T834 256T801 277T762 285Q739 285 720 277T686 255T664 223T655 184ZM248 734Q279 734 310 721T367 685T409 629T425 557Q425 518 411 484T371 425T313 385T241 370Q203 370 170 383T111 421T71 479T56 551Q56 587 69 620T107 678T167 719T248 734ZM344 554Q344 572 337 590T315 623T282 647T239 656Q218 656 200 649T167 628T144 595T135 552Q135 528 143 509T166 477T199 456T239 449Q261 449 280 457T313 479T336 513T344 554ZM771 749L292 -20H227L706 749H771Z"  />
<glyph unicode="&amp;" horiz-adv-x="722" d="M660 330Q645 298 631 274T603 227T572 185T538 140Q564 111 584 95T635 78Q650 78 661 82T683 93V-1Q670 -8 658 -13T623 -18Q596 -18 574 -10T533 10T500 38T473 68Q449 48 428 32T385 3T336 -15T276 -22Q218 -22 176 -1T107 53T67 126T54 203Q54 255 73 294T118 362T171 408T215 436Q201 466 187 504T172 593Q172 613 180 642T214 697Q240 723 271 733T337 744Q364 744 391 735T439 708T474 664T488 604Q488 566 472 538T432 488T381 451T331 424Q398 309 481 207Q510 245 531 288T564 363L660 330ZM296 70Q325 70 356 84T419 131Q394 161 374 187T335 240T294 301T245 381Q229 370 211 357T178 325T152 283T142 228Q142 202 151 174T180 123T228 85T296 70ZM421 608Q421 630 413 645T393 671T367 686T338 691Q314 691 298 684T271 664T256 635T251 603Q251 580 266 545T302 477Q326 489 347 500T385 527T411 561T421 608Z"  />
<glyph unicode="&apos;" horiz-adv-x="222" d="M70 734H152V463H70V734Z"  />
<glyph unicode="(" horiz-adv-x="389" d="M315 748Q298 730 281 704T248 653T222 606T208 578Q202 565 194 545T178 499T165 439T160 365Q160 302 175 246T214 142T265 54T316 -18H223Q189 27 158 80T106 194Q100 210 95 230T87 271T81 312T78 349Q78 401 85 447T108 541T152 639T221 748H315Z"  />
<glyph unicode=")" horiz-adv-x="389" d="M75 -18Q77 -15 82 -8T94 8T105 23T112 34Q116 41 124 54T140 81T155 106T163 119Q187 164 200 201T219 269T226 323T227 361Q227 380 226 408T214 476T183 566T121 677L73 748H164Q192 707 218 666T264 579T296 480T309 362Q309 298 294 241T258 137T216 56T183 6Q178 0 174 -6T166 -18H75Z"  />
<glyph unicode="*" horiz-adv-x="556" d="M109 660L261 588L237 745H321L299 588L448 657L469 576L306 558L425 432L353 382L279 534L202 382L131 432L250 553L87 576L109 660Z"  />
<glyph unicode="+" horiz-adv-x="600" d="M259 506H341V294H552V212H341V0H259V212H48V294H259V506Z"  />
<glyph unicode="&#x2c;" horiz-adv-x="278" d="M201 132L190 100L84 -182H0L120 132H201Z"  />
<glyph unicode="-" horiz-adv-x="333" d="M37 300H296V216H37V300Z"  />
<glyph unicode="." horiz-adv-x="278" d="M213 58Q213 48 209 37T197 16T175 0T142 -7Q113 -7 93 11T73 59Q73 88 94 107T142 127Q173 127 193 107T213 58Z"  />
<glyph unicode="/" horiz-adv-x="278" d="M62 -22H-22L215 745H300L62 -22Z"  />
<glyph unicode="0" horiz-adv-x="556" d="M515 386Q515 300 503 226T455 88Q435 53 412 33T364 2T318 -10T276 -13Q262 -13 241 -10T195 4T145 35T100 91Q80 124 69 162T51 237T43 304T41 352Q41 461 60 537T113 661T192 729T288 751Q326 751 364 736T430 691Q480 635 497 562T515 386ZM139 354Q139 340 139 319T143 272T152 217T169 157Q183 122 209 97T285 72Q327 72 353 101T393 175T412 275T417 384Q417 464 409 518T384 606T342 653T284 667Q233 667 201 630T156 530Q146 480 143 435T139 354Z"  />
<glyph unicode="1" horiz-adv-x="556" d="M74 81H234V651H63V734H336V81H479V0H74V81Z"  />
<glyph unicode="2" horiz-adv-x="556" d="M37 586Q58 631 82 660T147 714Q184 735 217 741T273 747Q289 747 311 744T359 733T409 709T453 671T485 616T498 539Q498 517 491 484T463 422Q454 409 444 396T417 366T378 330T320 284L238 222Q208 199 192 176T173 148Q163 132 160 120T155 90H500V0H44Q46 65 59 113T98 200T162 274T253 348Q279 368 305 389T352 433T386 483T399 541Q399 560 393 581T373 620T336 649T278 661Q258 661 236 656T192 637T150 599T115 537L37 586Z"  />
<glyph unicode="3" horiz-adv-x="556" d="M34 628Q48 642 69 661T121 697T191 727T281 740Q318 740 351 731T410 703T450 655T465 587Q465 549 448 521T408 473T360 440T321 420Q335 419 351 418T386 411T422 396T457 370Q487 340 495 307T504 251Q504 226 497 199T474 144T433 90T372 43Q327 16 280 2T186 -18T98 -24T23 -25V60Q37 59 48 59T72 59Q92 59 120 60T182 66T251 84T320 118Q348 136 364 155T390 193T401 227T404 254Q404 309 370 334T285 359Q271 359 260 358T236 353T209 344T172 330L145 398Q181 413 207 424T255 447T295 472T333 505Q342 513 355 530T369 579Q369 619 339 639T270 660Q242 660 219 652T173 631T130 599T87 559L34 628Z"  />
<glyph unicode="4" horiz-adv-x="556" d="M331 287V681H322L104 294Q102 290 104 287H331ZM428 734V289H509V204H428V0H332V204H30V315L266 734H428Z"  />
<glyph unicode="5" horiz-adv-x="556" d="M46 90Q68 82 101 74T176 65Q200 65 232 69T310 97Q327 106 343 120T372 154T392 198T400 251Q400 296 387 325T352 372T304 397T253 404Q230 404 214 400T184 388T160 371T139 352H67Q67 358 67 363T68 375L105 734H456V644H177L159 463Q189 477 217 481T258 485Q328 485 372 463T449 404Q478 372 489 335T500 251Q500 209 485 161T431 73T330 5T171 -22Q153 -22 140 -22T112 -19T79 -14T32 -4L46 90Z"  />
<glyph unicode="6" horiz-adv-x="556" d="M348 745Q327 722 309 701T274 659T242 617T211 570Q201 553 190 532T170 488T153 441T144 395Q153 402 165 410T194 426T232 439T283 444Q341 444 384 425T456 375T499 303T513 220Q513 176 501 133T459 56T383 0T266 -22Q220 -22 178 -7T102 41T50 124T30 243Q30 298 36 343T51 422T69 482T86 523Q104 564 121 597T154 656T186 704T216 745H348ZM134 211Q134 175 144 147T173 98T217 68T272 57Q301 57 326 66T371 95T401 142T412 209Q412 234 404 261T379 311T336 348T273 363Q250 363 226 355T181 328T147 280T134 211Z"  />
<glyph unicode="7" horiz-adv-x="556" d="M35 734H505Q505 729 505 725T503 715Q501 707 495 697T485 678Q474 656 467 641T451 605L377 428Q365 398 347 345T310 231T274 108T247 0H130Q145 51 157 91T183 170T212 255T253 360Q271 404 284 436T310 499T339 562T376 641H35V734Z"  />
<glyph unicode="8" horiz-adv-x="556" d="M278 61Q301 61 325 68T370 94T404 142T418 216Q418 232 413 256T391 304T348 345T276 362Q264 362 249 360T217 350T187 332T163 304Q149 281 144 256T139 203Q139 184 145 160T168 113T211 76T278 61ZM275 432Q305 432 328 442T368 470T393 509T402 552Q402 575 393 597T366 636T326 663T275 674Q250 674 228 665T188 640T160 601T150 552Q150 527 160 505T187 467T226 442T275 432ZM172 400Q161 403 141 413T102 442T68 491T54 564Q54 604 69 638T112 697T179 736T267 750Q331 750 375 733T448 689T488 627T500 560Q500 552 499 540T493 513T481 482T459 451Q451 442 445 436T430 425T411 414T383 400V396Q411 385 436 369T479 328T507 272T518 196Q518 152 503 113T456 45T378 0T266 -17Q256 -17 238 -15T197 -8T150 9T106 38Q85 56 72 77T52 120T41 160T38 194Q38 247 47 276T74 328Q87 346 103 358T133 379T159 391T172 396V400Z"  />
<glyph unicode="9" horiz-adv-x="556" d="M196 -15Q230 23 263 62T332 159Q344 178 355 200T376 246T392 292T400 334Q392 328 380 320T351 304T312 291T261 285Q202 285 159 305T88 359T45 433T31 517Q31 557 44 599T87 675T162 730T273 752Q331 752 375 732T446 682Q466 661 479 637T500 586T511 535T514 486Q514 406 500 338T458 206Q423 123 388 70T328 -15H196ZM132 520Q132 488 141 460T169 411T212 378T269 366Q291 366 316 373T362 399T396 446T410 518Q410 553 400 581T371 630T327 661T271 672Q242 672 215 661T167 628Q142 601 137 574T132 520Z"  />
<glyph unicode=":" horiz-adv-x="333" d="M230 59Q230 48 226 37T214 16T192 0T161 -7Q134 -7 114 11T93 60Q93 77 99 90T116 112T138 125T161 130Q187 130 208 110T230 59ZM166 399Q145 399 131 405T107 422T93 445T89 468Q89 484 96 497T114 518T138 530T162 535Q188 535 209 517T230 469Q230 440 210 420T166 399Z"  />
<glyph unicode=";" horiz-adv-x="333" d="M238 473Q238 447 220 425T168 402Q139 402 120 421T100 470Q100 487 106 500T123 521T145 534T169 539Q199 539 218 519T238 473ZM214 130L94 -184H9L130 130H214Z"  />
<glyph unicode="&lt;" horiz-adv-x="600" d="M554 -8L46 217V289L554 514V432L150 253L554 74V-8Z"  />
<glyph unicode="=" horiz-adv-x="600" d="M552 316H48V398H552V316ZM552 108H48V190H552V108Z"  />
<glyph unicode="&gt;" horiz-adv-x="600" d="M450 253L46 432V514L554 289V217L46 -8V74L450 253Z"  />
<glyph unicode="?" horiz-adv-x="500" d="M188 245Q186 291 191 326T207 389T234 442T271 490Q287 508 297 521T314 545T323 568T326 596Q326 630 303 654T241 678Q215 678 198 668T169 644T151 615T142 589L49 623Q53 633 60 646T78 674T106 704T148 731Q163 738 183 744T245 751Q263 751 293 745T352 722T402 674T423 591Q423 568 419 551T406 519T388 491T367 465Q343 436 329 419T306 392T295 377T288 366Q275 339 273 305T272 245H188ZM159 59Q159 79 166 92T185 114T208 126T230 130Q259 130 279 109T300 60Q300 36 282 15T231 -7Q200 -7 180 12T159 59Z"  />
<glyph unicode="@" horiz-adv-x="800" d="M689 113Q645 59 576 24T421 -12Q344 -12 277 15T159 92T80 207T51 351Q51 427 80 492T158 607T274 684T415 712Q482 712 542 691T649 631T722 541T749 427Q749 361 725 310T666 225T591 173T517 155Q491 155 474 169T455 213H453Q432 190 402 173T335 155Q306 155 282 167T239 199T211 245T201 301Q201 347 215 392T257 473T325 531T415 553Q448 553 477 536T527 481L543 533H611L545 291Q542 279 540 267T539 244T544 228T557 221Q581 221 603 237T644 278T672 336T683 401Q683 459 662 505T604 583T519 632T415 649Q351 649 298 626T205 561T145 465T123 347Q123 283 146 229T209 136T305 74T423 51Q489 51 548 78T649 153L689 113ZM419 483Q388 483 363 467T319 425T291 372T281 319Q281 278 303 253T361 227Q390 227 415 243T458 285T486 338T497 391Q497 409 491 425T474 455T449 475T419 483Z"  />
<glyph unicode="A" horiz-adv-x="667" d="M448 238L332 612Q330 616 327 616Q324 616 322 611L213 238H448ZM477 153H187L141 0H34L271 734H386L634 0H527L477 153Z"  />
<glyph unicode="B" horiz-adv-x="667" d="M109 734H318Q334 734 355 734T399 730T445 719T488 700Q510 686 523 669T544 634T555 600T558 574Q558 536 549 511T526 469T497 442T470 426Q462 421 450 417T429 412Q413 411 413 400Q413 394 418 391T439 383L471 373Q497 365 520 348T561 308T589 256T600 194Q600 160 592 135T573 91T549 61T528 43Q505 27 478 18T423 5T371 1T328 0H109V734ZM204 86H346Q360 86 385 88T434 101T475 138T493 210Q493 269 462 304T372 350Q370 350 330 354T204 356V86ZM309 433Q339 433 369 439T418 462Q427 470 442 492T457 552Q457 591 439 612T393 643T333 654T274 656H204V433H309Z"  />
<glyph unicode="C" horiz-adv-x="611" d="M435 521Q432 548 424 572T401 615T365 645T313 656Q286 656 266 647T232 623T208 592T193 560Q183 535 177 506T168 450T164 406T163 384Q163 324 169 267T192 165T238 93T313 66Q335 66 351 73T380 89T399 107T410 122Q425 148 429 176T436 222L536 204Q533 160 517 116T467 39Q443 15 419 3T372 -16T332 -23T304 -24Q289 -24 266 -20T215 -3T161 35T112 103T77 209T63 360Q63 423 73 491T110 615T186 707T313 743Q348 743 390 731T466 683Q485 664 496 644T515 605T525 569T531 539L435 521Z"  />
<glyph unicode="D" horiz-adv-x="667" d="M206 641V93H282Q348 93 389 116T455 179T488 267T497 368Q497 393 495 421T486 476T468 530T439 578Q409 614 366 627T255 641H206ZM104 0V734H263Q354 734 418 709T524 634T585 515T604 357Q604 339 602 314T595 261T579 201T552 140Q540 119 521 95T469 49T387 14T264 0H104Z"  />
<glyph unicode="E" horiz-adv-x="667" d="M120 734H576V644H225V431H484V338H227V93H595V0H120V734Z"  />
<glyph unicode="F" horiz-adv-x="611" d="M106 734H558V641H211V419H461V326H211V0H106V734Z"  />
<glyph unicode="G" horiz-adv-x="667" d="M442 551Q438 563 431 582T409 618T374 648T322 661Q312 661 295 658T258 641T219 602T186 531Q179 507 175 479T170 425T168 383T167 365Q167 305 175 251T206 149Q220 120 237 104T271 81T302 71T324 69Q345 69 361 74T391 86T412 100T425 112Q440 129 448 145T460 177T466 210T468 245H326V338H565V-15H529L506 31Q499 45 494 51T484 57Q478 57 471 52Q468 49 464 45T455 37Q447 31 435 21T404 1T361 -16T308 -23Q297 -23 280 -22T241 -14T196 9T149 54Q123 85 107 125T81 207T68 288T64 359Q64 391 66 426T76 497T94 566T123 629Q145 666 172 689T225 726T276 743T316 748Q363 748 400 734T466 694T511 637T537 571L442 551Z"  />
<glyph unicode="H" horiz-adv-x="722" d="M128 734H230V426H492V734H594V0H492V338H230V0H128V734Z"  />
<glyph unicode="I" horiz-adv-x="389" d="M79 65H141V667H79V734H310V667H245V65H310V0H79V65Z"  />
<glyph unicode="J" horiz-adv-x="500" d="M302 734H407V251Q407 197 399 148T368 61T305 1T200 -22Q165 -22 135 -12T74 27Q54 46 42 65T23 103T13 143T6 183L110 223Q109 190 113 162T128 114T159 82T209 71Q243 71 262 89T290 131T300 181T302 219V734Z"  />
<glyph unicode="K" horiz-adv-x="667" d="M532 734H647V719L361 396L652 10V0H528L240 392L532 734ZM113 734H213V0H113V734Z"  />
<glyph unicode="L" horiz-adv-x="611" d="M120 734H221V93H560V0H120V734Z"  />
<glyph unicode="M" horiz-adv-x="889" d="M403 0L225 670Q223 676 218 676Q215 676 212 674T209 666V0H126V734H279L435 164Q438 155 444 155Q454 155 456 165L608 734H763V0H680V662Q680 671 673 671Q666 671 663 664L487 0H403Z"  />
<glyph unicode="N" horiz-adv-x="722" d="M116 734H246L459 262Q459 262 463 251T473 226T484 201T489 189L519 106Q521 106 522 106T525 105Q528 108 528 110T529 120Q529 124 529 134T527 156T526 177T525 191Q523 226 523 253T523 300V734H607V0H479L265 477Q255 500 245 525T227 572T214 610T206 633Q205 634 204 634T201 635Q196 631 196 630T195 624Q195 616 196 595T197 550T199 509T200 488V0H116V734Z"  />
<glyph unicode="O" horiz-adv-x="611" d="M448 362Q448 386 447 417T441 481T427 545T403 602T364 642T308 657Q260 657 231 627T185 544Q174 511 169 464T163 358Q163 323 167 274T185 179T228 101T304 69Q382 69 415 145T448 362ZM306 745Q352 745 388 730T450 689T495 632T525 567Q533 543 538 516T547 461T551 409T553 365Q553 299 542 231T504 106T428 14T306 -22Q238 -22 191 9T115 93T72 213T58 355Q58 440 72 512T118 636Q141 673 165 694T214 727T262 741T306 745Z"  />
<glyph unicode="P" horiz-adv-x="667" d="M225 648V380Q235 379 244 379T265 379Q311 379 351 383T422 401T469 441T487 512Q487 563 463 590T407 631T341 646T288 648H225ZM123 734H282Q312 734 341 733T400 726T456 710T507 683Q597 620 597 510Q597 475 590 449T571 403T546 369T522 346Q498 327 473 317T420 301T366 294T314 292H225V0H123V734Z"  />
<glyph unicode="Q" horiz-adv-x="611" d="M571 -117Q552 -117 530 -115T486 -102T441 -68T398 -3Q377 -13 356 -17Q331 -22 306 -22Q238 -22 191 9T115 93T72 213T58 355Q58 440 72 512T118 636Q141 673 165 694T214 727T262 741T306 745Q352 745 388 730T450 689T495 632T525 567Q533 543 538 516T547 461T551 409T553 365Q553 322 549 278T534 191T506 110T461 43Q473 25 485 14T511 -4T538 -13T571 -15V-117ZM449 362Q449 386 448 417T442 481T428 545T404 602T365 642T308 657Q260 657 231 627T185 544Q174 511 169 464T163 358Q163 323 167 274T185 179T228 101T305 69Q330 69 351 78L283 185L334 221L403 124Q427 160 438 220T449 362Z"  />
<glyph unicode="R" horiz-adv-x="667" d="M120 734H346Q423 734 471 714T547 663T585 598T595 535Q595 483 580 449T541 393T491 359T438 339L630 0H510L336 326H223V0H120V734ZM222 648V405Q243 405 266 405T311 405T354 407T388 412Q403 415 421 421T454 440T480 473T491 524Q491 589 449 618T323 648H222Z"  />
<glyph unicode="S" horiz-adv-x="611" d="M448 542Q435 567 422 589T392 626T352 651T297 660Q280 660 261 655T224 639T196 609T185 563Q185 538 194 520T216 490T242 470T265 458L411 392Q420 387 434 380T463 360T494 332T521 296Q528 283 537 261T546 197Q546 92 474 31Q451 11 429 1T387 -14T348 -20T315 -21Q298 -21 277 -18T234 -8T189 10T147 37Q112 66 95 94T65 148L153 203Q161 181 174 158T208 115T257 84T322 71Q345 71 368 78T409 100T439 137T451 189Q451 202 448 216T435 244T408 273T361 301L231 360Q214 367 197 377T163 401T133 428T110 458Q102 472 95 497T88 560Q88 602 104 636T149 696T216 735T297 749Q382 749 441 709T534 593L448 542Z"  />
<glyph unicode="T" horiz-adv-x="611" d="M572 734V641H359V0H254V641H40V734H572Z"  />
<glyph unicode="U" horiz-adv-x="722" d="M230 734V245Q230 215 234 185T254 129T296 87T368 71Q394 71 427 84T480 134Q495 164 498 202T502 270V734H594V241Q594 187 581 135T529 44Q507 21 483 8T435 -12T388 -20T345 -22Q331 -22 310 -19T266 -7T218 19T175 64Q144 109 136 154T128 250V734H230Z"  />
<glyph unicode="V" horiz-adv-x="667" d="M626 734L391 0H281L42 734H149L333 153Q335 147 340 147Q342 147 344 149T348 153L527 734H626Z"  />
<glyph unicode="W" horiz-adv-x="944" d="M436 734H520L596 428Q605 392 611 366T624 312T637 246T656 149Q660 128 662 120T670 111Q676 111 678 117Q680 122 680 130T682 145Q694 209 701 248T714 317T726 375T742 444L810 734H900L717 0H610L540 275Q535 295 531 312T524 344L513 405L486 546Q484 558 482 569T478 592Q478 597 473 597Q471 597 469 596T467 592L459 546Q448 478 436 415T407 282L340 0H233L45 734H143L221 414Q223 406 228 382T238 329T250 272T259 225L278 123Q279 119 282 116T288 112Q293 112 295 117T300 132Q303 144 307 164T315 208T324 255T331 295Q333 306 336 321T344 354T352 387T359 417L436 734Z"  />
<glyph unicode="X" horiz-adv-x="667" d="M603 734L382 384L636 0H512L398 183Q396 185 388 199T369 231T350 264T340 282Q334 296 332 301T324 306Q319 306 316 300T300 273Q288 252 272 223T243 172L140 0H31L266 378L34 734H154L279 532Q282 527 288 515T302 489T316 465T323 454Q325 453 329 453Q333 453 346 481Q362 512 370 526T387 556L493 734H603Z"  />
<glyph unicode="Y" horiz-adv-x="667" d="M392 289V0H284V284L34 733H154L309 433L332 385L339 376H346Q348 380 352 389T362 408T371 428T377 440L529 734H634L392 289Z"  />
<glyph unicode="Z" horiz-adv-x="611" d="M57 75L347 553L378 600Q382 605 387 612T397 626Q401 630 403 637Q401 642 395 643Q391 645 384 645T370 645Q365 645 353 645T326 643T295 642T268 641H69V734H538V671L317 308Q299 278 284 254T257 211T233 174T209 139Q202 128 198 122T192 111T190 103T188 95L192 90Q197 87 201 87T209 88Q217 90 228 90T248 91Q267 92 285 92T321 93H555V0H57V75Z"  />
<glyph unicode="[" horiz-adv-x="389" d="M58 -7V736L347 729V688L141 692V36L347 39V-1L58 -7Z"  />
<glyph unicode="\" horiz-adv-x="278" d="M-22 745H63L300 -22H216L-22 745Z"  />
<glyph unicode="]" horiz-adv-x="389" d="M42 -1V39L248 36V692L42 688V729L331 736V-7L42 -1Z"  />
<glyph unicode="^" horiz-adv-x="600" d="M337 700L561 246H477L299 614L123 246H39L261 700H337Z"  />
<glyph unicode="_" horiz-adv-x="500" d="M0 -125V-75H500V-125H0Z"  />
<glyph unicode="`" horiz-adv-x="278" d="M199 574H132L1 715H110L199 574Z"  />
<glyph unicode="a" horiz-adv-x="500" d="M416 117Q416 107 416 97T421 78T435 64T461 60V-11Q428 -9 404 -4T359 24Q353 30 344 44T333 76L330 78Q328 76 323 72T313 63T304 53T297 47Q274 27 255 16T219 -1T186 -8T151 -10Q123 -10 100 0T60 29T34 70T24 118Q24 167 45 203T101 266Q144 298 201 310T324 324V392Q324 400 323 412T314 435T290 455T242 464Q203 464 164 447T91 409L52 476Q76 489 98 500T143 519T191 531T248 536Q276 536 310 528T368 501Q396 479 406 450T416 381V117ZM324 271Q283 271 245 263T178 238T132 196T115 136Q115 103 136 79T193 54Q215 54 234 62T270 81T300 105T324 128V271Z"  />
<glyph unicode="b" horiz-adv-x="500" d="M60 713L148 747V451Q148 447 152 443L162 444Q173 462 179 471T190 486Q196 493 204 501T224 517T252 530T289 535Q326 535 357 517T410 464T445 378T458 258Q458 239 456 212T447 155T428 95T398 42T352 3T288 -12Q258 -12 237 0T200 28T174 62T159 91Q155 99 153 102T147 105Q145 105 143 103T141 98L139 -18L60 16V713ZM269 62Q294 62 311 74T339 105T356 147T364 192T367 231T368 258Q368 283 366 318T353 385T322 440T265 463Q252 463 232 455T192 424T160 361T146 257Q146 219 154 184T179 122T217 79T269 62Z"  />
<glyph unicode="c" horiz-adv-x="444" d="M321 378Q318 387 313 401T297 428T271 451T232 461Q185 461 154 415T123 288Q123 255 126 217T139 151Q144 137 152 122T173 95T202 74T240 66Q281 66 302 96T329 166L409 130Q396 65 352 27T240 -11Q190 -11 156 6T98 51T63 110T44 171T37 223T35 253Q35 272 36 296T42 347T57 403T88 459Q105 483 124 497T162 520T198 531T229 534Q237 534 253 532T288 524T328 506T363 473Q377 454 383 445T397 416L321 378Z"  />
<glyph unicode="d" horiz-adv-x="500" d="M435 748V19L358 -14L354 101Q354 108 348 108Q344 108 342 104T336 91Q335 88 328 77T309 51T286 24T262 4Q252 -1 238 -5T207 -10Q166 -10 134 10T81 68T48 158T37 273Q37 315 46 361T74 447T126 511T205 537Q228 537 244 532T273 518T297 497T319 471L328 458Q330 456 333 450T340 443Q347 443 347 454V715L435 748ZM127 252Q127 235 129 204T142 141T172 88T229 65Q259 65 282 83T320 131T342 196T350 264Q350 307 341 344T316 408T277 450T230 465Q201 465 182 449T150 405T133 337T127 252Z"  />
<glyph unicode="e" horiz-adv-x="500" d="M444 252H134Q134 208 140 172T162 111T201 71T260 57Q283 57 300 62T330 73T351 87T366 101L418 53Q405 42 391 30T356 9T310 -7T248 -13Q203 -13 165 4T100 55T57 137T42 247Q42 313 54 360T85 440T127 491T173 519T215 532T247 535Q294 535 330 517T391 466T429 391T443 300L444 252ZM354 313Q354 347 348 375T328 425T296 458T249 470Q217 470 193 452T155 404Q143 375 141 351T137 313H354Z"  />
<glyph unicode="f" horiz-adv-x="333" d="M41 479H114V594Q114 621 119 650T153 708Q177 732 206 738T256 745Q271 745 292 743T333 731V655Q322 660 308 665T273 671Q249 671 236 663T216 642T209 615T208 591V481H300V421H208V0H114V421H41V479Z"  />
<glyph unicode="g" horiz-adv-x="500" d="M359 525H431V54Q431 43 430 30T426 3T422 -20T419 -34Q419 -36 415 -47T400 -73T374 -103T332 -129Q321 -134 292 -143T216 -152Q210 -152 197 -152T168 -150T132 -145T93 -136V-45H130Q135 -52 141 -58T157 -70T181 -79T217 -82Q235 -82 250 -79T275 -71T292 -63T300 -58Q316 -47 325 -32T338 0T342 30T343 54V130L339 135Q334 135 332 132T322 117Q319 111 310 100T287 79T251 61T203 53Q152 53 118 81T65 147Q44 189 40 232T35 316Q35 363 48 403T83 472T136 518T201 535Q231 535 253 528T290 509T317 483T336 453Q342 442 343 439T350 434Q353 436 356 438T359 447V525ZM227 126Q240 126 260 132T299 156T333 207T347 294Q347 340 338 373T312 427T274 458T228 468Q189 468 168 445T137 391T126 329T124 280Q124 268 126 242T139 191T170 146T227 126Z"  />
<glyph unicode="h" horiz-adv-x="500" d="M67 713L157 750V442Q157 432 165 432Q169 432 176 442T190 463Q219 507 253 521T322 536Q378 536 402 501T426 409V0H337V406Q337 435 327 452T287 469Q259 469 229 445Q209 429 190 403T157 356V0H67V713Z"  />
<glyph unicode="i" horiz-adv-x="278" d="M81 715H197V620H81V715ZM95 523H185V0H95V523Z"  />
<glyph unicode="j" horiz-adv-x="278" d="M12 -55Q27 -62 41 -67T67 -73Q92 -73 101 -58T110 -24V523H201V-30Q201 -51 196 -73T176 -113T138 -142T76 -154Q68 -154 62 -154T50 -153T35 -151T12 -147V-55ZM100 713H211V618H100V713Z"  />
<glyph unicode="k" horiz-adv-x="500" d="M462 523L272 271L471 9V0H366L172 265L360 523H462ZM67 713L141 745H155V0H67V713Z"  />
<glyph unicode="l" horiz-adv-x="278" d="M94 713L171 745H184V0H94V713Z"  />
<glyph unicode="m" horiz-adv-x="778" d="M75 507L154 537V414L160 407Q165 409 167 410T174 417Q192 439 202 452T220 473T235 487T251 501Q264 511 284 522T336 534Q366 534 384 523T413 495T427 458T433 419L436 417Q437 417 437 417T439 418Q444 420 447 425T455 435Q482 464 503 483T544 513T580 530T617 535Q627 535 649 530T690 499Q695 491 698 484T704 463T708 431T709 381V0H623V372Q623 388 622 404T616 434T601 456T570 465Q541 465 511 434T435 346V0H349V388Q349 415 345 430T334 452T319 462T302 464Q288 464 273 457T230 423Q224 417 219 412T207 399T190 376T161 338V0H75V507Z"  />
<glyph unicode="n" horiz-adv-x="500" d="M71 503L153 536V434Q153 431 155 428T161 424Q165 424 169 428T178 438L198 465Q221 497 252 514T324 532Q342 532 359 528T392 512Q400 507 407 499T419 479T427 447T430 399V0H342V397Q342 402 341 413T336 436T320 457T290 466Q272 466 257 458T229 440T210 421T200 410Q177 379 169 367T161 354V0H71V503Z"  />
<glyph unicode="o" horiz-adv-x="500" d="M43 271Q43 339 59 389T103 471T167 520T244 536Q281 536 309 527T358 504T393 471T418 433Q427 416 434 394T446 348T454 301T457 259Q457 200 443 151T401 65T335 9T248 -11Q214 -11 189 -4T147 15T118 39T99 61Q70 98 57 150T43 271ZM248 461Q211 461 188 440T153 388T136 321T131 255Q131 240 135 209T151 146T186 91T249 67Q285 67 307 87T341 137T358 201T362 264Q362 277 361 293T358 326T352 359T344 388Q335 414 320 430T286 454Q269 461 248 461Z"  />
<glyph unicode="p" horiz-adv-x="500" d="M368 274Q368 295 366 327T353 391T322 444T266 467Q237 467 215 449T177 402T154 338T146 269Q146 210 157 172T187 111T228 79T271 70Q287 70 304 78T336 110T359 172T368 274ZM61 512L140 547V435Q140 429 142 426T147 423Q151 423 154 426Q158 429 165 447T187 486T226 524T289 541Q332 541 365 518T416 460Q438 419 448 367T459 270Q459 201 446 149T409 63T355 11T290 -7Q264 -7 232 9T176 60Q165 77 161 81T154 85Q151 85 150 80T149 71V-175H61V512Z"  />
<glyph unicode="q" horiz-adv-x="500" d="M228 69Q261 69 284 87T321 134T341 197T347 263Q347 314 336 352T308 415T270 454T228 467Q193 467 172 443T141 387T127 322T124 272Q124 235 127 203T144 138Q148 128 154 116T169 94T193 76T228 69ZM433 -175H345V71Q345 85 339 85Q334 85 333 84T328 77Q304 39 273 16T204 -7Q171 -7 141 9T87 59T49 142T35 258Q35 333 49 386T86 474T139 525T201 541Q232 541 254 531T292 505T317 471T334 437Q338 429 339 427T346 423L352 426Q352 428 352 430T353 435V547L433 512V-175Z"  />
<glyph unicode="r" horiz-adv-x="389" d="M69 503L153 537V371Q153 366 154 363T158 359H169Q171 362 175 368T185 383T194 397T200 407Q225 444 249 468T292 508T326 529T345 537V389Q328 392 312 392Q265 392 228 365T162 299V0H69V503Z"  />
<glyph unicode="s" horiz-adv-x="389" d="M307 419Q278 440 253 453T189 467Q168 467 154 461T130 445T116 423T111 398Q111 369 130 352T174 323L258 281Q269 276 285 267T317 241T344 201T355 144Q355 109 342 80T307 30T252 -2T183 -14Q126 -14 89 3T29 36L64 104Q102 74 128 63T186 51Q229 51 252 76T275 133Q275 149 271 160T254 182T222 204T169 231Q133 249 108 265T67 300T44 340T37 387Q37 421 49 448T83 493T133 521T193 531Q207 531 221 530T253 525T289 513T333 490L307 419Z"  />
<glyph unicode="t" horiz-adv-x="333" d="M12 481H87V600L171 681H181V481H264V424H176V113Q176 109 176 102T181 86T194 72T220 66Q243 66 266 75T308 95V16Q288 5 259 -2T206 -10Q197 -10 177 -7T137 7T102 40T86 102V424H12V481Z"  />
<glyph unicode="u" horiz-adv-x="500" d="M346 -13V84Q346 87 345 92T340 97Q334 97 331 94Q322 84 311 69T289 40Q266 15 238 2T177 -12Q156 -12 137 -5T103 18T81 59T72 120V523H162V146Q162 136 163 121T169 90T185 65T216 54Q249 54 276 85T342 171V523H429V17L346 -13Z"  />
<glyph unicode="v" horiz-adv-x="444" d="M415 523L280 0H172L29 523H123L202 183L210 142Q212 134 213 124T216 108Q217 106 218 104T223 101H230Q233 101 234 104T237 109Q240 117 241 129T244 149L251 184L328 523H415Z"  />
<glyph unicode="w" horiz-adv-x="722" d="M127 523L190 241L215 100L223 93L232 100L259 241L322 523H416L479 245L505 100Q505 98 506 97T510 94Q518 100 519 106L544 248L602 523H683Q683 518 682 515L549 0H456L403 241L375 421Q374 427 366 431Q359 428 358 422L323 220L272 0H179L39 523H127Z"  />
<glyph unicode="x" horiz-adv-x="500" d="M354 523H454L300 269L462 0H357L251 199Q249 201 248 201Q247 200 246 200T243 199L138 0H38L197 263L39 523H146L245 336Q246 335 249 333Q251 334 253 335T256 338L354 523Z"  />
<glyph unicode="y" horiz-adv-x="444" d="M24 -68H42Q46 -73 57 -83T94 -94Q111 -94 123 -87T145 -65T164 -24T187 38L18 523H113L191 281Q192 276 195 266T202 244T208 222T212 207Q216 193 219 182T226 168L232 171Q236 190 240 204T247 231T253 256T262 284L334 523H422L257 7Q239 -50 222 -86T185 -141T141 -168T83 -175Q66 -175 54 -173T24 -166V-68Z"  />
<glyph unicode="z" horiz-adv-x="444" d="M46 67L212 331Q228 356 246 383T280 427Q283 430 286 433T289 442Q289 445 288 447Q285 449 281 449L228 447H56V523H391V454L161 95Q158 91 156 81Q161 76 163 75T171 74Q175 74 191 75T227 76T264 78T289 79H394V0H46V67Z"  />
<glyph unicode="{" horiz-adv-x="333" d="M310 685H260Q245 685 236 678T222 658T214 631T212 599V486Q212 451 202 427T177 387T149 363T125 354V351Q134 349 148 342T177 320T201 279T212 215V130Q212 115 214 100T221 72T236 52T260 44H310V-18H238Q219 -18 200 -10T166 15T140 56T130 113V199Q130 226 123 248T105 286T78 310T47 319V386Q79 386 104 417T130 502V616Q130 648 140 672T165 713T200 738T238 747H310V685Z"  />
<glyph unicode="|" horiz-adv-x="222" d="M70 750H152V-250H70V750Z"  />
<glyph unicode="}" horiz-adv-x="333" d="M23 747H95Q114 747 133 739T167 714T193 673T203 616V502Q203 449 228 418T286 386V319Q270 319 255 311T229 287T210 249T203 199V113Q203 81 193 57T168 16T133 -9T95 -18H23V44H73Q88 44 97 51T111 71T119 99T121 130V215Q121 253 131 278T156 319T184 342T208 351V354Q199 355 185 363T156 386T132 426T121 486V599Q121 615 119 630T112 658T97 677T73 685H23V747Z"  />
<glyph unicode="~" horiz-adv-x="600" d="M59 233Q83 270 113 296T191 323Q227 323 255 313T309 289Q335 275 359 265T409 255Q438 255 459 275T497 319L541 267Q529 248 516 232T486 203T451 185T409 179Q377 179 350 190T297 213Q271 225 246 236T191 247Q162 247 141 227T105 181L59 233Z"  />
<glyph unicode="&#xA0;" horiz-adv-x="275" />
<glyph unicode="&#xA1;" horiz-adv-x="389" d="M141 -175L142 -114L161 315H225L244 -114L245 -175H141ZM196 431Q162 431 144 452T126 499Q126 529 147 548T195 568Q222 568 243 548T264 499Q264 473 245 452T196 431Z"  />
<glyph unicode="&#xA2;" horiz-adv-x="556" d="M318 453Q302 461 283 461Q236 461 205 415T174 288Q174 255 177 217T190 151Q191 146 194 144L318 453ZM372 378Q370 385 366 395T356 415L227 92Q240 80 255 73T291 66Q332 66 353 96T380 166L460 130Q447 65 403 27T291 -11Q262 -11 239 -5T195 13L139 -126H85L154 46Q129 72 116 105T96 168T88 222T86 253Q86 272 87 296T93 347T108 403T139 459Q156 483 175 497T213 520T249 531T280 534Q288 534 305 532T345 521L392 637H445L389 498Q396 493 402 487T414 473Q428 454 434 445T448 416L372 378Z"  />
<glyph unicode="&#xA3;" horiz-adv-x="556" d="M9 396H119Q113 429 110 449T105 483T103 508T102 534Q102 576 115 615T154 683T219 731T313 749Q338 749 363 743T409 728T449 708T481 686L429 598Q406 633 376 652T304 671Q264 671 242 655T209 619T196 579T193 552Q193 542 193 534T196 512T204 471T220 396H377V331H231Q231 327 231 318T232 298T233 278T234 265Q234 215 225 182T206 123Q219 115 236 106T273 88T312 74T354 68Q387 68 406 80T435 110T447 145T451 174H512Q512 157 511 136T503 93T485 49T451 9Q431 -8 408 -14T358 -20Q348 -20 330 -18T288 -7T233 18T170 61Q132 19 94 0T32 -18V88Q55 92 75 104T112 136T137 184T146 247Q146 274 142 295T134 331H9V396Z"  />
<glyph unicode="&#xA4;" horiz-adv-x="600" d="M300 451Q271 451 247 440T206 409T178 364T168 311Q168 283 178 258T205 214T247 184T300 173Q329 173 353 184T396 214T424 258T434 311Q434 339 424 364T396 408T354 439T300 451ZM123 188Q106 213 96 244T86 311Q86 347 96 379T123 434L25 532L81 586L177 488Q200 505 232 516T300 527Q338 527 369 516T423 488L521 586L575 532L477 434Q494 411 505 379T516 311Q516 275 505 243T477 188L575 90L521 36L423 134Q401 118 369 108T300 97Q264 97 232 107T177 134L81 36L25 90L123 188Z"  />
<glyph unicode="&#xA5;" horiz-adv-x="667" d="M548 734L422 458H548V396H394L392 389V220H548V158H392V0H284V158H121V220H284V384L280 396H121V458H251L121 733H236L319 533Q327 514 331 495T341 476Q347 476 352 497T367 540L447 734H548Z"  />
<glyph unicode="&#xA6;" horiz-adv-x="222" d="M70 175H152V-175H70V175ZM70 675H152V325H70V675Z"  />
<glyph unicode="&#xA7;" horiz-adv-x="556" d="M377 619Q363 642 348 656T317 678T288 689T263 692Q234 692 210 676T186 628Q186 603 202 585T255 548Q263 543 274 539T293 530L381 488Q390 483 407 474T440 449T469 411T482 358Q482 328 470 308T441 274T405 253T372 240V237Q373 235 377 232T387 224T397 217T403 212Q446 173 446 118Q446 90 435 65T402 22T347 -8T271 -19Q261 -19 248 -18T218 -12T186 -1T155 16Q126 36 112 54T86 90L162 120Q167 110 175 96T196 70T230 48T279 39Q307 39 324 47T351 67T364 90T367 109Q367 125 360 137T343 158T322 173T302 183L208 223Q186 232 161 246T113 280T76 326T61 385Q61 417 74 438T105 473T139 491T162 497Q167 497 171 498T176 503Q176 508 157 517Q149 521 139 530T119 552T104 583T97 620Q97 648 110 672T145 714T198 741T262 751Q299 751 329 742T382 717T422 684T448 648L377 619ZM410 324Q410 362 384 385T306 432Q280 444 263 450T235 460T215 464T198 465Q163 465 148 445T132 403Q132 382 148 364T178 335Q185 330 198 323T228 308T259 293T285 282Q299 277 313 274T344 270Q376 270 393 285T410 324Z"  />
<glyph unicode="&#xA8;" horiz-adv-x="278" d="M13 688H105V586H13V688ZM174 688H265V586H174V688Z"  />
<glyph unicode="&#xA9;" horiz-adv-x="800" d="M769 351Q769 271 739 204T659 89T541 15T401 -12Q327 -12 260 14T142 89T61 204T31 351Q31 430 61 496T142 611T260 685T401 712Q474 712 541 686T658 611T739 497T769 351ZM701 351Q701 414 678 469T614 566T519 631T401 655Q338 655 283 631T187 566T123 470T99 351Q99 287 122 232T187 135T283 69T401 45Q464 45 518 69T613 134T677 231T701 351ZM591 285Q584 249 568 221T529 173T476 143T413 132Q365 132 326 149T260 195T217 265T202 352Q202 399 216 439T258 508T323 554T411 571Q480 571 529 533T590 421H521Q513 459 484 481T411 504Q379 504 355 493T315 461T290 414T281 353Q281 322 290 294T316 245T358 211T413 198Q458 198 487 222T521 285H591Z"  />
<glyph unicode="&#xAA;" horiz-adv-x="350" d="M270 489Q270 483 270 477T274 466T283 458T300 455V412Q274 414 258 416T228 433Q224 437 219 445T211 465L210 466Q208 464 202 457T193 447Q164 424 143 419T98 413Q62 413 39 436T16 490Q16 519 29 541T66 579Q94 598 131 605T206 613V649Q206 654 205 661T200 675T185 687T157 692Q132 692 107 683T59 664L34 705Q66 721 93 731T161 741Q179 741 201 736T239 720Q257 706 263 689T270 648V489ZM206 577Q152 576 116 558T80 501Q80 481 92 466T120 451Q149 451 170 467T206 496V577Z"  />
<glyph unicode="&#xAB;" horiz-adv-x="556" d="M465 110V106H382L259 265L389 419H475L343 266L465 110ZM284 110V106H200L78 265L207 419H293L161 266L284 110Z"  />
<glyph unicode="&#xAC;" horiz-adv-x="600" d="M470 316H48V398H552V109H470V316Z"  />
<glyph unicode="&#xAD;" horiz-adv-x="333" d="M37 300H296V216H37V300Z"  />
<glyph unicode="&#xAE;" horiz-adv-x="800" d="M325 504V382H411Q452 382 467 400T483 444Q483 470 468 487T411 504H325ZM415 556Q441 556 466 552T511 536T543 505T555 454Q555 416 533 390T473 356V352Q495 349 507 342T526 323T536 296T541 262Q546 236 550 206T565 152H491Q488 169 485 186T479 220Q476 241 474 260T463 294Q455 309 442 318T411 328H325V152H257V556H415ZM769 351Q769 271 739 204T659 89T541 15T401 -12Q327 -12 260 14T142 89T61 204T31 351Q31 430 61 496T142 611T260 685T401 712Q474 712 541 686T658 611T739 497T769 351ZM701 351Q701 414 678 469T614 566T519 631T401 655Q338 655 283 631T187 566T123 470T99 351Q99 287 122 232T187 135T283 69T401 45Q464 45 518 69T613 134T677 231T701 351Z"  />
<glyph unicode="&#xAF;" horiz-adv-x="278" d="M-17 666H295V608H-17V666Z"  />
<glyph unicode="&#xB0;" horiz-adv-x="400" d="M201 712Q232 712 259 701T306 669T337 622T349 564Q349 532 338 505T306 458T259 426T201 414Q169 414 142 425T95 457T63 505T51 564Q51 595 62 622T94 669T142 700T201 712ZM201 670Q179 670 161 662T129 638T107 604T99 564Q99 542 107 523T128 488T160 465T201 456Q222 456 240 464T271 488T293 522T301 564Q301 585 293 604T272 638T240 661T201 670Z"  />
<glyph unicode="&#xB1;" horiz-adv-x="600" d="M259 530H341V358H552V276H341V104H259V276H48V358H259V530ZM48 46H552V-36H48V46Z"  />
<glyph unicode="&#xB2;" horiz-adv-x="400" d="M42 656Q56 683 71 700T114 732Q137 745 159 748T195 752Q210 752 235 748T284 729T325 690T342 624Q342 611 337 592T319 554Q314 547 307 539T290 521T263 499T224 470L173 434Q153 420 143 406T130 390Q124 380 123 373T120 358H343V304H47Q48 344 56 373T81 426T122 471T179 516Q196 528 213 541T243 567T265 596T274 626Q274 637 271 650T258 673T235 691T199 698Q173 698 143 684T93 626L42 656Z"  />
<glyph unicode="&#xB3;" horiz-adv-x="400" d="M27 347Q36 346 43 346T56 346Q69 346 87 346T127 350T172 361T217 382Q235 393 246 404T262 426T270 445T272 457Q272 490 250 505T197 520Q188 520 181 519T166 516T147 511T121 503L103 547Q126 556 143 562T175 576T201 591T225 611Q231 616 240 626T249 652Q249 676 230 688T191 701Q154 701 128 684T69 640L34 685Q43 693 57 704T91 726T136 744T195 752Q244 752 279 730T314 660Q314 637 303 621T277 592T246 572T221 560Q239 559 263 555T309 530Q329 512 334 492T340 457Q340 427 321 393T254 333Q225 317 194 309T133 296T76 292T27 292V347Z"  />
<glyph unicode="&#xB4;" horiz-adv-x="278" d="M265 715L134 574H67L156 715H265Z"  />
<glyph unicode="&#xB5;" horiz-adv-x="576" d="M160 523V188Q160 128 192 93T283 58Q314 58 339 71T382 106T408 156T418 214V523H500V0H418V76H414Q391 32 355 10T273 -12Q238 -12 210 0T161 40H158L159 36Q160 32 160 23T160 3T160 -17T160 -30V-192H78V523H160Z"  />
<glyph unicode="&#xB6;" horiz-adv-x="600" d="M523 734V-156H441V662H325V-156H243V332Q194 332 155 347T87 389T44 453T29 534Q29 583 46 620T93 682T167 721T263 734H523Z"  />
<glyph unicode="&#xB7;" horiz-adv-x="278" d="M208 375Q208 363 204 352T190 331T168 315T139 309Q111 309 91 327T70 376Q70 406 91 424T138 443Q166 443 187 424T208 375Z"  />
<glyph unicode="&#xB8;" horiz-adv-x="278" d="M113 0H161L115 -62Q123 -60 129 -59T146 -58Q170 -58 186 -65T212 -83T226 -108T230 -133Q230 -175 198 -200T112 -225Q82 -225 58 -218T15 -203L32 -163Q54 -171 67 -174T97 -178Q106 -178 116 -177T134 -171T148 -158T154 -136Q154 -124 149 -117T136 -105T120 -99T106 -97Q99 -97 91 -98T67 -105L50 -86L113 0Z"  />
<glyph unicode="&#xB9;" horiz-adv-x="400" d="M63 356H164V690H56V743H233V356H326V304H63V356Z"  />
<glyph unicode="&#xBA;" horiz-adv-x="350" d="M41 583Q41 624 51 654T80 703T121 732T172 742Q235 742 272 699T310 575Q310 538 300 508T272 457T229 425T174 413Q112 413 77 457T41 583ZM102 574Q102 523 123 495T175 467Q204 467 224 493T244 579Q244 633 227 662T174 692Q144 692 123 665T102 574Z"  />
<glyph unicode="&#xBB;" horiz-adv-x="556" d="M212 266L81 419H166L296 265L173 106H90V110L212 266ZM394 266L262 419H348L478 265L355 106H272V110L394 266Z"  />
<glyph unicode="&#xBC;" horiz-adv-x="1000" d="M805 172V409H799L658 176Q656 174 658 172H805ZM868 440V173H921V122H868V0H806V122H610V189L763 440H868ZM58 353H162V693H51V743H228V353H321V304H58V353ZM264 -13L699 751H763L329 -13H264Z"  />
<glyph unicode="&#xBD;" horiz-adv-x="1000" d="M50 353H154V693H43V743H220V353H313V304H50V353ZM256 -13L691 751H755L321 -13H256ZM656 352Q670 379 685 396T728 428Q751 441 773 444T809 448Q824 448 849 444T898 425T939 386T956 320Q956 307 951 288T933 250Q928 243 921 235T904 217T877 195T838 166L787 130Q767 116 757 102T744 86Q738 76 737 69T734 54H957V0H661Q662 40 670 69T695 122T736 167T793 212Q810 224 827 237T857 263T879 292T888 322Q888 333 885 346T872 369T849 387T813 394Q787 394 757 380T707 322L656 352Z"  />
<glyph unicode="&#xBE;" horiz-adv-x="1000" d="M859 172V409H853L712 176Q710 174 712 172H859ZM922 440V173H975V122H922V0H860V122H664V189L817 440H922ZM298 -13L733 751H797L363 -13H298ZM69 344Q78 343 85 343T101 343Q114 343 132 343T172 347T217 358T262 379Q298 401 307 424T317 460Q317 493 295 508T239 523Q221 523 208 520T166 506L148 547Q171 556 188 562T220 576T246 591T270 611Q276 616 285 626T294 655Q294 679 275 691T230 704Q193 704 167 687T111 643L76 685Q85 693 99 704T133 726T178 744T237 752Q286 752 321 730T356 660Q356 637 345 621T319 592T288 572T263 560Q281 559 305 555T351 530Q371 512 376 492T382 457Q382 427 363 393T296 333Q267 317 236 309T175 296T118 292T69 292V344Z"  />
<glyph unicode="&#xBF;" horiz-adv-x="500" d="M312 335Q313 289 309 254T293 191T266 138T229 90Q213 72 203 59T186 35T177 12T174 -16Q174 -50 197 -74T259 -98Q285 -98 302 -88T331 -64T349 -35T358 -9L451 -43Q446 -53 440 -66T422 -94T394 -124T352 -151Q337 -159 317 -165T255 -171Q237 -171 207 -165T148 -142T98 -94T77 -11Q77 12 81 29T94 61T112 89T133 115Q157 143 171 160T194 188T205 203T212 214Q225 241 227 275T228 335H312ZM200 506Q200 526 207 539T226 561T249 573T271 577Q300 577 320 556T341 507Q341 483 323 462T272 440Q241 440 221 459T200 506Z"  />
<glyph unicode="&#xC0;" horiz-adv-x="667" d="M448 238L332 612Q330 616 327 616Q324 616 322 611L213 238H448ZM477 153H187L141 0H34L271 734H386L634 0H527L477 153ZM394 785H327L196 926H305L394 785Z"  />
<glyph unicode="&#xC1;" horiz-adv-x="667" d="M448 238L332 612Q330 616 327 616Q324 616 322 611L213 238H448ZM477 153H187L141 0H34L271 734H386L634 0H527L477 153ZM460 926L329 785H262L351 926H460Z"  />
<glyph unicode="&#xC2;" horiz-adv-x="667" d="M448 238L332 612Q330 616 327 616Q324 616 322 611L213 238H448ZM477 153H187L141 0H34L271 734H386L634 0H527L477 153ZM380 926L480 785H400L334 879L268 785H188L288 926H380Z"  />
<glyph unicode="&#xC3;" horiz-adv-x="667" d="M448 238L332 612Q330 616 327 616Q324 616 322 611L213 238H448ZM477 153H187L141 0H34L271 734H386L634 0H527L477 153ZM504 910Q500 875 488 854T460 821T429 805T403 801Q389 801 371 806T319 823Q302 829 293 832T277 836T266 838T258 839Q245 839 237 834T223 823T215 808T210 794H164Q168 827 179 848T205 881T236 897T268 902Q290 902 310 896T357 878Q368 873 374 871T386 867T395 866T404 865Q427 865 438 876T453 910H504Z"  />
<glyph unicode="&#xC4;" horiz-adv-x="667" d="M448 238L332 612Q330 616 327 616Q324 616 322 611L213 238H448ZM477 153H187L141 0H34L271 734H386L634 0H527L477 153ZM208 899H300V797H208V899ZM369 899H460V797H369V899Z"  />
<glyph unicode="&#xC5;" horiz-adv-x="667" d="M448 238L332 612Q330 616 327 616Q324 616 322 611L213 238H448ZM477 153H187L141 0H34L271 734H386L634 0H527L477 153ZM336 966Q373 966 398 941T424 877Q424 839 399 813T336 787Q317 787 301 794T272 813T253 841T246 877Q246 896 253 912T272 940T300 959T336 966ZM336 925Q316 925 303 911T289 877Q289 858 302 844T336 829Q354 829 367 843T381 877Q381 897 368 911T336 925Z"  />
<glyph unicode="&#xC6;" horiz-adv-x="1000" d="M477 660H433L263 289H477V660ZM822 338H581V90H931V0H478V206H225L131 0H19L367 734H917V644H581V428H822V338Z"  />
<glyph unicode="&#xC7;" horiz-adv-x="611" d="M435 521Q432 550 426 569T412 601T397 620T383 632Q375 639 359 647T313 656Q286 656 266 647T232 623T208 592T193 560Q183 535 177 506T168 450T164 406T163 384Q163 324 169 267T192 165T238 93T313 66Q335 66 351 73T380 89T399 107T410 122Q425 148 429 176T436 222L536 204Q533 160 517 116T467 39Q449 21 430 9T392 -9T358 -19T329 -23L300 -62Q308 -60 314 -59T331 -58Q355 -58 371 -65T397 -83T411 -108T415 -133Q415 -175 383 -200T297 -225Q267 -225 243 -218T200 -203L217 -163Q239 -171 252 -174T282 -178Q291 -178 301 -177T319 -171T333 -158T339 -136Q339 -124 334 -117T321 -105T305 -99T291 -97Q284 -97 276 -98T252 -105L235 -86L282 -22Q264 -20 241 -13T194 9T146 52T104 121T74 221T63 360Q63 423 73 491T110 615T186 707T313 743Q348 743 390 731T466 683Q485 664 496 644T515 605T525 569T531 539L435 521Z"  />
<glyph unicode="&#xC8;" horiz-adv-x="667" d="M120 734H576V644H225V431H484V338H227V93H595V0H120V734ZM394 785H327L196 926H305L394 785Z"  />
<glyph unicode="&#xC9;" horiz-adv-x="667" d="M120 734H576V644H225V431H484V338H227V93H595V0H120V734ZM460 926L329 785H262L351 926H460Z"  />
<glyph unicode="&#xCA;" horiz-adv-x="667" d="M120 734H576V644H225V431H484V338H227V93H595V0H120V734ZM380 926L480 785H400L334 879L268 785H188L288 926H380Z"  />
<glyph unicode="&#xCB;" horiz-adv-x="667" d="M120 734H576V644H225V431H484V338H227V93H595V0H120V734ZM208 899H300V797H208V899ZM369 899H460V797H369V899Z"  />
<glyph unicode="&#xCC;" horiz-adv-x="389" d="M79 65H141V667H79V734H310V667H245V65H310V0H79V65ZM255 785H188L57 926H166L255 785Z"  />
<glyph unicode="&#xCD;" horiz-adv-x="389" d="M79 65H141V667H79V734H310V667H245V65H310V0H79V65ZM321 926L190 785H123L212 926H321Z"  />
<glyph unicode="&#xCE;" horiz-adv-x="389" d="M79 65H141V667H79V734H310V667H245V65H310V0H79V65ZM241 926L341 785H261L195 879L129 785H49L149 926H241Z"  />
<glyph unicode="&#xCF;" horiz-adv-x="389" d="M79 65H141V667H79V734H310V667H245V65H310V0H79V65ZM69 899H161V797H69V899ZM230 899H321V797H230V899Z"  />
<glyph unicode="&#xD0;" horiz-adv-x="667" d="M104 426V734H263Q354 734 418 709T524 634T585 515T604 357Q604 339 602 314T595 261T579 201T552 140Q540 119 521 95T469 49T387 14T264 0H104V338H36V426H104ZM322 426V338H206V93H282Q348 93 389 116T455 179T488 267T497 368Q497 393 495 421T486 476T468 530T439 578Q409 614 366 627T255 641H206V426H322Z"  />
<glyph unicode="&#xD1;" horiz-adv-x="722" d="M116 734H246L459 262Q459 262 463 251T473 226T484 201T489 189L519 106Q521 106 522 106T525 105Q528 108 528 110T529 120Q529 124 529 134T527 156T526 177T525 191Q523 226 523 253T523 300V734H607V0H479L265 477Q255 500 245 525T227 572T214 610T206 633Q205 634 204 634T201 635Q196 631 196 630T195 624Q195 616 196 595T197 550T199 509T200 488V0H116V734ZM531 910Q527 875 515 854T487 821T456 805T430 801Q416 801 398 806T346 823Q329 829 320 832T304 836T293 838T285 839Q272 839 264 834T250 823T242 808T237 794H191Q195 827 206 848T232 881T263 897T295 902Q317 902 337 896T384 878Q395 873 401 871T413 867T422 866T431 865Q454 865 465 876T480 910H531Z"  />
<glyph unicode="&#xD2;" horiz-adv-x="611" d="M448 362Q448 386 447 417T441 481T427 545T403 602T364 642T308 657Q260 657 231 627T185 544Q174 511 169 464T163 358Q163 323 167 274T185 179T228 101T304 69Q382 69 415 145T448 362ZM306 745Q352 745 388 730T450 689T495 632T525 567Q533 543 538 516T547 461T551 409T553 365Q553 299 542 231T504 106T428 14T306 -22Q238 -22 191 9T115 93T72 213T58 355Q58 440 72 512T118 636Q141 673 165 694T214 727T262 741T306 745ZM366 785H299L168 926H277L366 785Z"  />
<glyph unicode="&#xD3;" horiz-adv-x="611" d="M448 362Q448 386 447 417T441 481T427 545T403 602T364 642T308 657Q260 657 231 627T185 544Q174 511 169 464T163 358Q163 323 167 274T185 179T228 101T304 69Q382 69 415 145T448 362ZM306 745Q352 745 388 730T450 689T495 632T525 567Q533 543 538 516T547 461T551 409T553 365Q553 299 542 231T504 106T428 14T306 -22Q238 -22 191 9T115 93T72 213T58 355Q58 440 72 512T118 636Q141 673 165 694T214 727T262 741T306 745ZM432 926L301 785H234L323 926H432Z"  />
<glyph unicode="&#xD4;" horiz-adv-x="611" d="M448 362Q448 386 447 417T441 481T427 545T403 602T364 642T308 657Q260 657 231 627T185 544Q174 511 169 464T163 358Q163 323 167 274T185 179T228 101T304 69Q382 69 415 145T448 362ZM306 745Q352 745 388 730T450 689T495 632T525 567Q533 543 538 516T547 461T551 409T553 365Q553 299 542 231T504 106T428 14T306 -22Q238 -22 191 9T115 93T72 213T58 355Q58 440 72 512T118 636Q141 673 165 694T214 727T262 741T306 745ZM352 926L452 785H372L306 879L240 785H160L260 926H352Z"  />
<glyph unicode="&#xD5;" horiz-adv-x="611" d="M448 362Q448 386 447 417T441 481T427 545T403 602T364 642T308 657Q260 657 231 627T185 544Q174 511 169 464T163 358Q163 323 167 274T185 179T228 101T304 69Q382 69 415 145T448 362ZM306 745Q352 745 388 730T450 689T495 632T525 567Q533 543 538 516T547 461T551 409T553 365Q553 299 542 231T504 106T428 14T306 -22Q238 -22 191 9T115 93T72 213T58 355Q58 440 72 512T118 636Q141 673 165 694T214 727T262 741T306 745ZM476 910Q472 875 460 854T432 821T401 805T375 801Q361 801 343 806T291 823Q274 829 265 832T249 836T238 838T230 839Q217 839 209 834T195 823T187 808T182 794H136Q140 827 151 848T177 881T208 897T240 902Q262 902 282 896T329 878Q340 873 346 871T358 867T367 866T376 865Q399 865 410 876T425 910H476Z"  />
<glyph unicode="&#xD6;" horiz-adv-x="611" d="M448 362Q448 386 447 417T441 481T427 545T403 602T364 642T308 657Q260 657 231 627T185 544Q174 511 169 464T163 358Q163 323 167 274T185 179T228 101T304 69Q382 69 415 145T448 362ZM306 745Q352 745 388 730T450 689T495 632T525 567Q533 543 538 516T547 461T551 409T553 365Q553 299 542 231T504 106T428 14T306 -22Q238 -22 191 9T115 93T72 213T58 355Q58 440 72 512T118 636Q141 673 165 694T214 727T262 741T306 745ZM180 899H272V797H180V899ZM341 899H432V797H341V899Z"  />
<glyph unicode="&#xD7;" horiz-adv-x="600" d="M65 432L121 488L299 309L479 488L535 432L355 253L535 74L479 18L299 198L121 18L65 74L244 253L65 432Z"  />
<glyph unicode="&#xD8;" horiz-adv-x="611" d="M396 611Q381 632 360 644T308 657Q260 657 231 627T185 544Q174 511 169 464T163 358Q163 326 166 283T180 197L396 611ZM216 115Q232 94 253 82T304 69Q382 69 415 145T448 362Q448 395 445 440T431 528L216 115ZM570 793L490 640Q513 605 525 567Q533 543 538 516T547 461T551 409T553 365Q553 299 542 231T504 106T428 14T306 -22Q264 -22 230 -10T169 26L107 -94H28L121 83Q88 136 73 206T58 355Q58 440 72 512T118 636Q141 673 165 694T214 727T262 741T306 745Q349 745 382 732T441 697L491 793H570Z"  />
<glyph unicode="&#xD9;" horiz-adv-x="722" d="M230 734V245Q230 215 234 185T254 129T296 87T368 71Q394 71 427 84T480 134Q495 164 498 202T502 270V734H594V241Q594 187 581 135T529 44Q507 21 483 8T435 -12T388 -20T345 -22Q331 -22 310 -19T266 -7T218 19T175 64Q144 109 136 154T128 250V734H230ZM421 785H354L223 926H332L421 785Z"  />
<glyph unicode="&#xDA;" horiz-adv-x="722" d="M230 734V245Q230 215 234 185T254 129T296 87T368 71Q394 71 427 84T480 134Q495 164 498 202T502 270V734H594V241Q594 187 581 135T529 44Q507 21 483 8T435 -12T388 -20T345 -22Q331 -22 310 -19T266 -7T218 19T175 64Q144 109 136 154T128 250V734H230ZM487 926L356 785H289L378 926H487Z"  />
<glyph unicode="&#xDB;" horiz-adv-x="722" d="M230 734V245Q230 215 234 185T254 129T296 87T368 71Q394 71 427 84T480 134Q495 164 498 202T502 270V734H594V241Q594 187 581 135T529 44Q507 21 483 8T435 -12T388 -20T345 -22Q331 -22 310 -19T266 -7T218 19T175 64Q144 109 136 154T128 250V734H230ZM407 926L507 785H427L361 879L295 785H215L315 926H407Z"  />
<glyph unicode="&#xDC;" horiz-adv-x="722" d="M230 734V245Q230 215 234 185T254 129T296 87T368 71Q394 71 427 84T480 134Q495 164 498 202T502 270V734H594V241Q594 187 581 135T529 44Q507 21 483 8T435 -12T388 -20T345 -22Q331 -22 310 -19T266 -7T218 19T175 64Q144 109 136 154T128 250V734H230ZM235 899H327V797H235V899ZM396 899H487V797H396V899Z"  />
<glyph unicode="&#xDD;" horiz-adv-x="667" d="M392 289V0H284V284L34 733H154L309 433L332 385L339 376H346Q348 380 352 389T362 408T371 428T377 440L529 734H634L392 289ZM460 926L329 785H262L351 926H460Z"  />
<glyph unicode="&#xDE;" horiz-adv-x="667" d="M225 523V255Q235 254 244 254T265 254Q311 254 351 258T422 276T469 316T487 387Q487 438 463 465T407 506T341 521T288 523H225ZM225 609H282Q312 609 341 608T400 601T456 585T507 558Q597 495 597 385Q597 350 590 324T571 278T546 244T522 221Q498 202 473 192T420 176T366 169T314 167H225V0H123V734H225V609Z"  />
<glyph unicode="&#xDF;" horiz-adv-x="556" d="M89 507Q89 528 90 551T96 598T112 645T142 689Q162 710 195 727T277 744Q310 744 343 734T402 701T445 645T461 564Q461 520 446 491T411 442T374 415T351 404V402Q356 398 358 397T373 392Q386 388 408 376T452 340T490 280T506 190Q506 145 495 108T461 43T409 2T341 -13Q314 -13 297 -9T266 0V79Q279 72 290 69T321 65Q350 65 368 77T397 109T410 153T414 199Q414 244 404 269T382 309Q369 325 354 334T325 347T297 353T273 354V436Q282 437 294 439T319 448T343 466T363 498Q368 510 371 525T374 555Q374 576 368 596T350 633T320 659T278 669Q249 669 230 659T199 629T183 585T178 532V0H88L89 507Z"  />
<glyph unicode="&#xE0;" horiz-adv-x="500" d="M416 117Q416 107 416 97T421 78T435 64T461 60V-11Q428 -9 404 -4T359 24Q353 30 344 44T333 76L330 78Q328 76 323 72T313 63T304 53T297 47Q274 27 255 16T219 -1T186 -8T151 -10Q123 -10 100 0T60 29T34 70T24 118Q24 167 45 203T101 266Q144 298 201 310T324 324V392Q324 400 323 412T314 435T290 455T242 464Q203 464 164 447T91 409L52 476Q76 489 98 500T143 519T191 531T248 536Q276 536 310 528T368 501Q396 479 406 450T416 381V117ZM324 271Q283 271 245 263T178 238T132 196T115 136Q115 103 136 79T193 54Q215 54 234 62T270 81T300 105T324 128V271ZM310 574H243L112 715H221L310 574Z"  />
<glyph unicode="&#xE1;" horiz-adv-x="500" d="M416 117Q416 107 416 97T421 78T435 64T461 60V-11Q428 -9 404 -4T359 24Q353 30 344 44T333 76L330 78Q328 76 323 72T313 63T304 53T297 47Q274 27 255 16T219 -1T186 -8T151 -10Q123 -10 100 0T60 29T34 70T24 118Q24 167 45 203T101 266Q144 298 201 310T324 324V392Q324 400 323 412T314 435T290 455T242 464Q203 464 164 447T91 409L52 476Q76 489 98 500T143 519T191 531T248 536Q276 536 310 528T368 501Q396 479 406 450T416 381V117ZM324 271Q283 271 245 263T178 238T132 196T115 136Q115 103 136 79T193 54Q215 54 234 62T270 81T300 105T324 128V271ZM376 715L245 574H178L267 715H376Z"  />
<glyph unicode="&#xE2;" horiz-adv-x="500" d="M416 117Q416 107 416 97T421 78T435 64T461 60V-11Q428 -9 404 -4T359 24Q353 30 344 44T333 76L330 78Q328 76 323 72T313 63T304 53T297 47Q274 27 255 16T219 -1T186 -8T151 -10Q123 -10 100 0T60 29T34 70T24 118Q24 167 45 203T101 266Q144 298 201 310T324 324V392Q324 400 323 412T314 435T290 455T242 464Q203 464 164 447T91 409L52 476Q76 489 98 500T143 519T191 531T248 536Q276 536 310 528T368 501Q396 479 406 450T416 381V117ZM324 271Q283 271 245 263T178 238T132 196T115 136Q115 103 136 79T193 54Q215 54 234 62T270 81T300 105T324 128V271ZM296 715L396 574H316L250 668L184 574H104L204 715H296Z"  />
<glyph unicode="&#xE3;" horiz-adv-x="500" d="M416 117Q416 107 416 97T421 78T435 64T461 60V-11Q428 -9 404 -4T359 24Q353 30 344 44T333 76L330 78Q328 76 323 72T313 63T304 53T297 47Q274 27 255 16T219 -1T186 -8T151 -10Q123 -10 100 0T60 29T34 70T24 118Q24 167 45 203T101 266Q144 298 201 310T324 324V392Q324 400 323 412T314 435T290 455T242 464Q203 464 164 447T91 409L52 476Q76 489 98 500T143 519T191 531T248 536Q276 536 310 528T368 501Q396 479 406 450T416 381V117ZM324 271Q283 271 245 263T178 238T132 196T115 136Q115 103 136 79T193 54Q215 54 234 62T270 81T300 105T324 128V271ZM420 699Q416 664 404 643T376 610T345 594T319 590Q305 590 287 595T235 612Q218 618 209 621T193 625T182 627T174 628Q161 628 153 623T139 612T131 597T126 583H80Q84 616 95 637T121 670T152 686T184 691Q206 691 226 685T273 667Q284 662 290 660T302 656T311 655T320 654Q343 654 354 665T369 699H420Z"  />
<glyph unicode="&#xE4;" horiz-adv-x="500" d="M416 117Q416 107 416 97T421 78T435 64T461 60V-11Q428 -9 404 -4T359 24Q353 30 344 44T333 76L330 78Q328 76 323 72T313 63T304 53T297 47Q274 27 255 16T219 -1T186 -8T151 -10Q123 -10 100 0T60 29T34 70T24 118Q24 167 45 203T101 266Q144 298 201 310T324 324V392Q324 400 323 412T314 435T290 455T242 464Q203 464 164 447T91 409L52 476Q76 489 98 500T143 519T191 531T248 536Q276 536 310 528T368 501Q396 479 406 450T416 381V117ZM324 271Q283 271 245 263T178 238T132 196T115 136Q115 103 136 79T193 54Q215 54 234 62T270 81T300 105T324 128V271ZM124 688H216V586H124V688ZM285 688H376V586H285V688Z"  />
<glyph unicode="&#xE5;" horiz-adv-x="500" d="M416 117Q416 107 416 97T421 78T435 64T461 60V-11Q428 -9 404 -4T359 24Q353 30 344 44T333 76L330 78Q328 76 323 72T313 63T304 53T297 47Q274 27 255 16T219 -1T186 -8T151 -10Q123 -10 100 0T60 29T34 70T24 118Q24 167 45 203T101 266Q144 298 201 310T324 324V392Q324 400 323 412T314 435T290 455T242 464Q203 464 164 447T91 409L52 476Q76 489 98 500T143 519T191 531T248 536Q276 536 310 528T368 501Q396 479 406 450T416 381V117ZM324 271Q283 271 245 263T178 238T132 196T115 136Q115 103 136 79T193 54Q215 54 234 62T270 81T300 105T324 128V271ZM252 755Q289 755 314 730T340 666Q340 628 315 602T252 576Q233 576 217 583T188 602T169 630T162 666Q162 685 169 701T188 729T216 748T252 755ZM252 714Q232 714 219 700T205 666Q205 647 218 633T252 618Q270 618 283 632T297 666Q297 686 284 700T252 714Z"  />
<glyph unicode="&#xE6;" horiz-adv-x="778" d="M344 271Q299 270 262 261T197 235T154 193T139 138Q139 125 143 111T156 84T179 63T216 54Q238 54 257 61T292 80T322 104T344 126V271ZM410 252Q409 212 416 177T438 115T479 73T541 57Q568 57 594 68T641 101L693 53Q684 45 670 34T636 12T588 -6T525 -13Q491 -13 465 -4T419 18T387 43T371 64Q369 68 366 71T361 74Q356 74 354 73Q312 31 270 10T180 -11Q174 -11 163 -10T138 -5T112 6T87 24Q64 48 56 76T47 126Q47 163 60 190T90 237T124 268T149 284Q194 307 243 314T344 324V392Q344 399 343 411T334 435T309 455T260 464Q237 464 199 453T115 407L75 476Q117 500 156 517T248 534Q282 534 320 523T386 491Q390 487 395 487Q398 487 406 493T416 501Q435 514 458 524T525 535Q556 535 589 523T652 482Q674 460 687 433T707 379T716 332T719 300L720 252H410ZM630 313Q628 345 623 376T594 435Q581 450 564 459T523 469Q484 469 463 449T430 403T416 351T412 313H630Z"  />
<glyph unicode="&#xE7;" horiz-adv-x="444" d="M321 378Q318 387 313 401T297 428T271 451T232 461Q185 461 154 415T123 288Q123 255 126 217T139 151Q144 137 152 122T173 95T202 74T240 66Q281 66 302 96T329 166L409 130Q402 96 387 70T344 21Q333 12 318 6T289 -4T263 -9T243 -11L205 -62Q213 -60 219 -59T236 -58Q260 -58 276 -65T302 -83T316 -108T320 -133Q320 -175 288 -200T202 -225Q172 -225 148 -218T105 -203L122 -163Q144 -171 157 -174T187 -178Q196 -178 206 -177T224 -171T238 -158T244 -136Q244 -124 239 -117T226 -105T210 -99T196 -97Q189 -97 181 -98T157 -105L140 -86L198 -7Q158 0 131 20T85 67T57 124T42 180T36 226T35 253Q35 272 36 296T42 347T57 403T88 459Q105 483 124 497T162 520T198 531T229 534Q237 534 253 532T288 524T328 506T363 473Q377 454 383 445T397 416L321 378Z"  />
<glyph unicode="&#xE8;" horiz-adv-x="500" d="M444 252H134Q134 208 140 172T162 111T201 71T260 57Q283 57 300 62T330 73T351 87T366 101L418 53Q405 42 391 30T356 9T310 -7T248 -13Q203 -13 165 4T100 55T57 137T42 247Q42 313 54 360T85 440T127 491T173 519T215 532T247 535Q294 535 330 517T391 466T429 391T443 300L444 252ZM354 313Q354 347 348 375T328 425T296 458T249 470Q217 470 193 452T155 404Q143 375 141 351T137 313H354ZM310 574H243L112 715H221L310 574Z"  />
<glyph unicode="&#xE9;" horiz-adv-x="500" d="M444 252H134Q134 208 140 172T162 111T201 71T260 57Q283 57 300 62T330 73T351 87T366 101L418 53Q405 42 391 30T356 9T310 -7T248 -13Q203 -13 165 4T100 55T57 137T42 247Q42 313 54 360T85 440T127 491T173 519T215 532T247 535Q294 535 330 517T391 466T429 391T443 300L444 252ZM354 313Q354 347 348 375T328 425T296 458T249 470Q217 470 193 452T155 404Q143 375 141 351T137 313H354ZM376 715L245 574H178L267 715H376Z"  />
<glyph unicode="&#xEA;" horiz-adv-x="500" d="M444 252H134Q134 208 140 172T162 111T201 71T260 57Q283 57 300 62T330 73T351 87T366 101L418 53Q405 42 391 30T356 9T310 -7T248 -13Q203 -13 165 4T100 55T57 137T42 247Q42 313 54 360T85 440T127 491T173 519T215 532T247 535Q294 535 330 517T391 466T429 391T443 300L444 252ZM354 313Q354 347 348 375T328 425T296 458T249 470Q217 470 193 452T155 404Q143 375 141 351T137 313H354ZM296 715L396 574H316L250 668L184 574H104L204 715H296Z"  />
<glyph unicode="&#xEB;" horiz-adv-x="500" d="M444 252H134Q134 208 140 172T162 111T201 71T260 57Q283 57 300 62T330 73T351 87T366 101L418 53Q405 42 391 30T356 9T310 -7T248 -13Q203 -13 165 4T100 55T57 137T42 247Q42 313 54 360T85 440T127 491T173 519T215 532T247 535Q294 535 330 517T391 466T429 391T443 300L444 252ZM354 313Q354 347 348 375T328 425T296 458T249 470Q217 470 193 452T155 404Q143 375 141 351T137 313H354ZM124 688H216V586H124V688ZM285 688H376V586H285V688Z"  />
<glyph unicode="&#xEC;" horiz-adv-x="278" d="M94 523H184V0H94V523ZM199 574H132L1 715H110L199 574Z"  />
<glyph unicode="&#xED;" horiz-adv-x="278" d="M94 523H184V0H94V523ZM265 715L134 574H67L156 715H265Z"  />
<glyph unicode="&#xEE;" horiz-adv-x="278" d="M94 523H184V0H94V523ZM185 715L285 574H205L139 668L73 574H-7L93 715H185Z"  />
<glyph unicode="&#xEF;" horiz-adv-x="278" d="M94 523H184V0H94V523ZM13 688H105V586H13V688ZM174 688H265V586H174V688Z"  />
<glyph unicode="&#xF0;" horiz-adv-x="500" d="M248 461Q211 461 188 440T153 388T136 321T131 255Q131 240 135 209T151 146T186 91T249 67Q285 67 307 87T341 137T358 201T362 264Q362 277 361 293T358 326T352 359T344 388Q335 414 320 430T286 454Q269 461 248 461ZM472 694L362 655Q386 617 404 571T434 474T451 368T457 259Q457 246 455 221T446 166T424 105T387 48T330 6T248 -11Q214 -11 189 -4T147 15T118 39T99 61Q78 87 67 118T50 178T44 232T43 271Q43 339 59 389T103 471T167 520T244 536Q278 536 301 520T344 477Q347 474 350 474Q354 474 354 478Q343 520 330 558T297 631L180 589L160 624L276 666Q260 689 243 709T208 748L269 766Q308 728 338 689L452 729L472 694Z"  />
<glyph unicode="&#xF1;" horiz-adv-x="500" d="M71 503L153 536V434Q153 431 155 428T161 424Q165 424 169 428T178 438L198 465Q221 497 252 514T324 532Q342 532 359 528T392 512Q400 507 407 499T419 479T427 447T430 399V0H342V397Q342 402 341 413T336 436T320 457T290 466Q272 466 257 458T229 440T210 421T200 410Q177 379 169 367T161 354V0H71V503ZM420 699Q416 664 404 643T376 610T345 594T319 590Q305 590 287 595T235 612Q218 618 209 621T193 625T182 627T174 628Q161 628 153 623T139 612T131 597T126 583H80Q84 616 95 637T121 670T152 686T184 691Q206 691 226 685T273 667Q284 662 290 660T302 656T311 655T320 654Q343 654 354 665T369 699H420Z"  />
<glyph unicode="&#xF2;" horiz-adv-x="500" d="M43 271Q43 339 59 389T103 471T167 520T244 536Q281 536 309 527T358 504T393 471T418 433Q427 416 434 394T446 348T454 301T457 259Q457 200 443 151T401 65T335 9T248 -11Q214 -11 189 -4T147 15T118 39T99 61Q70 98 57 150T43 271ZM248 461Q211 461 188 440T153 388T136 321T131 255Q131 240 135 209T151 146T186 91T249 67Q285 67 307 87T341 137T358 201T362 264Q362 277 361 293T358 326T352 359T344 388Q335 414 320 430T286 454Q269 461 248 461ZM310 574H243L112 715H221L310 574Z"  />
<glyph unicode="&#xF3;" horiz-adv-x="500" d="M43 271Q43 339 59 389T103 471T167 520T244 536Q281 536 309 527T358 504T393 471T418 433Q427 416 434 394T446 348T454 301T457 259Q457 200 443 151T401 65T335 9T248 -11Q214 -11 189 -4T147 15T118 39T99 61Q70 98 57 150T43 271ZM248 461Q211 461 188 440T153 388T136 321T131 255Q131 240 135 209T151 146T186 91T249 67Q285 67 307 87T341 137T358 201T362 264Q362 277 361 293T358 326T352 359T344 388Q335 414 320 430T286 454Q269 461 248 461ZM376 715L245 574H178L267 715H376Z"  />
<glyph unicode="&#xF4;" horiz-adv-x="500" d="M43 271Q43 339 59 389T103 471T167 520T244 536Q281 536 309 527T358 504T393 471T418 433Q427 416 434 394T446 348T454 301T457 259Q457 200 443 151T401 65T335 9T248 -11Q214 -11 189 -4T147 15T118 39T99 61Q70 98 57 150T43 271ZM248 461Q211 461 188 440T153 388T136 321T131 255Q131 240 135 209T151 146T186 91T249 67Q285 67 307 87T341 137T358 201T362 264Q362 277 361 293T358 326T352 359T344 388Q335 414 320 430T286 454Q269 461 248 461ZM296 715L396 574H316L250 668L184 574H104L204 715H296Z"  />
<glyph unicode="&#xF5;" horiz-adv-x="500" d="M43 271Q43 339 59 389T103 471T167 520T244 536Q281 536 309 527T358 504T393 471T418 433Q427 416 434 394T446 348T454 301T457 259Q457 200 443 151T401 65T335 9T248 -11Q214 -11 189 -4T147 15T118 39T99 61Q70 98 57 150T43 271ZM248 461Q211 461 188 440T153 388T136 321T131 255Q131 240 135 209T151 146T186 91T249 67Q285 67 307 87T341 137T358 201T362 264Q362 277 361 293T358 326T352 359T344 388Q335 414 320 430T286 454Q269 461 248 461ZM420 699Q416 664 404 643T376 610T345 594T319 590Q305 590 287 595T235 612Q218 618 209 621T193 625T182 627T174 628Q161 628 153 623T139 612T131 597T126 583H80Q84 616 95 637T121 670T152 686T184 691Q206 691 226 685T273 667Q284 662 290 660T302 656T311 655T320 654Q343 654 354 665T369 699H420Z"  />
<glyph unicode="&#xF6;" horiz-adv-x="500" d="M43 271Q43 339 59 389T103 471T167 520T244 536Q281 536 309 527T358 504T393 471T418 433Q427 416 434 394T446 348T454 301T457 259Q457 200 443 151T401 65T335 9T248 -11Q214 -11 189 -4T147 15T118 39T99 61Q70 98 57 150T43 271ZM248 461Q211 461 188 440T153 388T136 321T131 255Q131 240 135 209T151 146T186 91T249 67Q285 67 307 87T341 137T358 201T362 264Q362 277 361 293T358 326T352 359T344 388Q335 414 320 430T286 454Q269 461 248 461ZM124 688H216V586H124V688ZM285 688H376V586H285V688Z"  />
<glyph unicode="&#xF7;" horiz-adv-x="600" d="M48 212V294H552V212H48ZM228 460Q228 490 249 511T300 532Q329 532 350 511T372 460Q372 446 366 434T351 411T328 394T301 388Q272 388 250 409T228 460ZM228 46Q228 76 249 97T300 118Q329 118 350 97T372 46Q372 32 366 20T351 -3T328 -20T301 -26Q272 -26 250 -5T228 46Z"  />
<glyph unicode="&#xF8;" horiz-adv-x="500" d="M192 87Q217 67 249 67Q285 67 307 87T341 137T358 201T362 264Q362 281 361 302T355 343L192 87ZM326 421Q310 444 286 454Q269 461 248 461Q211 461 188 440T153 388T136 321T131 255Q131 240 135 209T152 145L326 421ZM497 567L415 438Q417 436 417 435T418 433Q427 416 434 394T447 348T454 301T457 259Q457 246 455 221T446 166T424 105T387 48T330 6T248 -11Q214 -11 189 -3T147 16L99 -59H23L99 61Q78 87 67 118T50 178T44 232T43 271Q43 339 59 389T103 471T167 520T244 536Q288 536 318 524T371 493L418 567H497Z"  />
<glyph unicode="&#xF9;" horiz-adv-x="500" d="M346 -13V84Q346 87 345 92T340 97Q334 97 331 94Q322 84 311 69T289 40Q266 15 238 2T177 -12Q156 -12 137 -5T103 18T81 59T72 120V523H162V146Q162 136 163 121T169 90T185 65T216 54Q249 54 276 85T342 171V523H429V17L346 -13ZM310 574H243L112 715H221L310 574Z"  />
<glyph unicode="&#xFA;" horiz-adv-x="500" d="M346 -13V84Q346 87 345 92T340 97Q334 97 331 94Q322 84 311 69T289 40Q266 15 238 2T177 -12Q156 -12 137 -5T103 18T81 59T72 120V523H162V146Q162 136 163 121T169 90T185 65T216 54Q249 54 276 85T342 171V523H429V17L346 -13ZM376 715L245 574H178L267 715H376Z"  />
<glyph unicode="&#xFB;" horiz-adv-x="500" d="M346 -13V84Q346 87 345 92T340 97Q334 97 331 94Q322 84 311 69T289 40Q266 15 238 2T177 -12Q156 -12 137 -5T103 18T81 59T72 120V523H162V146Q162 136 163 121T169 90T185 65T216 54Q249 54 276 85T342 171V523H429V17L346 -13ZM296 715L396 574H316L250 668L184 574H104L204 715H296Z"  />
<glyph unicode="&#xFC;" horiz-adv-x="500" d="M346 -13V84Q346 87 345 92T340 97Q334 97 331 94Q322 84 311 69T289 40Q266 15 238 2T177 -12Q156 -12 137 -5T103 18T81 59T72 120V523H162V146Q162 136 163 121T169 90T185 65T216 54Q249 54 276 85T342 171V523H429V17L346 -13ZM124 688H216V586H124V688ZM285 688H376V586H285V688Z"  />
<glyph unicode="&#xFD;" horiz-adv-x="444" d="M24 -68H42Q46 -73 57 -83T94 -94Q111 -94 123 -87T145 -65T164 -24T187 38L18 523H113L191 281Q192 276 195 266T202 244T208 222T212 207Q216 193 219 182T226 168L232 171Q236 190 240 204T247 231T253 256T262 284L334 523H422L257 7Q239 -50 222 -86T185 -141T141 -168T83 -175Q66 -175 54 -173T24 -166V-68ZM348 715L217 574H150L239 715H348Z"  />
<glyph unicode="&#xFE;" horiz-adv-x="500" d="M368 274Q368 295 366 327T353 391T322 444T266 467Q237 467 215 449T177 402T154 338T146 269Q146 210 157 172T187 111T228 79T271 70Q287 70 304 78T336 110T359 172T368 274ZM61 712L140 747V435Q140 429 142 426T147 423Q151 423 154 426Q158 429 165 447T187 486T226 524T289 541Q332 541 365 518T416 460Q438 419 448 367T459 270Q459 201 446 149T409 63T355 11T290 -7Q264 -7 232 9T176 60Q165 77 161 81T154 85Q151 85 150 80T149 71V-175H61V712Z"  />
<glyph unicode="&#xFF;" horiz-adv-x="444" d="M24 -68H42Q46 -73 57 -83T94 -94Q111 -94 123 -87T145 -65T164 -24T187 38L18 523H113L191 281Q192 276 195 266T202 244T208 222T212 207Q216 193 219 182T226 168L232 171Q236 190 240 204T247 231T253 256T262 284L334 523H422L257 7Q239 -50 222 -86T185 -141T141 -168T83 -175Q66 -175 54 -173T24 -166V-68ZM96 688H188V586H96V688ZM257 688H348V586H257V688Z"  />
<glyph unicode="&#x131;" horiz-adv-x="278" d="M94 523H184V0H94V523Z"  />
<glyph unicode="&#x152;" horiz-adv-x="944" d="M785 338H542V93H894V0H310Q233 0 175 36T83 140Q70 165 62 195T49 255T42 309T40 350Q40 377 42 422T56 516T94 613T169 693Q193 708 214 716T256 729T296 733T336 734H880V644H542V428H785V338ZM438 545Q438 597 411 618T332 640Q265 640 228 611T172 538T150 444T146 351Q146 333 147 312T152 269T160 226T172 188Q178 173 189 157T218 126T261 102T319 93Q384 93 411 118T438 205V545Z"  />
<glyph unicode="&#x153;" horiz-adv-x="778" d="M369 260Q369 301 364 337T346 401T311 445T256 461Q219 461 199 443T168 405Q157 385 152 364T144 322T141 284T140 254Q140 238 143 208T158 147T194 94T261 71Q299 71 321 93T353 147T366 210T369 260ZM722 53Q710 42 695 31T661 9T617 -7T558 -13Q517 -13 478 3T413 45Q408 50 406 51T402 53H400Q388 39 372 26T336 5Q318 -3 298 -7T251 -11Q203 -11 166 9T103 64T64 147T51 253Q51 272 52 300T59 359T80 421T120 479Q153 512 189 524T260 537Q302 537 338 520T393 480Q399 472 401 471T405 470Q406 470 410 472Q430 495 467 515T551 535Q570 535 592 530T636 514T677 484T711 440Q723 416 730 396T741 355T746 309T749 252H439Q438 214 444 179T464 116T503 73T564 57Q585 57 601 61T631 72T653 87T670 101L722 53ZM659 313Q657 339 655 358T648 393T637 421T617 444Q603 457 587 463T554 469Q537 469 518 461T483 435T454 386T441 313H659Z"  />
<glyph unicode="&#x160;" horiz-adv-x="611" d="M448 542Q435 567 422 589T392 626T352 651T297 660Q280 660 261 655T224 639T196 609T185 563Q185 538 194 520T216 490T242 470T265 458L411 392Q420 387 434 380T463 360T494 332T521 296Q528 283 537 261T546 197Q546 92 474 31Q451 11 429 1T387 -14T348 -20T315 -21Q298 -21 277 -18T234 -8T189 10T147 37Q112 66 95 94T65 148L153 203Q161 181 174 158T208 115T257 84T322 71Q345 71 368 78T409 100T439 137T451 189Q451 202 448 216T435 244T408 273T361 301L231 360Q214 367 197 377T163 401T133 428T110 458Q102 472 95 497T88 560Q88 602 104 636T149 696T216 735T297 749Q382 749 441 709T534 593L448 542ZM352 785H260L160 926H240L306 833L372 926H452L352 785Z"  />
<glyph unicode="&#x161;" horiz-adv-x="389" d="M307 419Q278 440 253 453T189 467Q168 467 154 461T130 445T116 423T111 398Q111 369 130 352T174 323L258 281Q269 276 285 267T317 241T344 201T355 144Q355 109 342 80T307 30T252 -2T183 -14Q126 -14 89 3T29 36L64 104Q102 74 128 63T186 51Q229 51 252 76T275 133Q275 149 271 160T254 182T222 204T169 231Q133 249 108 265T67 300T44 340T37 387Q37 421 49 448T83 493T133 521T193 531Q207 531 221 530T253 525T289 513T333 490L307 419ZM241 574H149L49 715H129L195 622L261 715H341L241 574Z"  />
<glyph unicode="&#x178;" horiz-adv-x="667" d="M392 289V0H284V284L34 733H154L309 433L332 385L339 376H346Q348 380 352 389T362 408T371 428T377 440L529 734H634L392 289ZM208 899H300V797H208V899ZM369 899H460V797H369V899Z"  />
<glyph unicode="&#x17D;" horiz-adv-x="611" d="M57 75L347 553L378 600Q382 605 387 612T397 626Q401 630 403 637Q401 642 395 643Q391 645 384 645T370 645Q365 645 353 645T326 643T295 642T268 641H69V734H538V671L317 308Q299 278 284 254T257 211T233 174T209 139Q202 128 198 122T192 111T190 103T188 95L192 90Q197 87 201 87T209 88Q217 90 228 90T248 91Q267 92 285 92T321 93H555V0H57V75ZM352 785H260L160 926H240L306 833L372 926H452L352 785Z"  />
<glyph unicode="&#x17E;" horiz-adv-x="444" d="M46 67L212 331Q228 356 246 383T280 427Q283 430 286 433T289 442Q289 445 288 447Q285 449 281 449L228 447H56V523H391V454L161 95Q158 91 156 81Q161 76 163 75T171 74Q175 74 191 75T227 76T264 78T289 79H394V0H46V67ZM268 574H176L76 715H156L222 622L288 715H368L268 574Z"  />
<glyph unicode="&#x192;" horiz-adv-x="556" d="M93 444H243Q243 448 245 470T252 521T265 582T284 642Q305 693 338 722T420 751Q455 751 480 740T519 720L488 640Q477 655 463 663T430 672Q415 672 404 664T385 646T373 626T369 616Q364 601 359 574T349 520T342 470T339 444H481V370H331Q329 359 326 333T320 278T313 224T308 188Q297 118 286 54T257 -49Q247 -72 233 -92T200 -129T156 -154T100 -163Q62 -163 43 -154T9 -134L43 -50Q52 -60 66 -72T103 -84Q144 -84 164 -40T197 95L235 370H93V444Z"  />
<glyph unicode="&#x2C6;" horiz-adv-x="278" d="M185 715L285 574H205L139 668L73 574H-7L93 715H185Z"  />
<glyph unicode="&#x2C7;" horiz-adv-x="278" d="M185 574H93L-7 715H73L139 622L205 715H285L185 574Z"  />
<glyph unicode="&#x2DA;" horiz-adv-x="278" d="M141 755Q178 755 203 730T229 666Q229 628 204 602T141 576Q122 576 106 583T77 602T58 630T51 666Q51 685 58 701T77 729T105 748T141 755ZM141 714Q121 714 108 700T94 666Q94 647 107 633T141 618Q159 618 172 632T186 666Q186 686 173 700T141 714Z"  />
<glyph unicode="&#x2DC;" horiz-adv-x="278" d="M309 699Q305 664 293 643T265 610T234 594T208 590Q194 590 176 595T124 612Q107 618 98 621T82 625T71 627T63 628Q50 628 42 623T28 612T20 597T15 583H-31Q-27 616 -16 637T10 670T41 686T73 691Q95 691 115 685T162 667Q173 662 179 660T191 656T200 655T209 654Q232 654 243 665T258 699H309Z"  />
<glyph unicode="&#x2013;" horiz-adv-x="500" d="M-1 287H500V227H-1V287Z"  />
<glyph unicode="&#x2014;" horiz-adv-x="1000" d="M125 287H875V227H125V287Z"  />
<glyph unicode="&#x2018;" horiz-adv-x="278" d="M133 745L248 426H165L47 745H133Z"  />
<glyph unicode="&#x2019;" horiz-adv-x="278" d="M231 745L113 426H30L145 745H231Z"  />
<glyph unicode="&#x201A;" horiz-adv-x="278" d="M248 319L130 0H47L162 319H248Z"  />
<glyph unicode="&#x201C;" horiz-adv-x="556" d="M313 745H398L513 426H431L313 745ZM75 745H161L275 426H193L75 745Z"  />
<glyph unicode="&#x201D;" horiz-adv-x="556" d="M480 745L362 426H280L395 745H480ZM243 745L125 426H43L157 745H243Z"  />
<glyph unicode="&#x201E;" horiz-adv-x="556" d="M480 104L362 -215H280L395 104H480ZM243 104L125 -215H43L157 104H243Z"  />
<glyph unicode="&#x2020;" horiz-adv-x="556" d="M99 581L263 549L228 748H332L295 549L457 583V481L295 516L328 360L297 -20H263L228 368L264 517L99 484V581Z"  />
<glyph unicode="&#x2021;" horiz-adv-x="556" d="M295 516L328 365L292 207L457 241V144L293 176L328 -22H224L261 176L99 141V243L261 208L228 365L264 517L99 484V581L263 549L228 748H332L295 549L457 583V481L295 516Z"  />
<glyph unicode="&#x2022;" horiz-adv-x="500" d="M105 350Q105 380 116 406T147 451T193 482T250 493Q280 493 306 482T352 452T383 406T395 350Q395 319 384 293T353 246T307 215T250 203Q220 203 194 214T148 245T117 291T105 350Z"  />
<glyph unicode="&#x2026;" horiz-adv-x="1000" d="M237 58Q237 48 233 37T221 16T199 0T166 -7Q137 -7 117 11T97 59Q97 88 118 107T166 127Q197 127 217 107T237 58ZM570 58Q570 48 566 37T554 16T532 0T499 -7Q470 -7 450 11T430 59Q430 88 451 107T499 127Q530 127 550 107T570 58ZM903 58Q903 48 899 37T887 16T865 0T832 -7Q803 -7 783 11T763 59Q763 88 784 107T832 127Q863 127 883 107T903 58Z"  />
<glyph unicode="&#x2030;" horiz-adv-x="1000" d="M157 737Q190 737 218 725T268 692T302 644T315 585Q315 555 304 527T271 477T221 442T157 428Q122 428 94 441T45 475T13 525T1 584Q1 617 13 645T47 693T97 725T157 737ZM157 670Q140 670 124 664T96 647T76 619T68 584Q68 548 94 523T157 498Q176 498 192 505T220 525T237 552T244 584Q244 603 237 619T217 646T189 663T157 670ZM624 137Q624 106 612 78T578 28T527 -7T462 -20Q429 -20 401 -8T351 26T318 75T306 137Q306 170 319 198T353 247T403 280T462 292Q495 292 524 280T575 246T611 197T624 137ZM462 49Q484 49 501 57T529 77T546 105T552 137Q552 155 545 171T525 198T496 215T463 222Q446 222 431 216T403 198T384 171T377 136Q377 97 402 73T462 49ZM998 137Q998 105 987 77T954 27T905 -7T842 -20Q810 -20 782 -9T732 23T697 73T684 137Q684 170 697 198T732 247T782 280T843 292Q874 292 902 280T951 247T985 198T998 137ZM928 137Q928 155 921 170T902 197T874 215T840 222Q824 222 809 216T781 198T761 171T753 135Q753 99 779 74T841 49Q878 49 903 75T928 137ZM523 749H580V741L95 -31H39Q41 -26 42 -21T46 -11L523 749Z"  />
<glyph unicode="&#x2039;" horiz-adv-x="389" d="M303 110V106H220L97 265L227 419H313L181 266L303 110Z"  />
<glyph unicode="&#x203A;" horiz-adv-x="389" d="M76 106L208 259L84 419H169L292 260L162 106H76Z"  />
<glyph unicode="&#x20AC;" horiz-adv-x="556" d="M512 616Q491 636 456 650T367 665Q327 665 297 652T245 614T211 555T194 480H471L447 408H185Q185 400 185 390T184 371Q184 360 184 350T185 332H421L397 260H194Q205 166 248 119T367 71Q420 71 454 85T512 120V27Q495 13 455 1T354 -12Q250 -12 185 53T101 260H24L48 332H94Q93 340 93 350T92 371Q92 381 92 390T94 408H24L48 480H100Q108 540 126 590T176 675T251 730T354 750Q411 750 451 736T512 708V616Z"  />
<glyph unicode="&#x2122;" horiz-adv-x="990" d="M390 670H265V322H183V670H58V734H390V670ZM704 442L816 734H932V322H856V646H854L731 322H675L552 646H550V322H474V734H591L704 442Z"  />

</font>
</defs>
</svg>
