<?xml  version="1.0" encoding="UTF-8"?>
<!DOCTYPE svg PUBLIC "-//W3C//DTD SVG 1.0//EN" "http://www.w3.org/TR/2001/REC-SVG-20010904/DTD/svg10.dtd" >
<svg xmlns="http://www.w3.org/2000/svg" >
<metadata>
<version>1.0</version>
<id><![CDATA[News Gothic MT W01 Condensed]]></id>
<vendor>Monotype Imaging Inc.</vendor>
<credits>
<name>Fonts.com WebFonts</name>
<URL>http://webfonts.fonts.com</URL>
<role>Home of the Web fonts</role>
</credits>
<license>
<URL>http://webfonts.fonts.com/Legal</URL>
</license>
<copyright><![CDATA[Copyright 1996 The Monotype Corporation. All rights reserved.]]></copyright>
<trademark><![CDATA[News Gothic  is a trademark of Monotype Imaging, Inc. and may be registered in certain jurisdictions; Monotype is a trademark of Monotype Imaging, Inc. Registered in U.S. Patent and Trademark Office and may be registered in certain other jurisdictions.]]></trademark>
<licensee>
<name></name>
</licensee>
</metadata>
<defs >
<font horiz-adv-x="354" id="cb504e6a-14b8-4286-b772-09f1531fe6ba">
<font-face font-family="" panose-1="2 11 5 6 2 1 3 2 2 3" ascent="943" descent="-227" units-per-em="1000" alphabetic="0">
</font-face>
<missing-glyph horiz-adv-x="209" />

<glyph unicode="&#xA;" />
<glyph unicode="&#xD;" />
<glyph unicode=" " horiz-adv-x="209" />
<glyph unicode="!" horiz-adv-x="229" d="M163 745L141 207H89L65 745H163ZM163 108V0H65V108H163Z"  />
<glyph unicode="&quot;" horiz-adv-x="281" d="M246 735V618L233 487H188L173 618V735H246ZM108 735V618L95 487H50L35 618V735H108Z"  />
<glyph unicode="#" horiz-adv-x="667" d="M202 475L245 672H304L262 475H468L509 672H569L527 475H624V415H515L478 234H624V174H466L425 -22H364L406 174H199L159 -22H99L140 174H43V234H152L190 415H43V475H202ZM250 415L212 235H418L456 415H250Z"  />
<glyph unicode="$" horiz-adv-x="417" d="M229 778V745Q234 744 257 738T305 711T351 653T374 551H308Q307 584 301 607T284 646T259 669T229 682V398Q259 376 288 352T341 301T379 241T393 169Q393 143 384 115T356 63T305 20T229 -5V-129H179V-5Q123 4 92 29T46 86T27 147T22 194H87Q89 141 110 104T179 59V353Q147 377 119 401T70 452T37 509T25 575Q25 599 32 626T58 677T105 720T179 745V778H229ZM179 682Q152 675 134 662T106 634T91 604T87 576Q87 551 97 530T121 491T152 460T179 438V682ZM229 59Q257 64 275 76T304 104T319 136T324 168Q324 214 297 247T229 316V59Z"  />
<glyph unicode="%" horiz-adv-x="844" d="M634 249Q682 249 719 212Q729 201 738 187T753 153T763 103T767 33Q767 -30 757 -74T717 -148Q705 -161 682 -174T629 -188Q612 -188 599 -184T575 -173T557 -161T547 -151Q538 -141 529 -128T513 -93T502 -40T498 37Q498 98 509 144T557 220Q573 234 592 241T634 249ZM633 -146Q642 -146 655 -142T686 -120Q695 -111 702 -99T714 -70T722 -29T725 29Q725 50 723 80T713 139T687 188T638 208Q602 208 582 189T553 142T543 87T541 42Q541 27 542 -4T552 -66T579 -122T633 -146ZM804 735L96 -196H41L683 648L681 650Q660 641 615 629T490 616Q463 616 439 618T391 623T344 631T293 642Q299 632 304 620T314 591T322 550T325 492Q325 412 314 369T276 299Q259 282 236 272T187 261Q161 261 140 271T102 297Q91 309 82 324T67 362T57 415T53 488Q53 537 61 583T102 659Q123 681 153 691T211 701Q231 701 258 696T307 686Q353 675 397 668T490 660Q559 660 625 677T747 735H804ZM186 657Q175 657 162 653T134 632Q125 623 118 611T106 583T99 543T96 488Q96 474 97 444T107 382T134 326T186 302Q196 302 211 306T245 329Q265 350 274 382T283 477Q283 493 282 523T271 583T242 635T186 657Z"  />
<glyph unicode="&amp;" horiz-adv-x="604" d="M527 344Q518 263 498 215T464 142Q497 111 517 93T558 58L511 0L419 80Q378 41 334 17T236 -8Q200 -8 166 5T104 44T61 103T44 179Q44 221 58 256T94 318T138 367T178 402Q158 442 139 490T120 590Q120 618 130 645T158 694T205 729T269 743Q301 743 326 732T369 701T396 657T406 603Q406 565 392 533T356 475T310 429T268 395Q303 335 343 284T415 195Q423 214 435 249T458 344H527ZM235 448Q245 456 263 471T298 506T329 552T342 605Q342 618 337 632T323 659T299 679T267 687Q248 687 234 679T210 656T195 624T190 588Q190 568 195 548T207 509T221 474T235 448ZM208 344Q194 332 179 318T151 285T130 244T121 193Q121 160 132 134T162 91T203 65T248 56Q269 56 287 63T320 80T349 104T374 129Q355 149 334 174T291 226T248 284T208 344Z"  />
<glyph unicode="&apos;" horiz-adv-x="219" d="M146 735V618L133 487H88L73 618V735H146Z"  />
<glyph unicode="(" horiz-adv-x="323" d="M250 -181Q224 -157 187 -119T116 -24T57 107T33 280Q33 379 57 455T116 587T188 680T250 740L292 695Q271 673 240 638T181 551T133 432T113 278Q113 158 161 49Q177 11 194 -17T228 -68T261 -106T292 -137L250 -181Z"  />
<glyph unicode=")" horiz-adv-x="323" d="M73 740Q99 716 136 678T207 583T266 452T290 279Q290 180 266 104T207 -28T135 -121T73 -181L31 -136Q52 -114 83 -79T142 8T190 127T210 281Q210 400 162 510Q129 585 95 626T31 696L73 740Z"  />
<glyph unicode="*" horiz-adv-x="385" d="M185 598Q183 612 180 628T169 673Q166 681 163 693T160 713Q160 730 170 741T195 753Q212 753 218 742T225 718Q225 711 224 699T213 657Q205 631 203 620T199 598L212 591Q223 600 236 610T269 642Q290 664 300 670T320 676Q331 676 341 670T352 646Q352 623 333 614T282 597Q253 589 241 585T220 578V564Q230 560 242 556T280 546Q293 543 305 539T328 530T345 517T352 498Q352 486 343 476T321 466Q304 466 291 476T269 496Q263 502 262 503T258 508Q245 521 237 529T212 550L199 543Q201 533 203 524T212 491Q218 472 221 459T224 432Q224 415 216 405T193 394Q182 394 171 401T160 428Q160 439 162 451T172 489Q178 512 180 523T185 543L174 550Q146 527 133 515T105 487Q96 479 87 474T66 468Q52 468 42 477T32 501Q32 510 35 515T44 523Q50 527 60 531T81 539T103 545T120 550Q138 555 147 557T166 564V578Q153 583 140 587T99 600Q72 607 62 611T44 623Q36 632 35 639T34 649Q34 665 45 671T63 678Q69 678 75 676T89 669T109 653T137 626Q152 610 159 604T174 591L185 598Z"  />
<glyph unicode="+" horiz-adv-x="667" d="M301 356V589H365V356H598V292H365V59H301V292H68V356H301Z"  />
<glyph unicode="&#x2c;" horiz-adv-x="229" d="M163 109V0L94 -159H48L112 0H65V109H163Z"  />
<glyph unicode="-" horiz-adv-x="323" d="M250 286V220H72V286H250Z"  />
<glyph unicode="." horiz-adv-x="229" d="M163 109V0H65V109H163Z"  />
<glyph unicode="/" horiz-adv-x="531" d="M0 0L464 735H531L67 0H0Z"  />
<glyph unicode="0" horiz-adv-x="417" d="M209 743Q270 743 307 711T363 628T389 514T396 389Q396 359 395 320T390 241T380 163T362 100Q338 42 296 17T209 -8Q165 -8 134 10T82 58T49 126T31 206T23 287T21 360Q21 450 30 520T61 641Q83 691 119 717T209 743ZM211 678Q173 678 150 657T113 593Q99 550 95 485T90 331Q90 302 91 267T99 198T116 133T146 85Q157 74 175 66T210 57Q216 57 227 59T252 69T278 89T300 125Q310 148 315 184T323 261T326 339T327 405Q327 450 324 498T308 586T273 652T211 678Z"  />
<glyph unicode="1" horiz-adv-x="417" d="M242 735V68H329V0H101V68H177V642Q149 627 121 622T75 615V679Q103 683 123 690T156 705T178 721T192 735H242Z"  />
<glyph unicode="2" horiz-adv-x="417" d="M377 67V0H24Q25 33 31 63T55 130T103 211T184 317Q208 347 230 377T270 438T298 503T309 571Q309 594 302 614T282 648T253 671T218 680Q187 680 168 664T138 624T122 572T113 518L50 526Q53 586 69 627T109 694T162 731T222 743Q247 743 274 733T325 701T363 646T378 567Q378 498 339 427T232 278Q193 233 170 201T133 144T113 102T103 67H377Z"  />
<glyph unicode="3" horiz-adv-x="417" d="M89 174Q91 163 95 144T111 105T141 71T193 56Q223 56 244 71T277 110T295 160T301 211Q301 240 295 266T271 313T225 346T150 358H129V409H156Q197 409 223 421T265 453T286 500T292 556Q292 599 281 624T254 661T224 677T203 680Q175 680 158 666T130 633T114 596T107 569L43 579Q52 640 76 673T127 722T176 740T203 743Q235 743 263 730T312 693T345 634T357 558Q357 510 343 478T311 427T273 397T241 382Q252 378 273 369T314 340T350 287T366 201Q366 155 353 117T318 51T263 8T194 -8Q173 -8 147 -1T95 27T51 83T24 174H89Z"  />
<glyph unicode="4" horiz-adv-x="417" d="M311 735V237H389V177H311V0H248V177H22V237L217 735H311ZM248 659H246L82 237H248V659Z"  />
<glyph unicode="5" horiz-adv-x="417" d="M378 735L360 670H160L149 443Q160 451 182 463T239 475Q267 475 295 462T345 421T380 353T394 255Q394 205 384 158T351 74T295 15T213 -8Q199 -8 175 -3T126 22T81 78T54 177H120Q123 138 134 114T158 77T186 59T213 54Q236 54 251 63T275 80Q290 96 300 120T316 170T324 222T327 268Q327 283 324 310T311 364T280 409T225 429Q203 429 186 420T157 397T138 371T126 349L79 355L97 735H378Z"  />
<glyph unicode="6" horiz-adv-x="417" d="M304 580Q300 618 289 639T265 669T241 681T224 683Q211 683 190 674T148 635Q135 614 128 584T116 520T111 449T110 379Q115 385 125 395T150 416T184 434T228 442Q257 442 286 428T338 392Q364 365 378 324T392 224Q392 180 383 139T353 65T302 12T228 -8Q168 -8 131 25T74 110T47 227T40 355Q40 377 42 421T52 515T75 612T119 690Q123 694 132 703T156 721T190 736T232 743Q271 743 296 726T336 684T359 635T371 593L304 580ZM110 323Q112 242 118 189T148 101Q158 85 170 76T193 62T213 56T227 55Q240 55 254 59T281 75Q296 87 305 106T318 145T324 186T325 221Q325 236 324 264T312 319T281 367T220 388Q200 388 183 381T152 363T128 342T110 323Z"  />
<glyph unicode="7" horiz-adv-x="417" d="M367 735V668L139 0H72L301 668H45V735H367Z"  />
<glyph unicode="8" horiz-adv-x="417" d="M162 382Q150 391 131 408T93 450T60 507T46 578Q46 611 58 641T92 693T144 729T210 743Q247 743 278 729T331 692T365 638T377 575Q377 537 363 506T328 450T288 408T254 382Q294 354 319 325T358 269T377 218T382 176Q382 135 367 101T327 43T270 6T204 -8Q172 -8 142 5T87 41T49 97T34 169Q34 209 47 242T81 301T123 348T162 382ZM209 350Q198 341 180 326T143 287T112 234T99 166Q99 140 108 119T133 84T168 63T208 55Q231 55 251 65T285 92T308 134T317 185Q317 217 308 241T283 284T249 319T209 350ZM209 414Q224 426 241 441T274 476T300 520T311 573Q311 596 304 616T283 651T251 674T211 683Q191 683 173 675T142 653T120 619T112 576Q112 547 123 522T149 477T180 440T209 414Z"  />
<glyph unicode="9" horiz-adv-x="417" d="M110 158Q112 147 116 130T128 97T152 69T190 57Q207 57 227 66T265 103Q288 138 294 197T304 357L302 359Q284 336 265 324T230 307Q214 301 203 300T187 299Q171 299 144 306T91 335T45 398T25 508Q25 577 41 622T80 694T131 732T181 743Q225 743 256 726T309 680T344 614T363 536T372 456T374 383Q374 363 373 325T365 241T347 149T314 69Q301 48 284 34T250 10T215 -4T183 -8Q144 -8 119 11T78 55T55 105T44 145L110 158ZM304 412Q304 455 301 502T287 590T253 656T190 682Q152 682 132 660T103 609T92 552T90 511Q90 487 93 459T107 408T138 368T191 352Q225 352 250 368T304 412Z"  />
<glyph unicode=":" horiz-adv-x="229" d="M163 109V0H65V109H163ZM163 526V417H65V526H163Z"  />
<glyph unicode=";" horiz-adv-x="229" d="M163 109V0L94 -159H48L112 0H65V109H163ZM163 526V417H65V526H163Z"  />
<glyph unicode="&lt;" horiz-adv-x="667" d="M69 295V353L598 576V506L155 324L598 141V72L69 295Z"  />
<glyph unicode="=" horiz-adv-x="667" d="M598 242V178H68V242H598ZM598 470V406H68V470H598Z"  />
<glyph unicode="&gt;" horiz-adv-x="667" d="M598 352V295L69 72V141L512 323L69 506V576L598 352Z"  />
<glyph unicode="?" horiz-adv-x="375" d="M128 207Q128 231 129 255T134 304T145 350T164 393Q187 430 204 458T233 512T251 561T257 612Q257 631 251 645T235 668T213 683T190 688Q183 688 172 685T148 672T123 643T103 593L42 607Q44 619 47 633T56 662T72 691T98 720Q115 734 137 743T187 753Q215 753 240 743T284 715T314 670T325 609Q325 566 308 526T274 459Q273 457 270 452T262 440T253 428T248 420Q225 386 212 361T193 313T184 265T182 207H128ZM203 109V0H107V109H203Z"  />
<glyph unicode="@" horiz-adv-x="802" d="M589 574L536 259Q536 257 534 246T530 220T527 192T525 170Q525 160 528 155T535 147T543 144T550 143Q574 143 601 160T651 209T690 286T706 388Q706 461 682 515T619 605T530 658T427 676Q364 676 305 652T201 581T128 466T100 307Q100 216 129 151T204 45T308 -16T423 -36Q494 -36 559 -12T677 62H763Q754 50 745 38T722 13T691 -13T648 -41Q589 -75 532 -87T421 -100Q340 -100 269 -72T146 10T64 140T34 312Q34 411 64 490T148 626T272 713T425 743Q509 743 573 716T682 643T750 533T773 397Q773 313 747 250T682 145T599 82T520 61Q515 61 504 62T482 69T461 89T448 128Q415 92 386 77T326 62Q301 62 276 74T229 111T195 176T182 270Q182 327 195 384T233 486T296 560T380 589Q407 589 426 581T460 560T483 532T500 503H502L513 574H589ZM264 262Q264 217 273 191T296 152T322 136T343 132Q370 132 390 148T424 191T447 250T462 313T470 370T472 411Q472 424 470 442T459 478T436 506T396 518Q358 518 333 490T292 423T271 339T264 262Z"  />
<glyph unicode="A" horiz-adv-x="510" d="M313 735L497 0H422L368 215H143L88 0H13L200 735H313ZM258 659H256L162 290H350L258 659Z"  />
<glyph unicode="B" horiz-adv-x="542" d="M251 735Q299 735 347 723T431 676Q454 653 466 621T478 556Q478 499 446 458T347 395V393Q363 388 388 377T437 345T478 291T495 205Q495 151 474 113T415 49T329 12T224 0H72V735H251ZM147 664V427H217Q229 427 259 429T320 442T376 479T401 551Q401 561 397 580T378 618T334 650T254 664H147ZM147 356V71H217Q322 71 369 106T416 211Q416 261 392 290T335 333T269 352T217 356H147Z"  />
<glyph unicode="C" horiz-adv-x="490" d="M373 499Q370 517 364 545T346 601T311 648T255 668Q217 668 189 638Q176 624 165 605T145 555T131 479T126 366Q126 322 127 278T142 186Q148 162 158 141T182 104T215 79T260 69Q298 69 321 91T356 144T373 204T380 251L453 241Q451 198 440 154T405 73T346 15T259 -8Q204 -8 164 19T98 96T60 213T47 361Q47 461 64 533T109 652T175 721T255 743Q284 743 319 730T387 674Q420 630 430 587T446 507L373 499Z"  />
<glyph unicode="D" horiz-adv-x="542" d="M207 735Q277 735 331 714T423 649T479 536T499 370Q499 301 487 235T443 116T354 32T207 0H72V735H207ZM147 660V77H201Q269 77 311 102T378 169T411 265T420 379Q420 528 363 594T193 660H147Z"  />
<glyph unicode="E" horiz-adv-x="458" d="M404 735L403 664H146L147 409H343V338H147V71H428V0H72V735H404Z"  />
<glyph unicode="F" horiz-adv-x="438" d="M425 735V664H147V408H344V337H147V0H72V735H425Z"  />
<glyph unicode="G" horiz-adv-x="490" d="M354 482Q353 500 350 530T335 590T303 642T244 664Q208 664 185 642T147 581T127 490T121 377Q121 317 124 272T135 192T155 135T184 94Q187 91 194 85T210 73T232 63T259 59Q301 59 327 90T354 179V281H244V352H429V0H354V31Q341 22 314 7T247 -8Q223 -8 205 -3T173 10T150 25T136 38Q113 60 96 87T68 152T50 239T44 354Q44 396 47 445T61 543T92 634T146 705Q150 709 159 715T181 728T211 738T249 743Q285 743 321 725T387 659Q402 635 410 611T423 565T428 524T429 488L354 482Z"  />
<glyph unicode="H" horiz-adv-x="542" d="M147 735V431H395V735H470V0H395V360H147V0H72V735H147Z"  />
<glyph unicode="I" horiz-adv-x="250" d="M163 735V0H88V735H163Z"  />
<glyph unicode="J" horiz-adv-x="333" d="M265 735V174Q265 166 265 150T260 113T247 71T222 33T181 4T118 -8Q79 -8 58 -1T18 16L33 89Q50 82 72 75T118 67Q145 67 159 78T181 105T189 140T190 173V735H265Z"  />
<glyph unicode="K" horiz-adv-x="531" d="M147 735V364H149L397 735H479L315 492L505 0H425L265 417L147 245V0H72V735H147Z"  />
<glyph unicode="L" horiz-adv-x="448" d="M147 735V75H423V0H72V735H147Z"  />
<glyph unicode="M" horiz-adv-x="688" d="M207 735L342 161H344L482 735H617V0H542V705H540L372 0H316L148 717H146V0H71V735H207Z"  />
<glyph unicode="N" horiz-adv-x="552" d="M170 735L402 216H404V735H479V0H420L150 605H148V0H73V735H170Z"  />
<glyph unicode="O" horiz-adv-x="552" d="M273 743Q316 743 349 730T406 695T446 644T474 583Q485 551 491 519T499 457T502 404T503 366Q503 251 482 173T413 47Q405 38 392 29T363 11T326 -2T281 -8Q230 -8 193 11T135 51Q93 95 71 170T49 368Q49 381 49 404T52 455T60 516T77 581Q87 613 103 642T143 693T199 729T273 743ZM276 666Q248 666 227 656T191 630T164 591T146 544Q139 519 136 493T131 443T129 397T128 361Q128 218 165 144T279 69Q307 69 328 80T361 105Q396 141 410 207T424 376Q424 461 412 526T361 631Q345 648 321 657T276 666Z"  />
<glyph unicode="P" horiz-adv-x="490" d="M208 735Q264 735 310 721T391 680T443 614T462 525Q462 473 441 435T383 371T299 334T198 322H147V0H72V735H208ZM147 664V393H189Q229 393 265 401T327 425T369 467T385 528Q385 565 368 590T324 632T261 656T189 664H147Z"  />
<glyph unicode="Q" horiz-adv-x="552" d="M501 -91V-166H393Q382 -166 366 -164T331 -156T294 -137T263 -103Q245 -75 241 -50T236 0Q194 9 164 31T112 83T79 150T60 225T51 299T49 367Q49 380 49 403T52 456T60 517T77 582Q87 614 103 643T144 694T200 730T276 743Q304 743 326 737T365 722T396 703T418 682Q460 637 481 560T503 364Q503 339 502 305T494 234T477 159T444 89T392 33T316 0Q316 -11 317 -26T325 -56T350 -80T401 -91H501ZM272 73Q323 73 352 100T398 172Q414 216 419 268T424 372Q424 407 421 457T403 555Q396 578 385 598T359 634T323 659T275 668Q248 668 227 659T191 633T165 596T147 550Q140 526 136 501T131 451T129 407T128 371Q128 276 143 206T202 100Q217 88 234 81T272 73Z"  />
<glyph unicode="R" horiz-adv-x="490" d="M179 735Q263 735 317 715T404 664T449 596T462 525Q462 478 447 446T410 393T365 360T326 341L455 0H377L253 324Q249 324 238 323T223 322Q219 322 208 321T193 320H147V0H72V735H179ZM147 662V391H177Q220 391 258 399T324 423T368 466T384 528Q384 563 368 588T325 629T264 654T195 662H147Z"  />
<glyph unicode="S" horiz-adv-x="500" d="M368 534Q367 546 365 569T351 614T316 654T251 671Q200 671 168 644T136 570Q136 545 146 525T173 488T213 454T262 422Q298 399 332 375T394 323T438 259T455 179Q455 141 441 107T399 48T334 7T247 -8Q200 -8 167 5T112 38T77 83T56 131T47 174T44 203L118 207Q120 188 125 164T143 119T180 84T247 69Q280 69 305 78T346 103T370 137T378 177Q378 203 368 225T338 267T290 308T227 352Q199 370 170 391T116 437T77 495T61 569Q61 600 72 631T106 687T164 727T248 743Q295 743 327 731T381 698T415 654T432 606T439 564T441 534H368Z"  />
<glyph unicode="T" horiz-adv-x="510" d="M483 735V660H291V0H216V660H27V735H483Z"  />
<glyph unicode="U" horiz-adv-x="521" d="M145 735V178Q145 121 178 95T262 69Q321 69 348 100T376 194V735H451V193Q451 139 439 105T403 46Q383 26 362 15T321 -1T286 -7T263 -8Q219 -8 183 4T118 46Q91 73 81 107T70 193V735H145Z"  />
<glyph unicode="V" horiz-adv-x="438" d="M88 735L218 180H220L350 735H424L252 0H186L14 735H88Z"  />
<glyph unicode="W" horiz-adv-x="677" d="M77 735L198 124H200L323 735H354L475 124H477L600 735H665L517 0H436L339 491H337L239 0H159L12 735H77Z"  />
<glyph unicode="X" horiz-adv-x="479" d="M113 735L240 470L369 735H452L282 384L465 0H382L240 296L97 0H14L198 384L30 735H113Z"  />
<glyph unicode="Y" horiz-adv-x="500" d="M92 735L249 403L406 735H487L286 312V0H211V312L13 735H92Z"  />
<glyph unicode="Z" horiz-adv-x="438" d="M398 735V661L122 69H398V0H40V69L317 661H70V735H398Z"  />
<glyph unicode="[" horiz-adv-x="323" d="M291 735V686H140V-132H291V-181H66V735H291Z"  />
<glyph unicode="\" horiz-adv-x="531" d="M464 0L0 735H67L531 0H464Z"  />
<glyph unicode="]" horiz-adv-x="323" d="M32 -181V-132H183V686H32V735H257V-181H32Z"  />
<glyph unicode="^" horiz-adv-x="656" d="M547 481L504 445L328 655L153 444L109 481L328 743L547 481Z"  />
<glyph unicode="_" horiz-adv-x="500" d="M506 -75V-125H-6V-75H506Z"  />
<glyph unicode="`" horiz-adv-x="333" d="M234 580H170L44 727H142L234 580Z"  />
<glyph unicode="a" horiz-adv-x="417" d="M357 112Q357 59 364 35T376 0H309Q304 8 300 21T290 63Q258 34 225 13T151 -8Q127 -8 107 2T71 29T47 71T38 125Q38 159 51 191T95 251T173 301T290 339V380Q290 421 274 446T215 472Q187 472 171 462T144 438T130 408T124 380H58Q61 395 67 421T90 472T137 515T217 534Q254 534 280 522T324 488T349 439T357 380V112ZM290 291Q274 287 243 278T180 251T126 205T103 134Q103 96 123 73T172 50Q201 50 228 68T290 121V291Z"  />
<glyph unicode="b" horiz-adv-x="448" d="M138 745V461H140Q144 468 154 480T179 504T214 525T259 534Q288 534 313 522T353 495Q367 481 377 462T395 414T406 348T410 258Q410 212 407 177T396 115T378 67T352 31Q335 13 311 3T262 -8Q235 -8 214 2T178 26T153 54T139 75H137Q136 61 131 40T115 0H49Q52 8 55 19T61 44Q65 66 67 79T70 102T71 117T71 133V745H138ZM138 119Q143 112 153 101T176 79T206 60T243 52Q260 52 275 60T299 78Q310 89 318 105T331 148T338 212T341 306Q341 335 339 366T327 424T301 467T253 484Q218 484 191 462T138 409V119Z"  />
<glyph unicode="c" horiz-adv-x="385" d="M277 363Q277 373 276 392T267 431T245 464T202 479Q175 479 157 463T129 418T114 347T109 256Q109 214 111 185T119 135T132 102T150 78Q161 67 174 59T205 51Q227 51 241 61T265 87T278 124T287 167L354 156Q352 143 346 116T324 61T279 13T201 -8Q171 -8 145 4T102 33Q88 47 77 66T58 111T45 173T40 255Q40 267 40 286T43 326T49 372T61 419Q69 442 81 463T110 499T151 524T205 534Q253 534 284 509T329 453Q340 427 341 403T343 363H277Z"  />
<glyph unicode="d" horiz-adv-x="448" d="M377 745V87Q377 48 379 30T386 0H316Q314 10 313 26T311 76H309Q304 67 295 53T271 26T236 2T189 -8Q160 -8 136 4T97 30Q83 43 73 61T54 107T42 171T38 262Q38 275 38 293T40 334T45 379T56 425Q63 447 74 467T101 502T138 525T188 534Q214 534 234 525T269 503T293 477T308 454H310V745H377ZM310 409Q293 432 278 445T249 465T224 474T206 476Q168 476 148 452T119 390Q109 353 108 312T107 236Q107 195 111 160T124 98T151 57T194 42Q213 42 229 49T260 67T287 92T310 121V409Z"  />
<glyph unicode="e" horiz-adv-x="406" d="M107 251Q107 234 107 214T111 172T120 130T137 93Q151 72 171 61T210 50Q222 50 236 55T265 72T291 107T308 162L374 149Q367 116 355 87T323 37T277 4T216 -8Q175 -8 147 8T106 37Q68 77 53 139T38 278Q38 338 46 381T73 457Q96 497 133 515T204 534Q214 534 229 532T263 522T299 501T333 464Q347 442 355 417T367 365T372 308T373 251H107ZM308 311Q307 325 305 352T294 409Q284 437 264 458T208 479Q177 479 158 465T127 426Q116 402 112 372T108 311H308Z"  />
<glyph unicode="f" horiz-adv-x="271" d="M92 603Q92 628 96 654T113 703T146 739T201 753Q212 753 223 752T259 745V674Q241 679 226 681T201 684Q173 684 166 660T159 593V526H248V468H159V0H92V468H13V526H92V603Z"  />
<glyph unicode="g" horiz-adv-x="417" d="M402 467Q371 467 357 463T331 454Q342 429 348 409T354 354Q354 306 343 270T312 208Q272 157 211 157Q206 157 196 159T173 163T150 168T135 170Q125 170 116 164T106 143Q106 127 116 116T143 99T180 88T220 82Q236 80 266 75T327 57T379 19T402 -45Q402 -82 386 -108T343 -151T282 -175T213 -183Q116 -183 68 -148T19 -60Q19 -35 29 -18T54 12T84 31T111 43Q90 51 70 67T49 109Q49 125 56 138T73 161T93 179T111 191Q101 200 90 211T70 239T55 279T49 336Q49 395 65 433T106 494Q130 517 157 525T206 534Q228 534 245 528T276 514T297 498T311 483Q331 511 352 521T402 534V467ZM204 475Q174 475 157 461T130 426T119 378T116 328Q116 320 117 300T126 260Q134 239 150 223T199 207Q231 207 249 223T275 262Q283 284 285 306T287 342Q287 354 286 376T277 420T252 458T204 475ZM180 27Q153 21 135 12T106 -9T91 -32T86 -54Q86 -79 102 -93T138 -113T177 -121T201 -122Q227 -122 251 -117T293 -103T322 -79T333 -47Q333 -28 316 -15T275 6T225 19T180 27Z"  />
<glyph unicode="h" horiz-adv-x="438" d="M137 745V438Q155 458 171 475T205 506T240 526T280 534Q305 534 324 523T356 492T375 447T382 393V0H315V404Q315 439 298 457T259 475Q231 475 203 452T137 377V0H70V745H137Z"  />
<glyph unicode="i" horiz-adv-x="229" d="M148 526V0H81V526H148ZM148 726V659H81V726H148Z"  />
<glyph unicode="j" horiz-adv-x="219" d="M152 526V-62Q152 -79 152 -94T147 -123T135 -149T111 -171Q94 -182 73 -185T18 -188V-123Q34 -123 46 -123T67 -118T80 -106T85 -81V526H152ZM152 726V660H85V726H152Z"  />
<glyph unicode="k" horiz-adv-x="417" d="M135 745V241H137L312 526H390L257 326L401 0H332L218 265L135 139V0H68V745H135Z"  />
<glyph unicode="l" horiz-adv-x="229" d="M148 745V0H81V745H148Z"  />
<glyph unicode="m" horiz-adv-x="688" d="M631 0H564V409Q564 439 547 457T507 476Q480 476 452 452T384 376V0H317V397Q317 405 316 418T308 445T291 467T259 477Q241 477 224 467T191 441T161 409T137 376V0H70V526H137V436Q175 480 207 507T282 534Q304 534 320 526T348 503T367 471T380 431Q421 477 454 505T528 534Q553 534 572 523T605 492T624 448T631 397V0Z"  />
<glyph unicode="n" horiz-adv-x="448" d="M390 0H323V390Q323 394 322 407T316 436T299 462T265 474Q239 474 211 453T143 377V0H76V526H143V435H145Q177 481 212 507T286 534Q323 534 343 514T374 467T387 411T390 364V0Z"  />
<glyph unicode="o" horiz-adv-x="417" d="M204 -8Q178 -8 151 2T100 38Q85 54 74 74T54 121T42 183T38 266Q38 351 52 404T100 491Q123 514 150 524T206 534Q230 534 259 525T315 492Q355 454 367 398T379 270Q379 235 376 190T358 104T313 33T227 -5Q225 -6 216 -7T204 -8ZM211 479Q171 479 150 458T118 403Q108 369 107 328T105 248Q105 227 106 194T117 128Q127 96 148 73T209 50Q246 50 266 71T297 125Q307 158 309 199T312 283Q312 315 309 349T296 413Q285 442 266 460T211 479Z"  />
<glyph unicode="p" horiz-adv-x="448" d="M137 -181H70V526H137V452H139Q145 462 154 476T178 503T213 525T259 534Q290 534 312 523T351 495Q380 466 395 413T410 263Q410 172 396 118T351 31Q334 13 310 3T258 -8Q232 -8 213 1T179 22T155 48T139 72H137V-181ZM137 117Q145 108 156 95T181 70T213 50T251 41Q280 41 298 57T325 103Q334 132 337 171T341 257Q341 300 337 339T322 409T292 458T242 476Q222 476 206 469T176 450T153 428T137 409V117Z"  />
<glyph unicode="q" horiz-adv-x="448" d="M310 526H377V-181H310V70H308Q301 59 291 46T267 20T233 0T190 -8Q163 -8 138 3T99 30Q85 45 74 64T54 111T42 175T38 262Q38 358 53 411T97 495Q117 515 141 524T189 534Q229 534 257 512T308 453H310V526ZM310 408Q302 417 292 428T270 450T241 467T207 474Q169 474 149 449T119 387T109 309T107 235Q107 206 109 173T120 110T146 62T193 42Q213 42 230 49T261 66T287 90T310 118V408Z"  />
<glyph unicode="r" horiz-adv-x="313" d="M295 465Q236 464 205 448T159 410Q145 388 143 367T140 333V0H73V526H140V441H142Q157 465 171 481T203 508T243 525T295 534V465Z"  />
<glyph unicode="s" horiz-adv-x="396" d="M278 385Q270 430 244 453T189 476Q163 476 141 458T118 405Q118 393 121 382T135 359T164 332T213 299Q283 257 319 219T355 129Q355 99 343 74T308 31T257 3T194 -8Q151 -8 122 7T73 45T44 89T29 126L94 141Q99 129 106 114T126 86T156 63T200 54Q222 54 238 61T265 81T281 106T286 132Q286 142 283 152T271 173T244 198T197 230Q150 258 128 276T94 306Q79 321 65 342T51 402Q51 432 63 456T96 497T143 524T195 534Q206 534 227 530T272 512T315 470T343 395L278 385Z"  />
<glyph unicode="t" horiz-adv-x="260" d="M151 708V526H250V468H151V115Q151 83 163 70T201 57Q217 57 228 60T250 67V0Q237 -4 222 -6T193 -8Q141 -8 113 28T84 121V468H13V526H84V708H151Z"  />
<glyph unicode="u" horiz-adv-x="448" d="M128 526V126Q128 98 143 75T187 51Q203 51 217 57T245 77T275 108T309 150V526H376V0H309V90H307Q275 49 242 21T163 -8Q136 -8 117 4T85 38T67 89T61 150V526H128Z"  />
<glyph unicode="v" horiz-adv-x="396" d="M80 526L197 51H199L316 526H381L252 0H143L15 526H80Z"  />
<glyph unicode="w" horiz-adv-x="583" d="M76 526L167 84H169L262 526H320L411 84H413L507 526H565L452 0H373L292 386H290L208 0H130L18 526H76Z"  />
<glyph unicode="x" horiz-adv-x="365" d="M94 526L181 348L267 526H338L216 274L351 0H280L181 202L84 0H14L145 274L22 526H94Z"  />
<glyph unicode="y" horiz-adv-x="375" d="M83 526L185 125H187L293 526H359L217 -14Q212 -34 203 -63T174 -120T124 -168T45 -188Q29 -188 20 -186T0 -181V-118Q8 -120 15 -121T34 -122Q70 -122 92 -108T128 -74T146 -33T154 0L18 526H83Z"  />
<glyph unicode="z" horiz-adv-x="375" d="M348 526V466L97 60H348V0H26V61L277 466H51V526H348Z"  />
<glyph unicode="{" horiz-adv-x="271" d="M103 81Q103 134 97 164T81 209T55 228T22 232V308Q46 309 61 315T86 339T99 388T103 471V558Q103 622 119 658T158 713T208 735T255 740V670Q231 668 217 664T194 645T182 602T179 526V456Q179 400 173 367T157 315T133 286T106 270Q120 262 133 253T156 226T173 177T179 95V-2Q179 -5 179 -14T180 -34T181 -53T182 -66Q183 -87 190 -98T208 -116T231 -125T255 -128V-198Q228 -197 201 -192T153 -168T117 -109T103 0V81Z"  />
<glyph unicode="|" horiz-adv-x="531" d="M298 745V-181H233V745H298Z"  />
<glyph unicode="}" horiz-adv-x="271" d="M168 460Q168 407 174 377T190 332T216 313T249 309V233Q225 232 210 226T185 202T172 153T168 70V-17Q168 -82 152 -118T113 -172T63 -194T16 -199V-129Q40 -127 54 -123T77 -104T89 -61T92 15V85Q92 140 98 173T114 226T138 255T165 271Q151 278 138 287T115 315T98 364T92 446V543Q92 546 92 555T91 575T90 594T89 607Q88 628 81 639T63 657T40 666T16 669V740Q43 738 70 734T118 710T154 651T168 541V460Z"  />
<glyph unicode="~" horiz-adv-x="656" d="M64 334Q92 357 117 369T161 387T192 394T207 395Q220 395 233 393T263 386T301 371T351 348Q374 337 401 327T451 316Q474 316 495 323T534 341T566 364T592 385V314Q564 291 541 279T499 260T469 253T453 252Q437 252 423 254T391 262T351 278T298 303Q292 306 282 310T258 319T232 327T207 331Q185 331 165 324T126 307T92 286T64 264V334Z"  />
<glyph unicode="&#xA0;" horiz-adv-x="209" />
<glyph unicode="&#xA1;" horiz-adv-x="229" d="M66 -219L88 319H140L164 -219H66ZM66 418V526H164V418H66Z"  />
<glyph unicode="&#xA2;" horiz-adv-x="323" d="M188 61Q198 62 206 72T220 97T229 126T234 153L300 142Q295 115 288 91T267 47T233 14T181 -6L164 -192H122L140 -6Q116 0 97 14T64 54T43 120T36 217Q36 246 38 281T49 349T73 411T113 457Q135 472 152 474T186 478L204 664H246L227 471Q264 453 283 413T304 321H245Q245 325 245 334T242 356T234 379T220 399L188 61ZM180 419Q139 417 121 367T102 203Q102 135 113 105T146 67L180 419Z"  />
<glyph unicode="&#xA3;" horiz-adv-x="469" d="M137 460Q130 501 125 534T120 595Q120 670 155 706T247 743Q296 743 323 722T362 672T378 612T382 561H319Q317 585 315 608T305 650T284 679T248 691Q228 691 215 683T195 661T186 631T183 599Q183 576 187 551T200 485Q207 455 209 443T214 418H328V362H225Q230 325 233 291T237 221Q237 184 234 165T225 124Q236 116 241 113T252 106Q277 89 299 75T338 61Q356 61 365 74T379 106T384 145T385 179H446Q446 164 444 133T432 71T401 16T341 -8Q306 -8 274 12T204 65Q190 38 175 23T145 1T121 -7T105 -8Q71 -8 47 15T22 82Q22 127 46 155T106 183Q124 183 143 175T178 155Q178 159 179 168T180 186Q180 219 174 264T156 362H48V418H145L137 460ZM168 97Q164 100 157 106T140 118T120 128T99 133Q85 133 73 122T60 89Q60 68 73 53T106 38Q142 38 168 97Z"  />
<glyph unicode="&#xA4;" horiz-adv-x="556" d="M499 174Q489 164 480 155T462 136Q445 153 429 169T395 202Q371 183 341 173T278 162Q253 162 222 170T161 202Q144 185 128 169T94 136Q84 145 76 154T57 174Q74 190 91 206T125 238Q108 262 97 291T85 354Q85 387 95 417T125 470Q108 487 91 502T57 535Q67 545 75 554T94 573Q111 556 127 540T161 507Q191 529 222 537T278 546Q306 546 338 537T394 507Q411 524 428 540T462 573Q471 564 480 555T499 535Q482 518 465 503T431 470Q452 444 461 414T471 354Q471 322 461 293T431 238Q448 222 465 206T499 174ZM419 355Q419 386 407 411T375 455T330 484T279 494Q248 494 222 483T177 452T148 408T137 355Q137 326 148 301T178 256T223 226T278 214Q307 214 332 225T377 255T408 300T419 355Z"  />
<glyph unicode="&#xA5;" horiz-adv-x="500" d="M406 735H487L330 403H487V353H306L287 311V230H487V180H287V0H211V180H13V230H211V311L192 353H13V403H169L13 735H92L249 403L406 735Z"  />
<glyph unicode="&#xA6;" horiz-adv-x="531" d="M298 169V-181H233V169H298ZM298 745V394H233V745H298Z"  />
<glyph unicode="&#xA7;" horiz-adv-x="417" d="M297 590Q291 623 280 642T256 672T231 684T211 687Q179 687 157 665T135 607Q135 572 159 543T236 471Q273 440 300 416T344 368T370 320T379 266Q379 235 372 213T352 171T319 133T275 93Q286 83 299 69T323 38T343 0T351 -46Q351 -71 342 -96T314 -141T268 -175T205 -188Q161 -188 133 -171T89 -131T64 -84T53 -45L121 -33Q128 -65 139 -84T162 -114T185 -127T206 -130Q236 -130 259 -109T283 -52Q283 -37 279 -23T262 7T230 43T176 90Q148 113 123 135T79 182T49 234T38 294Q38 328 48 354T75 400T109 436T144 463Q112 493 89 524T66 602Q66 631 77 657T108 702T154 732T213 743Q278 743 314 704T364 603L297 590ZM177 431Q149 408 134 388T111 352T103 324T101 306Q101 288 107 271T126 235T160 195T214 147Q218 144 228 136T242 124Q267 145 282 164T305 200T315 229T317 251Q317 274 306 296T277 341T233 385T177 431Z"  />
<glyph unicode="&#xA8;" horiz-adv-x="333" d="M130 686V620H64V686H130ZM269 686V620H203V686H269Z"  />
<glyph unicode="&#xA9;" horiz-adv-x="740" d="M548 297Q540 262 522 237T480 196T428 172T371 164Q329 164 293 178T232 219T192 285T177 374Q177 471 229 526T374 582Q431 582 477 555T541 466L483 452Q472 480 456 495T423 517T392 525T372 527Q337 527 313 513T273 477T251 428T244 372Q244 333 254 305T280 258T319 230T367 221Q377 221 394 224T429 237T464 265T488 315L548 297ZM370 743Q446 743 513 715T630 636T709 519T738 375Q738 299 709 232T631 115T514 35T370 6Q293 6 226 35T109 114T30 232T1 375Q1 452 30 519T109 636T227 714T370 743ZM370 682Q307 682 251 658T154 593T88 495T63 375Q63 311 87 255T152 158T250 92T370 68Q434 68 490 92T587 157T653 255T677 375Q677 439 653 495T587 592T489 658T370 682Z"  />
<glyph unicode="&#xAA;" horiz-adv-x="271" d="M224 459Q224 458 224 452T226 438T230 420T237 402H194Q192 407 188 419T182 443Q167 429 145 413T92 397Q59 397 39 423T19 482Q19 519 38 543T84 583T138 607T182 620Q182 638 181 653T176 680T162 698T134 705Q117 705 107 699T90 684T80 664T75 644H33Q35 656 40 673T55 705T85 732T134 743Q182 743 203 715T224 644V459ZM182 588Q171 585 151 580T110 563T76 533T61 487Q61 462 75 448T106 434Q123 434 140 445T182 480V588Z"  />
<glyph unicode="&#xAB;" horiz-adv-x="417" d="M386 526L267 264L386 0H319L200 264L319 526H386ZM219 526L100 264L219 0H152L33 264L152 526H219Z"  />
<glyph unicode="&#xAC;" horiz-adv-x="667" d="M598 470V178H534V406H68V470H598Z"  />
<glyph unicode="&#xAD;" horiz-adv-x="323" d="M250 286V220H72V286H250Z"  />
<glyph unicode="&#xAE;" horiz-adv-x="740" d="M208 568H345Q380 568 415 565T476 540Q493 526 503 505T514 460Q514 443 508 425T489 390T454 363T401 349V347Q410 344 418 340T437 325T461 296T493 249L541 171H463L428 234Q410 266 397 286T371 318T344 334T310 339H272V171H208V568ZM272 394H350Q361 394 377 395T409 401T435 419T446 455Q446 477 436 489T410 506T378 513T345 514H272V394ZM370 743Q446 743 513 715T630 636T709 519T738 375Q738 299 709 232T631 115T514 35T370 6Q293 6 226 35T109 114T30 232T1 375Q1 452 30 519T109 636T227 714T370 743ZM370 682Q307 682 251 658T154 593T88 495T63 375Q63 311 87 255T152 158T250 92T370 68Q434 68 490 92T587 157T653 255T677 375Q677 439 653 495T587 592T489 658T370 682Z"  />
<glyph unicode="&#xAF;" horiz-adv-x="333" d="M280 689V623H53V689H280Z"  />
<glyph unicode="&#xB0;" horiz-adv-x="396" d="M197 698Q157 698 130 671T103 603Q103 563 130 535T197 507Q237 507 265 535T293 603Q293 643 265 670T197 698ZM197 748Q227 748 253 737T300 706T331 660T343 603Q343 573 332 547T300 500T254 469T197 457Q167 457 141 468T95 500T64 546T53 603Q53 633 64 659T94 705T140 736T197 748Z"  />
<glyph unicode="&#xB1;" horiz-adv-x="667" d="M301 460V693H365V460H598V396H365V163H301V396H68V460H301ZM598 64V0H68V64H598Z"  />
<glyph unicode="&#xB2;" horiz-adv-x="281" d="M112 452Q100 439 95 428T87 408H246V361H25Q26 373 27 386T36 417T57 456T98 505Q146 555 170 586T194 652Q194 669 181 683T146 698Q129 698 120 691T104 673T95 647T89 617L41 622Q43 667 58 692T91 728T125 741T147 743Q165 743 183 737T215 719T237 690T246 650Q246 640 244 628T235 599T214 563T176 518L112 452Z"  />
<glyph unicode="&#xB3;" horiz-adv-x="281" d="M75 461Q76 453 79 443T88 424T104 409T131 403Q148 403 159 410T177 427T186 450T189 473Q189 504 170 521T106 539H87V578H110Q146 578 165 593T184 643Q184 672 170 685T137 698Q122 698 113 692T99 678T90 660T85 643L35 649Q36 656 40 671T56 703T86 731T137 743Q179 743 206 715T234 645Q234 625 230 612T218 588T201 571T184 558Q193 552 202 546T220 529T234 503T239 467Q239 422 210 390T132 357Q124 357 109 359T76 372T44 403T25 461H75Z"  />
<glyph unicode="&#xB4;" horiz-adv-x="333" d="M289 727L163 580H99L191 727H289Z"  />
<glyph unicode="&#xB5;" horiz-adv-x="448" d="M133 526V148Q133 131 134 112T142 77T163 50T205 39Q231 39 253 54T295 104Q302 117 306 135T312 170T314 203T314 229V526H381V0H314V51Q303 40 293 29T271 8T244 -7T208 -13Q186 -13 169 -8T132 4V-199H66V526H133Z"  />
<glyph unicode="&#xB6;" horiz-adv-x="646" d="M619 667H523V-181H461V667H331V-181H267V324Q198 324 155 346T88 401T56 468T47 530Q47 573 62 610T106 675T179 719T281 735H619V667Z"  />
<glyph unicode="&#xB7;" horiz-adv-x="229" d="M163 422V313H65V422H163Z"  />
<glyph unicode="&#xB8;" horiz-adv-x="333" d="M124 11H190L173 -41Q210 -46 233 -63T257 -114Q257 -136 246 -153T216 -181T170 -199T113 -205Q108 -205 89 -205T46 -200L51 -143L98 -145Q111 -145 124 -144T149 -138T168 -127T175 -108Q175 -96 167 -89T146 -79T121 -76T99 -75L124 11Z"  />
<glyph unicode="&#xB9;" horiz-adv-x="281" d="M166 739V409H217V361H71V409H116V676Q104 672 91 669T56 666V711Q80 714 96 719T129 739H166Z"  />
<glyph unicode="&#xBA;" horiz-adv-x="271" d="M135 743Q147 743 166 738T206 713Q226 693 235 661T244 571Q244 553 243 524T231 466T198 418T136 397Q95 397 73 417T41 466T29 522T27 564Q27 618 36 661T81 728Q86 731 99 737T135 743ZM137 708Q111 708 97 694T77 658T69 611T68 563Q68 498 83 466T136 433Q158 433 171 444T191 476T200 522T202 577Q202 599 201 622T192 664T172 695T137 708Z"  />
<glyph unicode="&#xBB;" horiz-adv-x="417" d="M31 0L150 262L31 526H98L217 262L98 0H31ZM198 0L317 262L198 526H265L384 262L265 0H198Z"  />
<glyph unicode="&#xBC;" horiz-adv-x="807" d="M459 -9V40L624 357H696V41H769V-9H696V-123H646V-9H459ZM133 301V673Q120 668 103 664T62 657V702Q83 705 100 711T135 735H183V301H246V256H62V301H133ZM512 41H646V299L512 41ZM674 720L198 -123L155 -108L630 735L674 720Z"  />
<glyph unicode="&#xBD;" horiz-adv-x="807" d="M472 -123V-82Q472 -73 480 -56T504 -17T543 32T599 87Q646 127 669 157T692 224Q692 262 673 289T621 317Q584 317 562 290T521 217L476 228Q476 232 483 254T508 302T553 347T621 367Q657 367 681 352T720 315T740 268T746 224Q746 198 740 178T721 141T693 109T659 75Q654 72 651 69T642 60Q638 56 635 53T627 46Q588 9 560 -21T525 -77H747V-123H472ZM654 720L178 -123L135 -108L610 735L654 720ZM133 301V673Q120 668 103 664T62 657V702Q83 705 100 711T135 735H183V301H246V256H62V301H133Z"  />
<glyph unicode="&#xBE;" horiz-adv-x="807" d="M459 -9V40L624 357H696V41H769V-9H696V-123H646V-9H459ZM130 476L134 525H165Q217 525 244 548T272 608Q272 640 250 662T195 685Q166 685 144 669T100 630L64 658Q90 693 121 714T197 735Q226 735 249 725T290 696T316 655T326 607Q326 572 306 545T253 500Q286 483 310 456T334 382Q334 353 324 327T294 281T249 248T192 236Q139 236 105 263T45 331L83 364Q107 330 132 308T193 286Q211 286 227 293T255 314T273 343T280 377Q280 409 266 428T232 458T195 472T171 476H130ZM512 41H646V299L512 41ZM696 723L218 -123L173 -111L650 735L696 723Z"  />
<glyph unicode="&#xBF;" horiz-adv-x="375" d="M247 319Q247 295 246 271T241 222T230 175T211 133Q188 97 171 68T142 14T124 -35T118 -86Q118 -105 124 -119T140 -142T162 -157T185 -162Q192 -162 203 -159T227 -146T252 -117T272 -67L333 -81Q331 -93 328 -107T318 -136T303 -166T277 -194Q260 -208 238 -217T188 -227Q159 -227 134 -217T91 -189T61 -144T50 -83Q50 -40 67 0T101 67Q102 69 105 74T113 86T121 98T127 106Q149 140 162 165T182 213T191 261T193 319H247ZM172 417V526H268V417H172Z"  />
<glyph unicode="&#xC0;" horiz-adv-x="510" d="M313 735L497 0H422L368 215H143L88 0H13L200 735H313ZM258 659H256L162 290H350L258 659ZM343 780H279L153 927H251L343 780Z"  />
<glyph unicode="&#xC1;" horiz-adv-x="510" d="M313 735L497 0H422L368 215H143L88 0H13L200 735H313ZM258 659H256L162 290H350L258 659ZM378 927L252 780H188L280 927H378Z"  />
<glyph unicode="&#xC2;" horiz-adv-x="510" d="M313 735L497 0H422L368 215H143L88 0H13L200 735H313ZM258 659H256L162 290H350L258 659ZM277 927L390 780H334L256 861L177 780H120L233 927H277Z"  />
<glyph unicode="&#xC3;" horiz-adv-x="510" d="M313 735L497 0H422L368 215H143L88 0H13L200 735H313ZM258 659H256L162 290H350L258 659ZM392 917Q392 901 390 880T382 839T361 807T321 794Q306 794 287 800T240 827Q229 835 215 842T190 849Q180 849 174 844T165 830T161 812T160 794H119Q119 809 121 830T129 870T150 903T189 917Q204 917 223 910T272 884Q283 878 297 870T322 862Q342 862 345 877T351 917H392Z"  />
<glyph unicode="&#xC4;" horiz-adv-x="510" d="M313 735L497 0H422L368 215H143L88 0H13L200 735H313ZM258 659H256L162 290H350L258 659ZM219 886V820H153V886H219ZM358 886V820H292V886H358Z"  />
<glyph unicode="&#xC5;" horiz-adv-x="510" d="M313 735L497 0H422L368 215H143L88 0H13L200 735H313ZM258 659H256L162 290H350L258 659ZM345 854Q345 816 319 790T256 764Q218 764 192 790T166 854Q166 891 192 917T256 943Q293 943 319 917T345 854ZM316 854Q316 879 299 896T256 914Q230 914 213 897T195 854Q195 828 212 811T256 793Q281 793 298 810T316 854Z"  />
<glyph unicode="&#xC6;" horiz-adv-x="625" d="M586 735V664H346V409H517V338H346V71H594V0H271V216H129L83 0H16L170 735H586ZM224 664L144 287H271V664H224Z"  />
<glyph unicode="&#xC7;" horiz-adv-x="490" d="M373 499Q370 517 365 545T346 601T311 648T255 668Q222 668 200 650T163 604T140 541T129 472T125 409T124 364Q124 259 137 198T183 104Q203 84 222 76T260 67Q299 67 322 90T357 143T374 203T380 249L453 239Q448 141 407 78T305 0L286 -50Q313 -50 328 -59T351 -81T361 -104T363 -120Q363 -152 337 -175T265 -199Q244 -199 225 -194T190 -182T161 -166T139 -151L157 -119L168 -124Q194 -137 213 -143T249 -150Q269 -150 283 -140T297 -114Q297 -95 280 -87T242 -79Q237 -79 231 -79T212 -82L243 -8Q225 -5 196 3T137 42Q86 96 67 179T47 360Q47 478 68 552T120 669T187 727T253 743Q283 743 319 729T388 672Q420 629 430 586T446 507L373 499Z"  />
<glyph unicode="&#xC8;" horiz-adv-x="458" d="M404 735L403 664H146L147 409H343V338H147V71H428V0H72V735H404ZM327 780H263L137 927H235L327 780Z"  />
<glyph unicode="&#xC9;" horiz-adv-x="458" d="M404 735L403 664H146L147 409H343V338H147V71H428V0H72V735H404ZM352 927L226 780H162L254 927H352Z"  />
<glyph unicode="&#xCA;" horiz-adv-x="458" d="M404 735L403 664H146L147 409H343V338H147V71H428V0H72V735H404ZM251 927L364 780H308L230 861L151 780H94L207 927H251Z"  />
<glyph unicode="&#xCB;" horiz-adv-x="458" d="M404 735L403 664H146L147 409H343V338H147V71H428V0H72V735H404ZM193 886V820H127V886H193ZM332 886V820H266V886H332Z"  />
<glyph unicode="&#xCC;" horiz-adv-x="250" d="M163 735V0H88V735H163ZM215 780H151L25 927H123L215 780Z"  />
<glyph unicode="&#xCD;" horiz-adv-x="250" d="M163 735V0H88V735H163ZM230 927L104 780H40L132 927H230Z"  />
<glyph unicode="&#xCE;" horiz-adv-x="250" d="M163 735V0H88V735H163ZM149 927L262 780H206L128 861L49 780H-8L105 927H149Z"  />
<glyph unicode="&#xCF;" horiz-adv-x="250" d="M163 735V0H88V735H163ZM91 886V820H25V886H91ZM230 886V820H164V886H230Z"  />
<glyph unicode="&#xD0;" horiz-adv-x="542" d="M207 735Q277 735 331 714T423 649T479 536T499 370Q499 301 487 235T443 116T354 32T207 0H72V332H3V405H72V735H207ZM147 660V405H283V332H147V77H201Q269 77 311 102T378 169T411 265T420 379Q420 528 363 594T193 660H147Z"  />
<glyph unicode="&#xD1;" horiz-adv-x="552" d="M170 735L402 216H404V735H479V0H420L150 605H148V0H73V735H170ZM413 917Q413 901 411 880T403 839T382 807T342 794Q327 794 308 800T261 827Q250 835 236 842T211 849Q201 849 195 844T186 830T182 812T181 794H140Q140 809 142 830T150 870T171 903T210 917Q225 917 244 910T293 884Q304 878 318 870T343 862Q363 862 366 877T372 917H413Z"  />
<glyph unicode="&#xD2;" horiz-adv-x="552" d="M273 743Q316 743 349 730T406 695T446 644T474 583Q485 551 491 519T499 457T502 404T503 366Q503 251 482 173T413 47Q405 38 392 29T363 11T326 -2T281 -8Q230 -8 193 11T135 51Q93 95 71 170T49 368Q49 381 49 404T52 455T60 516T77 581Q87 613 103 642T143 693T199 729T273 743ZM276 666Q248 666 227 656T191 630T164 591T146 544Q139 519 136 493T131 443T129 397T128 361Q128 218 165 144T279 69Q307 69 328 80T361 105Q396 141 410 207T424 376Q424 461 412 526T361 631Q345 648 321 657T276 666ZM364 780H300L174 927H272L364 780Z"  />
<glyph unicode="&#xD3;" horiz-adv-x="552" d="M273 743Q316 743 349 730T406 695T446 644T474 583Q485 551 491 519T499 457T502 404T503 366Q503 251 482 173T413 47Q405 38 392 29T363 11T326 -2T281 -8Q230 -8 193 11T135 51Q93 95 71 170T49 368Q49 381 49 404T52 455T60 516T77 581Q87 613 103 642T143 693T199 729T273 743ZM276 666Q248 666 227 656T191 630T164 591T146 544Q139 519 136 493T131 443T129 397T128 361Q128 218 165 144T279 69Q307 69 328 80T361 105Q396 141 410 207T424 376Q424 461 412 526T361 631Q345 648 321 657T276 666ZM399 927L273 780H209L301 927H399Z"  />
<glyph unicode="&#xD4;" horiz-adv-x="552" d="M273 743Q316 743 349 730T406 695T446 644T474 583Q485 551 491 519T499 457T502 404T503 366Q503 251 482 173T413 47Q405 38 392 29T363 11T326 -2T281 -8Q230 -8 193 11T135 51Q93 95 71 170T49 368Q49 381 49 404T52 455T60 516T77 581Q87 613 103 642T143 693T199 729T273 743ZM276 666Q248 666 227 656T191 630T164 591T146 544Q139 519 136 493T131 443T129 397T128 361Q128 218 165 144T279 69Q307 69 328 80T361 105Q396 141 410 207T424 376Q424 461 412 526T361 631Q345 648 321 657T276 666ZM298 927L411 780H355L277 861L198 780H141L254 927H298Z"  />
<glyph unicode="&#xD5;" horiz-adv-x="552" d="M273 743Q316 743 349 730T406 695T446 644T474 583Q485 551 491 519T499 457T502 404T503 366Q503 251 482 173T413 47Q405 38 392 29T363 11T326 -2T281 -8Q230 -8 193 11T135 51Q93 95 71 170T49 368Q49 381 49 404T52 455T60 516T77 581Q87 613 103 642T143 693T199 729T273 743ZM276 666Q248 666 227 656T191 630T164 591T146 544Q139 519 136 493T131 443T129 397T128 361Q128 218 165 144T279 69Q307 69 328 80T361 105Q396 141 410 207T424 376Q424 461 412 526T361 631Q345 648 321 657T276 666ZM413 917Q413 901 411 880T403 839T382 807T342 794Q327 794 308 800T261 827Q250 835 236 842T211 849Q201 849 195 844T186 830T182 812T181 794H140Q140 809 142 830T150 870T171 903T210 917Q225 917 244 910T293 884Q304 878 318 870T343 862Q363 862 366 877T372 917H413Z"  />
<glyph unicode="&#xD6;" horiz-adv-x="552" d="M273 743Q316 743 349 730T406 695T446 644T474 583Q485 551 491 519T499 457T502 404T503 366Q503 251 482 173T413 47Q405 38 392 29T363 11T326 -2T281 -8Q230 -8 193 11T135 51Q93 95 71 170T49 368Q49 381 49 404T52 455T60 516T77 581Q87 613 103 642T143 693T199 729T273 743ZM276 666Q248 666 227 656T191 630T164 591T146 544Q139 519 136 493T131 443T129 397T128 361Q128 218 165 144T279 69Q307 69 328 80T361 105Q396 141 410 207T424 376Q424 461 412 526T361 631Q345 648 321 657T276 666ZM240 886V820H174V886H240ZM379 886V820H313V886H379Z"  />
<glyph unicode="&#xD7;" horiz-adv-x="667" d="M135 568L334 368L533 568L578 522L379 323L577 125L531 80L334 278L136 80L91 125L289 323L90 523L135 568Z"  />
<glyph unicode="&#xD8;" horiz-adv-x="552" d="M493 745L535 714L466 609Q488 551 495 491T503 368Q503 295 496 243T476 154T448 93T416 51Q397 31 364 12T279 -8Q229 -8 186 15T114 78L57 -6L14 22L86 130Q78 151 71 172T59 220T52 279T49 357Q49 378 50 415T57 495T77 582T116 662T181 720T278 743Q326 743 367 721T438 660L493 745ZM391 588Q386 597 378 610T357 636T324 657T276 666Q240 666 215 650T174 608T148 548T135 479T129 412T128 354Q128 295 132 264T140 212L391 588ZM161 150Q166 141 174 127T196 100T230 78T278 69Q329 69 358 101T402 181T420 279T424 369Q424 384 424 405T422 449T417 492T410 526L161 150Z"  />
<glyph unicode="&#xD9;" horiz-adv-x="521" d="M145 735V178Q145 121 178 95T262 69Q321 69 348 100T376 194V735H451V193Q451 139 439 105T403 46Q383 26 362 15T321 -1T286 -7T263 -8Q219 -8 183 4T118 46Q91 73 81 107T70 193V735H145ZM348 780H284L158 927H256L348 780Z"  />
<glyph unicode="&#xDA;" horiz-adv-x="521" d="M145 735V178Q145 121 178 95T262 69Q321 69 348 100T376 194V735H451V193Q451 139 439 105T403 46Q383 26 362 15T321 -1T286 -7T263 -8Q219 -8 183 4T118 46Q91 73 81 107T70 193V735H145ZM383 927L257 780H193L285 927H383Z"  />
<glyph unicode="&#xDB;" horiz-adv-x="521" d="M145 735V178Q145 121 178 95T262 69Q321 69 348 100T376 194V735H451V193Q451 139 439 105T403 46Q383 26 362 15T321 -1T286 -7T263 -8Q219 -8 183 4T118 46Q91 73 81 107T70 193V735H145ZM282 927L395 780H339L261 861L182 780H125L238 927H282Z"  />
<glyph unicode="&#xDC;" horiz-adv-x="521" d="M145 735V178Q145 121 178 95T262 69Q321 69 348 100T376 194V735H451V193Q451 139 439 105T403 46Q383 26 362 15T321 -1T286 -7T263 -8Q219 -8 183 4T118 46Q91 73 81 107T70 193V735H145ZM224 886V820H158V886H224ZM363 886V820H297V886H363Z"  />
<glyph unicode="&#xDD;" horiz-adv-x="500" d="M92 735L249 403L406 735H487L286 312V0H211V312L13 735H92ZM373 927L247 780H183L275 927H373Z"  />
<glyph unicode="&#xDE;" horiz-adv-x="490" d="M147 735V573H206Q260 573 306 559T387 517T442 452T462 367Q462 319 443 281T390 216T307 175T200 161H147V0H72V735H147ZM147 503V232H194Q234 232 269 240T330 266T370 308T385 367Q385 404 368 430T323 472T259 495T186 503H147Z"  />
<glyph unicode="&#xDF;" horiz-adv-x="469" d="M79 544Q79 556 80 576T86 620T100 667T128 710T172 741T238 753Q281 753 309 737T353 696T377 640T384 579Q384 534 373 505T346 459T313 433T286 421V419Q310 412 333 402T375 370T405 311T417 212Q417 187 414 150T398 77T361 17T293 -8Q267 -8 249 0T219 21T200 47T188 72L234 94Q254 60 269 53T292 45Q314 45 326 63T343 107T350 158T351 199Q351 256 344 292T320 350T280 379T221 391V445Q233 446 250 449T282 466T309 503T321 572Q321 590 319 612T308 654T283 687T238 701Q215 701 200 692T173 670Q162 658 156 641T148 606T145 574T144 551V0H79V544Z"  />
<glyph unicode="&#xE0;" horiz-adv-x="417" d="M357 112Q357 59 364 35T376 0H309Q304 8 300 21T290 63Q258 34 225 13T151 -8Q127 -8 107 2T71 29T47 71T38 125Q38 159 51 191T95 251T173 301T290 339V380Q290 421 274 446T215 472Q187 472 171 462T144 438T130 408T124 380H58Q61 395 67 421T90 472T137 515T217 534Q254 534 280 522T324 488T349 439T357 380V112ZM290 291Q274 287 243 278T180 251T126 205T103 134Q103 96 123 73T172 50Q201 50 228 68T290 121V291ZM296 589H232L106 736H204L296 589Z"  />
<glyph unicode="&#xE1;" horiz-adv-x="417" d="M357 112Q357 59 364 35T376 0H309Q304 8 300 21T290 63Q258 34 225 13T151 -8Q127 -8 107 2T71 29T47 71T38 125Q38 159 51 191T95 251T173 301T290 339V380Q290 421 274 446T215 472Q187 472 171 462T144 438T130 408T124 380H58Q61 395 67 421T90 472T137 515T217 534Q254 534 280 522T324 488T349 439T357 380V112ZM290 291Q274 287 243 278T180 251T126 205T103 134Q103 96 123 73T172 50Q201 50 228 68T290 121V291ZM331 736L205 589H141L233 736H331Z"  />
<glyph unicode="&#xE2;" horiz-adv-x="417" d="M357 112Q357 59 364 35T376 0H309Q304 8 300 21T290 63Q258 34 225 13T151 -8Q127 -8 107 2T71 29T47 71T38 125Q38 159 51 191T95 251T173 301T290 339V380Q290 421 274 446T215 472Q187 472 171 462T144 438T130 408T124 380H58Q61 395 67 421T90 472T137 515T217 534Q254 534 280 522T324 488T349 439T357 380V112ZM290 291Q274 287 243 278T180 251T126 205T103 134Q103 96 123 73T172 50Q201 50 228 68T290 121V291ZM230 736L343 589H287L209 670L130 589H73L186 736H230Z"  />
<glyph unicode="&#xE3;" horiz-adv-x="417" d="M357 112Q357 59 364 35T376 0H309Q304 8 300 21T290 63Q258 34 225 13T151 -8Q127 -8 107 2T71 29T47 71T38 125Q38 159 51 191T95 251T173 301T290 339V380Q290 421 274 446T215 472Q187 472 171 462T144 438T130 408T124 380H58Q61 395 67 421T90 472T137 515T217 534Q254 534 280 522T324 488T349 439T357 380V112ZM290 291Q274 287 243 278T180 251T126 205T103 134Q103 96 123 73T172 50Q201 50 228 68T290 121V291ZM345 726Q345 710 343 689T335 648T314 616T274 603Q259 603 240 609T193 636Q182 644 168 651T143 658Q133 658 127 653T118 639T114 621T113 603H72Q72 618 74 639T82 679T103 712T142 726Q157 726 176 719T225 693Q236 687 250 679T275 671Q295 671 298 686T304 726H345Z"  />
<glyph unicode="&#xE4;" horiz-adv-x="417" d="M357 112Q357 59 364 35T376 0H309Q304 8 300 21T290 63Q258 34 225 13T151 -8Q127 -8 107 2T71 29T47 71T38 125Q38 159 51 191T95 251T173 301T290 339V380Q290 421 274 446T215 472Q187 472 171 462T144 438T130 408T124 380H58Q61 395 67 421T90 472T137 515T217 534Q254 534 280 522T324 488T349 439T357 380V112ZM290 291Q274 287 243 278T180 251T126 205T103 134Q103 96 123 73T172 50Q201 50 228 68T290 121V291ZM172 695V629H106V695H172ZM311 695V629H245V695H311Z"  />
<glyph unicode="&#xE5;" horiz-adv-x="417" d="M357 112Q357 59 364 35T376 0H309Q304 8 300 21T290 63Q258 34 225 13T151 -8Q127 -8 107 2T71 29T47 71T38 125Q38 159 51 191T95 251T173 301T290 339V380Q290 421 274 446T215 472Q187 472 171 462T144 438T130 408T124 380H58Q61 395 67 421T90 472T137 515T217 534Q254 534 280 522T324 488T349 439T357 380V112ZM290 291Q274 287 243 278T180 251T126 205T103 134Q103 96 123 73T172 50Q201 50 228 68T290 121V291ZM298 663Q298 625 272 599T209 573Q171 573 145 599T119 663Q119 700 145 726T209 752Q246 752 272 726T298 663ZM269 663Q269 688 252 705T209 723Q183 723 166 706T148 663Q148 637 165 620T209 602Q234 602 251 619T269 663Z"  />
<glyph unicode="&#xE6;" horiz-adv-x="604" d="M327 250Q329 149 356 101T422 52Q447 52 463 65T489 97T503 135T510 166L573 151Q570 139 563 113T540 59T498 12T429 -8Q386 -8 355 17T298 82Q269 42 234 17T153 -8Q126 -8 105 3T68 32T44 74T36 124Q36 170 56 203T107 262T174 305T243 337Q251 340 253 341T261 345Q261 360 261 382T255 426T236 463T196 479Q173 479 159 467T135 439T120 404T112 374L46 380Q55 435 76 466T122 512T166 530T195 534Q217 534 234 527T266 510T290 488T308 466Q313 472 322 483T346 506T381 526T426 534Q473 534 501 507T545 438T566 346T573 250H327ZM505 310Q504 367 495 401T473 453T444 477T416 483Q405 483 391 476T363 450T339 397T327 310H505ZM261 287Q244 280 217 267T163 235T117 190T98 132Q98 114 104 100T121 76T144 61T170 55Q186 55 211 68T261 120V287Z"  />
<glyph unicode="&#xE7;" horiz-adv-x="385" d="M278 361Q278 371 276 389T267 426T245 459T203 473Q174 473 156 456T126 409T111 342T107 260Q107 220 109 192T116 143T130 108T150 81Q167 64 183 60T207 56Q236 56 258 82T288 164L353 153Q350 133 346 113T332 73T306 36T263 7L234 -53Q268 -56 288 -71T308 -119Q308 -154 282 -174T215 -194Q180 -194 152 -181T91 -150L107 -121Q111 -122 113 -123T124 -128Q151 -140 169 -145T203 -151Q224 -151 236 -141T249 -117Q249 -113 247 -106T236 -92T211 -81T169 -79L201 -8Q142 -6 110 25T62 98T44 184T41 258Q41 291 44 338T64 428T113 503T205 534Q242 534 268 521T311 484T335 429T343 361H278Z"  />
<glyph unicode="&#xE8;" horiz-adv-x="406" d="M107 251Q107 234 107 214T111 172T120 130T137 93Q151 72 171 61T210 50Q222 50 236 55T265 72T291 107T308 162L374 149Q367 116 355 87T323 37T277 4T216 -8Q175 -8 147 8T106 37Q68 77 53 139T38 278Q38 338 46 381T73 457Q96 497 133 515T204 534Q214 534 229 532T263 522T299 501T333 464Q347 442 355 417T367 365T372 308T373 251H107ZM308 311Q307 325 305 352T294 409Q284 437 264 458T208 479Q177 479 158 465T127 426Q116 402 112 372T108 311H308ZM291 589H227L101 736H199L291 589Z"  />
<glyph unicode="&#xE9;" horiz-adv-x="406" d="M107 251Q107 234 107 214T111 172T120 130T137 93Q151 72 171 61T210 50Q222 50 236 55T265 72T291 107T308 162L374 149Q367 116 355 87T323 37T277 4T216 -8Q175 -8 147 8T106 37Q68 77 53 139T38 278Q38 338 46 381T73 457Q96 497 133 515T204 534Q214 534 229 532T263 522T299 501T333 464Q347 442 355 417T367 365T372 308T373 251H107ZM308 311Q307 325 305 352T294 409Q284 437 264 458T208 479Q177 479 158 465T127 426Q116 402 112 372T108 311H308ZM326 736L200 589H136L228 736H326Z"  />
<glyph unicode="&#xEA;" horiz-adv-x="406" d="M107 251Q107 234 107 214T111 172T120 130T137 93Q151 72 171 61T210 50Q222 50 236 55T265 72T291 107T308 162L374 149Q367 116 355 87T323 37T277 4T216 -8Q175 -8 147 8T106 37Q68 77 53 139T38 278Q38 338 46 381T73 457Q96 497 133 515T204 534Q214 534 229 532T263 522T299 501T333 464Q347 442 355 417T367 365T372 308T373 251H107ZM308 311Q307 325 305 352T294 409Q284 437 264 458T208 479Q177 479 158 465T127 426Q116 402 112 372T108 311H308ZM235 736L348 589H292L214 670L135 589H78L191 736H235Z"  />
<glyph unicode="&#xEB;" horiz-adv-x="406" d="M107 251Q107 234 107 214T111 172T120 130T137 93Q151 72 171 61T210 50Q222 50 236 55T265 72T291 107T308 162L374 149Q367 116 355 87T323 37T277 4T216 -8Q175 -8 147 8T106 37Q68 77 53 139T38 278Q38 338 46 381T73 457Q96 497 133 515T204 534Q214 534 229 532T263 522T299 501T333 464Q347 442 355 417T367 365T372 308T373 251H107ZM308 311Q307 325 305 352T294 409Q284 437 264 458T208 479Q177 479 158 465T127 426Q116 402 112 372T108 311H308ZM167 695V629H101V695H167ZM306 695V629H240V695H306Z"  />
<glyph unicode="&#xEC;" horiz-adv-x="229" d="M148 526V0H81V526H148ZM204 589H140L14 736H112L204 589Z"  />
<glyph unicode="&#xED;" horiz-adv-x="229" d="M148 526V0H81V526H148ZM219 736L93 589H29L121 736H219Z"  />
<glyph unicode="&#xEE;" horiz-adv-x="229" d="M148 526V0H81V526H148ZM138 736L251 589H195L117 670L38 589H-19L94 736H138Z"  />
<glyph unicode="&#xEF;" horiz-adv-x="229" d="M148 526V0H81V526H148ZM80 695V629H14V695H80ZM219 695V629H153V695H219Z"  />
<glyph unicode="&#xF0;" horiz-adv-x="417" d="M193 745L228 704L289 745L315 711L254 669Q269 646 290 610T331 523T365 406T379 258Q379 222 374 176T350 89T299 20T209 -8Q169 -8 141 7T93 46T63 100T47 159T40 213T38 253Q38 283 40 315T49 379T67 438T98 487T144 521T208 534Q231 534 246 529T275 518Q262 558 247 589T217 643L126 580L102 617L193 680Q183 694 171 708T137 745H193ZM208 53Q237 53 257 64T289 101T306 166T311 266Q311 327 305 367T287 431T255 464T208 474Q180 474 161 463T129 427T111 363T105 267Q105 206 111 165T130 99T162 64T208 53Z"  />
<glyph unicode="&#xF1;" horiz-adv-x="448" d="M390 0H323V390Q323 394 322 407T316 436T299 462T265 474Q239 474 211 453T143 377V0H76V526H143V435H145Q177 481 212 507T286 534Q323 534 343 514T374 467T387 411T390 364V0ZM361 726Q361 710 359 689T351 648T330 616T290 603Q275 603 256 609T209 636Q198 644 184 651T159 658Q149 658 143 653T134 639T130 621T129 603H88Q88 618 90 639T98 679T119 712T158 726Q173 726 192 719T241 693Q252 687 266 679T291 671Q311 671 314 686T320 726H361Z"  />
<glyph unicode="&#xF2;" horiz-adv-x="417" d="M204 -8Q178 -8 151 2T100 38Q85 54 74 74T54 121T42 183T38 266Q38 351 52 404T100 491Q123 514 150 524T206 534Q230 534 259 525T315 492Q355 454 367 398T379 270Q379 235 376 190T358 104T313 33T227 -5Q225 -6 216 -7T204 -8ZM211 479Q171 479 150 458T118 403Q108 369 107 328T105 248Q105 227 106 194T117 128Q127 96 148 73T209 50Q246 50 266 71T297 125Q307 158 309 199T312 283Q312 315 309 349T296 413Q285 442 266 460T211 479ZM296 589H232L106 736H204L296 589Z"  />
<glyph unicode="&#xF3;" horiz-adv-x="417" d="M204 -8Q178 -8 151 2T100 38Q85 54 74 74T54 121T42 183T38 266Q38 351 52 404T100 491Q123 514 150 524T206 534Q230 534 259 525T315 492Q355 454 367 398T379 270Q379 235 376 190T358 104T313 33T227 -5Q225 -6 216 -7T204 -8ZM211 479Q171 479 150 458T118 403Q108 369 107 328T105 248Q105 227 106 194T117 128Q127 96 148 73T209 50Q246 50 266 71T297 125Q307 158 309 199T312 283Q312 315 309 349T296 413Q285 442 266 460T211 479ZM311 736L185 589H121L213 736H311Z"  />
<glyph unicode="&#xF4;" horiz-adv-x="417" d="M204 -8Q178 -8 151 2T100 38Q85 54 74 74T54 121T42 183T38 266Q38 351 52 404T100 491Q123 514 150 524T206 534Q230 534 259 525T315 492Q355 454 367 398T379 270Q379 235 376 190T358 104T313 33T227 -5Q225 -6 216 -7T204 -8ZM211 479Q171 479 150 458T118 403Q108 369 107 328T105 248Q105 227 106 194T117 128Q127 96 148 73T209 50Q246 50 266 71T297 125Q307 158 309 199T312 283Q312 315 309 349T296 413Q285 442 266 460T211 479ZM230 736L343 589H287L209 670L130 589H73L186 736H230Z"  />
<glyph unicode="&#xF5;" horiz-adv-x="417" d="M204 -8Q178 -8 151 2T100 38Q85 54 74 74T54 121T42 183T38 266Q38 351 52 404T100 491Q123 514 150 524T206 534Q230 534 259 525T315 492Q355 454 367 398T379 270Q379 235 376 190T358 104T313 33T227 -5Q225 -6 216 -7T204 -8ZM211 479Q171 479 150 458T118 403Q108 369 107 328T105 248Q105 227 106 194T117 128Q127 96 148 73T209 50Q246 50 266 71T297 125Q307 158 309 199T312 283Q312 315 309 349T296 413Q285 442 266 460T211 479ZM345 726Q345 710 343 689T335 648T314 616T274 603Q259 603 240 609T193 636Q182 644 168 651T143 658Q133 658 127 653T118 639T114 621T113 603H72Q72 618 74 639T82 679T103 712T142 726Q157 726 176 719T225 693Q236 687 250 679T275 671Q295 671 298 686T304 726H345Z"  />
<glyph unicode="&#xF6;" horiz-adv-x="417" d="M204 -8Q178 -8 151 2T100 38Q85 54 74 74T54 121T42 183T38 266Q38 351 52 404T100 491Q123 514 150 524T206 534Q230 534 259 525T315 492Q355 454 367 398T379 270Q379 235 376 190T358 104T313 33T227 -5Q225 -6 216 -7T204 -8ZM211 479Q171 479 150 458T118 403Q108 369 107 328T105 248Q105 227 106 194T117 128Q127 96 148 73T209 50Q246 50 266 71T297 125Q307 158 309 199T312 283Q312 315 309 349T296 413Q285 442 266 460T211 479ZM172 695V629H106V695H172ZM311 695V629H245V695H311Z"  />
<glyph unicode="&#xF7;" horiz-adv-x="667" d="M374 122Q374 105 362 93T333 81Q316 81 304 93T292 122Q292 139 304 151T333 163Q350 163 362 151T374 122ZM374 526Q374 509 362 497T333 485Q316 485 304 497T292 526Q292 543 304 555T333 567Q350 567 362 555T374 526ZM598 356V292H68V356H598Z"  />
<glyph unicode="&#xF8;" horiz-adv-x="417" d="M54 -5L15 23L63 94Q49 132 44 171T38 251Q38 343 51 399T102 492Q118 507 143 520T207 534Q230 534 248 529T280 517T306 500T326 482L361 534L402 508L354 438Q358 429 362 417T369 387T375 340T377 271Q377 251 377 223T371 164T356 102T327 47T279 7T207 -8Q184 -8 167 -4T136 9T111 27T90 48L54 -5ZM289 428Q276 451 257 465T211 479Q172 479 151 458T119 404T106 335T103 268Q103 225 105 202T108 163H110L289 428ZM126 102Q130 96 136 87T153 70T176 56T209 50Q243 50 263 68T294 116T308 186T312 270Q312 305 310 328T307 367H305L126 102Z"  />
<glyph unicode="&#xF9;" horiz-adv-x="448" d="M128 526V126Q128 98 143 75T187 51Q203 51 217 57T245 77T275 108T309 150V526H376V0H309V90H307Q275 49 242 21T163 -8Q136 -8 117 4T85 38T67 89T61 150V526H128ZM312 589H248L122 736H220L312 589Z"  />
<glyph unicode="&#xFA;" horiz-adv-x="448" d="M128 526V126Q128 98 143 75T187 51Q203 51 217 57T245 77T275 108T309 150V526H376V0H309V90H307Q275 49 242 21T163 -8Q136 -8 117 4T85 38T67 89T61 150V526H128ZM327 736L201 589H137L229 736H327Z"  />
<glyph unicode="&#xFB;" horiz-adv-x="448" d="M128 526V126Q128 98 143 75T187 51Q203 51 217 57T245 77T275 108T309 150V526H376V0H309V90H307Q275 49 242 21T163 -8Q136 -8 117 4T85 38T67 89T61 150V526H128ZM246 736L359 589H303L225 670L146 589H89L202 736H246Z"  />
<glyph unicode="&#xFC;" horiz-adv-x="448" d="M128 526V126Q128 98 143 75T187 51Q203 51 217 57T245 77T275 108T309 150V526H376V0H309V90H307Q275 49 242 21T163 -8Q136 -8 117 4T85 38T67 89T61 150V526H128ZM188 695V629H122V695H188ZM327 695V629H261V695H327Z"  />
<glyph unicode="&#xFD;" horiz-adv-x="375" d="M83 526L185 125H187L293 526H359L217 -14Q212 -34 203 -63T174 -120T124 -168T45 -188Q29 -188 20 -186T0 -181V-118Q8 -120 15 -121T34 -122Q70 -122 92 -108T128 -74T146 -33T154 0L18 526H83ZM290 736L164 589H100L192 736H290Z"  />
<glyph unicode="&#xFE;" horiz-adv-x="448" d="M137 -181H70V745H137V452H139Q145 462 154 476T178 503T213 525T259 534Q290 534 312 523T351 495Q380 466 395 413T410 263Q410 172 396 118T351 31Q334 13 310 3T258 -8Q232 -8 213 1T179 22T155 48T139 72H137V-181ZM137 117Q145 108 156 95T181 70T213 50T251 41Q280 41 298 57T325 103Q334 132 337 171T341 257Q341 300 337 339T322 409T292 458T242 476Q222 476 206 469T176 450T153 428T137 409V117Z"  />
<glyph unicode="&#xFF;" horiz-adv-x="375" d="M83 526L185 125H187L293 526H359L217 -14Q212 -34 203 -63T174 -120T124 -168T45 -188Q29 -188 20 -186T0 -181V-118Q8 -120 15 -121T34 -122Q70 -122 92 -108T128 -74T146 -33T154 0L18 526H83ZM151 695V629H85V695H151ZM290 695V629H224V695H290Z"  />
<glyph unicode="&#x131;" horiz-adv-x="229" d="M148 526V0H81V526H148Z"  />
<glyph unicode="&#x152;" horiz-adv-x="750" d="M398 735H714V664H474V411H645V340H474V74H722V0H398V90H396Q379 60 361 41T325 11T288 -4T253 -8Q201 -8 166 15T107 75T72 155T54 240T47 315T46 365Q46 405 49 452T63 546T94 634T147 704Q179 730 208 736T253 743Q291 743 327 724T396 652H398V735ZM260 68Q300 68 330 96Q350 115 363 139T384 199T395 281T398 392Q398 441 394 479T383 547T363 599T334 639Q326 647 308 659T262 672Q246 672 233 668T209 657T191 645T179 634Q145 600 132 535T118 356Q118 315 120 277T130 204T152 142T190 94Q214 74 234 71T260 68Z"  />
<glyph unicode="&#x153;" horiz-adv-x="646" d="M371 250Q372 182 383 143T410 84T441 59T466 53Q478 53 490 58T514 76T535 110T551 164L615 152Q599 75 564 34T474 -8Q442 -8 418 5T377 36T350 73T333 104Q328 92 319 73T293 36T254 5T198 -8Q158 -8 131 8T86 49T58 106T44 166T39 220T38 257Q38 270 39 296T44 353T58 416T86 474T131 517T200 534Q231 534 253 523T289 497T313 466T327 437Q335 449 347 465T376 497T416 523T467 534Q503 534 527 518T568 477T593 419T606 356T611 296T612 250H371ZM546 311Q546 335 543 364T531 420T506 464T462 482Q427 482 400 441T371 311H546ZM197 52Q233 52 254 75T286 131T300 200T303 262Q303 294 300 332T286 402T255 456T202 478Q179 478 163 466T135 433T118 389T108 340T104 294T103 259Q103 251 103 232T106 190T114 143T130 98T157 65T197 52Z"  />
<glyph unicode="&#x160;" horiz-adv-x="500" d="M368 534Q367 546 365 569T351 614T316 654T251 671Q200 671 168 644T136 570Q136 545 146 525T173 488T213 454T262 422Q298 399 332 375T394 323T438 259T455 179Q455 141 441 107T399 48T334 7T247 -8Q200 -8 167 5T112 38T77 83T56 131T47 174T44 203L118 207Q120 188 125 164T143 119T180 84T247 69Q280 69 305 78T346 103T370 137T378 177Q378 203 368 225T338 267T290 308T227 352Q199 370 170 391T116 437T77 495T61 569Q61 600 72 631T106 687T164 727T248 743Q295 743 327 731T381 698T415 654T432 606T439 564T441 534H368ZM229 780L116 927H172L250 846L329 927H386L273 780H229Z"  />
<glyph unicode="&#x161;" horiz-adv-x="396" d="M278 385Q270 430 244 453T189 476Q163 476 141 458T118 405Q118 393 121 382T135 359T164 332T213 299Q283 257 319 219T355 129Q355 99 343 74T308 31T257 3T194 -8Q151 -8 122 7T73 45T44 89T29 126L94 141Q99 129 106 114T126 86T156 63T200 54Q222 54 238 61T265 81T281 106T286 132Q286 142 283 152T271 173T244 198T197 230Q150 258 128 276T94 306Q79 321 65 342T51 402Q51 432 63 456T96 497T143 524T195 534Q206 534 227 530T272 512T315 470T343 395L278 385ZM177 589L64 736H120L198 655L277 736H334L221 589H177Z"  />
<glyph unicode="&#x178;" horiz-adv-x="500" d="M92 735L249 403L406 735H487L286 312V0H211V312L13 735H92ZM214 886V820H148V886H214ZM353 886V820H287V886H353Z"  />
<glyph unicode="&#x17D;" horiz-adv-x="438" d="M398 735V661L122 69H398V0H40V69L317 661H70V735H398ZM198 780L85 927H141L219 846L298 927H355L242 780H198Z"  />
<glyph unicode="&#x17E;" horiz-adv-x="375" d="M348 526V466L97 60H348V0H26V61L277 466H51V526H348ZM166 589L53 736H109L187 655L266 736H323L210 589H166Z"  />
<glyph unicode="&#x192;" horiz-adv-x="448" d="M411 533L399 491H295L191 15Q188 0 183 -24T171 -72T158 -117T145 -147Q136 -162 124 -172T99 -187T71 -194T44 -196Q16 -196 -16 -188L-5 -142Q14 -145 37 -145Q60 -145 75 -138T99 -119T113 -90T123 -51Q123 -50 124 -46T125 -40L240 491H159L169 533H248L265 613Q271 640 279 663T300 704T335 732T387 743Q395 743 402 743T417 741T436 737T464 730L451 686Q440 689 429 691T401 693Q379 693 366 686T344 669Q334 658 330 645Q328 637 325 627T319 606Q315 595 313 582L302 533H411Z"  />
<glyph unicode="&#x2C6;" horiz-adv-x="333" d="M188 727L301 580H245L167 661L88 580H31L144 727H188Z"  />
<glyph unicode="&#x2C7;" horiz-adv-x="333" d="M145 580L32 727H88L166 646L245 727H302L189 580H145Z"  />
<glyph unicode="&#x2DA;" horiz-adv-x="333" d="M256 654Q256 616 230 590T167 564Q129 564 103 590T77 654Q77 691 103 717T167 743Q204 743 230 717T256 654ZM227 654Q227 679 210 696T167 714Q141 714 124 697T106 654Q106 628 123 611T167 593Q192 593 209 610T227 654Z"  />
<glyph unicode="&#x2DC;" horiz-adv-x="333" d="M303 717Q303 701 301 680T293 639T272 607T232 594Q217 594 198 600T151 627Q140 635 126 642T101 649Q91 649 85 644T76 630T72 612T71 594H30Q30 609 32 630T40 670T61 703T100 717Q115 717 134 710T183 684Q194 678 208 670T233 662Q253 662 256 677T262 717H303Z"  />
<glyph unicode="&#x2013;" horiz-adv-x="500" d="M506 285V222H-6V285H506Z"  />
<glyph unicode="&#x2014;" horiz-adv-x="1000" d="M1006 285V222H-6V285H1006Z"  />
<glyph unicode="&#x2018;" horiz-adv-x="229" d="M63 467V576L132 735H178L114 576H161V467H63Z"  />
<glyph unicode="&#x2019;" horiz-adv-x="229" d="M166 735V626L97 467H51L115 626H68V735H166Z"  />
<glyph unicode="&#x201A;" horiz-adv-x="229" d="M159 109V0L90 -159H44L108 0H61V109H159Z"  />
<glyph unicode="&#x201C;" horiz-adv-x="417" d="M258 467V576L327 735H373L309 576H356V467H258ZM70 467V576L139 735H185L121 576H168V467H70Z"  />
<glyph unicode="&#x201D;" horiz-adv-x="417" d="M159 735V626L90 467H44L108 626H61V735H159ZM347 735V626L278 467H232L296 626H249V735H347Z"  />
<glyph unicode="&#x201E;" horiz-adv-x="417" d="M157 109V0L88 -159H42L106 0H59V109H157ZM345 109V0L276 -159H230L294 0H247V109H345Z"  />
<glyph unicode="&#x2020;" horiz-adv-x="375" d="M222 735L210 466L358 477V409L210 420L226 -205H148L165 420L17 409V477L165 466L153 735H222Z"  />
<glyph unicode="&#x2021;" horiz-adv-x="375" d="M221 735L210 491L351 502V434L209 445L217 268L209 85L351 96V28L210 39L221 -205H153L165 39L24 28V96L165 85L158 268L165 445L24 434V502L165 491L153 735H221Z"  />
<glyph unicode="&#x2022;" d="M53 350Q53 376 63 398T89 438T128 464T177 474Q202 474 225 465T264 438T291 399T301 350Q301 324 291 302T265 263T225 237T177 227Q151 227 129 236T90 263T63 302T53 350Z"  />
<glyph unicode="&#x2026;" horiz-adv-x="844" d="M474 109V0H376V109H474ZM753 109V0H655V109H753ZM195 109V0H97V109H195Z"  />
<glyph unicode="&#x2030;" horiz-adv-x="1240" d="M634 249Q682 249 719 212Q729 201 738 187T753 153T763 103T767 33Q767 -30 757 -74T717 -148Q705 -161 682 -174T629 -188Q613 -188 600 -184T576 -173T558 -161T548 -151Q538 -141 529 -128T513 -93T502 -40T498 37Q498 98 509 144T557 220Q592 249 634 249ZM633 -146Q642 -146 656 -142T687 -120Q696 -111 703 -99T715 -70T723 -29T726 29Q726 50 724 80T713 139T687 188T638 208Q602 208 582 189T553 142T543 87T541 42Q541 27 542 -4T552 -66T579 -122T633 -146ZM804 735L97 -196H41L683 648L681 650Q660 641 615 629T490 616Q436 616 392 623T294 642Q300 632 305 620T315 591T322 550T325 492Q325 452 323 422T314 369T299 329T276 299Q259 282 237 272T188 261Q162 261 140 271T103 297Q92 309 83 324T67 362T57 415T53 488Q53 538 62 583T102 659Q124 681 154 691T212 701Q232 701 259 696T307 686Q353 675 398 668T491 660Q559 660 625 677T747 735H804ZM186 657Q175 657 162 653T134 632Q125 623 118 611T106 583T99 543T96 488Q96 474 97 444T107 382T134 326T187 302Q196 302 211 306T245 329Q265 350 274 382T283 477Q283 493 282 523T271 583T242 635T186 657ZM1035 249Q1083 249 1120 212Q1130 201 1138 187T1153 153T1163 103T1167 33Q1167 -30 1157 -74T1118 -148Q1105 -161 1082 -174T1030 -188Q1013 -188 1000 -184T976 -173T958 -161T948 -151Q939 -141 930 -128T914 -93T903 -40T899 37Q899 98 910 144T957 220Q992 249 1035 249ZM1034 -146Q1042 -146 1056 -142T1087 -120Q1096 -111 1103 -99T1115 -70T1123 -29T1126 29Q1126 50 1124 80T1113 139T1087 188T1038 208Q1002 208 982 189T953 142T943 87T941 42Q941 27 942 -4T952 -66T980 -122T1034 -146Z"  />
<glyph unicode="&#x2039;" horiz-adv-x="229" d="M208 526L89 264L208 0H141L22 264L141 526H208Z"  />
<glyph unicode="&#x203A;" horiz-adv-x="229" d="M21 0L140 262L21 526H88L207 262L88 0H21Z"  />
<glyph unicode="&#x20AC;" horiz-adv-x="417" d="M381 460L371 401H89Q89 396 89 390T88 375Q88 363 88 355T89 341H364L355 282H93Q97 237 101 206T110 152T124 113T146 84Q157 74 174 66T212 58Q264 58 294 88T343 185L404 169Q376 77 327 34T202 -9Q150 -9 117 20T64 93T35 188T24 282H-24L-15 341H23Q22 347 22 355T22 372Q22 381 22 388T23 401H-24L-15 460H27Q29 524 41 576T75 666T132 723T212 743Q284 743 328 698T399 556L340 539Q316 609 286 642Q271 658 253 667T211 677Q179 677 159 663T126 622T106 555T94 460H381Z"  />
<glyph unicode="&#x2122;" horiz-adv-x="1000" d="M239 676H110V735H435V676H305V337H239V676ZM480 735H578L677 417H679L775 735H871V337H810V671H808L708 337H648L543 676H541V337H480V735Z"  />

</font>
</defs>
</svg>
