<?xml  version="1.0" encoding="UTF-8"?>
<!DOCTYPE svg PUBLIC "-//W3C//DTD SVG 1.0//EN" "http://www.w3.org/TR/2001/REC-SVG-20010904/DTD/svg10.dtd" >
<svg xmlns="http://www.w3.org/2000/svg" >
<metadata>
<version>1.0</version>
<id><![CDATA[News Gothic MT W01 Italic]]></id>
<vendor>Monotype Imaging Inc.</vendor>
<credits>
<name>Fonts.com WebFonts</name>
<URL>http://webfonts.fonts.com</URL>
<role>Home of the Web fonts</role>
</credits>
<license>
<URL>http://webfonts.fonts.com/Legal</URL>
</license>
<copyright><![CDATA[Copyright 1996 The Monotype Corporation. All rights reserved.]]></copyright>
<trademark><![CDATA[News Gothic  is a trademark of Monotype Imaging, Inc. and may be registered in certain jurisdictions; Monotype is a trademark of Monotype Imaging, Inc. Registered in U.S. Patent and Trademark Office and may be registered in certain other jurisdictions.]]></trademark>
<licensee>
<name></name>
</licensee>
</metadata>
<defs >
<font horiz-adv-x="449" id="834ad741-1578-4b46-9d25-347cf313964f">
<font-face font-family="" panose-1="2 11 5 3 2 1 3 9 2 3" ascent="972" descent="-224" units-per-em="1000" alphabetic="0">
</font-face>
<missing-glyph horiz-adv-x="313" />

<glyph unicode="&#xA;" />
<glyph unicode="&#xD;" />
<glyph unicode=" " horiz-adv-x="313" />
<glyph unicode="!" horiz-adv-x="313" d="M118 226L198 740H292L173 226H118ZM56 0L77 110H176L155 0H56Z"  />
<glyph unicode="&quot;" horiz-adv-x="373" d="M131 639L153 755H226L204 639L163 506H120L131 639ZM310 639L332 755H406L384 639L343 506H300L310 639Z"  />
<glyph unicode="#" horiz-adv-x="667" d="M212 257H413L485 436H284L212 257ZM615 257V197H451L372 0H310L389 197H188L109 0H46L126 197H35V257H149L222 436H81V496H245L325 694H387L307 496H508L588 694H650L570 496H661V436H547L475 257H615Z"  />
<glyph unicode="$" horiz-adv-x="590" d="M277 46Q282 45 292 45T308 46Q325 46 348 52T393 72T430 112T445 177Q445 228 414 262T331 328L277 46ZM338 680Q333 680 330 680T321 679Q288 679 264 669T223 643T198 606T190 563Q190 522 216 494T291 434L338 680ZM518 561Q496 607 469 633T398 671L345 401Q383 375 414 352T467 304T502 248T515 179Q515 143 503 109T466 48T400 5T303 -11H274Q268 -11 264 -10L240 -135H180L205 -5Q137 17 94 61T22 181L90 204Q109 146 138 113T219 59L277 359Q240 381 211 402T162 447T131 497T120 556Q120 593 133 626T174 684T241 725T336 740H351L355 763H417L410 732Q444 724 469 711T513 680T548 638T581 584L518 561Z"  />
<glyph unicode="%" horiz-adv-x="938" d="M384 551Q384 601 357 635T281 669Q245 669 219 650T175 603T150 543T141 483Q141 452 150 429T173 390T206 366T245 358Q276 358 301 377T345 425T374 488T384 551ZM473 693Q549 693 620 716T746 780H803L258 -170H199L693 685Q647 666 595 657T489 647Q470 647 452 648T415 652Q428 632 435 608T442 558Q442 514 428 469T388 386T326 325T247 301Q212 301 182 314T130 350T96 407T83 482Q83 524 96 567T135 646T196 704T277 726Q316 726 348 711Q409 693 473 693ZM853 129Q853 179 826 213T750 247Q714 247 688 228T644 181T619 121T610 61Q610 30 619 7T642 -32T675 -56T714 -64Q745 -64 770 -45T814 3T843 66T853 129ZM911 136Q911 92 897 47T857 -36T795 -97T716 -121Q681 -121 651 -108T599 -72T565 -15T552 60Q552 102 565 145T604 224T665 282T746 304Q783 304 813 291T866 254T899 201T911 136Z"  />
<glyph unicode="&amp;" horiz-adv-x="687" d="M500 68Q477 50 454 35T403 9T345 -8T276 -14Q222 -14 178 2T104 46T56 115T39 204Q39 291 89 353T243 453Q232 476 223 503T213 570Q213 612 226 646T261 704T314 742T378 755Q409 755 435 744T482 714T513 666T525 604Q525 530 476 487T338 415Q375 349 418 284T506 162Q561 227 586 302L646 282Q626 231 602 190T544 113Q576 75 601 48T647 0H564L500 68ZM373 694Q330 694 304 662T278 578Q278 549 287 524T308 472Q381 492 420 523T460 606Q460 646 434 670T373 694ZM270 396Q189 370 149 325T109 211Q109 136 156 92T285 47Q339 47 380 66T460 116Q417 167 370 237T270 396Z"  />
<glyph unicode="&apos;" horiz-adv-x="192" d="M132 638L155 755H227L204 638L167 507H122L132 638Z"  />
<glyph unicode="(" horiz-adv-x="345" d="M204 -211Q126 -123 83 -34T39 158Q39 259 74 359T182 559Q236 632 285 678T375 757L412 713Q256 582 183 441T109 161Q109 108 117 64T143 -20T185 -95T242 -166L204 -211Z"  />
<glyph unicode=")" horiz-adv-x="345" d="M-60 -166Q19 -102 76 -33T170 108T225 250T243 389Q243 443 234 487T208 570T167 644T111 714L148 756Q313 583 313 386Q313 309 292 232T229 79T124 -70T-23 -211L-60 -166Z"  />
<glyph unicode="*" horiz-adv-x="469" d="M150 709L213 744L286 567L360 744L422 709L306 555L496 580V510L306 532L422 380L360 344L286 519L213 344L150 380L266 532L77 510V580L266 555L150 709Z"  />
<glyph unicode="+" horiz-adv-x="667" d="M76 291V356H309V589H373V356H608V291H373V59H309V291H76Z"  />
<glyph unicode="&#x2c;" horiz-adv-x="218" d="M16 0L37 110H133L112 0L10 -147H-30L63 0H16Z"  />
<glyph unicode="-" horiz-adv-x="349" d="M42 238L56 310H305L291 238H42Z"  />
<glyph unicode="." horiz-adv-x="227" d="M15 0L36 110H133L112 0H15Z"  />
<glyph unicode="/" horiz-adv-x="453" d="M-35 0L459 740H530L36 0H-35Z"  />
<glyph unicode="0" horiz-adv-x="625" d="M448 54Q412 19 369 2T286 -16Q183 -16 129 51T74 253Q74 281 78 318T90 395T111 477T138 556Q221 755 384 755Q429 755 466 741T531 700Q566 665 579 616T593 499Q593 429 582 362T550 235T504 129T448 54ZM386 694Q251 694 184 465Q166 404 157 346T148 237Q148 137 183 94T276 50Q325 50 361 72T430 147Q448 177 464 217T492 304T512 404T519 509Q519 694 386 694Z"  />
<glyph unicode="1" horiz-adv-x="625" d="M324 60H441L428 0H124L137 60H250L366 642Q289 600 209 599L221 660Q249 665 274 671T321 686T366 708T411 740H459L324 60Z"  />
<glyph unicode="2" horiz-adv-x="625" d="M126 548Q161 651 224 703T381 755Q427 755 463 741T525 700T564 637T578 559Q578 515 563 476T518 401T442 331T334 261Q286 234 250 210T186 162T140 115T108 65H506L495 0H24Q27 81 91 155T280 304Q393 372 448 432T504 560Q504 619 467 654T371 689Q311 689 266 652T196 531L126 548Z"  />
<glyph unicode="3" horiz-adv-x="625" d="M236 412H267Q323 412 362 424T427 457T464 508T476 571Q476 628 442 658T347 689Q290 689 255 662T197 578L138 599Q166 679 221 717T352 755Q400 755 437 740T499 701T537 643T550 574Q550 542 541 512T513 456T463 410T390 380Q530 342 530 214Q530 167 514 126T467 53T392 3T291 -15Q202 -15 141 35T47 180L108 204Q140 126 181 89T286 51Q322 51 353 63T407 96T443 147T456 212Q456 266 420 302Q391 331 356 338T270 346H222L236 412Z"  />
<glyph unicode="4" horiz-adv-x="625" d="M579 182H457L420 0H349L386 182H49L60 244L466 740H567L471 247H593L579 182ZM460 556Q465 585 471 614T484 670Q467 644 451 624T422 589L143 247H399L460 556Z"  />
<glyph unicode="5" horiz-adv-x="625" d="M580 680H274L213 434Q266 480 340 480Q384 480 421 464T486 420T529 353T545 268Q545 212 527 161T475 72T395 10T291 -13Q251 -13 220 -3T162 28T114 79T73 150L132 174Q161 108 201 78T292 48Q331 48 364 65T421 113T458 182T471 264Q471 298 461 326T431 375T386 407T328 419Q283 419 251 400T187 342L131 365L225 740H593L580 680Z"  />
<glyph unicode="6" horiz-adv-x="625" d="M572 612Q546 656 510 672T426 689Q346 689 284 619T195 407Q238 440 281 455T366 471Q404 471 439 459T503 422T547 356T564 261Q564 205 548 155T500 68T426 9T330 -13Q218 -13 160 56T101 255Q101 306 109 362T133 474T176 581T239 670T323 732T429 755Q497 755 542 729T624 653L572 612ZM353 410Q305 410 263 390T179 335Q176 318 174 297T171 253Q171 195 182 156T215 93T265 59T329 48Q362 48 391 64T443 108T477 176T490 263Q490 336 455 373T353 410Z"  />
<glyph unicode="7" horiz-adv-x="625" d="M599 680L185 0H102L520 675H150L165 740H610L599 680Z"  />
<glyph unicode="8" horiz-adv-x="625" d="M59 189Q59 261 108 313T252 395Q201 427 170 464T138 561Q138 601 155 636T203 698T277 740T372 755Q420 755 460 742T528 704T573 648T589 578Q589 509 542 464T406 385Q440 365 468 345T517 301T549 251T560 191Q560 152 543 115T493 50T414 4T309 -13Q252 -13 206 2T127 45T77 109T59 189ZM366 689Q295 689 254 655T212 566Q212 473 339 418Q381 433 413 448T468 483T503 525T515 578Q515 631 474 660T366 689ZM317 359Q276 348 243 335T186 302T150 256T137 194Q137 159 150 132T187 86T241 58T308 48Q346 48 378 58T435 87T472 132T486 189Q486 219 475 242T441 285T388 322T317 359Z"  />
<glyph unicode="9" horiz-adv-x="625" d="M349 689Q316 689 287 674T237 632T203 567T191 480Q191 408 224 372T322 335Q373 335 416 354T499 409Q502 426 504 444T506 482Q506 520 499 557T473 623T424 671T349 689ZM106 132Q133 88 168 68T252 48Q345 48 402 117T488 340Q446 309 402 292T309 274Q270 274 235 286T172 324T129 389T113 480Q113 534 129 583T175 671T247 732T342 755Q404 755 448 733T520 674T562 586T576 480Q576 432 568 374T543 258T500 148T440 61Q367 -13 250 -13Q180 -13 135 13T54 91L106 132Z"  />
<glyph unicode=":" horiz-adv-x="313" d="M138 415L159 525H256L235 415H138ZM58 0L79 110H176L155 0H58Z"  />
<glyph unicode=";" horiz-adv-x="313" d="M139 415L160 525H256L235 415H139ZM59 0L81 113H177L156 3L52 -147H12L106 0H59Z"  />
<glyph unicode="&lt;" horiz-adv-x="667" d="M598 188V119L68 342V400L598 623V553L154 371L598 188Z"  />
<glyph unicode="=" horiz-adv-x="667" d="M88 454V519H618V454H88ZM88 226V291H618V226H88Z"  />
<glyph unicode="&gt;" horiz-adv-x="667" d="M103 553V623L633 399V342L103 119V188L547 370L103 553Z"  />
<glyph unicode="?" horiz-adv-x="417" d="M139 225Q141 259 149 288T174 345T219 403T291 470Q323 497 346 527T370 600Q370 643 344 670T273 698Q234 698 211 676T173 612L119 629Q142 691 181 723T284 755Q321 755 350 744T399 712T429 663T440 603Q440 549 409 502T315 405Q283 380 263 360T231 319T213 276T204 225H139ZM75 0L97 110H196L174 0H75Z"  />
<glyph unicode="@" horiz-adv-x="1018" d="M507 510Q520 510 537 506T573 492T610 465T642 421L655 510H730L691 254Q687 230 685 209T683 174Q683 106 744 106Q777 106 806 121T856 166T889 237T902 329Q902 400 879 465T810 581T697 661T540 691Q454 691 380 660T252 573T166 444T135 283Q135 188 162 112T241 -16T370 -97T545 -125Q621 -125 684 -104T790 -57L829 -121Q803 -137 769 -150T696 -174T619 -190T546 -196Q432 -196 342 -163T190 -69T94 82T61 283Q61 384 96 471T196 623T351 725T549 762Q641 762 718 729T850 639T936 504T967 339Q967 275 951 221T904 128T831 67T737 45Q719 45 700 49T665 65T634 93T612 138Q581 107 558 89T516 61T477 48T436 45Q405 45 379 59T335 98T306 157T295 230Q295 284 310 334T352 424T419 486T507 510ZM634 359Q613 397 586 423T525 449H526Q484 449 454 428T406 374T378 303T369 230Q369 160 395 133T469 106Q487 106 507 114T546 137T584 170T616 209L634 359Z"  />
<glyph unicode="A" horiz-adv-x="631" d="M497 0L461 223H160L50 0H-28L342 740H453L573 0H497ZM389 693L191 288H452L389 693Z"  />
<glyph unicode="B" horiz-adv-x="644" d="M48 0L190 740H424Q477 740 513 728T572 695Q598 671 611 637T624 563Q624 520 609 489T570 435T515 398T453 376Q514 353 544 310T574 215Q574 164 559 127T515 64Q480 31 424 16T299 0H48ZM350 415Q404 415 441 428T502 462T536 510T546 564Q546 590 540 610T517 645T474 667T407 675H252L202 415H350ZM313 65Q361 65 395 77T452 110T485 158T496 214Q496 236 485 260T453 304T399 337T324 350H190L136 65H313Z"  />
<glyph unicode="C" horiz-adv-x="646" d="M594 529Q580 610 533 649T417 689Q367 689 320 662T234 583T173 461T150 303Q150 240 164 193T203 115T262 68T337 52Q396 52 445 82T533 181L596 151Q491 -14 331 -14Q272 -14 225 7T143 68T91 167T72 300Q72 376 93 456T158 603T267 712T420 755Q463 755 503 742T575 702T631 637T663 547L594 529Z"  />
<glyph unicode="D" horiz-adv-x="687" d="M347 740Q417 740 469 722T557 669Q605 625 628 561T652 417Q652 317 621 240T536 108Q482 55 407 28T240 0H48L192 740H347ZM224 65Q297 65 361 83T472 144T547 253T574 418Q574 478 558 526T513 607T443 657T354 675H254L135 65H224Z"  />
<glyph unicode="E" horiz-adv-x="567" d="M600 675H254L204 419H484L472 354H192L135 65H508L496 0H48L192 740H613L600 675Z"  />
<glyph unicode="F" horiz-adv-x="509" d="M565 675H253L199 407H467L458 342H189L123 0H48L192 740H577L565 675Z"  />
<glyph unicode="G" horiz-adv-x="718" d="M544 83Q504 36 456 11T337 -14Q276 -14 227 9T144 75T91 177T72 307Q72 353 81 404T109 505T156 600T223 680T309 734T416 755Q470 755 512 740T586 696T638 628T667 542L596 524Q590 568 574 599T533 651T478 680T413 689Q362 689 315 658T231 575T172 452T150 303Q150 240 165 193T206 115T269 68T348 52Q400 52 438 70T501 111T539 153T552 175L576 303H369L380 363H662L593 0H529L544 83Z"  />
<glyph unicode="H" horiz-adv-x="735" d="M585 0H510L577 348H193L124 0H48L191 740H267L203 413H588L652 740H727L585 0Z"  />
<glyph unicode="I" horiz-adv-x="273" d="M123 0H48L190 740H265L123 0Z"  />
<glyph unicode="J" horiz-adv-x="425" d="M318 187Q311 150 300 114T269 50T215 4T129 -14Q93 -14 65 -2T16 31T-14 81T-25 145V159L39 174Q40 110 63 79T127 47Q174 47 201 78T240 168L351 740H425L318 187Z"  />
<glyph unicode="K" horiz-adv-x="617" d="M353 438L559 0H477L299 388L177 281L123 0H48L191 740H266L195 374L595 740H694L353 438Z"  />
<glyph unicode="L" horiz-adv-x="547" d="M476 0H48L190 740H265L133 65H487L476 0Z"  />
<glyph unicode="M" horiz-adv-x="853" d="M703 0H628L759 682L392 0H355L252 682L119 0H48L192 740H307Q329 596 354 441T397 134Q475 289 556 438T719 740H844L703 0Z"  />
<glyph unicode="N" horiz-adv-x="755" d="M602 0H549L251 678L120 0H48L193 740H301L560 146L675 740H747L602 0Z"  />
<glyph unicode="O" horiz-adv-x="718" d="M549 77Q504 32 450 9T338 -14Q200 -14 135 65T69 290Q69 344 80 397T110 500T156 591T213 664Q257 709 311 732T427 755Q552 755 621 679T691 456Q691 401 680 346T649 241T604 149T549 77ZM432 689Q375 689 322 658T231 565Q191 500 169 427T147 266Q147 211 161 171T200 105T258 65T328 52Q385 52 438 83T530 177Q567 237 590 313T613 465Q613 516 599 557T559 628T502 673T432 689Z"  />
<glyph unicode="P" horiz-adv-x="631" d="M433 740Q487 740 524 729T587 696Q617 671 633 636T650 558Q650 509 633 471T586 403Q550 367 499 348T383 329H185L122 0H48L190 740H433ZM377 394Q429 394 466 407T526 442T561 494T572 557Q572 614 535 644T427 675H253L197 394H377Z"  />
<glyph unicode="Q" horiz-adv-x="718" d="M511 -185Q491 -187 463 -188T411 -190Q340 -190 306 -172T271 -108Q271 -85 276 -59T287 -10Q179 6 124 80T69 290Q69 344 80 397T110 500T156 591T213 664Q257 709 311 732T427 755Q552 755 621 679T691 456Q691 401 680 346T649 241T604 149T549 77Q507 35 456 12T351 -14Q345 -31 341 -50T336 -87Q336 -110 352 -119T414 -129Q437 -129 468 -128T522 -124L511 -185ZM432 689Q375 689 322 658T231 565Q191 500 169 427T147 266Q147 211 161 171T200 104T258 64T328 51Q385 51 438 82T530 177Q567 237 590 313T613 465Q613 516 599 557T559 628T502 673T432 689Z"  />
<glyph unicode="R" horiz-adv-x="652" d="M431 740Q487 740 528 727T597 690T637 633T650 560Q650 508 634 470T588 404T518 362T432 340L556 0H477L360 340H188L123 0H48L190 740H431ZM396 405Q440 405 474 416T530 448T564 496T576 557Q576 612 539 643T435 675H252L201 405H396Z"  />
<glyph unicode="S" horiz-adv-x="581" d="M526 546Q509 618 469 653T352 689Q279 689 239 655T198 563Q198 530 211 506T246 465T293 433T344 406Q380 386 412 367T468 324T506 268T520 190Q520 141 502 103T450 39T372 0T275 -14Q173 -14 106 44T26 226L92 239Q98 196 111 162T146 103T199 65T274 52Q360 52 403 89T446 185Q446 212 438 233T412 271T370 303T311 336Q212 384 168 434T124 552Q124 596 140 633T186 697T259 739T359 755Q456 755 512 708T591 563L526 546Z"  />
<glyph unicode="T" horiz-adv-x="580" d="M637 675H406L275 0H200L331 675H99L111 740H650L637 675Z"  />
<glyph unicode="U" horiz-adv-x="712" d="M616 228Q570 -14 324 -14Q272 -14 232 -4T156 35Q121 64 102 104T83 192Q83 208 83 220T85 245T89 270T95 298L180 740H255L172 314Q169 297 167 284T163 257T162 229T161 198Q161 168 170 142T200 95T250 64T322 52Q379 52 418 68T484 112T525 179T549 263L639 740H713L616 228Z"  />
<glyph unicode="V" horiz-adv-x="594" d="M261 0H189L106 740H184L246 110L587 740H669L261 0Z"  />
<glyph unicode="W" horiz-adv-x="878" d="M510 625L208 0H136V740H211L203 131L495 740H578L559 130L866 740H947L564 0H492L510 625Z"  />
<glyph unicode="X" horiz-adv-x="584" d="M657 740L358 376L507 0H430L309 317L53 0H-36L281 386L140 740H217L330 445L568 740H657Z"  />
<glyph unicode="Y" horiz-adv-x="538" d="M312 299L254 0H179L239 311L106 740H184L290 379L531 740H613L312 299Z"  />
<glyph unicode="Z" horiz-adv-x="589" d="M620 690L84 65H507L493 0H-19L-7 64L516 675H147L161 740H630L620 690Z"  />
<glyph unicode="[" horiz-adv-x="379" d="M14 -199L194 740H446L434 680H253L97 -134H278L266 -199H14Z"  />
<glyph unicode="\" horiz-adv-x="454" d="M107 740H170L389 0H326L107 740Z"  />
<glyph unicode="]" horiz-adv-x="378" d="M104 675L116 740H367L187 -199H-64L-52 -134H129L285 675H104Z"  />
<glyph unicode="^" horiz-adv-x="583" d="M158 351H86L288 741H361L557 351H487L322 671L158 351Z"  />
<glyph unicode="_" horiz-adv-x="500" d="M437 -125H-75V-75H437V-125Z"  />
<glyph unicode="`" horiz-adv-x="333" d="M300 577H244L117 738H224L300 577Z"  />
<glyph unicode="a" horiz-adv-x="520" d="M325 59Q287 28 251 9T171 -11Q139 -11 112 1T65 33T34 81T23 140Q23 221 95 266T305 312H376Q379 327 381 344T383 374Q383 424 352 450T267 476Q238 476 208 460T150 416L101 462Q150 500 192 518T276 537Q318 537 350 525T406 492T441 443T453 381Q453 367 450 344T443 300L408 126Q399 81 398 54T396 0H330Q328 6 327 15Q326 23 326 33T325 59ZM315 256Q93 256 93 144Q93 103 119 77T184 50Q248 50 336 117L365 256H315Z"  />
<glyph unicode="b" horiz-adv-x="576" d="M98 0H33Q37 6 40 14T46 36T54 71T65 125L183 740H253L201 466Q233 501 274 519T355 537Q393 537 425 524T480 485T517 418T530 322Q530 249 512 188T461 82T385 13T291 -12Q240 -12 200 10T122 72L98 0ZM137 130Q168 93 200 71T279 49Q319 49 352 69T410 127T447 214T460 323Q460 404 427 440T337 476Q249 476 185 386L137 130Z"  />
<glyph unicode="c" horiz-adv-x="512" d="M424 370Q417 400 404 420T375 452T339 470T301 476Q264 476 231 457T173 404T134 322T119 218Q119 137 157 96T261 54Q312 54 345 78T403 156L459 131Q391 -12 252 -12Q205 -12 168 5T104 54T64 129T49 224Q49 283 67 339T117 439T196 510T300 537Q367 537 417 499T491 383L424 370Z"  />
<glyph unicode="d" horiz-adv-x="576" d="M382 63Q365 46 348 33T313 9T274 -6T226 -11Q191 -11 159 2T103 44T63 116T48 218Q48 291 67 350T120 451T197 514T293 537Q344 537 381 517T454 467L507 740H577L435 0H372L382 63ZM442 400Q410 440 374 458T298 476Q255 476 222 454T165 396T130 314T118 218Q118 139 153 95T243 50Q288 50 323 70T390 133L442 400Z"  />
<glyph unicode="e" horiz-adv-x="537" d="M477 143Q432 68 375 29T244 -11Q199 -11 163 5T101 51T61 123T47 219Q47 281 65 338T116 440T198 510T308 537Q399 537 448 482T498 327Q498 307 496 290T491 259H120Q119 250 118 239T117 218Q117 175 128 144T157 91T201 60T255 50Q307 50 346 81T420 174L477 143ZM425 319Q428 330 428 337T428 352Q428 409 396 442T308 476Q247 476 202 439T133 319H425Z"  />
<glyph unicode="f" horiz-adv-x="295" d="M349 668Q341 671 330 672T310 674Q282 674 268 660Q261 653 256 644T247 619T237 581T226 525H320L310 465H214L125 0H55L144 465H55L66 525H156Q163 564 169 592T181 641T194 676T213 703Q226 718 250 729T307 740Q334 740 360 732L349 668Z"  />
<glyph unicode="g" horiz-adv-x="554" d="M81 340Q81 379 96 414T140 477T207 520T295 536Q345 536 378 524T440 487Q457 499 470 507T498 522T528 531T567 536L555 469Q531 468 514 464T476 446Q487 426 495 404T503 354Q503 317 487 284T443 224T374 183T286 167Q260 167 233 172T185 190Q106 172 106 135Q106 122 119 114T152 100T196 92T241 88Q299 83 345 75T424 50T474 6T492 -63Q492 -128 437 -169T262 -211Q194 -211 145 -200T64 -168T16 -121T0 -63Q0 -26 24 2T102 45Q74 56 58 75T41 121Q41 181 142 216Q112 242 97 272T81 340ZM295 482Q261 482 235 471T190 441T161 397T151 344Q151 288 188 255T281 221Q350 221 391 258T433 353Q433 410 396 446T295 482ZM255 22Q234 24 210 27T165 34Q114 17 90 -4T65 -62Q65 -104 112 -129T256 -154Q346 -154 386 -132T427 -69Q427 -45 413 -29T374 -3T319 13T255 22Z"  />
<glyph unicode="h" horiz-adv-x="572" d="M198 445Q240 490 281 513T366 537Q394 537 419 528T463 500T493 454T504 392Q504 370 501 352L432 0H362L427 337Q430 352 432 362T434 388Q434 412 426 427T406 453T380 467T351 471Q309 471 269 443T183 362L112 0H42L184 740H254L198 445Z"  />
<glyph unicode="i" horiz-adv-x="256" d="M238 650H168L185 740H255L238 650ZM112 0H42L145 525H215L112 0Z"  />
<glyph unicode="j" horiz-adv-x="256" d="M109 -28Q102 -64 94 -98T70 -157T28 -198T-42 -214Q-60 -214 -79 -211L-68 -145Q-62 -146 -54 -147T-39 -148Q-10 -148 5 -130T27 -77L145 525H215L109 -28ZM239 650H169L186 740H256L239 650Z"  />
<glyph unicode="k" horiz-adv-x="476" d="M288 333L415 0H339L236 287L155 217L112 0H42L186 740H256L173 311L418 525H514L288 333Z"  />
<glyph unicode="l" horiz-adv-x="256" d="M112 0H42L184 740H254L112 0Z"  />
<glyph unicode="m" horiz-adv-x="885" d="M189 431Q276 536 366 536Q414 536 450 509T496 424Q541 476 585 506T682 537Q710 537 735 527T778 499T806 454T817 395Q817 378 816 367T811 338L746 0H676L743 348Q745 360 746 368T747 389Q747 410 740 425T722 451T697 466T669 471Q624 471 584 441T497 360L429 0H359L428 362Q430 368 430 372T430 383Q430 428 408 449T350 470Q305 470 266 442T183 360L112 0H42L143 525H207L189 431Z"  />
<glyph unicode="n" horiz-adv-x="572" d="M191 436Q233 485 277 510T368 536Q398 536 423 526T467 496T495 451T506 392Q506 384 505 374T502 355L434 0H362L426 328Q430 346 431 358T432 389Q432 428 409 449T349 470Q270 470 184 363L113 0H42L145 525H208L191 436Z"  />
<glyph unicode="o" horiz-adv-x="542" d="M238 -11Q195 -11 161 5T102 50T64 122T51 217Q51 285 71 343T125 444T206 511T305 536Q348 536 382 520T441 473T477 400T490 306Q490 241 470 184T416 83T336 15T238 -11ZM298 475Q263 475 232 455T175 398T136 312T121 205Q121 168 130 139T156 91T195 61T241 50Q278 50 310 71T367 129T406 214T420 316Q420 356 410 385T384 435T345 465T298 475Z"  />
<glyph unicode="p" horiz-adv-x="576" d="M195 461Q225 493 263 515T350 537Q440 537 484 479T528 317Q528 246 509 186T456 83T376 14T276 -11Q228 -11 193 6T123 55L72 -211H2L145 525H206L195 461ZM137 127Q168 83 203 67T272 50Q311 50 344 71T403 130T443 216T458 321Q458 399 425 437T335 476Q317 476 297 471T257 454T219 425T188 386L137 127Z"  />
<glyph unicode="q" horiz-adv-x="576" d="M544 525Q541 520 538 512T530 488T520 448T507 386L392 -211H322L372 54Q340 23 304 6T221 -11Q134 -11 91 47T47 215Q47 281 66 339T118 442T198 511T299 537Q391 537 457 456Q469 500 482 525H544ZM439 404Q409 439 376 457T300 476Q258 476 224 454T166 394T130 308T117 208Q117 130 150 90T238 50Q318 50 385 120L439 404Z"  />
<glyph unicode="r" horiz-adv-x="342" d="M356 466Q312 463 280 446T225 404T189 353T171 303L112 0H42L143 525H209L188 421Q228 486 274 509T378 533L356 466Z"  />
<glyph unicode="s" horiz-adv-x="443" d="M364 403Q345 441 318 460T250 479Q226 479 207 472T174 453T153 426T146 395Q146 368 169 347T243 302Q281 285 307 268T348 233T371 194T378 147Q378 113 365 84T327 34T270 0T196 -12Q122 -12 76 25T-4 132L55 160Q80 107 110 78T193 49Q247 49 277 77T308 143Q308 162 300 176T279 202T249 223T213 242Q189 254 165 266T121 295T89 334T76 388Q76 421 89 448T126 495T181 525T250 536Q364 536 419 430L364 403Z"  />
<glyph unicode="t" horiz-adv-x="321" d="M332 465H216L156 156Q153 141 151 129T149 106Q149 80 159 68T199 56Q219 56 242 61T285 74L273 14Q250 3 224 -3T172 -10Q145 -10 128 -2T99 20T84 51T79 89Q79 112 82 136T90 184L146 465H50L61 525H157L191 703H261L228 525H343L332 465Z"  />
<glyph unicode="u" horiz-adv-x="572" d="M380 91Q337 41 294 16T203 -10Q178 -10 154 -2T111 24T81 69T69 136Q69 171 75 203L140 525H210L148 207Q144 189 142 170T139 130Q139 95 161 76T220 56Q296 56 388 166L458 525H528L427 0H363L380 91Z"  />
<glyph unicode="v" d="M211 0H137L57 525H132L187 84L401 525H475L211 0Z"  />
<glyph unicode="w" horiz-adv-x="709" d="M479 0H404L380 428L192 0H115L75 525H146L170 87L366 525H434L456 91L661 525H734L479 0Z"  />
<glyph unicode="x" horiz-adv-x="447" d="M265 273L396 0H320L221 214L61 0H-21L192 277L73 525H149L237 334L380 525H459L265 273Z"  />
<glyph unicode="y" horiz-adv-x="459" d="M179 -81Q147 -145 108 -178T15 -211Q-5 -211 -21 -207T-52 -196L-40 -134Q-12 -145 15 -145Q57 -145 87 -111T146 -11L60 525H135L194 81L405 525H485L179 -81Z"  />
<glyph unicode="z" horiz-adv-x="461" d="M464 467L74 60H393L382 0H-20L-8 66L375 465H82L92 525H474L464 467Z"  />
<glyph unicode="{" horiz-adv-x="333" d="M286 -198Q250 -198 221 -191T173 -165T143 -112T132 -24Q132 5 132 31T131 80Q129 129 121 161Q112 195 91 214T27 235V307Q69 309 90 328T121 381Q129 412 131 461Q132 484 132 510T132 565Q132 619 142 653T172 707T221 733T286 740H310V671H299Q272 671 254 667T226 652T211 620T206 566V493Q206 442 201 407T184 347T150 304T96 271Q130 257 151 237T185 190T201 128T206 48V-24Q206 -57 210 -77T225 -109T254 -125T299 -129H310V-198H286Z"  />
<glyph unicode="|" horiz-adv-x="531" d="M233 -200V740H298V-200H233Z"  />
<glyph unicode="}" horiz-adv-x="333" d="M341 235Q299 233 278 214T247 161Q239 129 237 80Q236 57 236 31T236 -24Q236 -78 226 -112T196 -165T147 -191T82 -198H58V-129H69Q96 -129 114 -125T142 -110T157 -78T162 -24V48Q162 93 166 128T182 190T215 237T271 271Q238 286 217 303T184 346T167 407T162 493V566Q162 599 158 619T143 651T114 667T69 671H58V740H82Q118 740 147 733T195 707T225 654T236 565Q236 536 236 510T237 461Q239 412 247 381Q256 348 277 329T341 307V235Z"  />
<glyph unicode="~" horiz-adv-x="656" d="M88 409Q126 441 164 456T232 471Q262 471 295 459T359 432T421 405T475 392Q513 392 547 410T617 460V389Q542 326 477 326Q445 326 412 338T347 365T286 392T231 405Q196 405 161 388T88 339V409Z"  />
<glyph unicode="&#xA0;" horiz-adv-x="313" />
<glyph unicode="&#xA1;" horiz-adv-x="313" d="M136 421L158 531H256L234 421H136ZM14 -211L136 305H190L110 -211H14Z"  />
<glyph unicode="&#xA2;" horiz-adv-x="510" d="M424 368Q415 406 398 428T353 465L220 55Q242 49 266 49Q314 49 346 76T405 155L459 129Q425 62 378 25T259 -12Q245 -12 230 -10T201 -6L136 -209H87L157 13Q103 46 77 100T51 223Q51 279 68 334T118 434T197 505T300 533Q305 533 312 533T325 532L381 707H430L370 522Q417 502 444 468T485 380L424 368ZM307 478Q259 476 224 453T166 392T132 309T121 217Q121 166 134 134T177 75L307 478Z"  />
<glyph unicode="&#xA3;" horiz-adv-x="612" d="M104 -13Q62 -13 34 14T5 86Q5 110 13 129T36 162T68 183T107 191Q155 191 203 157Q217 189 221 236T226 347Q226 351 226 358T225 370H76L88 426H225Q227 457 230 489T239 552T255 614T284 671Q312 712 355 733T447 755Q520 755 560 714T599 587H528Q529 596 529 601T529 613Q529 649 507 671T444 694Q399 694 373 672T331 612T310 527T301 426H477L467 370H301Q295 285 286 223T257 120Q289 95 319 78T386 60Q468 60 477 175H548Q537 78 492 32T388 -14Q352 -14 324 1T267 36Q258 43 249 50T229 65Q201 28 172 8T104 -13ZM106 141Q87 141 72 126T56 87Q56 66 69 52T102 37Q122 37 142 54T180 104Q157 121 139 131T106 141Z"  />
<glyph unicode="&#xA4;" horiz-adv-x="643" d="M543 174Q532 163 523 153T502 132Q469 166 435 199Q385 160 318 160Q293 160 262 168T201 199L134 132Q124 143 115 153T94 174Q111 190 128 206T162 238Q144 264 134 293T123 354Q123 386 133 416T162 470Q145 487 128 502T94 535Q105 546 114 556T134 577L201 510Q232 532 262 540T318 549Q346 549 378 540T435 510Q452 527 468 543T502 577Q513 566 522 556T543 535Q526 518 509 503T475 470Q495 442 504 413T514 354Q514 322 504 293T475 238Q492 222 509 206T543 174ZM456 355Q456 385 445 410T414 453T370 481T319 491Q289 491 264 480T221 451T192 407T181 355Q181 327 192 302T221 258T265 228T318 217Q346 217 371 228T415 258T445 302T456 355Z"  />
<glyph unicode="&#xA5;" horiz-adv-x="583" d="M548 322H347L332 299L315 215H526L516 159H305L274 0H200L231 159H15L25 215H242L261 311L257 322H47L58 378H240L128 740H200L307 377L550 740H631L385 378H559L548 322Z"  />
<glyph unicode="&#xA6;" horiz-adv-x="531" d="M233 -200V154H298V-200H233ZM233 386V740H298V386H233Z"  />
<glyph unicode="&#xA7;" horiz-adv-x="544" d="M447 595Q443 646 412 670T338 694Q315 694 295 687T260 668T237 638T228 602Q228 586 234 572T254 542T290 510T345 472Q374 454 399 435T442 395T471 348T482 293Q482 257 470 228T434 175T378 128T306 85Q344 56 366 28T388 -42Q388 -74 375 -104T336 -158T273 -196T187 -211Q115 -211 69 -176T15 -68L90 -51Q96 -102 127 -126T201 -150Q225 -150 245 -143T279 -123T302 -94T310 -59Q310 -24 282 6T202 68Q130 113 95 154T59 251Q59 287 71 315T106 368T161 415T233 460Q193 489 174 520T154 591Q154 624 168 653T210 705T274 741T358 755Q430 755 472 720T524 613L447 595ZM372 356Q363 365 352 374T329 392Q316 402 303 411T273 431Q202 393 166 353T129 269Q129 246 138 227T166 189Q175 180 186 171T209 153Q221 143 235 134T264 113Q338 148 375 190T412 273Q412 297 402 317T372 356Z"  />
<glyph unicode="&#xA8;" horiz-adv-x="333" d="M86 596L103 681H188L171 596H86ZM286 596L303 681H388L371 596H286Z"  />
<glyph unicode="&#xA9;" horiz-adv-x="837" d="M440 16Q364 16 297 45T180 124T101 242T72 386Q72 462 101 529T180 647T296 726T439 755Q515 755 582 726T699 647T777 529T806 386Q806 310 778 243T700 125T583 46T440 16ZM440 694Q376 694 320 670T221 605T155 507T130 386Q130 321 154 265T221 167T319 101T439 77Q503 77 559 101T657 167T723 265T748 386Q748 450 724 506T657 604T559 670T440 694ZM616 307Q600 244 552 210T440 176Q352 176 300 231T247 392Q247 435 260 472T298 535T360 576T443 591Q506 591 548 562T608 479L552 465Q523 541 438 541Q382 541 347 499T312 382Q312 311 345 271T439 230Q476 230 511 252T559 324L616 307Z"  />
<glyph unicode="&#xAA;" horiz-adv-x="395" d="M143 700Q181 729 211 742T272 755Q332 755 366 724T400 645Q400 634 398 618T393 588L369 469Q363 440 362 420T360 380H306Q305 384 304 389Q303 394 303 400T302 415Q277 396 253 385T199 373Q175 373 155 381T121 404T98 437T90 480Q90 538 143 570T292 602H338Q340 612 341 622T342 640Q342 672 322 688T266 705Q229 705 184 662L143 700ZM299 555Q221 555 185 536T148 483Q148 457 165 440T208 423Q251 423 310 467L329 555H299Z"  />
<glyph unicode="&#xAB;" horiz-adv-x="469" d="M223 271L397 495H473L294 263L382 30H313L223 271ZM43 270L218 495H293L113 261L203 30H133L43 270Z"  />
<glyph unicode="&#xAC;" horiz-adv-x="667" d="M88 462V527H619V224H556V462H88Z"  />
<glyph unicode="&#xAD;" horiz-adv-x="349" d="M42 238L56 310H305L291 238H42Z"  />
<glyph unicode="&#xAE;" horiz-adv-x="837" d="M440 16Q364 16 297 45T180 124T101 242T72 386Q72 462 101 529T180 647T296 726T439 755Q515 755 582 726T699 647T777 529T806 386Q806 310 778 243T700 125T583 46T440 16ZM440 694Q376 694 320 670T221 605T155 507T130 386Q130 321 154 265T221 167T319 101T439 77Q503 77 559 101T657 167T723 265T748 386Q748 450 724 506T657 604T559 670T440 694ZM551 183L517 245Q500 276 487 296T461 329T433 346T398 351H358V183H297V578H431Q463 578 490 576T539 564Q566 552 583 527T600 474Q600 429 570 397T482 360Q512 348 532 325T579 259L626 183H551ZM437 404Q482 404 508 417T535 466Q535 487 526 499T503 517T470 525T432 527H358V404H437Z"  />
<glyph unicode="&#xAF;" horiz-adv-x="333" d="M92 626L104 686H393L381 626H92Z"  />
<glyph unicode="&#xB0;" horiz-adv-x="396" d="M130 619Q130 647 140 671T169 714T212 744T266 755Q294 755 318 745T361 716T390 672T401 619Q401 591 391 567T362 524T319 495T266 484Q238 484 213 494T170 523T141 566T130 619ZM183 619Q183 585 207 561T266 537Q300 537 324 560T348 619Q348 654 325 678T266 702Q231 702 207 678T183 619Z"  />
<glyph unicode="&#xB1;" horiz-adv-x="667" d="M67 420V485H300V718H364V485H599V420H364V187H300V420H67ZM67 25V90H599V25H67Z"  />
<glyph unicode="&#xB2;" horiz-adv-x="313" d="M50 359Q53 379 59 402T83 449T129 500T207 551Q237 567 253 581T277 607T286 628T288 645Q288 664 275 677T240 690Q188 690 154 632L109 646Q162 740 248 740Q293 740 319 716T346 654Q346 619 322 586T234 515Q208 500 189 488T156 464T132 439T114 408H298L289 359H50Z"  />
<glyph unicode="&#xB3;" horiz-adv-x="313" d="M156 525L165 572Q230 574 260 596T290 647Q290 667 278 678T243 690Q218 690 200 679T165 654L132 688Q160 711 189 725T258 740Q299 740 322 719T345 663Q345 621 321 593T235 550Q278 543 295 521T313 462Q313 444 304 424T276 387T231 359T169 347Q128 347 102 366T56 406L105 437Q121 413 139 405T181 397Q216 397 238 414T260 466Q260 493 241 509T173 525H156Z"  />
<glyph unicode="&#xB4;" horiz-adv-x="333" d="M153 577L290 738H402L216 577H153Z"  />
<glyph unicode="&#xB5;" horiz-adv-x="575" d="M461 525H532L430 0H367L382 74Q369 58 355 43T325 15T289 -4T249 -12Q224 -12 206 -7T173 6T147 26T123 52L71 -211H0L43 3L144 525H215L158 234Q154 213 151 194T148 160Q148 137 158 119T183 87T216 67T252 59Q302 59 332 85T389 151L461 525Z"  />
<glyph unicode="&#xB6;" horiz-adv-x="621" d="M244 329Q190 329 149 345T81 389T39 455T25 537Q25 582 41 619T87 683T160 725T259 740H596V671H497V-200H438V671H304V-200H244V329Z"  />
<glyph unicode="&#xB7;" horiz-adv-x="296" d="M110 317L131 427H227L206 317H110Z"  />
<glyph unicode="&#xB8;" horiz-adv-x="333" d="M119 -44Q157 -48 175 -67T193 -112Q193 -137 182 -155T152 -184T111 -201T66 -207Q-9 -207 -65 -182L-40 -132Q-21 -143 8 -150T66 -157Q75 -157 86 -156T106 -150T122 -138T128 -118Q128 -100 106 -92T45 -84L108 0H152L119 -44Z"  />
<glyph unicode="&#xB9;" horiz-adv-x="313" d="M207 669Q196 666 184 664T161 661L170 706Q186 710 203 713T244 732H271L207 410H254L244 361H103L113 410H157L207 669Z"  />
<glyph unicode="&#xBA;" horiz-adv-x="407" d="M237 373Q174 373 138 416T102 532Q102 580 116 620T155 691T213 738T284 755Q315 755 340 743T382 710T409 659T418 593Q418 548 404 508T365 438T307 391T237 373ZM279 705Q256 705 235 692T197 654T170 596T160 524Q160 474 183 449T239 423Q263 423 285 437T323 475T350 531T360 600Q360 654 336 679T279 705Z"  />
<glyph unicode="&#xBB;" horiz-adv-x="469" d="M428 255L253 30H178L358 264L268 495H338L428 255ZM248 254L74 30H-2L177 262L89 495H158L248 254Z"  />
<glyph unicode="&#xBC;" horiz-adv-x="938" d="M242 686Q231 681 222 678T203 672T183 670T159 669L168 711Q192 713 215 724T258 754H311L229 333H311L301 277H84L95 333H172L242 686ZM150 -99L782 758L821 736L187 -123L150 -99ZM445 47L720 382H797L729 47H829L819 0H723L699 -123H643L667 0H435L445 47ZM676 47L729 314L509 47H676Z"  />
<glyph unicode="&#xBD;" horiz-adv-x="938" d="M245 682Q205 669 164 669L172 710Q200 714 220 724T260 753L315 754L233 333H319L307 277H89L99 333H177L245 682ZM129 -99L759 756L798 734L167 -123L129 -99ZM485 -122Q492 -74 529 -22T643 84Q696 121 729 146T780 190T804 226T811 260Q811 289 791 308T739 328Q696 328 664 300T606 224L554 240Q591 312 641 348T748 385Q774 385 797 377T838 353T866 315T876 265Q876 246 871 227T850 185T801 136T715 75Q679 53 652 31T606 -11T577 -45T563 -66H818L807 -122H485Z"  />
<glyph unicode="&#xBE;" horiz-adv-x="938" d="M153 -102L788 756L828 732L193 -124L153 -102ZM455 46L729 382H810L745 46H837L828 0H733L709 -124H653L676 0H445L455 46ZM687 46L739 314L519 46H687ZM186 500L215 556Q258 556 287 565T333 587T357 616T364 644Q364 652 361 661T350 679T330 692T299 698Q264 698 237 682T187 643L153 682Q191 715 227 735T310 755Q360 755 391 726T422 651Q422 631 415 611T392 575T355 547T301 533Q344 524 369 500T395 436Q395 397 379 367T337 317T280 286T218 275Q201 275 182 279T143 294T107 323T76 367L127 400Q163 332 225 332Q253 332 274 340T309 362T330 393T337 430Q337 459 314 479T229 500H186Z"  />
<glyph unicode="&#xBF;" horiz-adv-x="417" d="M222 421L244 531H342L320 421H222ZM285 306Q282 270 275 242T250 186T204 128T131 61Q95 30 74 0T53 -70Q53 -115 80 -141T148 -167Q183 -167 210 -146T251 -81L306 -98Q283 -161 242 -192T137 -224Q101 -224 72 -212T24 -180T-6 -131T-17 -70Q-17 33 112 128Q146 153 166 175T197 219T213 262T220 306H285Z"  />
<glyph unicode="&#xC0;" horiz-adv-x="631" d="M497 0L461 223H160L50 0H-28L342 740H453L573 0H497ZM389 693L191 288H452L389 693ZM487 792H431L304 953H411L487 792Z"  />
<glyph unicode="&#xC1;" horiz-adv-x="631" d="M497 0L461 223H160L50 0H-28L342 740H453L573 0H497ZM389 693L191 288H452L389 693ZM330 792L467 953H579L393 792H330Z"  />
<glyph unicode="&#xC2;" horiz-adv-x="631" d="M497 0L461 223H160L50 0H-28L342 740H453L573 0H497ZM389 693L191 288H452L389 693ZM465 948L554 792H511L425 880L297 792H250L404 948H465Z"  />
<glyph unicode="&#xC3;" horiz-adv-x="631" d="M497 0L461 223H160L50 0H-28L342 740H453L573 0H497ZM389 693L191 288H452L389 693ZM590 933Q576 873 542 841T467 809Q447 809 432 818T404 840T379 861T352 871Q332 871 315 854T285 810H245Q251 842 264 865T293 903T328 925T365 932Q385 932 401 923T430 901T456 880T482 870Q505 870 521 887T550 933H590Z"  />
<glyph unicode="&#xC4;" horiz-adv-x="631" d="M497 0L461 223H160L50 0H-28L342 740H453L573 0H497ZM389 693L191 288H452L389 693ZM268 811L285 896H370L353 811H268ZM468 811L485 896H570L553 811H468Z"  />
<glyph unicode="&#xC5;" horiz-adv-x="631" d="M497 0L461 223H160L50 0H-28L342 740H453L573 0H497ZM389 693L191 288H452L389 693ZM419 773Q375 773 347 802T318 872Q318 914 347 943T418 972Q460 972 488 943T517 872Q517 851 509 833T488 801T456 781T419 773ZM416 805Q446 805 465 825T484 872Q484 900 465 920T417 940Q389 940 370 921T351 873Q351 844 370 825T416 805Z"  />
<glyph unicode="&#xC6;" horiz-adv-x="897" d="M927 675H582L532 419H811L799 354H519L463 65H836L823 0H375L418 224H160L43 0H-35L362 740H940L927 675ZM398 675L192 284H430L507 675H398Z"  />
<glyph unicode="&#xC7;" horiz-adv-x="644" d="M594 529Q580 610 533 649T417 689Q367 689 320 662T234 583T173 461T150 303Q150 240 164 193T203 114T262 67T337 51Q396 51 445 82T533 181L596 151Q491 -14 331 -14H325L302 -44Q340 -48 358 -67T376 -112Q376 -137 365 -155T335 -184T294 -201T249 -207Q174 -207 118 -182L143 -132Q162 -143 191 -150T249 -157Q258 -157 269 -156T289 -150T305 -138T311 -118Q311 -100 289 -92T228 -84L283 -10Q187 6 130 86T72 300Q72 376 93 456T158 603T267 712T420 755Q463 755 503 742T575 702T631 637T663 547L594 529Z"  />
<glyph unicode="&#xC8;" horiz-adv-x="567" d="M600 675H254L204 419H484L472 354H192L135 65H508L496 0H48L192 740H613L600 675ZM475 792H419L292 953H399L475 792Z"  />
<glyph unicode="&#xC9;" horiz-adv-x="567" d="M600 675H254L204 419H484L472 354H192L135 65H508L496 0H48L192 740H613L600 675ZM328 792L465 953H577L391 792H328Z"  />
<glyph unicode="&#xCA;" horiz-adv-x="567" d="M600 675H254L204 419H484L472 354H192L135 65H508L496 0H48L192 740H613L600 675ZM471 948L560 792H517L431 880L303 792H256L410 948H471Z"  />
<glyph unicode="&#xCB;" horiz-adv-x="567" d="M600 675H254L204 419H484L472 354H192L135 65H508L496 0H48L192 740H613L600 675ZM271 811L288 896H373L356 811H271ZM471 811L488 896H573L556 811H471Z"  />
<glyph unicode="&#xCC;" horiz-adv-x="273" d="M123 0H48L190 740H265L123 0ZM310 792H254L127 953H234L310 792Z"  />
<glyph unicode="&#xCD;" horiz-adv-x="273" d="M123 0H48L190 740H265L123 0ZM168 792L305 953H417L231 792H168Z"  />
<glyph unicode="&#xCE;" horiz-adv-x="273" d="M123 0H48L190 740H265L123 0ZM296 948L385 792H342L256 880L128 792H81L235 948H296Z"  />
<glyph unicode="&#xCF;" horiz-adv-x="273" d="M123 0H48L190 740H265L123 0ZM96 811L113 896H198L181 811H96ZM296 811L313 896H398L381 811H296Z"  />
<glyph unicode="&#xD0;" horiz-adv-x="687" d="M126 400L192 740H347Q417 740 469 722T557 669Q605 625 628 561T652 417Q652 317 621 240T536 108Q482 55 407 28T240 0H48L114 340H27L38 400H126ZM359 400L348 340H189L135 65H224Q297 65 361 83T472 144T547 253T574 418Q574 478 558 526T513 607T443 657T354 675H254L200 400H359Z"  />
<glyph unicode="&#xD1;" horiz-adv-x="755" d="M602 0H549L251 678L120 0H48L193 740H301L560 146L675 740H747L602 0ZM675 933Q661 873 627 841T552 809Q532 809 517 818T489 840T464 861T437 871Q417 871 400 854T370 810H330Q336 842 349 865T378 903T413 925T450 932Q470 932 486 923T515 901T541 880T567 870Q590 870 606 887T635 933H675Z"  />
<glyph unicode="&#xD2;" horiz-adv-x="718" d="M549 77Q504 32 450 9T338 -14Q200 -14 135 65T69 290Q69 344 80 397T110 500T156 591T213 664Q257 709 311 732T427 755Q552 755 621 679T691 456Q691 401 680 346T649 241T604 149T549 77ZM432 689Q375 689 322 658T231 565Q191 500 169 427T147 266Q147 211 161 171T200 105T258 65T328 52Q385 52 438 83T530 177Q567 237 590 313T613 465Q613 516 599 557T559 628T502 673T432 689ZM550 792H494L367 953H474L550 792Z"  />
<glyph unicode="&#xD3;" horiz-adv-x="718" d="M549 77Q504 32 450 9T338 -14Q200 -14 135 65T69 290Q69 344 80 397T110 500T156 591T213 664Q257 709 311 732T427 755Q552 755 621 679T691 456Q691 401 680 346T649 241T604 149T549 77ZM432 689Q375 689 322 658T231 565Q191 500 169 427T147 266Q147 211 161 171T200 105T258 65T328 52Q385 52 438 83T530 177Q567 237 590 313T613 465Q613 516 599 557T559 628T502 673T432 689ZM387 792L524 953H636L450 792H387Z"  />
<glyph unicode="&#xD4;" horiz-adv-x="718" d="M549 77Q504 32 450 9T338 -14Q200 -14 135 65T69 290Q69 344 80 397T110 500T156 591T213 664Q257 709 311 732T427 755Q552 755 621 679T691 456Q691 401 680 346T649 241T604 149T549 77ZM432 689Q375 689 322 658T231 565Q191 500 169 427T147 266Q147 211 161 171T200 105T258 65T328 52Q385 52 438 83T530 177Q567 237 590 313T613 465Q613 516 599 557T559 628T502 673T432 689ZM520 948L609 792H566L480 880L352 792H305L459 948H520Z"  />
<glyph unicode="&#xD5;" horiz-adv-x="718" d="M549 77Q504 32 450 9T338 -14Q200 -14 135 65T69 290Q69 344 80 397T110 500T156 591T213 664Q257 709 311 732T427 755Q552 755 621 679T691 456Q691 401 680 346T649 241T604 149T549 77ZM432 689Q375 689 322 658T231 565Q191 500 169 427T147 266Q147 211 161 171T200 105T258 65T328 52Q385 52 438 83T530 177Q567 237 590 313T613 465Q613 516 599 557T559 628T502 673T432 689ZM647 933Q633 873 599 841T524 809Q504 809 489 818T461 840T436 861T409 871Q389 871 372 854T342 810H302Q308 842 321 865T350 903T385 925T422 932Q442 932 458 923T487 901T513 880T539 870Q562 870 578 887T607 933H647Z"  />
<glyph unicode="&#xD6;" horiz-adv-x="718" d="M549 77Q504 32 450 9T338 -14Q200 -14 135 65T69 290Q69 344 80 397T110 500T156 591T213 664Q257 709 311 732T427 755Q552 755 621 679T691 456Q691 401 680 346T649 241T604 149T549 77ZM432 689Q375 689 322 658T231 565Q191 500 169 427T147 266Q147 211 161 171T200 105T258 65T328 52Q385 52 438 83T530 177Q567 237 590 313T613 465Q613 516 599 557T559 628T502 673T432 689ZM330 811L347 896H432L415 811H330ZM530 811L547 896H632L615 811H530Z"  />
<glyph unicode="&#xD7;" horiz-adv-x="667" d="M305 361L106 561L151 606L350 406L550 606L595 560L396 361L593 163L548 118L350 316L152 118L107 163L305 361Z"  />
<glyph unicode="&#xD8;" horiz-adv-x="718" d="M647 642Q691 569 691 456Q691 401 680 346T649 241T604 149T549 77Q504 32 450 9T338 -14Q214 -14 145 60L82 -13L45 21L114 101Q91 138 80 185T69 290Q69 344 80 397T110 500T156 591T213 664Q257 709 311 732T427 755Q547 755 616 683L678 754L715 720L647 642ZM191 114Q217 82 252 67T328 52Q385 52 438 83T530 177Q567 237 590 313T613 465Q613 527 591 576L191 114ZM564 622Q539 654 505 671T432 689Q375 689 322 658T231 565Q191 500 169 427T147 266Q147 203 165 160L564 622Z"  />
<glyph unicode="&#xD9;" horiz-adv-x="712" d="M616 228Q570 -14 324 -14Q272 -14 232 -4T156 35Q121 64 102 104T83 192Q83 208 83 220T85 245T89 270T95 298L180 740H255L172 314Q169 297 167 284T163 257T162 229T161 198Q161 168 170 142T200 95T250 64T322 52Q379 52 418 68T484 112T525 179T549 263L639 740H713L616 228ZM518 792H462L335 953H442L518 792Z"  />
<glyph unicode="&#xDA;" horiz-adv-x="712" d="M616 228Q570 -14 324 -14Q272 -14 232 -4T156 35Q121 64 102 104T83 192Q83 208 83 220T85 245T89 270T95 298L180 740H255L172 314Q169 297 167 284T163 257T162 229T161 198Q161 168 170 142T200 95T250 64T322 52Q379 52 418 68T484 112T525 179T549 263L639 740H713L616 228ZM381 792L518 953H630L444 792H381Z"  />
<glyph unicode="&#xDB;" horiz-adv-x="712" d="M616 228Q570 -14 324 -14Q272 -14 232 -4T156 35Q121 64 102 104T83 192Q83 208 83 220T85 245T89 270T95 298L180 740H255L172 314Q169 297 167 284T163 257T162 229T161 198Q161 168 170 142T200 95T250 64T322 52Q379 52 418 68T484 112T525 179T549 263L639 740H713L616 228ZM522 948L611 792H568L482 880L354 792H307L461 948H522Z"  />
<glyph unicode="&#xDC;" horiz-adv-x="712" d="M616 228Q570 -14 324 -14Q272 -14 232 -4T156 35Q121 64 102 104T83 192Q83 208 83 220T85 245T89 270T95 298L180 740H255L172 314Q169 297 167 284T163 257T162 229T161 198Q161 168 170 142T200 95T250 64T322 52Q379 52 418 68T484 112T525 179T549 263L639 740H713L616 228ZM320 811L337 896H422L405 811H320ZM520 811L537 896H622L605 811H520Z"  />
<glyph unicode="&#xDD;" horiz-adv-x="538" d="M312 299L254 0H179L239 311L106 740H184L290 379L531 740H613L312 299ZM308 792L445 953H557L371 792H308Z"  />
<glyph unicode="&#xDE;" horiz-adv-x="631" d="M410 574Q462 574 498 561T561 523Q586 499 600 467T615 392Q615 345 598 305T548 234Q516 203 468 186T348 168H155L123 0H48L190 740H265L233 574H410ZM346 233Q440 233 488 275T537 391Q537 509 395 509H221L167 233H346Z"  />
<glyph unicode="&#xDF;" horiz-adv-x="568" d="M467 604Q467 646 440 670T361 694Q245 694 221 568L113 0H42L153 576Q170 661 226 708T366 755Q404 755 435 743T489 711T524 663T537 605Q537 550 500 506T389 429Q448 404 479 353T510 235Q510 184 493 139T447 60T380 7T301 -13Q248 -13 219 19T190 102Q190 113 190 121T192 142H247Q247 92 259 68T305 44Q333 44 358 60T401 103T429 165T440 241Q440 322 395 364T268 409L277 461Q327 462 363 475T422 510T456 556T467 604Z"  />
<glyph unicode="&#xE0;" horiz-adv-x="520" d="M325 59Q287 28 251 9T171 -11Q139 -11 112 1T65 33T34 81T23 140Q23 221 95 266T305 312H376Q379 327 381 344T383 374Q383 424 352 450T267 476Q238 476 208 460T150 416L101 462Q150 500 192 518T276 537Q318 537 350 525T406 492T441 443T453 381Q453 367 450 344T443 300L408 126Q399 81 398 54T396 0H330Q328 6 327 15Q326 23 326 33T325 59ZM315 256Q93 256 93 144Q93 103 119 77T184 50Q248 50 336 117L365 256H315ZM375 591H319L192 752H299L375 591Z"  />
<glyph unicode="&#xE1;" horiz-adv-x="520" d="M325 59Q287 28 251 9T171 -11Q139 -11 112 1T65 33T34 81T23 140Q23 221 95 266T305 312H376Q379 327 381 344T383 374Q383 424 352 450T267 476Q238 476 208 460T150 416L101 462Q150 500 192 518T276 537Q318 537 350 525T406 492T441 443T453 381Q453 367 450 344T443 300L408 126Q399 81 398 54T396 0H330Q328 6 327 15Q326 23 326 33T325 59ZM315 256Q93 256 93 144Q93 103 119 77T184 50Q248 50 336 117L365 256H315ZM228 591L365 752H477L291 591H228Z"  />
<glyph unicode="&#xE2;" horiz-adv-x="520" d="M325 59Q287 28 251 9T171 -11Q139 -11 112 1T65 33T34 81T23 140Q23 221 95 266T305 312H376Q379 327 381 344T383 374Q383 424 352 450T267 476Q238 476 208 460T150 416L101 462Q150 500 192 518T276 537Q318 537 350 525T406 492T441 443T453 381Q453 367 450 344T443 300L408 126Q399 81 398 54T396 0H330Q328 6 327 15Q326 23 326 33T325 59ZM315 256Q93 256 93 144Q93 103 119 77T184 50Q248 50 336 117L365 256H315ZM371 747L460 591H417L331 679L203 591H156L310 747H371Z"  />
<glyph unicode="&#xE3;" horiz-adv-x="520" d="M325 59Q287 28 251 9T171 -11Q139 -11 112 1T65 33T34 81T23 140Q23 221 95 266T305 312H376Q379 327 381 344T383 374Q383 424 352 450T267 476Q238 476 208 460T150 416L101 462Q150 500 192 518T276 537Q318 537 350 525T406 492T441 443T453 381Q453 367 450 344T443 300L408 126Q399 81 398 54T396 0H330Q328 6 327 15Q326 23 326 33T325 59ZM315 256Q93 256 93 144Q93 103 119 77T184 50Q248 50 336 117L365 256H315ZM498 732Q484 672 450 640T375 608Q355 608 340 617T312 639T287 660T260 670Q240 670 223 653T193 609H153Q159 641 172 664T201 702T236 724T273 731Q293 731 309 722T338 700T364 679T390 669Q413 669 429 686T458 732H498Z"  />
<glyph unicode="&#xE4;" horiz-adv-x="520" d="M325 59Q287 28 251 9T171 -11Q139 -11 112 1T65 33T34 81T23 140Q23 221 95 266T305 312H376Q379 327 381 344T383 374Q383 424 352 450T267 476Q238 476 208 460T150 416L101 462Q150 500 192 518T276 537Q318 537 350 525T406 492T441 443T453 381Q453 367 450 344T443 300L408 126Q399 81 398 54T396 0H330Q328 6 327 15Q326 23 326 33T325 59ZM315 256Q93 256 93 144Q93 103 119 77T184 50Q248 50 336 117L365 256H315ZM171 610L188 695H273L256 610H171ZM371 610L388 695H473L456 610H371Z"  />
<glyph unicode="&#xE5;" horiz-adv-x="520" d="M325 59Q287 28 251 9T171 -11Q139 -11 112 1T65 33T34 81T23 140Q23 221 95 266T305 312H376Q379 327 381 344T383 374Q383 424 352 450T267 476Q238 476 208 460T150 416L101 462Q150 500 192 518T276 537Q318 537 350 525T406 492T441 443T453 381Q453 367 450 344T443 300L408 126Q399 81 398 54T396 0H330Q328 6 327 15Q326 23 326 33T325 59ZM315 256Q93 256 93 144Q93 103 119 77T184 50Q248 50 336 117L365 256H315ZM317 572Q273 572 245 601T216 671Q216 713 245 742T316 771Q358 771 386 742T415 671Q415 650 407 632T386 600T354 580T317 572ZM314 604Q344 604 363 624T382 671Q382 699 363 719T315 739Q287 739 268 720T249 672Q249 643 268 624T314 604Z"  />
<glyph unicode="&#xE6;" horiz-adv-x="850" d="M315 256Q93 256 93 144Q93 103 119 77T184 50Q248 50 336 117L365 256H315ZM621 537Q712 537 761 482T811 327Q811 307 809 290T804 259H433Q432 250 431 239T429 218Q429 175 440 144T470 91T514 60T568 50Q620 50 659 81T733 174L790 143Q745 68 688 29T557 -11Q496 -11 451 17T383 99Q318 40 267 15T171 -11Q139 -11 112 1T65 33T34 81T23 140Q23 221 95 266T305 312H376Q379 327 381 344T383 374Q383 424 352 450T267 476Q238 476 208 460T150 416L101 462Q150 500 192 518T276 537Q338 537 376 512T435 441Q470 486 515 511T621 537ZM738 319Q741 330 741 337T741 352Q741 409 709 442T621 476Q560 476 515 439T446 319H738Z"  />
<glyph unicode="&#xE7;" horiz-adv-x="512" d="M234 -44Q272 -48 290 -67T308 -112Q308 -137 297 -155T267 -184T226 -201T181 -207Q106 -207 50 -182L75 -132Q94 -143 123 -150T181 -157Q190 -157 201 -156T221 -150T237 -138T243 -118Q243 -100 221 -92T160 -84L217 -8Q178 -2 147 18T94 68T61 138T49 224Q49 283 67 339T117 439T196 510T300 537Q367 537 417 499T491 383L424 370Q417 400 404 420T375 452T339 470T301 476Q264 476 231 457T173 404T134 322T119 218Q119 137 157 95T261 53Q312 53 345 77T403 156L459 131Q392 -8 259 -11L234 -44Z"  />
<glyph unicode="&#xE8;" horiz-adv-x="537" d="M477 143Q432 68 375 29T244 -11Q199 -11 163 5T101 51T61 123T47 219Q47 281 65 338T116 440T198 510T308 537Q399 537 448 482T498 327Q498 307 496 290T491 259H120Q119 250 118 239T117 218Q117 175 128 144T157 91T201 60T255 50Q307 50 346 81T420 174L477 143ZM425 319Q428 330 428 337T428 352Q428 409 396 442T308 476Q247 476 202 439T133 319H425ZM410 591H354L227 752H334L410 591Z"  />
<glyph unicode="&#xE9;" horiz-adv-x="537" d="M477 143Q432 68 375 29T244 -11Q199 -11 163 5T101 51T61 123T47 219Q47 281 65 338T116 440T198 510T308 537Q399 537 448 482T498 327Q498 307 496 290T491 259H120Q119 250 118 239T117 218Q117 175 128 144T157 91T201 60T255 50Q307 50 346 81T420 174L477 143ZM425 319Q428 330 428 337T428 352Q428 409 396 442T308 476Q247 476 202 439T133 319H425ZM243 591L380 752H492L306 591H243Z"  />
<glyph unicode="&#xEA;" horiz-adv-x="537" d="M477 143Q432 68 375 29T244 -11Q199 -11 163 5T101 51T61 123T47 219Q47 281 65 338T116 440T198 510T308 537Q399 537 448 482T498 327Q498 307 496 290T491 259H120Q119 250 118 239T117 218Q117 175 128 144T157 91T201 60T255 50Q307 50 346 81T420 174L477 143ZM425 319Q428 330 428 337T428 352Q428 409 396 442T308 476Q247 476 202 439T133 319H425ZM391 747L480 591H437L351 679L223 591H176L330 747H391Z"  />
<glyph unicode="&#xEB;" horiz-adv-x="537" d="M477 143Q432 68 375 29T244 -11Q199 -11 163 5T101 51T61 123T47 219Q47 281 65 338T116 440T198 510T308 537Q399 537 448 482T498 327Q498 307 496 290T491 259H120Q119 250 118 239T117 218Q117 175 128 144T157 91T201 60T255 50Q307 50 346 81T420 174L477 143ZM425 319Q428 330 428 337T428 352Q428 409 396 442T308 476Q247 476 202 439T133 319H425ZM191 610L208 695H293L276 610H191ZM391 610L408 695H493L476 610H391Z"  />
<glyph unicode="&#xEC;" horiz-adv-x="256" d="M112 0H42L144 525H214L112 0ZM256 591H200L73 752H180L256 591Z"  />
<glyph unicode="&#xED;" horiz-adv-x="256" d="M112 0H42L144 525H214L112 0ZM130 591L267 752H379L193 591H130Z"  />
<glyph unicode="&#xEE;" horiz-adv-x="256" d="M112 0H42L144 525H214L112 0ZM245 747L334 591H291L205 679L77 591H30L184 747H245Z"  />
<glyph unicode="&#xEF;" horiz-adv-x="256" d="M112 0H42L144 525H214L112 0ZM52 610L69 695H154L137 610H52ZM252 610L269 695H354L337 610H252Z"  />
<glyph unicode="&#xF0;" horiz-adv-x="542" d="M417 649Q426 627 438 597T460 528T478 439T486 332Q486 251 466 188T412 80T333 12T236 -11Q194 -11 160 5T101 50T63 123T50 220Q50 288 70 346T124 446T205 513T303 537Q378 537 419 468Q417 484 413 504T402 545T388 588T372 628L247 570L228 609L353 667Q339 692 329 709T309 740H364L396 688L474 725L493 684L417 649ZM297 480Q262 480 230 459T174 402T135 318T120 214Q120 133 154 90T240 46Q275 46 307 67T363 125T401 210T416 311Q416 352 407 383T381 436T343 469T297 480Z"  />
<glyph unicode="&#xF1;" horiz-adv-x="572" d="M191 436Q233 485 277 510T368 536Q398 536 423 526T467 496T495 451T506 392Q506 384 505 374T502 355L434 0H362L426 328Q430 346 431 358T432 389Q432 428 409 449T349 470Q270 470 184 363L113 0H42L145 525H208L191 436ZM548 732Q534 672 500 640T425 608Q405 608 390 617T362 639T337 660T310 670Q290 670 273 653T243 609H203Q209 641 222 664T251 702T286 724T323 731Q343 731 359 722T388 700T414 679T440 669Q463 669 479 686T508 732H548Z"  />
<glyph unicode="&#xF2;" horiz-adv-x="542" d="M238 -11Q195 -11 161 5T102 50T64 122T51 217Q51 285 71 343T125 444T206 511T305 536Q348 536 382 520T441 473T477 400T490 306Q490 241 470 184T416 83T336 15T238 -11ZM298 475Q263 475 232 455T175 398T136 312T121 205Q121 168 130 139T156 91T195 61T241 50Q278 50 310 71T367 129T406 214T420 316Q420 356 410 385T384 435T345 465T298 475ZM405 591H349L222 752H329L405 591Z"  />
<glyph unicode="&#xF3;" horiz-adv-x="542" d="M238 -11Q195 -11 161 5T102 50T64 122T51 217Q51 285 71 343T125 444T206 511T305 536Q348 536 382 520T441 473T477 400T490 306Q490 241 470 184T416 83T336 15T238 -11ZM298 475Q263 475 232 455T175 398T136 312T121 205Q121 168 130 139T156 91T195 61T241 50Q278 50 310 71T367 129T406 214T420 316Q420 356 410 385T384 435T345 465T298 475ZM253 591L390 752H502L316 591H253Z"  />
<glyph unicode="&#xF4;" horiz-adv-x="542" d="M238 -11Q195 -11 161 5T102 50T64 122T51 217Q51 285 71 343T125 444T206 511T305 536Q348 536 382 520T441 473T477 400T490 306Q490 241 470 184T416 83T336 15T238 -11ZM298 475Q263 475 232 455T175 398T136 312T121 205Q121 168 130 139T156 91T195 61T241 50Q278 50 310 71T367 129T406 214T420 316Q420 356 410 385T384 435T345 465T298 475ZM391 747L480 591H437L351 679L223 591H176L330 747H391Z"  />
<glyph unicode="&#xF5;" horiz-adv-x="542" d="M238 -11Q195 -11 161 5T102 50T64 122T51 217Q51 285 71 343T125 444T206 511T305 536Q348 536 382 520T441 473T477 400T490 306Q490 241 470 184T416 83T336 15T238 -11ZM298 475Q263 475 232 455T175 398T136 312T121 205Q121 168 130 139T156 91T195 61T241 50Q278 50 310 71T367 129T406 214T420 316Q420 356 410 385T384 435T345 465T298 475ZM508 732Q494 672 460 640T385 608Q365 608 350 617T322 639T297 660T270 670Q250 670 233 653T203 609H163Q169 641 182 664T211 702T246 724T283 731Q303 731 319 722T348 700T374 679T400 669Q423 669 439 686T468 732H508Z"  />
<glyph unicode="&#xF6;" horiz-adv-x="542" d="M238 -11Q195 -11 161 5T102 50T64 122T51 217Q51 285 71 343T125 444T206 511T305 536Q348 536 382 520T441 473T477 400T490 306Q490 241 470 184T416 83T336 15T238 -11ZM298 475Q263 475 232 455T175 398T136 312T121 205Q121 168 130 139T156 91T195 61T241 50Q278 50 310 71T367 129T406 214T420 316Q420 356 410 385T384 435T345 465T298 475ZM191 610L208 695H293L276 610H191ZM391 610L408 695H493L476 610H391Z"  />
<glyph unicode="&#xF7;" horiz-adv-x="667" d="M87 341V401H618V341H87ZM314 528V613H391V528H314ZM314 128V213H391V128H314Z"  />
<glyph unicode="&#xF8;" horiz-adv-x="542" d="M460 442Q490 386 490 306Q490 241 470 184T416 83T336 15T238 -11Q164 -11 115 35L67 -22L30 12L84 76Q68 104 60 139T51 217Q51 285 71 343T125 444T206 511T305 536Q343 536 375 523T430 484L474 536L511 502L460 442ZM160 87Q192 50 241 50Q278 50 310 71T367 129T406 214T420 316Q420 354 411 384L160 87ZM386 432Q369 454 347 464T298 475Q263 475 232 455T175 398T136 312T121 205Q121 164 133 133L386 432Z"  />
<glyph unicode="&#xF9;" horiz-adv-x="572" d="M380 91Q337 41 294 16T203 -10Q178 -10 154 -2T111 24T81 69T69 136Q69 171 75 203L140 525H210L148 207Q144 189 142 170T139 130Q139 95 161 76T220 56Q296 56 388 166L458 525H528L427 0H363L380 91ZM410 591H354L227 752H334L410 591Z"  />
<glyph unicode="&#xFA;" horiz-adv-x="572" d="M380 91Q337 41 294 16T203 -10Q178 -10 154 -2T111 24T81 69T69 136Q69 171 75 203L140 525H210L148 207Q144 189 142 170T139 130Q139 95 161 76T220 56Q296 56 388 166L458 525H528L427 0H363L380 91ZM263 591L400 752H512L326 591H263Z"  />
<glyph unicode="&#xFB;" horiz-adv-x="572" d="M380 91Q337 41 294 16T203 -10Q178 -10 154 -2T111 24T81 69T69 136Q69 171 75 203L140 525H210L148 207Q144 189 142 170T139 130Q139 95 161 76T220 56Q296 56 388 166L458 525H528L427 0H363L380 91ZM404 747L493 591H450L364 679L236 591H189L343 747H404Z"  />
<glyph unicode="&#xFC;" horiz-adv-x="572" d="M380 91Q337 41 294 16T203 -10Q178 -10 154 -2T111 24T81 69T69 136Q69 171 75 203L140 525H210L148 207Q144 189 142 170T139 130Q139 95 161 76T220 56Q296 56 388 166L458 525H528L427 0H363L380 91ZM207 610L224 695H309L292 610H207ZM407 610L424 695H509L492 610H407Z"  />
<glyph unicode="&#xFD;" horiz-adv-x="459" d="M179 -81Q147 -145 108 -178T15 -211Q-5 -211 -21 -207T-52 -196L-40 -134Q-12 -145 15 -145Q57 -145 87 -111T146 -11L60 525H135L194 81L405 525H485L179 -81ZM211 591L348 752H460L274 591H211Z"  />
<glyph unicode="&#xFE;" horiz-adv-x="576" d="M205 472Q237 504 270 520T348 537Q436 537 482 482T528 322Q528 250 509 189T455 82T375 12T275 -13Q226 -13 192 6T123 54L72 -211H2L185 740H255L205 472ZM138 130Q166 90 197 69T271 48Q309 48 343 69T402 127T443 213T458 320Q458 399 425 439T336 480Q307 480 281 468T234 440T202 408T187 381L138 130Z"  />
<glyph unicode="&#xFF;" horiz-adv-x="459" d="M179 -81Q147 -145 108 -178T15 -211Q-5 -211 -21 -207T-52 -196L-40 -134Q-12 -145 15 -145Q57 -145 87 -111T146 -11L60 525H135L194 81L405 525H485L179 -81ZM143 610L160 695H245L228 610H143ZM343 610L360 695H445L428 610H343Z"  />
<glyph unicode="&#x131;" horiz-adv-x="256" d="M112 0H42L144 525H214L112 0Z"  />
<glyph unicode="&#x152;" horiz-adv-x="1007" d="M432 689Q375 689 322 658T231 565Q191 500 169 427T147 266Q147 211 161 171T200 105T258 65T328 52Q399 52 449 91T532 190T578 323T593 465Q593 516 582 557T549 628T499 673T432 689ZM650 740H1051L1038 675H712L662 419H922L910 354H650L593 65H946L934 0H506L521 78Q478 32 434 9T335 -14Q272 -14 223 7T139 67T87 163T69 290Q69 344 80 397T110 500T156 591T213 664Q257 709 311 732T427 755Q499 755 546 723T626 618L650 740Z"  />
<glyph unicode="&#x153;" horiz-adv-x="901" d="M298 475Q263 475 232 455T175 398T136 312T121 205Q121 168 130 139T156 91T195 61T241 50Q278 50 310 71T367 129T406 214T421 316Q421 356 411 385T384 435T345 465T298 475ZM672 537Q763 537 812 482T862 327Q862 307 860 290T855 259H484Q483 250 481 239T479 218Q479 175 490 144T520 91T565 60T619 50Q671 50 710 81T784 174L841 143Q796 68 739 29T608 -11Q485 -11 432 114Q392 53 344 21T238 -11Q195 -11 161 5T102 50T64 122T51 217Q51 285 71 343T125 444T206 511T305 536Q363 536 402 506T468 414Q510 476 558 506T672 537ZM789 319Q792 330 792 337T792 352Q792 409 760 442T672 476Q611 476 566 439T497 319H789Z"  />
<glyph unicode="&#x160;" horiz-adv-x="581" d="M526 546Q509 618 469 653T352 689Q279 689 239 655T198 563Q198 530 211 506T246 465T293 433T344 406Q380 386 412 367T468 324T506 268T520 190Q520 141 502 103T450 39T372 0T275 -14Q173 -14 106 44T26 226L92 239Q98 196 111 162T146 103T199 65T274 52Q360 52 403 89T446 185Q446 212 438 233T412 271T370 303T311 336Q212 384 168 434T124 552Q124 596 140 633T186 697T259 739T359 755Q456 755 512 708T591 563L526 546ZM342 792L253 948H295L382 861L510 948H557L403 792H342Z"  />
<glyph unicode="&#x161;" horiz-adv-x="443" d="M364 403Q345 441 318 460T250 479Q226 479 207 472T174 453T153 426T146 395Q146 368 169 347T243 302Q281 285 307 268T348 233T371 194T378 147Q378 113 365 84T327 34T270 0T196 -12Q122 -12 76 25T-4 132L55 160Q80 107 110 78T193 49Q247 49 277 77T308 143Q308 162 300 176T279 202T249 223T213 242Q189 254 165 266T121 295T89 334T76 388Q76 421 89 448T126 495T181 525T250 536Q364 536 419 430L364 403ZM250 591L161 747H203L290 660L418 747H465L311 591H250Z"  />
<glyph unicode="&#x178;" horiz-adv-x="538" d="M312 299L254 0H179L239 311L106 740H184L290 379L531 740H613L312 299ZM231 811L248 896H333L316 811H231ZM431 811L448 896H533L516 811H431Z"  />
<glyph unicode="&#x17D;" horiz-adv-x="589" d="M620 690L84 65H507L493 0H-19L-7 64L516 675H147L161 740H630L620 690ZM367 792L278 948H320L407 861L535 948H582L428 792H367Z"  />
<glyph unicode="&#x17E;" horiz-adv-x="461" d="M464 467L74 60H393L382 0H-20L-8 66L375 465H82L92 525H474L464 467ZM263 591L174 747H216L303 660L431 747H478L324 591H263Z"  />
<glyph unicode="&#x192;" horiz-adv-x="392" d="M462 676Q443 683 424 686T384 689Q366 689 354 685T334 670T320 641T306 595L294 548H403L391 492H283L163 -54Q157 -80 148 -103T122 -144T83 -172T25 -183Q-4 -183 -27 -179T-70 -168L-57 -110Q-40 -115 -21 -118T17 -122Q35 -122 47 -118T69 -99T89 -54T110 30L211 492H129L140 548H222L234 595Q242 627 250 656T274 707T313 742T378 755Q423 755 474 738L462 676Z"  />
<glyph unicode="&#x2C6;" horiz-adv-x="333" d="M286 733L375 577H332L246 665L118 577H71L225 733H286Z"  />
<glyph unicode="&#x2C7;" horiz-adv-x="333" d="M192 577L103 733H145L232 646L360 733H407L253 577H192Z"  />
<glyph unicode="&#x2DA;" horiz-adv-x="333" d="M242 558Q198 558 170 587T141 657Q141 699 170 728T241 757Q283 757 311 728T340 657Q340 636 332 618T311 586T279 566T242 558ZM239 590Q269 590 288 610T307 657Q307 685 288 705T240 725Q212 725 193 706T174 658Q174 629 193 610T239 590Z"  />
<glyph unicode="&#x2DC;" horiz-adv-x="333" d="M413 718Q399 658 365 626T290 594Q270 594 255 603T227 625T202 646T175 656Q155 656 138 639T108 595H68Q74 627 87 650T116 688T151 710T188 717Q208 717 224 708T253 686T279 665T305 655Q328 655 344 672T373 718H413Z"  />
<glyph unicode="&#x2013;" horiz-adv-x="500" d="M0 241V306H500V241H0Z"  />
<glyph unicode="&#x2014;" horiz-adv-x="1000" d="M0 241V306H1000V241H0Z"  />
<glyph unicode="&#x2018;" horiz-adv-x="281" d="M152 593L254 740H296L202 594H249L228 484H131L152 593Z"  />
<glyph unicode="&#x2019;" horiz-adv-x="280" d="M166 630L187 740H284L263 632L160 484H120L212 630H166Z"  />
<glyph unicode="&#x201A;" horiz-adv-x="280" d="M45 0L66 110H163L142 0L39 -148H-1L91 0H45Z"  />
<glyph unicode="&#x201C;" horiz-adv-x="469" d="M154 606L256 750H297L203 606H248L227 496H133L154 606ZM345 606L446 750H486L392 606H438L417 496H324L345 606Z"  />
<glyph unicode="&#x201D;" horiz-adv-x="469" d="M170 634L190 740H283L263 634L160 486H120L216 634H170ZM359 634L379 740H473L453 634L350 486H310L405 634H359Z"  />
<glyph unicode="&#x201E;" horiz-adv-x="469" d="M48 0L68 106H161L141 0L39 -148H-1L94 0H48ZM237 0L257 106H351L331 0L229 -148H189L283 0H237Z"  />
<glyph unicode="&#x2020;" horiz-adv-x="521" d="M278 475L315 744H391L322 475L509 489L495 417L315 431L214 -198H129L269 431L83 417L97 489L278 475Z"  />
<glyph unicode="&#x2021;" horiz-adv-x="521" d="M284 499L316 744H390L328 499L507 514L493 442L319 456L293 275L248 88L428 101L414 30L240 45L208 -198H134L196 45L15 30L28 101L204 88L231 275L276 456L94 442L108 514L284 499Z"  />
<glyph unicode="&#x2022;" horiz-adv-x="357" d="M72 351Q72 376 82 398T108 438T147 464T196 474Q221 474 243 465T283 438T309 399T319 351Q319 325 310 303T283 264T244 237T196 227Q170 227 148 237T109 263T82 302T72 351Z"  />
<glyph unicode="&#x2026;" horiz-adv-x="938" d="M65 0L86 110H183L162 0H65ZM376 0L397 110H493L472 0H376ZM686 0L707 110H804L783 0H686Z"  />
<glyph unicode="&#x2030;" horiz-adv-x="1352" d="M384 551Q384 601 357 635T281 669Q245 669 219 650T175 603T150 543T141 483Q141 452 150 429T173 390T206 366T245 358Q276 358 301 377T345 425T374 488T384 551ZM473 693Q549 693 620 716T746 780H803L258 -170H199L693 685Q647 666 595 657T489 647Q470 647 452 648T415 652Q428 632 435 608T442 558Q442 514 428 469T388 386T326 325T247 301Q212 301 182 314T130 350T96 407T83 482Q83 524 96 567T135 646T196 704T277 726Q316 726 348 711Q409 693 473 693ZM1285 129Q1285 179 1258 213T1182 247Q1146 247 1120 228T1076 181T1051 121T1042 61Q1042 30 1051 7T1074 -32T1107 -56T1146 -64Q1177 -64 1202 -45T1246 3T1275 66T1285 129ZM1343 136Q1343 92 1329 47T1289 -36T1227 -97T1148 -121Q1113 -121 1083 -108T1031 -72T997 -15T984 60Q984 102 997 145T1036 224T1097 282T1178 304Q1215 304 1245 291T1298 254T1331 201T1343 136ZM853 129Q853 179 826 213T750 247Q714 247 688 228T644 181T619 121T610 61Q610 30 619 7T642 -32T675 -56T714 -64Q745 -64 770 -45T814 3T843 66T853 129ZM911 136Q911 92 897 47T857 -36T795 -97T716 -121Q681 -121 651 -108T599 -72T565 -15T552 60Q552 102 565 145T604 224T665 282T746 304Q783 304 813 291T866 254T899 201T911 136Z"  />
<glyph unicode="&#x2039;" horiz-adv-x="292" d="M44 270L219 495H294L114 261L204 30H134L44 270Z"  />
<glyph unicode="&#x203A;" horiz-adv-x="292" d="M249 254L75 30H-1L178 262L90 495H159L249 254Z"  />
<glyph unicode="&#x20AC;" horiz-adv-x="625" d="M570 554Q553 623 511 658T406 694Q367 694 331 677T264 629T207 553T166 454H556L545 398H153Q151 382 150 370T147 342H535L524 286H146Q151 174 198 113T327 51Q356 51 381 58T428 80T472 121T514 181L575 151Q545 106 517 75T457 23T393 -6T320 -15Q264 -15 219 6T142 66T91 161T72 286H27L38 342H73Q75 359 76 371T80 398H27L38 454H92Q135 600 216 677T409 755Q494 755 552 708T637 572L570 554Z"  />
<glyph unicode="&#x2122;" horiz-adv-x="761" d="M263 410H208V691H101V740H370V691H263V410ZM480 410H430V740H511L594 476L674 740H754V410H703V687L619 410H569L480 691V410Z"  />

</font>
</defs>
</svg>
