<?xml  version="1.0" encoding="UTF-8"?>
<!DOCTYPE svg PUBLIC "-//W3C//DTD SVG 1.0//EN" "http://www.w3.org/TR/2001/REC-SVG-20010904/DTD/svg10.dtd" >
<svg xmlns="http://www.w3.org/2000/svg" >
<metadata>
<version>1.0</version>
<id><![CDATA[Futura W01 Black]]></id>
<vendor>Monotype Imaging Inc.</vendor>
<credits>
<name>Fonts.com WebFonts</name>
<URL>http://webfonts.fonts.com</URL>
<role>Home of the Web fonts</role>
</credits>
<license>
<URL>http://webfonts.fonts.com/Legal</URL>
</license>
<copyright><![CDATA[Part of the digitally encoded machine readable outline data for producing the Typefaces provided is copyrighted © 2006 Linotype GmbH, www.linotype.com. All rights reserved. This software is the property of Linotype GmbH, and may not be reproduced, used, displayed, modified, disclosed or transferred without the express written approval of Linotype GmbH.  Copyright © 1987, 1991, 1992, 1993 Adobe Systems Incorporated. All Rights Reserved.]]></copyright>
<trademark><![CDATA[Futura is either a registered trademark or a trademark of Bauer Types SA.]]></trademark>
<licensee>
<name></name>
</licensee>
</metadata>
<defs >
<font horiz-adv-x="522" id="7e7a3fdd-e46c-4c9b-a401-80ac25a9ab6d">
<font-face font-family="" panose-1="2 11 11 4 9 2 4 7 11 4" ascent="933" descent="-215" units-per-em="1000" alphabetic="0">
</font-face>
<missing-glyph horiz-adv-x="300" />

<glyph unicode="&#xA;" />
<glyph unicode="&#xD;" horiz-adv-x="0" />
<glyph unicode=" " horiz-adv-x="300" />
<glyph unicode="!" horiz-adv-x="337" d="M205 181Q224 181 241 174T270 153T290 123T298 87Q298 67 291 50T271 20T241 0T204 -8Q164 -8 137 19T109 87Q109 106 116 123T137 153T167 173T205 181ZM100 667H303L203 198L100 667Z"  />
<glyph unicode="&quot;" horiz-adv-x="447" d="M30 633H207L118 326L30 633ZM240 633H417L328 326L240 633Z"  />
<glyph unicode="#" horiz-adv-x="573" d="M113 222H13L36 279H136L176 379H76L99 436H199L251 565H359L307 436H354L406 565H513L461 436H561L538 379H438L398 279H498L475 222H375L323 94H215L267 222H221L169 94H61L113 222ZM290 279L331 379H284L244 279H290Z"  />
<glyph unicode="$" horiz-adv-x="573" d="M171 0Q158 0 150 0T135 2T122 6T109 13Q59 41 59 99Q59 143 88 171T161 200Q182 200 200 193T233 172T256 140T264 102V0H171ZM244 198L90 385Q70 409 57 445T43 509Q43 547 61 583T111 641Q128 652 153 659T203 667H263V173Q261 176 259 179T253 187L244 198ZM402 667Q440 667 461 649Q478 635 487 614T497 570Q497 551 489 534T468 503T436 481T399 473Q357 473 330 500T302 570V667H402ZM302 500Q304 497 306 494T311 486L321 474L467 297Q528 222 528 157Q528 78 471 35Q447 17 422 9T364 0H302V500ZM264 -18H303V-143H264V-18ZM264 792H303V684H264V792Z"  />
<glyph unicode="%" horiz-adv-x="760" d="M548 667H618L207 0H138L548 667ZM164 305Q127 307 105 314T62 338Q33 362 17 402T0 489Q0 535 16 574T59 637Q79 654 102 661T164 671V305ZM197 671Q234 667 254 661T294 640Q324 617 342 576T360 487Q360 440 343 400T294 335Q274 319 253 313T197 305V671ZM567 0Q530 2 508 9T465 33Q436 58 420 98T403 185Q403 230 419 269T462 332Q482 349 505 356T567 366V0ZM600 366Q635 365 656 359T697 337Q760 287 760 183Q760 79 697 30Q677 14 656 8T600 0V366Z"  />
<glyph unicode="&amp;" horiz-adv-x="689" d="M357 0Q342 -3 330 -4T305 -6T280 -7T248 -8Q216 -8 192 -6T148 3T114 19T84 45Q27 105 27 182Q27 206 31 226T45 267T71 309T113 357Q113 347 114 340T118 326T125 312T137 296L357 0ZM165 323Q145 350 137 372T129 427Q129 458 137 490T160 545Q173 565 189 580T239 617Q240 611 241 607T244 598T251 587T264 570L524 221L653 316V229L565 168L690 0H407L165 323ZM264 634Q298 651 322 657T375 664Q442 664 482 627T523 529Q523 488 506 456T448 389L264 634Z"  />
<glyph unicode="&apos;" horiz-adv-x="237" d="M30 633H207L118 326L30 633Z"  />
<glyph unicode="(" horiz-adv-x="354" d="M261 -182Q243 -164 228 -146T199 -107T170 -60T138 -1Q108 59 91 126T73 253Q73 390 155 539Q171 568 183 588T207 625T231 656T261 688V-182Z"  />
<glyph unicode=")" horiz-adv-x="354" d="M93 688Q111 670 126 652T155 613T184 566T216 507Q246 447 263 380T281 253Q281 116 199 -32Q183 -61 171 -82T147 -119T122 -151T93 -182V688Z"  />
<glyph unicode="*" horiz-adv-x="463" d="M173 451H75L121 539L67 633H173L231 738L291 633H395L344 547L397 451H290L231 359L173 451Z"  />
<glyph unicode="+" horiz-adv-x="573" d="M257 287H40V347H257V563H317V347H533V287H317V70H257V287Z"  />
<glyph unicode="&#x2c;" horiz-adv-x="284" d="M123 -7Q90 4 71 29T52 89Q52 131 80 159T151 188Q194 188 222 160T250 90Q250 70 244 53T222 15L112 -133H33L123 -7Z"  />
<glyph unicode="-" horiz-adv-x="287" d="M33 331H253V182H33V331Z"  />
<glyph unicode="." horiz-adv-x="271" d="M137 199Q157 199 175 191T207 169T229 137T237 97Q237 76 229 58T207 25T175 3T135 -5Q114 -5 95 3T63 25T41 58T33 98Q33 119 41 137T63 169T96 191T137 199Z"  />
<glyph unicode="/" horiz-adv-x="530" d="M438 680H511L20 -129H-53L438 680Z"  />
<glyph unicode="0" horiz-adv-x="573" d="M266 -6Q207 -4 170 14T99 77Q65 121 46 184T27 316Q27 394 51 463T117 576Q133 592 148 603T181 622T219 633T266 638V-6ZM308 638Q367 636 404 618T475 555Q509 511 528 448T547 316Q547 238 523 169T457 56Q441 39 426 28T393 10T355 -1T308 -6V638Z"  />
<glyph unicode="1" horiz-adv-x="573" d="M200 463L113 418V471L434 653V0H200V463Z"  />
<glyph unicode="2" horiz-adv-x="573" d="M77 172H510V0H77V172ZM161 627Q184 627 205 618T241 593T266 556T275 511Q275 487 266 466T241 429T204 404T159 395Q135 395 114 404T77 429T52 466T43 512Q43 536 52 557T77 593T114 618T161 627ZM298 510Q298 562 284 590T232 637Q250 639 265 640T290 641Q336 641 378 626T451 582Q483 553 499 512T516 418Q516 365 500 324T451 253Q420 225 378 210T290 194Q282 194 266 195T232 199Q269 217 283 245T298 325V510Z"  />
<glyph unicode="3" horiz-adv-x="573" d="M294 240Q294 293 264 307Q258 310 253 312T242 315T227 316T202 316V355Q226 355 238 357T260 364Q276 373 285 391T294 432V545Q294 550 294 551T293 555V564Q289 620 246 641Q282 647 301 647Q343 647 378 635T440 603T482 554T497 494Q497 460 479 429T432 380Q421 374 413 370T394 362T366 354T319 343Q313 341 307 340T294 336Q335 331 365 324T422 306Q470 286 495 250T521 166Q521 129 505 98T458 44T387 8T296 -5Q282 -5 270 -4T237 0Q268 14 281 34T294 87V240ZM156 209Q177 209 195 201T228 178T251 145T259 105Q259 83 251 64T229 31T195 8T155 0Q133 0 114 8T81 30T58 64T50 105Q50 127 58 146T81 179T114 201T156 209ZM172 640Q192 640 209 632T240 611T262 579T270 541Q270 520 262 502T241 471T209 449T171 441Q150 441 132 449T100 470T79 502T71 541Q71 562 79 580T100 611T132 632T172 640Z"  />
<glyph unicode="4" horiz-adv-x="573" d="M216 633V152H-17L216 633ZM257 633H486V207H570V152H486V0H257V633Z"  />
<glyph unicode="5" horiz-adv-x="573" d="M161 198Q182 198 200 190T231 168T253 136T261 97Q261 76 253 57T232 25T200 3T160 -5Q139 -5 120 3T88 25T66 57T58 97Q58 118 66 136T88 168T121 190T161 198ZM100 633H485V460H154V365H100V633ZM291 273Q291 323 272 342T204 361Q202 361 197 361T185 360V407Q212 409 228 409T258 410Q381 410 446 357T512 204Q512 86 402 26Q347 -5 286 -5Q279 -5 271 -5T250 -4Q273 16 282 35T291 79V273Z"  />
<glyph unicode="6" horiz-adv-x="573" d="M271 -5Q221 0 191 11T131 46Q27 129 27 308Q27 490 137 577Q168 601 207 615T281 630Q287 630 294 630T313 628Q288 607 280 590T271 546V-5ZM406 634Q427 634 445 626T477 604T499 571T507 531Q507 510 499 491T477 458T444 436T404 428Q383 428 364 436T331 458T309 491T301 532Q301 553 309 572T331 604T365 626T406 634ZM313 402Q361 400 394 392T460 366Q501 343 524 298T547 196Q547 140 523 97T454 28Q425 11 393 4T313 -5V402Z"  />
<glyph unicode="7" horiz-adv-x="573" d="M467 453L352 0H73L467 453ZM73 633H467V459H73V633Z"  />
<glyph unicode="8" horiz-adv-x="573" d="M266 0Q243 0 229 0T204 1T184 3T164 8Q41 38 41 171Q41 282 145 317Q188 332 243 332Q246 332 252 332T266 331V0ZM266 353Q257 352 251 352T240 352Q203 352 173 362T120 392T86 437T74 495Q74 532 89 562T134 609Q160 625 189 632T266 639V353ZM307 331Q316 332 322 332T334 332Q364 332 393 326T447 309Q532 271 532 171Q532 38 409 8Q397 5 389 4T370 2T345 1T307 0V331ZM307 639Q354 639 383 632T439 609Q468 592 483 562T499 495Q499 463 487 437T453 392T399 363T331 352Q327 352 321 352T307 353V639Z"  />
<glyph unicode="9" horiz-adv-x="573" d="M168 204Q188 204 206 196T238 174T260 142T268 102Q268 81 260 63T238 30T206 8T166 0Q145 0 126 8T94 30T72 63T64 103Q64 124 72 142T94 174T127 196T168 204ZM262 228Q198 232 161 243T94 278Q62 304 45 344T27 433Q27 481 44 521T94 588Q109 600 125 608T161 622T205 632T262 638V228ZM302 638Q333 637 358 632T403 617T442 592T477 556Q511 512 529 455T547 330Q547 249 523 183T453 73Q418 39 377 21T295 3Q287 3 279 3T259 5Q302 31 302 86V638Z"  />
<glyph unicode=":" horiz-adv-x="304" d="M171 453Q191 453 209 445T241 423T263 391T271 351Q271 330 263 312T241 279T209 257T169 249Q148 249 129 257T97 279T75 312T67 352Q67 373 75 391T97 423T130 445T171 453ZM171 199Q191 199 209 191T241 169T263 137T271 97Q271 76 263 58T241 25T209 3T169 -5Q148 -5 129 3T97 25T75 58T67 98Q67 119 75 137T97 169T130 191T171 199Z"  />
<glyph unicode=";" horiz-adv-x="317" d="M176 453Q196 453 214 445T246 423T268 391T276 351Q276 330 268 312T246 279T214 257T174 249Q153 249 134 257T102 279T80 312T72 352Q72 373 80 391T102 423T135 445T176 453ZM157 -7Q124 4 105 29T86 89Q86 131 114 159T185 188Q228 188 256 160T284 90Q284 70 278 53T256 15L146 -133H67L157 -7Z"  />
<glyph unicode="&lt;" horiz-adv-x="573" d="M533 111L40 290V343L533 521V461L129 317L533 171V111Z"  />
<glyph unicode="=" horiz-adv-x="573" d="M40 407H533V347H40V407ZM40 287H533V227H40V287Z"  />
<glyph unicode="&gt;" horiz-adv-x="573" d="M39 171L443 317L39 461V521L532 343V290L39 111V171Z"  />
<glyph unicode="?" horiz-adv-x="488" d="M262 176Q281 176 297 169T326 148T346 118T354 82Q354 62 347 45T327 16T297 -4T260 -12Q240 -12 223 -5T194 15T174 45T166 83Q166 102 173 119T194 149T224 169T262 176ZM149 641Q168 641 184 634T213 613T233 583T241 547Q241 527 234 510T214 481T184 461T147 453Q127 453 110 460T81 480T61 510T53 548Q53 567 60 584T81 614T111 634T149 641ZM260 548Q260 567 258 581T251 606T236 626T212 646Q229 652 239 654T263 656Q306 656 342 640T405 594T446 524T461 436Q461 382 442 337T385 259Q357 236 329 226T260 214V548Z"  />
<glyph unicode="@" horiz-adv-x="695" d="M396 348H552L491 66Q516 71 538 86T576 123T602 173T612 229Q612 276 592 318T539 392T460 442T363 461Q304 461 254 439T166 379T107 290T85 179Q85 120 107 69T166 -20T255 -80T365 -102Q398 -102 431 -94T494 -70T549 -33T591 13V-69Q495 -159 364 -159Q294 -159 233 -133T126 -61T54 46T27 179Q27 250 53 312T125 419T232 491T364 518Q427 518 482 496T579 435T645 345T669 235Q669 192 656 155T618 89T558 39T479 8H323L396 348ZM288 1Q279 0 271 0T257 0Q203 0 170 32T137 118Q137 162 152 208T193 284Q219 316 256 333T337 350Q341 350 348 350T363 349L288 1Z"  />
<glyph unicode="A" horiz-adv-x="550" d="M144 564L198 285H253L174 667H424L557 0H308L262 230H209L253 0H-7L144 564Z"  />
<glyph unicode="B" horiz-adv-x="575" d="M47 667H283V0H47V667ZM324 667H358Q446 667 497 625T549 512Q549 412 456 378Q435 370 415 365T356 355Q384 350 405 346T441 335T469 321T494 301Q521 276 535 243T549 171Q549 133 535 100T493 43Q465 19 434 10T351 0H324V667Z"  />
<glyph unicode="C" horiz-adv-x="586" d="M27 337Q27 425 55 498T135 613Q154 628 172 638T210 655T255 664T312 667V0Q284 0 264 1T226 7T194 17T163 34Q98 74 63 151T27 330V337ZM318 667H540V422L318 667ZM540 254V0H320L540 254Z"  />
<glyph unicode="D" horiz-adv-x="625" d="M47 667H283V0H47V667ZM325 667Q365 666 396 661T454 644T501 615T541 572Q573 529 591 466T609 334Q609 249 584 179T514 66Q496 48 477 36T436 16T386 5T325 0V667Z"  />
<glyph unicode="E" horiz-adv-x="593" d="M47 667H290V0H47V667ZM305 667H546V404L305 667ZM546 298V0H301L546 298ZM302 340L452 489V199L302 340Z"  />
<glyph unicode="F" horiz-adv-x="572" d="M47 667H290V0H47V667ZM315 667H549V398L315 667ZM303 342L463 480V202L303 342Z"  />
<glyph unicode="G" horiz-adv-x="634" d="M27 332Q27 524 141 611Q160 625 177 635T214 652T256 662T308 668V-10Q288 -9 273 -7T245 -3T221 4T198 13Q27 91 27 327V332ZM325 667H568V408L325 667ZM347 321H593Q594 307 594 297T594 277Q594 119 513 45Q496 30 480 20T444 3T401 -7T347 -10V321Z"  />
<glyph unicode="H" horiz-adv-x="637" d="M47 667H290V386H347V667H590V0H347V330H290V0H47V667Z"  />
<glyph unicode="I" horiz-adv-x="337" d="M47 667H290V0H47V667Z"  />
<glyph unicode="J" horiz-adv-x="537" d="M247 667H490V227Q490 117 433 57Q401 24 352 6T243 -13Q235 -13 222 -13T191 -10Q210 1 220 12T239 41Q244 52 245 68T247 120V667ZM108 225Q155 225 185 193T215 109Q215 56 186 23T108 -10Q60 -10 30 23T0 107Q0 132 8 154T30 191T64 216T108 225Z"  />
<glyph unicode="K" horiz-adv-x="634" d="M47 667H290V0H47V667ZM330 667H627L343 368L634 0H330V667Z"  />
<glyph unicode="L" horiz-adv-x="513" d="M47 667H290V0H47V667ZM513 325V0H302L513 325Z"  />
<glyph unicode="M" horiz-adv-x="798" d="M125 436L235 0H0L125 436ZM144 533L177 667H348L517 0H278L144 533ZM427 524L464 667H629L798 0H561L427 524Z"  />
<glyph unicode="N" horiz-adv-x="618" d="M47 489L265 0H47V489ZM47 608V667H307L572 51V0H312L47 608ZM355 667H572V172L355 667Z"  />
<glyph unicode="O" horiz-adv-x="649" d="M302 -10Q280 -9 264 -8T234 -4T208 3T184 14Q27 95 27 334Q27 433 52 501T129 616Q148 632 166 643T204 662T248 672T302 677V-10ZM347 677Q368 676 384 675T414 671T439 664T463 654Q622 576 622 334Q622 234 598 167T519 51Q499 33 482 22T444 3T401 -7T347 -10V677Z"  />
<glyph unicode="P" horiz-adv-x="626" d="M54 667H297V0H54V667ZM339 667H415Q458 667 493 653T553 613T591 551T605 470Q605 425 592 389T553 326T493 286T415 272H339V667Z"  />
<glyph unicode="Q" horiz-adv-x="647" d="M302 -14Q281 -14 265 -13T235 -8T210 -1T185 10Q108 49 68 131T27 332Q27 526 132 616Q169 648 207 661T302 677V-14ZM343 677Q369 676 388 674T424 667T454 655T485 637Q527 610 551 578T593 497Q606 459 613 417T620 332Q620 243 595 172T522 56Q506 41 490 31T456 12T416 -3T365 -14L550 -185H343V677Z"  />
<glyph unicode="R" horiz-adv-x="631" d="M47 667H290V0H47V667ZM332 667H381Q472 667 524 621T577 495Q577 420 532 376T408 332Q397 332 382 332T350 335L625 0H332V667Z"  />
<glyph unicode="S" horiz-adv-x="570" d="M50 328L312 0H50V328ZM100 372Q67 413 55 443T42 511Q42 546 55 579T92 635Q132 670 203 670Q214 670 224 670T251 667Q234 651 229 642T223 622Q223 610 228 601T251 568L487 265Q504 244 514 215T524 159Q524 124 513 95T480 43T430 9T367 -3Q359 -3 346 -3T318 0Q333 11 339 20T345 41Q345 63 325 88L100 372ZM258 667H505V357L258 667Z"  />
<glyph unicode="T" horiz-adv-x="565" d="M0 667H151L0 364V667ZM160 667H403V0H160V667ZM414 667H565V381L414 667Z"  />
<glyph unicode="U" horiz-adv-x="623" d="M47 667H290V-10Q252 -9 225 -6T177 3T140 19T109 45Q91 63 79 80T60 120T50 171T47 239V667ZM577 667V239Q577 209 576 188T571 150T563 120T551 92Q514 23 444 2Q424 -4 400 -6T334 -10V667H577Z"  />
<glyph unicode="V" horiz-adv-x="580" d="M-7 667H250L421 129L381 0H204L-7 667ZM296 667H587L442 203L296 667Z"  />
<glyph unicode="W" horiz-adv-x="784" d="M556 667H791L666 231L556 667ZM273 667H513L646 134L614 0H442L273 667ZM-7 667H230L363 143L327 0H161L-7 667Z"  />
<glyph unicode="X" horiz-adv-x="538" d="M115 271L231 0H-4L115 271ZM-7 667H258L541 0H277L-7 667ZM306 667H544L426 394L306 667Z"  />
<glyph unicode="Y" horiz-adv-x="563" d="M178 263L-7 667H255L421 299V0H178V263ZM301 667H569L442 360L301 667Z"  />
<glyph unicode="Z" horiz-adv-x="692" d="M104 667H344L103 229L104 667ZM394 667H668L305 0H23L394 667ZM607 460L609 0H354L607 460Z"  />
<glyph unicode="[" horiz-adv-x="387" d="M87 667H240V-156H87V667ZM274 29L387 -156H274V29ZM274 667H387L274 482V667Z"  />
<glyph unicode="\" horiz-adv-x="530" d="M19 680H92L583 -129H510L19 680Z"  />
<glyph unicode="]" horiz-adv-x="387" d="M147 667H300V-156H147V667ZM0 667H113V482L0 667ZM113 29V-156H0L113 29Z"  />
<glyph unicode="^" horiz-adv-x="573" d="M390 317L284 611L179 317H119L258 700H311L450 317H390Z"  />
<glyph unicode="_" horiz-adv-x="500" d="M0 -45H500V-165H0V-45Z"  />
<glyph unicode="`" horiz-adv-x="500" d="M132 687H299V503L132 687Z"  />
<glyph unicode="a" horiz-adv-x="503" d="M238 0Q206 -3 190 -3Q158 -3 131 3T84 20Q58 36 43 66T27 131Q27 173 46 204T103 251Q122 259 139 261T187 264Q195 264 207 264T238 263V0ZM155 484Q174 484 191 476T222 455T243 424T251 386Q251 345 223 317T153 288Q112 288 84 316T55 387Q55 407 62 425T83 456T115 476T155 484ZM276 384Q276 419 266 439T228 477Q251 483 264 485T298 487Q376 487 421 452T466 357V0H276V384Z"  />
<glyph unicode="b" horiz-adv-x="518" d="M40 667H230V2H40V667ZM270 486Q281 487 288 487T303 487Q342 487 377 472T438 429Q464 400 479 351T495 242Q495 127 444 62T301 -3Q296 -3 289 -3T270 -2V486Z"  />
<glyph unicode="c" horiz-adv-x="501" d="M461 80Q435 55 412 38T364 10T314 -6T259 -11Q209 -11 167 8T94 62T45 142T27 243Q27 299 45 347T96 426Q127 455 159 466T244 477V48Q252 46 257 46T269 46Q293 46 319 52T365 71Q378 78 389 87T412 108T435 136T461 173V80ZM252 477H461V260L252 477Z"  />
<glyph unicode="d" d="M292 667H482V0H292V667ZM250 0Q236 -1 224 -1T204 -2Q119 -2 67 76Q45 109 36 146T27 239Q27 275 30 303T40 355T60 397T91 434Q142 486 211 486L250 485V0Z"  />
<glyph unicode="e" horiz-adv-x="496" d="M462 83Q411 32 366 10T266 -12Q242 -12 218 -7T170 7T127 28T92 56Q61 86 44 133T27 233Q27 290 47 343T103 433Q117 448 131 458T160 474T195 483T240 487V42Q254 39 263 38T280 37Q308 37 339 51T399 91Q417 107 430 124T462 171V83ZM279 487Q326 486 354 476T406 442Q419 429 429 411T447 370T459 325T463 278Q463 272 463 265T462 247H279V487Z"  />
<glyph unicode="f" horiz-adv-x="345" d="M70 423H23V477H68Q68 572 96 615Q111 638 137 654T183 671Q190 671 195 670Q140 637 140 580Q140 560 148 541T171 508T203 486T243 477H338V423H259V0H70V423ZM257 679Q275 679 290 672T317 653T336 626T343 592Q343 555 318 530T256 504Q219 504 194 529T168 592Q168 628 194 653T257 679Z"  />
<glyph unicode="g" horiz-adv-x="527" d="M257 27Q233 27 217 28T188 31T166 36T143 46Q88 71 58 125T27 252Q27 324 57 378T143 458Q155 464 165 467T188 473T216 476T257 477V27ZM298 477H488V-10Q488 -88 441 -135Q415 -161 378 -175T302 -190Q294 -190 283 -190T257 -187Q280 -164 289 -143T298 -93V477ZM168 11Q188 11 205 3T236 -18T258 -50T266 -89Q266 -131 237 -160T166 -189Q145 -189 127 -181T95 -160T74 -128T66 -88Q66 -67 74 -49T95 -18T128 3T168 11Z"  />
<glyph unicode="h" horiz-adv-x="496" d="M40 667H230V0H40V667ZM269 477H330Q393 477 426 442T459 338V0H269V477Z"  />
<glyph unicode="i" horiz-adv-x="283" d="M53 477H243V0H53V477ZM142 677Q185 677 213 652T241 588Q241 569 233 553T212 524T180 505T140 498Q119 498 101 505T69 524T48 554T40 590Q40 627 69 652T142 677Z"  />
<glyph unicode="j" horiz-adv-x="282" d="M142 677Q185 677 213 652T241 588Q241 569 233 553T212 524T180 505T140 498Q119 498 101 505T69 524T48 554T40 590Q40 627 69 652T142 677ZM52 477H242V-10Q242 -96 178 -145Q155 -164 125 -174T66 -185H52V477Z"  />
<glyph unicode="k" horiz-adv-x="541" d="M40 667H230V0H40V667ZM271 477H509L310 250L541 0H271V477Z"  />
<glyph unicode="l" horiz-adv-x="270" d="M40 667H230V0H40V667Z"  />
<glyph unicode="m" horiz-adv-x="735" d="M40 477H230V0H40V477ZM273 477H463V0H273V477ZM505 477H579Q631 477 663 444Q682 425 688 403T695 338V0H505V477Z"  />
<glyph unicode="n" horiz-adv-x="497" d="M40 477H230V0H40V477ZM270 477H339Q395 477 427 446T460 361V0H270V477Z"  />
<glyph unicode="o" horiz-adv-x="549" d="M254 -10Q233 -10 218 -9T189 -5T163 3T137 17Q27 82 27 235Q27 303 48 355T112 441Q128 454 142 463T173 477T209 484T254 487V-10ZM296 487Q352 487 388 473T458 423Q523 356 523 235Q523 98 435 32Q419 20 404 12T373 -1T339 -8T296 -10V487Z"  />
<glyph unicode="p" horiz-adv-x="521" d="M40 477H230V-193H40V477ZM271 478Q282 479 289 479T304 479Q343 479 378 464T439 421Q465 392 480 343T495 234Q495 163 476 111T421 30Q370 -11 304 -11Q299 -11 291 -11T271 -10V478Z"  />
<glyph unicode="q" horiz-adv-x="521" d="M292 477H482V-193H292V477ZM252 -10Q238 -11 232 -11T218 -11Q174 -11 139 6T78 55T40 132T27 234Q27 348 74 410Q98 443 135 461T217 480Q223 480 232 480T252 478V-10Z"  />
<glyph unicode="r" horiz-adv-x="433" d="M40 477H230V0H40V477ZM338 489Q357 489 373 482T402 461T422 431T430 395Q430 375 423 358T403 329T373 309T336 301Q316 301 299 308T270 328T250 358T242 396Q242 415 249 432T270 462T300 482T338 489Z"  />
<glyph unicode="s" horiz-adv-x="451" d="M51 209L248 0H51V209ZM78 240Q61 258 49 286T36 338Q36 377 51 409T96 459Q106 465 113 468T129 474T148 476T175 477Q160 463 160 450Q160 437 175 421L374 216Q402 187 413 163T424 107Q424 54 392 25T301 -4Q291 -4 282 -3T255 0Q263 8 266 12T269 25Q269 33 265 42T255 57L78 240ZM182 477H395V263L182 477Z"  />
<glyph unicode="t" horiz-adv-x="352" d="M77 420H17L267 677V477H342V420H267V0H77V420Z"  />
<glyph unicode="u" horiz-adv-x="496" d="M37 477H230V-10Q205 -10 188 -9T157 -6T132 -1T109 9Q75 26 56 60T37 140V477ZM271 477H460V140Q460 89 436 53T369 1Q359 -2 350 -4T330 -8T305 -9T271 -10V477Z"  />
<glyph unicode="v" horiz-adv-x="445" d="M-13 477H197L332 131L286 0H169L-13 477ZM238 477H459L351 186L238 477Z"  />
<glyph unicode="w" horiz-adv-x="665" d="M-13 477H191L303 153L249 0H149L-13 477ZM236 477H439L552 145L501 0H395L236 477ZM479 477H678L573 202L479 477Z"  />
<glyph unicode="x" horiz-adv-x="477" d="M107 190L214 0H-3L107 190ZM-7 477H214L484 0H259L-7 477ZM261 477H464L362 294L261 477Z"  />
<glyph unicode="y" horiz-adv-x="490" d="M161 74L-13 477H199L353 122V-193H161V74ZM241 477H504L375 165L241 477Z"  />
<glyph unicode="z" horiz-adv-x="544" d="M68 477H247L68 179V477ZM297 477H527L241 0H10L297 477ZM489 329V0H290L489 329Z"  />
<glyph unicode="{" horiz-adv-x="377" d="M77 135L0 256L77 377V494Q77 563 119 610Q142 634 166 646T230 667V383Q230 345 213 317T153 256Q196 223 213 195T230 129V-155Q191 -147 167 -135T119 -98Q77 -51 77 18V135ZM264 29L377 -156H264V29ZM264 667H377L264 482V667Z"  />
<glyph unicode="|" horiz-adv-x="500" d="M145 667H354V-167H145V667Z"  />
<glyph unicode="}" horiz-adv-x="377" d="M147 129Q147 167 164 195T224 256Q181 289 164 317T147 383V667Q186 659 210 647T258 610Q300 563 300 494V377L377 256L300 135V18Q300 -51 258 -98Q235 -122 211 -134T147 -155V129ZM0 667H113V482L0 667ZM113 29V-156H0L113 29Z"  />
<glyph unicode="~" horiz-adv-x="573" d="M568 736Q542 690 499 660T402 630Q363 630 336 641T284 665T235 689T173 700Q154 700 138 694T109 679T84 658T64 635L6 666Q19 686 37 704T76 737T122 759T175 768Q214 768 240 757T290 733T338 709T400 698Q419 698 435 705T464 722T487 743T503 763L568 736Z"  />
<glyph unicode="&#xA0;" horiz-adv-x="300" />
<glyph unicode="&#xA1;" horiz-adv-x="337" d="M139 450Q158 450 175 443T204 422T224 392T232 356Q232 336 225 319T205 289T175 269T138 261Q98 261 71 288T43 356Q43 375 50 392T71 422T101 442T139 450ZM136 254L232 -193H38L136 254Z"  />
<glyph unicode="&#xA2;" horiz-adv-x="573" d="M487 140Q461 115 438 98T390 70T340 54T285 49Q235 49 193 68T120 121T71 201T53 302Q53 359 71 407T122 486Q153 514 185 525T270 537V108Q278 106 283 106T295 106Q354 106 398 135T487 233V140ZM278 537H487V320L278 537ZM268 671H314V564H268V671ZM268 27H314V-80H268V27Z"  />
<glyph unicode="&#xA3;" horiz-adv-x="573" d="M46 304H27V361H46V431Q46 485 65 526T123 594Q153 615 195 627T279 639Q287 639 303 637T338 632Q306 617 295 602T283 560V0H46V304ZM319 361H505V304H319V361ZM417 637Q438 637 456 630T488 609T510 578T518 540Q518 520 510 502T488 471T455 450T415 442Q394 442 375 449T342 470T320 502T312 541Q312 582 342 609T417 637ZM543 276V0H299L543 276Z"  />
<glyph unicode="&#xA4;" horiz-adv-x="573" d="M56 128L118 190Q101 216 94 245T86 313Q86 352 94 383T120 442L56 505L99 548L161 485Q174 494 186 500T210 509T236 514T269 516V116Q250 116 236 117T210 122T186 132T160 147L99 86L56 128ZM414 147Q399 138 388 132T364 123T338 118T305 116V516Q324 516 338 515T364 510T387 500T413 485L475 548L518 505L454 442Q471 414 479 383T488 313Q488 239 456 190L518 128L475 86L414 147Z"  />
<glyph unicode="&#xA5;" horiz-adv-x="573" d="M183 197H74V252H183L140 344H51V399H115L3 639H258L420 286V252H517V197H420V0H183V197ZM302 639H563L462 399H528V344H439L302 639Z"  />
<glyph unicode="&#xA6;" horiz-adv-x="500" d="M145 667H354V301H145V667ZM145 153H354V-167H145V153Z"  />
<glyph unicode="&#xA7;" horiz-adv-x="573" d="M123 157Q102 177 89 205T76 260Q76 355 157 390L417 140Q433 124 444 111T461 86T470 60T473 30Q473 -21 440 -50T345 -79Q340 -79 330 -79T308 -77Q316 -69 318 -64T321 -52Q321 -44 317 -35T306 -20L123 157ZM157 448Q140 464 130 477T113 502T104 528T101 558Q101 609 135 638T229 667Q234 667 244 667T266 665Q254 653 254 640Q254 632 258 623T269 608L451 431Q472 411 485 383T498 329Q498 232 417 198L157 448ZM96 128L295 -77H96V128ZM279 664H469V476L279 664Z"  />
<glyph unicode="&#xA8;" horiz-adv-x="500" d="M153 686Q171 686 186 679T214 660T233 632T240 598Q240 580 233 564T214 535T186 516T152 509Q114 509 89 535T63 598Q63 635 89 660T153 686ZM349 686Q367 686 382 679T410 660T429 632T436 598Q436 580 429 564T410 535T382 516T348 509Q310 509 285 535T259 598Q259 635 285 660T349 686Z"  />
<glyph unicode="&#xA9;" horiz-adv-x="740" d="M175 336Q175 396 199 443T265 513Q276 519 286 523T307 529T333 532T367 533V133Q347 133 333 134T308 137T286 143T265 154Q223 177 199 224T175 331V336ZM377 533H532V377L377 533ZM529 295V133H375L529 295ZM376 677Q445 677 506 650T614 576T687 466T714 333Q714 262 687 200T614 91T505 17T371 -10Q300 -10 238 17T128 90T54 199T27 333Q27 405 54 468T128 577T239 650T376 677ZM375 627Q314 627 261 605T169 542T107 449T84 333Q84 273 106 220T168 126T259 63T371 40Q430 40 482 63T573 125T634 218T657 333Q657 393 635 446T574 540T484 603T375 627Z"  />
<glyph unicode="&#xAA;" horiz-adv-x="329" d="M149 266Q141 265 135 265T126 265Q75 265 48 286T21 347Q21 386 47 407T123 429Q130 429 135 429T149 428V266ZM100 555Q123 555 139 539T156 499Q156 475 140 459T100 442Q76 442 60 458T43 499Q43 522 59 538T100 555ZM175 496Q175 529 150 555Q164 558 172 559T193 560Q243 560 272 539T301 480V266H175V496Z"  />
<glyph unicode="&#xAB;" horiz-adv-x="425" d="M217 260L385 437V82L217 260ZM27 260L196 437V79L27 260Z"  />
<glyph unicode="&#xAC;" horiz-adv-x="573" d="M40 347H533V70H473V287H40V347Z"  />
<glyph unicode="&#xAD;" horiz-adv-x="287" d="M33 331H253V182H33V331Z"  />
<glyph unicode="&#xAE;" horiz-adv-x="386" d="M104 603H184V409H104V603ZM197 603H214Q243 603 260 590T277 553Q277 530 263 517T222 504Q220 504 217 504T208 505L291 409H197V603ZM196 673Q230 673 259 660T311 624T347 571T360 506Q360 471 347 441T312 389T259 353T194 340Q159 340 129 353T76 388T40 441T27 506Q27 541 40 571T76 624T130 660T196 673ZM196 649Q166 649 141 638T96 608T66 562T55 506Q55 477 66 451T95 406T139 375T194 364Q222 364 247 375T291 405T321 450T332 506Q332 535 321 561T292 606T249 637T196 649Z"  />
<glyph unicode="&#xAF;" horiz-adv-x="500" d="M99 647H401V549H99V647Z"  />
<glyph unicode="&#xB0;" horiz-adv-x="367" d="M185 643Q217 643 245 631T294 597T327 548T340 487Q340 454 328 426T294 376T245 343T183 330Q151 330 123 342T73 376T40 425T27 486Q27 519 39 547T73 597T123 631T185 643Z"  />
<glyph unicode="&#xB1;" horiz-adv-x="573" d="M257 328H40V388H257V563H317V388H533V328H317V153H257V328ZM40 120H533V60H40V120Z"  />
<glyph unicode="&#xB2;" horiz-adv-x="389" d="M50 375H327V267H50V375ZM104 645Q133 645 153 624T174 573Q174 542 154 521T103 500Q72 500 51 521T29 573Q29 603 51 624T104 645ZM194 571Q194 626 152 648Q165 650 176 651T194 652Q258 652 297 615T337 519Q337 461 298 427T194 392Q186 392 173 392T145 395Q174 406 184 420T194 462V571Z"  />
<glyph unicode="&#xB3;" horiz-adv-x="390" d="M200 412Q200 437 192 445T158 454Q156 454 153 454T144 453V483Q177 483 188 491T200 525V592Q200 615 192 628T165 651Q179 653 190 654T209 655Q236 655 259 648T299 628T325 598T335 562Q335 540 323 521T292 491Q285 488 279 485T266 480T248 475T222 469Q254 464 269 460T300 447Q323 436 336 416T349 369Q349 321 309 293T202 264Q186 264 165 267Q184 279 192 293T200 332V412ZM114 399Q140 399 159 380T178 333Q178 305 159 286T113 267Q85 267 66 286T46 333Q46 361 66 380T114 399ZM118 652Q143 652 160 634T178 590Q178 564 161 546T117 527Q91 527 72 545T53 590Q53 616 72 634T118 652Z"  />
<glyph unicode="&#xB4;" horiz-adv-x="500" d="M201 687H368L201 503V687Z"  />
<glyph unicode="&#xB5;" horiz-adv-x="493" d="M274 477H463V140Q463 89 439 53T372 1Q362 -2 353 -4T333 -8T308 -9T274 -10V477ZM40 477H233V-10Q233 -95 168 -145Q144 -164 114 -174T54 -185H40V477Z"  />
<glyph unicode="&#xB6;" horiz-adv-x="573" d="M287 667H388V-133H287V667ZM210 272Q167 272 132 286T72 326T34 388T20 469Q20 513 34 549T73 612T133 652T210 667H246V272H210ZM430 667H531V-133H430V667Z"  />
<glyph unicode="&#xB7;" horiz-adv-x="271" d="M137 349Q157 349 175 341T207 319T229 287T237 247Q237 226 229 208T207 175T175 153T135 145Q114 145 95 153T63 175T41 208T33 248Q33 269 41 287T63 319T96 341T137 349Z"  />
<glyph unicode="&#xB8;" horiz-adv-x="500" d="M177 -38H344L177 -215V-38Z"  />
<glyph unicode="&#xB9;" horiz-adv-x="389" d="M133 538L79 511V550L286 661V267H133V538Z"  />
<glyph unicode="&#xBA;" horiz-adv-x="358" d="M165 261Q131 261 109 268T64 296Q21 336 21 408Q21 491 75 533Q95 549 114 554T165 560V261ZM193 560Q228 560 251 552T295 522Q337 481 337 408Q337 325 281 286Q260 272 242 267T193 261V560Z"  />
<glyph unicode="&#xBB;" horiz-adv-x="425" d="M40 437L208 260L40 82V437ZM230 437L399 260L230 79V437Z"  />
<glyph unicode="&#xBC;" horiz-adv-x="856" d="M116 538L62 511V550L269 661V267H116V538ZM578 667H648L237 0H168L578 667ZM602 369V89H446L602 369ZM632 380H776V128H835V89H776V0H632V380Z"  />
<glyph unicode="&#xBD;" horiz-adv-x="850" d="M116 538L62 511V550L269 661V267H116V538ZM578 667H648L237 0H168L578 667ZM494 108H771V0H494V108ZM548 378Q577 378 597 357T618 306Q618 275 598 254T547 233Q516 233 495 254T473 306Q473 336 495 357T548 378ZM638 304Q638 359 596 381Q609 383 620 384T638 385Q702 385 741 348T781 252Q781 194 742 160T638 125Q630 125 617 125T589 128Q618 139 628 153T638 195V304Z"  />
<glyph unicode="&#xBE;" horiz-adv-x="857" d="M200 412Q200 435 191 444T157 454Q155 454 152 454T144 453V483Q176 483 188 492T200 525V592Q200 634 164 651Q178 653 189 654T209 655Q235 655 258 648T298 628T324 598T334 562Q334 541 322 522T291 491Q278 484 265 480T222 469Q254 464 269 460T299 447Q322 436 335 415T349 369Q349 322 309 293T202 264Q192 264 184 264T165 267Q200 289 200 332V412ZM114 399Q140 399 159 380T178 333Q178 305 159 286T113 267Q85 267 66 286T46 333Q46 361 66 380T114 399ZM118 652Q143 652 160 634T178 590Q178 564 161 546T117 527Q91 527 72 545T53 590Q53 616 72 634T118 652ZM597 667H666L255 0H186L597 667ZM604 369V89H448L604 369ZM633 380H777V128H836V89H777V0H633V380Z"  />
<glyph unicode="&#xBF;" horiz-adv-x="488" d="M231 451Q250 451 266 444T295 423T315 393T323 357Q323 337 316 320T296 291T266 271T229 263Q209 263 192 270T163 290T143 320T135 358Q135 377 142 394T163 424T193 444T231 451ZM345 -2Q364 -2 380 -9T409 -30T429 -60T437 -96Q437 -116 430 -133T410 -162T380 -182T343 -190Q323 -190 306 -183T277 -163T257 -133T249 -95Q249 -76 256 -59T277 -29T307 -9T345 -2ZM228 -95Q228 -134 237 -154T276 -194Q258 -200 247 -202T222 -204Q180 -204 145 -187T83 -141T42 -71T27 17Q27 71 46 116T103 193Q131 216 159 226T228 238V-95Z"  />
<glyph unicode="&#xC0;" horiz-adv-x="550" d="M144 564L198 285H253L174 667H424L557 0H308L262 230H209L253 0H-7L144 564ZM169 877H336V693L169 877Z"  />
<glyph unicode="&#xC1;" horiz-adv-x="550" d="M144 564L198 285H253L174 667H424L557 0H308L262 230H209L253 0H-7L144 564ZM238 877H405L238 693V877Z"  />
<glyph unicode="&#xC2;" horiz-adv-x="550" d="M144 564L198 285H253L174 667H424L557 0H308L262 230H209L253 0H-7L144 564ZM291 870L447 720H126L291 870Z"  />
<glyph unicode="&#xC3;" horiz-adv-x="550" d="M144 564L198 285H253L174 667H424L557 0H308L262 230H209L253 0H-7L144 564ZM172 718Q152 718 136 707Q135 716 135 723T134 735Q134 761 142 783T166 822T202 848T247 857H400Q411 857 419 859T438 867Q440 856 440 851T440 839Q440 782 410 750T326 718H172Z"  />
<glyph unicode="&#xC4;" horiz-adv-x="550" d="M144 564L198 285H253L174 667H424L557 0H308L262 230H209L253 0H-7L144 564ZM190 876Q208 876 223 869T251 850T270 822T277 788Q277 770 270 754T251 725T223 706T189 699Q151 699 126 725T100 788Q100 825 126 850T190 876ZM386 876Q404 876 419 869T447 850T466 822T473 788Q473 770 466 754T447 725T419 706T385 699Q347 699 322 725T296 788Q296 825 322 850T386 876Z"  />
<glyph unicode="&#xC5;" horiz-adv-x="550" d="M144 564L198 285H253L174 667H424L557 0H308L262 230H209L253 0H-7L144 564ZM289 933Q313 933 334 924T372 898T397 859T407 813Q407 788 398 767T372 729T334 703T287 693Q262 693 240 702T202 728T177 767T167 814Q167 839 176 860T202 898T241 923T289 933Z"  />
<glyph unicode="&#xC6;" horiz-adv-x="830" d="M138 579L195 286H249L171 667H426L556 0H305L260 223H207L249 0H-7L138 579ZM434 667H689L735 430L434 667ZM787 251L836 0H563L787 251ZM492 358L626 493L692 160L492 358Z"  />
<glyph unicode="&#xC7;" horiz-adv-x="586" d="M27 337Q27 425 55 498T135 613Q154 628 172 638T210 655T255 664T312 667V0Q284 0 264 1T226 7T194 17T163 34Q98 74 63 151T27 330V337ZM318 667H540V422L318 667ZM540 254V0H320L540 254ZM257 -18H424L257 -195V-18Z"  />
<glyph unicode="&#xC8;" horiz-adv-x="593" d="M47 667H290V0H47V667ZM305 667H546V404L305 667ZM546 298V0H301L546 298ZM302 340L452 489V199L302 340ZM178 877H345V693L178 877Z"  />
<glyph unicode="&#xC9;" horiz-adv-x="593" d="M47 667H290V0H47V667ZM305 667H546V404L305 667ZM546 298V0H301L546 298ZM302 340L452 489V199L302 340ZM247 877H414L247 693V877Z"  />
<glyph unicode="&#xCA;" horiz-adv-x="593" d="M47 667H290V0H47V667ZM305 667H546V404L305 667ZM546 298V0H301L546 298ZM302 340L452 489V199L302 340ZM300 870L456 720H135L300 870Z"  />
<glyph unicode="&#xCB;" horiz-adv-x="593" d="M47 667H290V0H47V667ZM305 667H546V404L305 667ZM546 298V0H301L546 298ZM302 340L452 489V199L302 340ZM199 876Q217 876 232 869T260 850T279 822T286 788Q286 770 279 754T260 725T232 706T198 699Q160 699 135 725T109 788Q109 825 135 850T199 876ZM395 876Q413 876 428 869T456 850T475 822T482 788Q482 770 475 754T456 725T428 706T394 699Q356 699 331 725T305 788Q305 825 331 850T395 876Z"  />
<glyph unicode="&#xCC;" horiz-adv-x="337" d="M47 667H290V0H47V667ZM51 877H218V693L51 877Z"  />
<glyph unicode="&#xCD;" horiz-adv-x="337" d="M47 667H290V0H47V667ZM120 877H287L120 693V877Z"  />
<glyph unicode="&#xCE;" horiz-adv-x="337" d="M47 667H290V0H47V667ZM173 870L329 720H8L173 870Z"  />
<glyph unicode="&#xCF;" horiz-adv-x="337" d="M81 877Q97 877 111 870T135 851T152 822T158 788Q158 770 152 754T136 726T111 707T80 700Q47 700 24 725T1 789Q1 826 24 851T81 877ZM257 877Q273 877 287 870T311 851T328 823T334 789Q334 771 328 755T312 726T287 707T256 700Q240 700 226 707T201 726T184 754T178 789Q178 826 201 851T257 877ZM47 667H290V0H47V667Z"  />
<glyph unicode="&#xD0;" horiz-adv-x="625" d="M47 329H-5V386H47V667H283V0H47V329ZM325 667Q404 665 453 643T541 572Q573 528 591 466T609 333Q609 249 584 179T514 65Q496 48 477 36T436 16T386 5T325 0V329H418V386H325V667Z"  />
<glyph unicode="&#xD1;" horiz-adv-x="618" d="M47 489L265 0H47V489ZM47 608V667H307L572 51V0H312L47 608ZM355 667H572V172L355 667ZM194 718Q174 718 158 707Q157 716 157 723T156 735Q156 761 164 783T188 822T224 848T269 857H422Q433 857 441 859T460 867Q462 856 462 851T462 839Q462 782 432 750T348 718H194Z"  />
<glyph unicode="&#xD2;" horiz-adv-x="649" d="M302 -10Q280 -9 264 -8T234 -4T208 3T184 14Q27 95 27 334Q27 433 52 501T129 616Q148 632 166 643T204 662T248 672T302 677V-10ZM347 677Q368 676 384 675T414 671T439 664T463 654Q622 576 622 334Q622 234 598 167T519 51Q499 33 482 22T444 3T401 -7T347 -10V677ZM206 877H373V693L206 877Z"  />
<glyph unicode="&#xD3;" horiz-adv-x="649" d="M302 -10Q280 -9 264 -8T234 -4T208 3T184 14Q27 95 27 334Q27 433 52 501T129 616Q148 632 166 643T204 662T248 672T302 677V-10ZM347 677Q368 676 384 675T414 671T439 664T463 654Q622 576 622 334Q622 234 598 167T519 51Q499 33 482 22T444 3T401 -7T347 -10V677ZM275 877H442L275 693V877Z"  />
<glyph unicode="&#xD4;" horiz-adv-x="649" d="M302 -10Q280 -9 264 -8T234 -4T208 3T184 14Q27 95 27 334Q27 433 52 501T129 616Q148 632 166 643T204 662T248 672T302 677V-10ZM347 677Q368 676 384 675T414 671T439 664T463 654Q622 576 622 334Q622 234 598 167T519 51Q499 33 482 22T444 3T401 -7T347 -10V677ZM328 870L484 720H163L328 870Z"  />
<glyph unicode="&#xD5;" horiz-adv-x="649" d="M302 -10Q280 -9 264 -8T234 -4T208 3T184 14Q27 95 27 334Q27 433 52 501T129 616Q148 632 166 643T204 662T248 672T302 677V-10ZM347 677Q368 676 384 675T414 671T439 664T463 654Q622 576 622 334Q622 234 598 167T519 51Q499 33 482 22T444 3T401 -7T347 -10V677ZM209 718Q189 718 173 707Q172 716 172 723T171 735Q171 761 179 783T203 822T239 848T284 857H437Q448 857 456 859T475 867Q477 856 477 851T477 839Q477 782 447 750T363 718H209Z"  />
<glyph unicode="&#xD6;" horiz-adv-x="649" d="M302 -10Q280 -9 264 -8T234 -4T208 3T184 14Q27 95 27 334Q27 433 52 501T129 616Q148 632 166 643T204 662T248 672T302 677V-10ZM347 677Q368 676 384 675T414 671T439 664T463 654Q622 576 622 334Q622 234 598 167T519 51Q499 33 482 22T444 3T401 -7T347 -10V677ZM227 876Q245 876 260 869T288 850T307 822T314 788Q314 770 307 754T288 725T260 706T226 699Q188 699 163 725T137 788Q137 825 163 850T227 876ZM423 876Q441 876 456 869T484 850T503 822T510 788Q510 770 503 754T484 725T456 706T422 699Q384 699 359 725T333 788Q333 825 359 850T423 876Z"  />
<glyph unicode="&#xD7;" horiz-adv-x="573" d="M67 140L244 317L67 494L109 536L286 359L463 536L505 493L329 317L505 140L463 97L286 274L109 97L67 140Z"  />
<glyph unicode="&#xD8;" horiz-adv-x="649" d="M302 -10Q280 -9 264 -8T234 -4T208 3T184 14Q27 95 27 334Q27 433 52 501T129 616Q148 632 166 643T204 662T248 672T302 677V-10ZM347 677Q368 676 384 675T414 671T439 664T463 654Q622 576 622 334Q622 234 598 167T519 51Q499 33 482 22T444 3T401 -7T347 -10V677ZM302 815H345V697H302V815ZM302 -32H345V-151H302V-32Z"  />
<glyph unicode="&#xD9;" horiz-adv-x="623" d="M47 667H290V-10Q252 -9 225 -6T177 3T140 19T109 45Q91 63 79 80T60 120T50 171T47 239V667ZM577 667V239Q577 209 576 188T571 150T563 120T551 92Q514 23 444 2Q424 -4 400 -6T334 -10V667H577ZM193 877H360V693L193 877Z"  />
<glyph unicode="&#xDA;" horiz-adv-x="623" d="M47 667H290V-10Q252 -9 225 -6T177 3T140 19T109 45Q91 63 79 80T60 120T50 171T47 239V667ZM577 667V239Q577 209 576 188T571 150T563 120T551 92Q514 23 444 2Q424 -4 400 -6T334 -10V667H577ZM262 877H429L262 693V877Z"  />
<glyph unicode="&#xDB;" horiz-adv-x="623" d="M47 667H290V-10Q252 -9 225 -6T177 3T140 19T109 45Q91 63 79 80T60 120T50 171T47 239V667ZM577 667V239Q577 209 576 188T571 150T563 120T551 92Q514 23 444 2Q424 -4 400 -6T334 -10V667H577ZM315 870L471 720H150L315 870Z"  />
<glyph unicode="&#xDC;" horiz-adv-x="623" d="M47 667H290V-10Q252 -9 225 -6T177 3T140 19T109 45Q91 63 79 80T60 120T50 171T47 239V667ZM577 667V239Q577 209 576 188T571 150T563 120T551 92Q514 23 444 2Q424 -4 400 -6T334 -10V667H577ZM214 876Q232 876 247 869T275 850T294 822T301 788Q301 770 294 754T275 725T247 706T213 699Q175 699 150 725T124 788Q124 825 150 850T214 876ZM410 876Q428 876 443 869T471 850T490 822T497 788Q497 770 490 754T471 725T443 706T409 699Q371 699 346 725T320 788Q320 825 346 850T410 876Z"  />
<glyph unicode="&#xDD;" horiz-adv-x="563" d="M178 263L-7 667H255L421 299V0H178V263ZM301 667H569L442 360L301 667ZM232 877H399L232 693V877Z"  />
<glyph unicode="&#xDE;" horiz-adv-x="626" d="M54 667H297V0H54V667ZM339 550H415Q458 550 493 536T553 496T591 434T605 353Q605 309 592 273T553 210T493 170T415 156H339V550Z"  />
<glyph unicode="&#xDF;" horiz-adv-x="496" d="M40 477Q40 513 52 551T83 612Q106 640 141 655T219 671Q228 671 242 670T272 667Q230 643 230 598V0H40V477ZM334 670Q350 670 364 664T389 646T406 621T413 590Q413 556 390 533T333 509Q299 509 276 532T252 590Q252 623 275 646T334 670ZM272 477Q283 478 292 478T307 478Q379 478 416 445T453 345Q453 300 433 268T377 220Q369 217 362 215T345 213T317 212T272 211V477ZM272 188H289Q366 188 410 160Q441 140 459 98T478 4Q478 -54 456 -97T393 -160Q370 -171 346 -175T285 -179Q284 -179 281 -179T272 -178V188Z"  />
<glyph unicode="&#xE0;" horiz-adv-x="503" d="M238 0Q206 -3 190 -3Q158 -3 131 3T84 20Q58 36 43 66T27 131Q27 173 46 204T103 251Q122 259 139 261T187 264Q195 264 207 264T238 263V0ZM155 484Q174 484 191 476T222 455T243 424T251 386Q251 345 223 317T153 288Q112 288 84 316T55 387Q55 407 62 425T83 456T115 476T155 484ZM276 384Q276 419 266 439T228 477Q251 483 264 485T298 487Q376 487 421 452T466 357V0H276V384ZM141 687H308V503L141 687Z"  />
<glyph unicode="&#xE1;" horiz-adv-x="503" d="M238 0Q206 -3 190 -3Q158 -3 131 3T84 20Q58 36 43 66T27 131Q27 173 46 204T103 251Q122 259 139 261T187 264Q195 264 207 264T238 263V0ZM155 484Q174 484 191 476T222 455T243 424T251 386Q251 345 223 317T153 288Q112 288 84 316T55 387Q55 407 62 425T83 456T115 476T155 484ZM276 384Q276 419 266 439T228 477Q251 483 264 485T298 487Q376 487 421 452T466 357V0H276V384ZM210 687H377L210 503V687Z"  />
<glyph unicode="&#xE2;" horiz-adv-x="503" d="M238 0Q206 -3 190 -3Q158 -3 131 3T84 20Q58 36 43 66T27 131Q27 173 46 204T103 251Q122 259 139 261T187 264Q195 264 207 264T238 263V0ZM155 484Q174 484 191 476T222 455T243 424T251 386Q251 345 223 317T153 288Q112 288 84 316T55 387Q55 407 62 425T83 456T115 476T155 484ZM276 384Q276 419 266 439T228 477Q251 483 264 485T298 487Q376 487 421 452T466 357V0H276V384ZM263 680L419 530H98L263 680Z"  />
<glyph unicode="&#xE3;" horiz-adv-x="503" d="M238 0Q206 -3 190 -3Q158 -3 131 3T84 20Q58 36 43 66T27 131Q27 173 46 204T103 251Q122 259 139 261T187 264Q195 264 207 264T238 263V0ZM155 484Q174 484 191 476T222 455T243 424T251 386Q251 345 223 317T153 288Q112 288 84 316T55 387Q55 407 62 425T83 456T115 476T155 484ZM276 384Q276 419 266 439T228 477Q251 483 264 485T298 487Q376 487 421 452T466 357V0H276V384ZM144 528Q124 528 108 517Q107 526 107 533T106 545Q106 571 114 593T138 632T174 658T219 667H372Q383 667 391 669T410 677Q412 666 412 661T412 649Q412 592 382 560T298 528H144Z"  />
<glyph unicode="&#xE4;" horiz-adv-x="503" d="M238 0Q206 -3 190 -3Q158 -3 131 3T84 20Q58 36 43 66T27 131Q27 173 46 204T103 251Q122 259 139 261T187 264Q195 264 207 264T238 263V0ZM155 484Q174 484 191 476T222 455T243 424T251 386Q251 345 223 317T153 288Q112 288 84 316T55 387Q55 407 62 425T83 456T115 476T155 484ZM276 384Q276 419 266 439T228 477Q251 483 264 485T298 487Q376 487 421 452T466 357V0H276V384ZM162 686Q180 686 195 679T223 660T242 632T249 598Q249 580 242 564T223 535T195 516T161 509Q123 509 98 535T72 598Q72 635 98 660T162 686ZM358 686Q376 686 391 679T419 660T438 632T445 598Q445 580 438 564T419 535T391 516T357 509Q319 509 294 535T268 598Q268 635 294 660T358 686Z"  />
<glyph unicode="&#xE5;" horiz-adv-x="503" d="M238 0Q206 -3 190 -3Q158 -3 131 3T84 20Q58 36 43 66T27 131Q27 173 46 204T103 251Q122 259 139 261T187 264Q195 264 207 264T238 263V0ZM155 484Q174 484 191 476T222 455T243 424T251 386Q251 345 223 317T153 288Q112 288 84 316T55 387Q55 407 62 425T83 456T115 476T155 484ZM276 384Q276 419 266 439T228 477Q251 483 264 485T298 487Q376 487 421 452T466 357V0H276V384ZM261 743Q285 743 306 734T344 708T369 669T379 623Q379 598 370 577T344 539T306 513T259 503Q234 503 212 512T174 538T149 577T139 624Q139 649 148 670T174 708T213 733T261 743Z"  />
<glyph unicode="&#xE6;" horiz-adv-x="741" d="M240 -1Q225 -2 212 -2T191 -2Q144 -2 114 8T61 42Q27 78 27 132Q27 196 77 235Q100 252 125 258T191 265L240 264V-1ZM156 485Q176 485 193 477T224 456T245 425T253 387Q253 345 225 317T155 288Q113 288 85 316T56 387Q56 408 63 425T84 456T116 477T156 485ZM278 386Q278 418 268 437T231 477Q258 483 273 485T307 487Q335 487 354 483T403 466Q415 472 424 476T442 482T463 486T490 487V45Q511 42 521 42Q550 42 582 54T640 87Q661 103 676 120T708 168V82Q624 -11 517 -11Q500 -11 486 -9T448 0H278V386ZM531 487H546Q624 487 666 431T708 271V246H531V487Z"  />
<glyph unicode="&#xE7;" horiz-adv-x="501" d="M461 80Q435 55 412 38T364 10T314 -6T259 -11Q209 -11 167 8T94 62T45 142T27 243Q27 299 45 347T96 426Q127 455 159 466T244 477V48Q252 46 257 46T269 46Q293 46 319 52T365 71Q378 78 389 87T412 108T435 136T461 173V80ZM252 477H461V260L252 477ZM178 -38H345L178 -215V-38Z"  />
<glyph unicode="&#xE8;" horiz-adv-x="496" d="M462 83Q411 32 366 10T266 -12Q242 -12 218 -7T170 7T127 28T92 56Q61 86 44 133T27 233Q27 290 47 343T103 433Q117 448 131 458T160 474T195 483T240 487V42Q254 39 263 38T280 37Q308 37 339 51T399 91Q417 107 430 124T462 171V83ZM279 487Q326 486 354 476T406 442Q419 429 429 411T447 370T459 325T463 278Q463 272 463 265T462 247H279V487ZM128 687H295V503L128 687Z"  />
<glyph unicode="&#xE9;" horiz-adv-x="496" d="M462 83Q411 32 366 10T266 -12Q242 -12 218 -7T170 7T127 28T92 56Q61 86 44 133T27 233Q27 290 47 343T103 433Q117 448 131 458T160 474T195 483T240 487V42Q254 39 263 38T280 37Q308 37 339 51T399 91Q417 107 430 124T462 171V83ZM279 487Q326 486 354 476T406 442Q419 429 429 411T447 370T459 325T463 278Q463 272 463 265T462 247H279V487ZM197 687H364L197 503V687Z"  />
<glyph unicode="&#xEA;" horiz-adv-x="496" d="M462 83Q411 32 366 10T266 -12Q242 -12 218 -7T170 7T127 28T92 56Q61 86 44 133T27 233Q27 290 47 343T103 433Q117 448 131 458T160 474T195 483T240 487V42Q254 39 263 38T280 37Q308 37 339 51T399 91Q417 107 430 124T462 171V83ZM279 487Q326 486 354 476T406 442Q419 429 429 411T447 370T459 325T463 278Q463 272 463 265T462 247H279V487ZM250 680L406 530H85L250 680Z"  />
<glyph unicode="&#xEB;" horiz-adv-x="496" d="M462 83Q411 32 366 10T266 -12Q242 -12 218 -7T170 7T127 28T92 56Q61 86 44 133T27 233Q27 290 47 343T103 433Q117 448 131 458T160 474T195 483T240 487V42Q254 39 263 38T280 37Q308 37 339 51T399 91Q417 107 430 124T462 171V83ZM279 487Q326 486 354 476T406 442Q419 429 429 411T447 370T459 325T463 278Q463 272 463 265T462 247H279V487ZM149 686Q167 686 182 679T210 660T229 632T236 598Q236 580 229 564T210 535T182 516T148 509Q110 509 85 535T59 598Q59 635 85 660T149 686ZM345 686Q363 686 378 679T406 660T425 632T432 598Q432 580 425 564T406 535T378 516T344 509Q306 509 281 535T255 598Q255 635 281 660T345 686Z"  />
<glyph unicode="&#xEC;" horiz-adv-x="283" d="M53 477H243V0H53V477ZM31 687H198V503L31 687Z"  />
<glyph unicode="&#xED;" horiz-adv-x="283" d="M53 477H243V0H53V477ZM100 687H267L100 503V687Z"  />
<glyph unicode="&#xEE;" horiz-adv-x="283" d="M53 477H243V0H53V477ZM153 680L309 530H-12L153 680Z"  />
<glyph unicode="&#xEF;" horiz-adv-x="283" d="M61 687Q93 687 115 661T138 597Q138 579 132 563T116 535T91 516T60 509Q27 509 4 534T-19 598Q-19 635 4 661T61 687ZM237 687Q269 687 291 661T314 598Q314 580 308 564T292 535T267 516T236 509Q220 509 206 516T181 535T164 563T158 599Q158 636 181 661T237 687ZM53 477H243V0H53V477Z"  />
<glyph unicode="&#xF0;" horiz-adv-x="549" d="M296 448Q286 461 280 469T268 485T255 499T238 517L191 470L151 510L198 557Q181 575 167 588T140 614T111 638T77 667H388L346 626Q371 599 390 578T423 539T448 504T468 469Q494 420 508 359T523 237Q523 98 435 32Q419 20 404 12T373 -1T339 -8T296 -10V448ZM254 -10Q233 -10 217 -9T188 -5T163 2T137 15Q27 74 27 215Q27 341 112 405Q128 417 142 425T173 437T209 444T254 447V-10Z"  />
<glyph unicode="&#xF1;" horiz-adv-x="497" d="M40 477H230V0H40V477ZM270 477H339Q395 477 427 446T460 361V0H270V477ZM135 528Q115 528 99 517Q98 526 98 533T97 545Q97 571 105 593T129 632T165 658T210 667H363Q374 667 382 669T401 677Q403 666 403 661T403 649Q403 592 373 560T289 528H135Z"  />
<glyph unicode="&#xF2;" horiz-adv-x="549" d="M254 -10Q233 -10 218 -9T189 -5T163 3T137 17Q27 82 27 235Q27 303 48 355T112 441Q128 454 142 463T173 477T209 484T254 487V-10ZM296 487Q352 487 388 473T458 423Q523 356 523 235Q523 98 435 32Q419 20 404 12T373 -1T339 -8T296 -10V487ZM156 687H323V503L156 687Z"  />
<glyph unicode="&#xF3;" horiz-adv-x="549" d="M254 -10Q233 -10 218 -9T189 -5T163 3T137 17Q27 82 27 235Q27 303 48 355T112 441Q128 454 142 463T173 477T209 484T254 487V-10ZM296 487Q352 487 388 473T458 423Q523 356 523 235Q523 98 435 32Q419 20 404 12T373 -1T339 -8T296 -10V487ZM225 687H392L225 503V687Z"  />
<glyph unicode="&#xF4;" horiz-adv-x="549" d="M254 -10Q233 -10 218 -9T189 -5T163 3T137 17Q27 82 27 235Q27 303 48 355T112 441Q128 454 142 463T173 477T209 484T254 487V-10ZM296 487Q352 487 388 473T458 423Q523 356 523 235Q523 98 435 32Q419 20 404 12T373 -1T339 -8T296 -10V487ZM278 680L434 530H113L278 680Z"  />
<glyph unicode="&#xF5;" horiz-adv-x="549" d="M254 -10Q233 -10 218 -9T189 -5T163 3T137 17Q27 82 27 235Q27 303 48 355T112 441Q128 454 142 463T173 477T209 484T254 487V-10ZM296 487Q352 487 388 473T458 423Q523 356 523 235Q523 98 435 32Q419 20 404 12T373 -1T339 -8T296 -10V487ZM159 528Q139 528 123 517Q122 526 122 533T121 545Q121 571 129 593T153 632T189 658T234 667H387Q398 667 406 669T425 677Q427 666 427 661T427 649Q427 592 397 560T313 528H159Z"  />
<glyph unicode="&#xF6;" horiz-adv-x="549" d="M254 -10Q233 -10 218 -9T189 -5T163 3T137 17Q27 82 27 235Q27 303 48 355T112 441Q128 454 142 463T173 477T209 484T254 487V-10ZM296 487Q352 487 388 473T458 423Q523 356 523 235Q523 98 435 32Q419 20 404 12T373 -1T339 -8T296 -10V487ZM177 686Q195 686 210 679T238 660T257 632T264 598Q264 580 257 564T238 535T210 516T176 509Q138 509 113 535T87 598Q87 635 113 660T177 686ZM373 686Q391 686 406 679T434 660T453 632T460 598Q460 580 453 564T434 535T406 516T372 509Q334 509 309 535T283 598Q283 635 309 660T373 686Z"  />
<glyph unicode="&#xF7;" horiz-adv-x="573" d="M288 549Q316 549 336 529T356 481Q356 452 336 432T288 412Q259 412 239 432T219 481Q219 510 239 529T288 549ZM287 219Q315 219 334 199T354 151Q354 123 334 103T286 83Q258 83 238 103T218 151Q218 180 238 199T287 219ZM40 347H533V287H40V347Z"  />
<glyph unicode="&#xF8;" horiz-adv-x="550" d="M254 -10Q233 -10 218 -9T189 -5T163 3T137 17Q27 82 27 235Q27 303 48 355T112 441Q128 454 142 463T173 477T209 484T254 487V-10ZM297 487Q353 487 389 473T459 423Q524 356 524 235Q524 98 436 32Q420 20 405 12T374 -1T340 -8T297 -10V487ZM253 -27H299V-135H253V-27ZM253 613H299V506H253V613Z"  />
<glyph unicode="&#xF9;" horiz-adv-x="496" d="M37 477H230V-10Q205 -10 188 -9T157 -6T132 -1T109 9Q75 26 56 60T37 140V477ZM271 477H460V140Q460 89 436 53T369 1Q359 -2 350 -4T330 -8T305 -9T271 -10V477ZM131 687H298V503L131 687Z"  />
<glyph unicode="&#xFA;" horiz-adv-x="496" d="M37 477H230V-10Q205 -10 188 -9T157 -6T132 -1T109 9Q75 26 56 60T37 140V477ZM271 477H460V140Q460 89 436 53T369 1Q359 -2 350 -4T330 -8T305 -9T271 -10V477ZM200 687H367L200 503V687Z"  />
<glyph unicode="&#xFB;" horiz-adv-x="496" d="M37 477H230V-10Q205 -10 188 -9T157 -6T132 -1T109 9Q75 26 56 60T37 140V477ZM271 477H460V140Q460 89 436 53T369 1Q359 -2 350 -4T330 -8T305 -9T271 -10V477ZM253 680L409 530H88L253 680Z"  />
<glyph unicode="&#xFC;" horiz-adv-x="496" d="M37 477H230V-10Q205 -10 188 -9T157 -6T132 -1T109 9Q75 26 56 60T37 140V477ZM271 477H460V140Q460 89 436 53T369 1Q359 -2 350 -4T330 -8T305 -9T271 -10V477ZM152 686Q170 686 185 679T213 660T232 632T239 598Q239 580 232 564T213 535T185 516T151 509Q113 509 88 535T62 598Q62 635 88 660T152 686ZM348 686Q366 686 381 679T409 660T428 632T435 598Q435 580 428 564T409 535T381 516T347 509Q309 509 284 535T258 598Q258 635 284 660T348 686Z"  />
<glyph unicode="&#xFD;" horiz-adv-x="490" d="M161 74L-13 477H199L353 122V-193H161V74ZM241 477H504L375 165L241 477ZM197 687H364L197 503V687Z"  />
<glyph unicode="&#xFE;" horiz-adv-x="521" d="M40 667H230V-193H40V667ZM271 478Q282 479 289 479T304 479Q343 479 378 464T439 421Q465 392 480 343T495 234Q495 163 476 111T421 30Q370 -11 304 -11Q299 -11 291 -11T271 -10V478Z"  />
<glyph unicode="&#xFF;" horiz-adv-x="490" d="M161 74L-13 477H199L353 122V-193H161V74ZM241 477H504L375 165L241 477ZM149 686Q167 686 182 679T210 660T229 632T236 598Q236 580 229 564T210 535T182 516T148 509Q110 509 85 535T59 598Q59 635 85 660T149 686ZM345 686Q363 686 378 679T406 660T425 632T432 598Q432 580 425 564T406 535T378 516T344 509Q306 509 281 535T255 598Q255 635 281 660T345 686Z"  />
<glyph unicode="&#x131;" horiz-adv-x="283" d="M53 477H243V0H53V477Z"  />
<glyph unicode="&#x152;" horiz-adv-x="895" d="M27 342Q27 532 136 620Q152 633 168 642T205 656T250 663T310 667V0Q269 1 240 4T187 17T145 40T107 76Q65 123 46 181T27 325V342ZM351 667H594V0H351V667ZM601 667H840V400L601 667ZM849 293V0H607L849 293ZM604 336L754 486V192L604 336Z"  />
<glyph unicode="&#x153;" horiz-adv-x="803" d="M254 -10Q233 -10 218 -9T189 -5T163 3T137 17Q27 82 27 235Q27 303 48 355T112 441Q128 454 142 463T173 477T209 484T254 487V-10ZM296 487Q378 484 426 454Q445 468 476 476T547 487V44Q557 43 564 43T575 42Q610 42 644 55T707 94Q722 108 734 124T769 174V85Q729 38 678 13T571 -12Q533 -12 497 -1T435 31Q412 18 395 10T361 -2T330 -8T296 -10V487ZM587 487Q638 486 669 474T725 431Q745 407 757 365T770 280Q770 274 770 268T769 251H587V487Z"  />
<glyph unicode="&#x160;" horiz-adv-x="570" d="M50 328L312 0H50V328ZM100 372Q67 413 55 443T42 511Q42 546 55 579T92 635Q132 670 203 670Q214 670 224 670T251 667Q234 651 229 642T223 622Q223 610 228 601T251 568L487 265Q504 244 514 215T524 159Q524 124 513 95T480 43T430 9T367 -3Q359 -3 346 -3T318 0Q333 11 339 20T345 41Q345 63 325 88L100 372ZM258 667H505V357L258 667ZM124 857H445L289 707L124 857Z"  />
<glyph unicode="&#x161;" horiz-adv-x="451" d="M51 209L248 0H51V209ZM78 240Q61 258 49 286T36 338Q36 377 51 409T96 459Q106 465 113 468T129 474T148 476T175 477Q160 463 160 450Q160 437 175 421L374 216Q402 187 413 163T424 107Q424 54 392 25T301 -4Q291 -4 282 -3T255 0Q263 8 266 12T269 25Q269 33 265 42T255 57L78 240ZM182 477H395V263L182 477ZM70 667H391L235 517L70 667Z"  />
<glyph unicode="&#x178;" horiz-adv-x="563" d="M178 263L-7 667H255L421 299V0H178V263ZM301 667H569L442 360L301 667ZM184 876Q202 876 217 869T245 850T264 822T271 788Q271 770 264 754T245 725T217 706T183 699Q145 699 120 725T94 788Q94 825 120 850T184 876ZM380 876Q398 876 413 869T441 850T460 822T467 788Q467 770 460 754T441 725T413 706T379 699Q341 699 316 725T290 788Q290 825 316 850T380 876Z"  />
<glyph unicode="&#x17D;" horiz-adv-x="692" d="M104 667H344L103 229L104 667ZM394 667H668L305 0H23L394 667ZM607 460L609 0H354L607 460ZM209 857H530L374 707L209 857Z"  />
<glyph unicode="&#x17E;" horiz-adv-x="544" d="M68 477H247L68 179V477ZM297 477H527L241 0H10L297 477ZM489 329V0H290L489 329ZM132 667H453L297 517L132 667Z"  />
<glyph unicode="&#x192;" horiz-adv-x="573" d="M190 423H144L153 477H199Q208 527 220 560T252 615Q261 626 273 636T299 654T324 666T346 671Q349 671 353 670Q325 647 313 626T301 578Q301 533 333 504Q346 492 361 485T388 477H468L458 423H380L302 -10Q294 -52 272 -86T213 -145Q186 -164 155 -174T94 -185H80L190 423ZM416 679Q434 679 449 672T476 653T495 626T502 592Q502 555 477 530T415 504Q378 504 353 529T327 592Q327 628 353 653T416 679Z"  />
<glyph unicode="&#x2C6;" horiz-adv-x="500" d="M254 680L410 530H89L254 680Z"  />
<glyph unicode="&#x2C7;" horiz-adv-x="500" d="M89 667H410L254 517L89 667Z"  />
<glyph unicode="&#x2DA;" horiz-adv-x="500" d="M252 743Q276 743 297 734T335 708T360 669T370 623Q370 598 361 577T335 539T297 513T250 503Q225 503 203 512T165 538T140 577T130 624Q130 649 139 670T165 708T204 733T252 743Z"  />
<glyph unicode="&#x2DC;" horiz-adv-x="500" d="M135 528Q115 528 99 517Q98 526 98 533T97 545Q97 571 105 593T129 632T165 658T210 667H363Q374 667 382 669T401 677Q403 666 403 661T403 649Q403 592 373 560T289 528H135Z"  />
<glyph unicode="&#x2013;" horiz-adv-x="490" d="M33 331H456V182H33V331Z"  />
<glyph unicode="&#x2014;" horiz-adv-x="1000" d="M33 331H967V182H33V331Z"  />
<glyph unicode="&#x2018;" horiz-adv-x="264" d="M155 677H231L147 568Q223 550 223 488Q223 469 216 452T196 423T166 403T129 396Q88 396 61 423T33 492Q33 531 64 568L155 677Z"  />
<glyph unicode="&#x2019;" horiz-adv-x="264" d="M117 504Q41 522 41 584Q41 623 68 650T135 677Q176 677 203 650T231 581Q231 542 200 504L108 395H33L117 504Z"  />
<glyph unicode="&#x201A;" horiz-adv-x="284" d="M123 -7Q90 4 71 29T52 89Q52 131 80 159T151 188Q194 188 222 160T250 90Q250 70 244 53T222 15L112 -133H33L123 -7Z"  />
<glyph unicode="&#x201C;" horiz-adv-x="473" d="M155 677H231L147 568Q223 550 223 488Q223 469 216 452T196 423T166 403T129 396Q88 396 61 423T33 492Q33 531 64 568L155 677ZM364 677H439L355 568Q431 550 431 488Q431 469 424 452T404 423T374 403T337 396Q296 396 269 423T241 492Q241 530 272 568L364 677Z"  />
<glyph unicode="&#x201D;" horiz-adv-x="473" d="M117 504Q41 522 41 584Q41 623 68 650T135 677Q176 677 203 650T231 581Q231 542 200 504L108 395H33L117 504ZM326 504Q249 522 249 584Q249 623 276 650T343 677Q384 677 411 650T439 581Q439 541 408 504L317 395H241L326 504Z"  />
<glyph unicode="&#x201E;" horiz-adv-x="473" d="M117 11Q41 29 41 91Q41 110 48 127T68 156T98 176T135 183Q176 183 203 156T231 87Q231 49 200 11L108 -98H33L117 11ZM326 11Q249 29 249 91Q249 110 256 127T276 156T306 176T343 183Q384 183 411 156T439 87Q439 48 408 11L317 -98H241L326 11Z"  />
<glyph unicode="&#x2020;" horiz-adv-x="573" d="M210 420H48V480H210V667H362V-133H210V420ZM392 420V480H525V420H392Z"  />
<glyph unicode="&#x2021;" horiz-adv-x="573" d="M210 200H48V260H210V420H48V480H210V667H362V-133H210V200ZM392 420V480H525V420H392ZM392 200V260H525V200H392Z"  />
<glyph unicode="&#x2022;" horiz-adv-x="667" d="M337 478Q365 478 389 467T432 437T462 393T473 340Q473 311 462 286T433 242T389 212T335 201Q306 201 281 212T237 241T207 285T196 339Q196 368 207 393T237 437T281 467T337 478Z"  />
<glyph unicode="&#x2026;" horiz-adv-x="812" d="M137 199Q157 199 175 191T207 169T229 137T237 97Q237 76 229 58T207 25T175 3T135 -5Q114 -5 95 3T63 25T41 58T33 98Q33 119 41 137T63 169T96 191T137 199ZM408 199Q428 199 446 191T478 169T500 137T508 97Q508 76 500 58T478 25T446 3T406 -5Q385 -5 366 3T334 25T312 58T304 98Q304 119 312 137T334 169T367 191T408 199ZM678 199Q698 199 716 191T748 169T770 137T778 97Q778 76 770 58T748 25T716 3T676 -5Q655 -5 636 3T604 25T582 58T574 98Q574 119 582 137T604 169T637 191T678 199Z"  />
<glyph unicode="&#x2030;" horiz-adv-x="1150" d="M548 667H618L207 0H138L548 667ZM164 305Q127 307 105 314T62 338Q33 362 17 402T0 489Q0 535 16 574T59 637Q79 654 102 661T164 671V305ZM197 671Q234 667 254 661T294 640Q324 617 342 576T360 487Q360 440 343 400T294 335Q274 319 253 313T197 305V671ZM567 0Q530 2 508 9T465 33Q436 58 420 98T403 185Q403 230 419 269T462 332Q482 349 505 356T567 366V0ZM600 366Q635 365 656 359T697 337Q760 287 760 183Q760 79 697 30Q677 14 656 8T600 0V366ZM957 0Q920 2 898 9T855 33Q826 58 810 98T793 185Q793 230 809 269T852 332Q872 349 895 356T957 366V0ZM990 366Q1025 365 1046 359T1087 337Q1150 287 1150 183Q1150 79 1087 30Q1067 14 1046 8T990 0V366Z"  />
<glyph unicode="&#x2039;" horiz-adv-x="236" d="M27 260L196 437V79L27 260Z"  />
<glyph unicode="&#x203A;" horiz-adv-x="236" d="M40 437L209 260L40 79V437Z"  />
<glyph unicode="&#x20AC;" horiz-adv-x="573" d="M9 304H47V342H9V399H53Q64 459 90 507T155 587Q174 602 192 612T230 628T275 636T332 639V0Q304 0 284 1T246 6T214 16T183 33Q130 64 97 119T52 246H9V304ZM338 639H560V472L338 639ZM560 167V0H340L560 167ZM349 304H525V246H349V304ZM349 399H525V342H349V399Z"  />
<glyph unicode="&#x2122;" horiz-adv-x="755" d="M25 669H110L25 509V669ZM123 669H252V344H123V669ZM266 669H349V516L266 669ZM411 568L470 344H343L411 568ZM419 616L434 669H521L608 344H493L419 616ZM561 604L578 669H667L755 344H630L561 604Z"  />
<glyph unicode="&#xE300;" horiz-adv-x="500" d="M132 877H299V693L132 877Z"  />
<glyph unicode="&#xE301;" horiz-adv-x="500" d="M201 877H368L201 693V877Z"  />
<glyph unicode="&#xE302;" horiz-adv-x="500" d="M254 870L410 720H89L254 870Z"  />
<glyph unicode="&#xE303;" horiz-adv-x="500" d="M89 857H410L254 707L89 857Z"  />
<glyph unicode="&#xE304;" horiz-adv-x="500" d="M135 718Q115 718 99 707Q98 716 98 723T97 735Q97 761 105 783T129 822T165 848T210 857H363Q374 857 382 859T401 867Q403 856 403 851T403 839Q403 782 373 750T289 718H135Z"  />
<glyph unicode="&#xE305;" horiz-adv-x="500" d="M153 876Q171 876 186 869T214 850T233 822T240 788Q240 770 233 754T214 725T186 706T152 699Q114 699 89 725T63 788Q63 825 89 850T153 876ZM349 876Q367 876 382 869T410 850T429 822T436 788Q436 770 429 754T410 725T382 706T348 699Q310 699 285 725T259 788Q259 825 285 850T349 876Z"  />
<glyph unicode="&#xE308;" horiz-adv-x="500" d="M252 933Q276 933 297 924T335 898T360 859T370 813Q370 788 361 767T335 729T297 703T250 693Q225 693 203 702T165 728T140 767T130 814Q130 839 139 860T165 898T204 923T252 933Z"  />

</font>
</defs>
</svg>
