<?xml  version="1.0" encoding="UTF-8"?>
<!DOCTYPE svg PUBLIC "-//W3C//DTD SVG 1.0//EN" "http://www.w3.org/TR/2001/REC-SVG-20010904/DTD/svg10.dtd" >
<svg xmlns="http://www.w3.org/2000/svg" >
<metadata>
<version>1.0</version>
<id><![CDATA[Centaur W01 Italic]]></id>
<vendor>Monotype Imaging Inc.</vendor>
<credits>
<name>Fonts.com WebFonts</name>
<URL>http://webfonts.fonts.com</URL>
<role>Home of the Web fonts</role>
</credits>
<license>
<URL>http://webfonts.fonts.com/Legal</URL>
</license>
<copyright><![CDATA[Font software Copyright 1991, 2002 Adobe Systems Incorporated. Type design Copyright 1990, 2002 The Monotype Corporation. All rights reserved.]]></copyright>
<trademark><![CDATA[Centaur is a registered trademark of The Monotype Corporation in the United States and/or other countries.]]></trademark>
<licensee>
<name></name>
</licensee>
</metadata>
<defs >
<font horiz-adv-x="443" id="7476db00-038f-4fa6-822a-03300fce0ffb">
<font-face font-family="" panose-1="2 2 5 3 5 4 5 9 3 4" ascent="821" descent="-283" units-per-em="1000" alphabetic="0">
</font-face>
<missing-glyph horiz-adv-x="240" />

<glyph unicode="&#xA;" />
<glyph unicode="&#xD;" horiz-adv-x="240" />
<glyph unicode=" " horiz-adv-x="240" />
<glyph unicode="!" horiz-adv-x="167" d="M136 256Q133 249 130 232T124 205Q116 203 114 203H110Q106 203 103 205L152 493Q152 494 154 508T160 541T166 576T170 598Q170 615 175 618T194 624Q196 624 202 625T214 628T226 630T232 631Q235 631 235 626Q235 625 229 601T214 546T199 489T189 455L153 325L136 256ZM51 24Q51 39 56 49T69 67T83 78T93 82Q105 82 112 66T120 35Q120 33 117 26T107 10T93 -4T76 -10Q67 -10 62 -6T54 5T52 16T51 24Z"  />
<glyph unicode="&quot;" horiz-adv-x="448" d="M155 335L172 471Q176 502 180 529T191 576T212 608T247 620Q270 620 278 607T286 582Q286 559 280 544T269 522L176 335H155ZM367 335L384 471Q388 502 392 529T403 576T424 608T459 620Q482 620 490 607T498 582Q498 559 492 544T481 522L388 335H367Z"  />
<glyph unicode="#" horiz-adv-x="667" d="M62 502H237L283 719H328L282 502H520L565 719H611L565 502H676V456H556L512 244H676V198H502L458 -18H412L457 198H218L175 -18H128L173 198H62V244H183L227 456H62V502ZM511 456H272L228 244H467L511 456Z"  />
<glyph unicode="$" horiz-adv-x="479" d="M355 662H374L364 610Q374 609 387 607T418 598T456 580T501 548Q498 545 493 536T481 516T468 495T458 478L444 485Q446 491 447 496T448 509Q448 543 422 564T360 592L312 359Q348 332 373 311T415 271T439 230T447 179Q447 158 439 126T407 65T344 17T239 1L225 -72H205L220 3Q166 13 133 41T70 108Q73 113 79 124T91 147T103 171T112 189L124 181Q120 170 120 157Q120 146 129 123T150 79Q168 48 188 38T225 23L282 302Q262 316 241 332T203 369T175 413T163 468Q163 499 176 525T214 571T272 601T345 611L355 662ZM341 593Q317 593 294 587T253 569T224 539T213 495Q213 458 234 431T296 372L341 593ZM243 21Q300 18 332 34T381 73T401 116T405 142Q405 163 396 183T372 221T338 256T298 289L243 21Z"  />
<glyph unicode="%" horiz-adv-x="792" d="M171 429Q171 395 179 377T198 349T219 338T232 336Q256 336 277 358T315 415T341 489T351 564Q351 577 349 592T340 621T322 642T293 651Q259 651 236 626T199 565T178 492T171 429ZM697 668H728L187 -8H156L697 668ZM538 102Q538 68 546 50T564 22T585 11T598 9Q622 9 643 31T681 88T707 162T717 237Q717 250 715 265T706 294T688 315T659 324Q625 324 602 299T565 238T544 165T538 102ZM399 540Q399 503 389 464T357 393T306 340T236 319Q204 319 183 333T148 367T129 412T123 458Q123 490 133 526T164 594T214 647T286 668Q325 668 348 652T382 615T396 572T399 540ZM765 213Q765 176 755 137T723 66T672 13T603 -8Q571 -8 549 6T514 40T496 85T490 131Q490 163 500 199T530 267T581 320T652 341Q691 341 714 325T748 288T762 245T765 213Z"  />
<glyph unicode="&amp;" horiz-adv-x="719" d="M336 380Q289 380 252 372T188 345T148 297T133 225Q133 167 158 130T219 72T297 42T371 34Q408 34 439 47T493 80T528 127T541 181Q541 196 537 211T526 246Q498 244 474 242T433 234T405 218T395 191Q395 188 398 182T404 170T410 157T413 148Q413 146 411 141T407 131T402 122T397 118Q391 118 378 129T364 167Q364 198 376 221T400 255Q412 267 432 274T475 284T518 287T548 288Q572 288 599 288T651 293T690 308T706 336Q706 350 694 357Q699 362 706 369T727 376Q735 376 739 373T743 356Q743 328 731 309T698 277T652 258T602 250Q586 249 580 249T559 246Q566 222 567 205T568 181Q568 143 554 114T517 64T469 29T418 7T374 -5T347 -9Q337 -9 314 -7T261 2T199 23T140 60T96 118T79 200Q79 258 101 295T153 353T209 383T248 394V396Q231 402 218 413T196 436T182 458T177 474Q177 498 184 521T212 558Q234 574 258 584T304 599T341 607T361 609Q368 609 377 604T394 591T408 577T415 569Q411 556 407 552T393 547Q390 547 387 547T379 548Q371 559 366 566T354 577T339 582T318 584Q310 584 300 582T279 578T262 572T251 567Q249 565 244 557T234 539T225 519T221 501Q221 490 231 474T258 444Q267 436 279 430T305 419T329 411T347 407L336 380Z"  />
<glyph unicode="&apos;" horiz-adv-x="229" d="M149 335L166 471Q170 502 174 529T185 576T206 608T241 620Q264 620 272 607T280 582Q280 559 274 544T263 522L170 335H149Z"  />
<glyph unicode="(" horiz-adv-x="313" d="M239 -283Q158 -205 120 -111T81 81Q81 115 87 164T108 269T151 384T220 496T321 594T460 667L453 634Q371 601 314 553T219 449T158 336T126 228T112 139T109 85Q109 47 115 6T136 -78T179 -164T247 -250L239 -283Z"  />
<glyph unicode=")" horiz-adv-x="313" d="M114 668Q194 590 233 496T272 303Q272 264 265 212T242 104T197 -10T127 -120T27 -214T-107 -283L-100 -249Q-15 -215 44 -163T141 -54T200 63T230 171T242 256T244 300Q244 334 239 374T218 458T176 545T106 634L114 668Z"  />
<glyph unicode="*" horiz-adv-x="354" d="M131 597Q173 568 198 559T235 546Q259 575 272 606T289 648L306 645Q305 637 305 629T304 607Q304 575 307 559T314 529Q322 528 331 527T355 526Q380 526 398 529T429 534L435 517Q418 509 392 494T339 453Q353 418 370 394T400 355L389 342Q347 371 322 380T285 393Q265 370 253 344T231 291L213 294Q214 302 214 310T215 332Q215 365 213 381T206 410Q198 411 189 412T164 413Q138 413 120 410T90 405L85 422Q128 442 149 459T181 486Q176 498 165 521T119 584L131 597ZM259 533Q233 533 215 514T197 471Q197 441 216 424T260 406Q286 406 304 424T323 470Q323 495 305 514T259 533Z"  />
<glyph unicode="+" horiz-adv-x="667" d="M96 301H352V559H398V301H656V255H398V0H352V255H96V301Z"  />
<glyph unicode="&#x2c;" horiz-adv-x="177" d="M-11 -185Q18 -177 36 -161T66 -125T81 -87T86 -53Q86 -37 82 -28T70 -14T53 -8T36 -5Q36 -3 36 -1T35 3Q52 10 66 25T92 58Q112 42 121 27T130 -14Q130 -34 123 -62T100 -120T55 -172T-17 -205L-11 -185Z"  />
<glyph unicode="-" horiz-adv-x="354" d="M251 205Q264 205 272 205T287 206T298 211T309 222Q315 225 320 233T334 242Q335 242 339 242T350 237Q350 237 344 226T330 200T315 172T305 153Q284 155 251 157T161 159Q131 159 101 156Q98 154 93 149T88 142Q81 135 76 131Q71 126 68 123T62 120Q60 120 56 121T51 125Q51 126 54 131T62 143T70 154T76 162Q89 188 100 197T121 206L251 205Z"  />
<glyph unicode="." horiz-adv-x="188" d="M59 24Q59 39 64 49T77 67T91 78T101 82Q113 82 120 66T128 35Q128 33 125 26T115 10T101 -4T84 -10Q75 -10 70 -6T62 5T60 16T59 24Z"  />
<glyph unicode="/" horiz-adv-x="531" d="M516 742H562L134 -145H89L516 742Z"  />
<glyph unicode="0" horiz-adv-x="480" d="M88 213Q88 255 95 301T117 393T153 479T203 551T267 600T344 619Q384 619 412 600T459 549T485 478T493 399Q493 358 486 312T463 221T427 135T378 62T317 11T246 -8Q211 -8 182 10T132 58T100 129T88 213ZM145 148Q145 122 150 98T167 54T197 22T243 10Q275 10 301 36T350 105T388 199T416 303T433 400T439 475Q439 499 434 522T416 562T386 589T344 600Q306 600 277 573T225 502T187 406T163 303T149 211T145 148Z"  />
<glyph unicode="1" horiz-adv-x="480" d="M208 612H298Q313 612 324 612T346 612T367 614T392 616Q391 610 388 594T380 559T373 527T369 510L297 201Q297 199 292 178T281 129T270 77T263 43Q290 31 319 25T378 14L383 0H274Q266 0 253 0T227 0T201 -1T182 -3Q190 18 198 44T213 97T227 153T240 209L322 569Q307 577 290 582T257 590T226 595T203 597L208 612Z"  />
<glyph unicode="2" horiz-adv-x="480" d="M416 0L140 -1Q105 -1 89 -2T57 -8L63 10Q86 21 113 43T182 111Q238 170 279 215T348 299T388 376T401 457Q401 491 391 516T364 557T326 580T285 588Q271 588 254 583T219 562T185 521T157 451L140 460Q147 491 161 519T197 570T247 605T311 618Q341 618 368 607T418 575T453 525T466 461Q466 428 457 400T429 343T382 283T315 215Q270 171 227 128T141 39Q146 39 158 39T183 39T208 39T223 40L291 42L336 44Q347 45 360 45T387 47T410 49T423 51Q429 54 432 57T439 66L453 68L416 0Z"  />
<glyph unicode="3" horiz-adv-x="480" d="M234 329Q268 341 298 359T350 399T386 446T399 496Q399 528 377 552T316 576Q280 576 255 556T203 507L196 499Q199 521 200 528T210 543Q238 575 273 596T350 618Q394 618 422 593T451 523Q451 496 437 471T405 424T366 386T334 361Q363 359 383 347T416 317T434 280T440 242Q440 193 416 148T353 68T265 12T165 -9Q136 -9 117 -2T87 14T71 34T62 50Q67 52 73 54T87 56Q91 56 99 54Q110 33 132 22T179 10Q210 10 246 26T314 69T366 133T387 212Q387 231 383 250T368 284T336 308T283 318Q272 318 260 316T227 307L234 329Z"  />
<glyph unicode="4" horiz-adv-x="480" d="M76 233Q108 298 152 354T245 456T338 537T418 597Q431 606 439 611T452 620T462 624T473 625L394 315Q394 314 393 309T390 298T387 287T385 281L477 284L466 240L376 238L347 119Q344 105 342 96T336 75T330 47T320 4Q320 3 319 0T318 -5Q298 -6 287 -7T256 -10L320 238L76 233ZM351 361L384 488Q389 507 392 518T397 536T400 547T404 557L402 559Q308 494 237 420T124 276L329 279L351 361Z"  />
<glyph unicode="5" horiz-adv-x="480" d="M254 483Q336 465 386 416T437 292Q437 240 414 187T350 90T255 18T139 -10Q136 -10 127 -10T104 -7T75 0T44 14L45 22Q59 15 72 12T114 8Q184 8 234 34T318 100T367 183T383 264Q383 284 378 308T355 355T303 397T209 428L276 615Q287 613 306 612T346 609Q366 607 384 607T412 606Q420 606 425 606T437 609T453 614T477 624L484 627L447 565L284 570L254 483Z"  />
<glyph unicode="6" horiz-adv-x="480" d="M455 206Q455 166 441 128T400 59T339 10T262 -9Q224 -9 195 7T145 51T114 111T103 179Q103 227 116 278T152 378T206 471T273 547T349 599T430 619Q445 619 460 617T489 610Q488 608 488 606T487 602Q479 602 471 602T456 603Q418 603 380 584T306 527T241 436T191 313L193 311Q197 315 207 323T232 340T267 354T314 360Q344 360 369 349T414 317T444 269T455 206ZM159 136Q159 113 165 91T184 50T215 21T257 9Q293 9 318 31T361 86T386 158T394 232Q394 238 393 256T383 292T357 326T306 341Q300 341 287 340T258 332T224 312T192 276T169 219T159 136Z"  />
<glyph unicode="7" horiz-adv-x="480" d="M279 559Q274 559 264 559T244 559T224 559T211 557Q203 556 200 554T193 545Q191 542 187 535T177 520T168 507T161 501Q159 501 156 503T152 508Q152 510 153 511T154 513Q158 520 164 533T176 561T188 590T197 613Q200 621 202 623T210 626Q213 626 216 625T219 619Q219 614 216 607Q224 606 236 606T256 606H354Q359 606 379 606T424 606T476 608T518 612Q501 580 478 537T430 444T382 342T340 242T310 153T298 85Q298 79 298 69T302 50T312 33T332 25Q327 13 315 2T281 -12Q273 -6 263 4T252 38Q252 68 267 116T304 221T352 334T402 440T442 520T462 558Q448 559 424 559T387 559H279Z"  />
<glyph unicode="8" horiz-adv-x="480" d="M264 339Q224 375 206 407T188 472Q188 499 200 525T233 573T282 606T345 619Q367 619 387 613T422 593T445 561T454 517Q454 474 428 435T336 360Q358 341 377 323T410 285T433 241T442 187Q442 154 429 119T392 56T331 9T246 -9Q208 -9 181 3T135 34T107 79T98 132Q98 177 115 210T158 268T213 310T264 339ZM321 373Q330 378 346 388T379 415T408 457T421 516Q421 555 398 576T340 598Q317 598 298 590T265 568T242 537T234 502Q234 484 241 467T261 434T289 403T321 373ZM279 326Q259 314 234 298T187 259T149 203T134 128Q134 108 139 87T158 49T193 21T248 9Q284 9 311 23T357 60T384 108T393 160Q393 183 384 204T361 243T330 278T297 309L279 326Z"  />
<glyph unicode="9" horiz-adv-x="480" d="M474 428Q474 384 462 335T427 237T375 144T307 66T229 12T143 -8Q124 -8 113 -6T87 0L90 9Q95 7 101 7T118 6Q161 6 201 28T275 90T338 183T386 299L384 301Q368 284 351 274T317 259T287 252T264 250Q234 250 208 261T163 293T133 341T122 402Q122 443 136 482T177 551T238 600T315 619Q347 619 376 605T426 566T461 505T474 428ZM184 372Q184 320 209 295T271 269Q298 269 324 281T371 319T404 382T417 471Q417 490 412 512T396 554T366 587T322 600Q288 600 263 581T220 530T193 457T184 372Z"  />
<glyph unicode=":" horiz-adv-x="188" d="M106 268Q106 283 112 294T126 312T141 323T151 327Q157 327 161 322T169 310T173 294T175 279Q175 277 172 270T162 254T148 240T131 234Q122 234 117 238T109 249T107 260T106 268ZM49 24Q49 39 54 49T67 67T81 78T91 82Q103 82 110 66T118 35Q118 33 115 26T105 10T91 -4T74 -10Q65 -10 60 -6T52 5T50 16T49 24Z"  />
<glyph unicode=";" horiz-adv-x="188" d="M21 -162Q45 -149 58 -131T79 -97T88 -68T90 -51Q90 -35 85 -25T71 -10T54 -2T37 2Q45 10 55 22T77 55Q95 51 105 43T122 23T130 0T132 -21Q132 -40 126 -63T107 -108T75 -149T28 -178L21 -162ZM106 268Q106 283 112 294T126 312T141 323T151 327Q157 327 161 322T169 310T173 294T175 279Q175 277 172 270T162 254T148 240T131 234Q122 234 117 238T109 249T107 260T106 268Z"  />
<glyph unicode="&lt;" horiz-adv-x="667" d="M655 22L97 259V300L655 536V486L157 280L655 72V22Z"  />
<glyph unicode="=" horiz-adv-x="667" d="M97 425H656V379H97V425ZM97 183H656V137H97V183Z"  />
<glyph unicode="&gt;" horiz-adv-x="667" d="M97 536L655 299V258L97 22V72L595 278L97 486V536Z"  />
<glyph unicode="?" horiz-adv-x="323" d="M79 159Q80 182 83 206T100 252T138 292T210 323Q233 329 254 335T290 354T315 385T325 437Q325 452 320 468T305 499T278 522T237 531Q205 531 190 521T168 502L158 503Q157 507 157 515Q157 524 160 533T173 555Q178 562 179 564T182 571Q204 579 219 581T244 584Q268 584 289 576T326 553T352 517T362 469Q362 455 359 438T349 402T336 368T322 340Q302 308 281 298T236 283Q198 274 174 267T135 246T110 213T94 158L79 159ZM49 24Q49 39 54 49T67 67T81 78T91 82Q103 82 110 66T118 35Q118 33 115 26T105 10T91 -4T74 -10Q65 -10 60 -6T52 5T50 16T49 24Z"  />
<glyph unicode="@" horiz-adv-x="979" d="M777 499L716 291Q715 286 712 275T705 250Q688 187 678 150T668 93Q668 89 669 83T675 70T687 59T706 54Q743 54 782 80T853 152T906 260T927 393Q927 462 903 520T835 622T728 689T590 714Q521 714 461 694T351 640T263 558T198 455T157 340T143 218Q143 124 174 47T259 -84T388 -169T551 -199Q605 -199 663 -185T778 -138T884 -50T970 90H1000Q974 10 926 -50T818 -150T688 -210T548 -230Q452 -230 369 -196T225 -101T129 45T94 232Q94 343 133 436T240 597T397 703T587 741Q682 741 752 711T868 630T936 516T959 384Q959 344 951 302T927 218T886 141T830 76T758 32T671 16Q636 16 614 32T592 88Q592 110 594 128T601 162L599 164Q583 144 561 119T513 70T457 32T396 16Q371 16 353 28T324 58T307 97T301 137Q301 178 314 221T349 304T400 381T461 444T525 486T588 502Q622 502 645 486T677 431H679L695 488L777 499ZM594 478Q569 478 544 460T495 414T451 349T416 277T393 208T384 153Q384 126 400 103T444 79Q478 79 515 108T585 183T638 287T659 403Q659 432 643 455T594 478Z"  />
<glyph unicode="A" horiz-adv-x="552" d="M392 237Q383 238 372 238T350 239T332 240T322 240Q310 240 286 240T235 237L199 172Q188 149 177 127T158 87T144 55T138 37Q138 24 155 22T197 18L194 -2Q188 -2 173 -2T139 0Q122 0 106 0T83 1H-2L4 18Q30 19 44 20T69 27T87 45T110 78L135 120L191 220Q192 221 206 244T241 302T291 382T348 472T405 557T456 626H470L450 93Q450 81 450 69T454 46T467 30T494 23Q507 23 522 28T551 38V19Q540 11 523 4T472 -3Q471 -3 464 -3T447 -2T429 -1T417 0H380Q366 0 350 0T306 -2L308 21Q336 22 351 26T373 42T383 74T387 129L392 237ZM405 505L403 507Q387 484 365 450T323 385Q319 379 309 363T288 328T267 293T253 269Q263 267 279 266T326 265Q344 265 359 265T393 268L405 505Z"  />
<glyph unicode="B" horiz-adv-x="500" d="M211 501Q212 505 213 513T216 531T219 548T220 560Q220 570 218 575T206 583T178 587T128 590L131 611H317Q364 611 398 605T461 573Q483 555 493 532T504 483Q504 451 490 427T457 386T416 358T381 339Q419 323 443 302T481 257T500 212T505 172Q505 144 494 114T458 57T393 14T294 -3Q286 -3 267 -2T225 0Q202 2 182 2T154 3Q146 3 127 3T84 2Q61 1 41 1T12 0V22Q20 22 31 22T54 24T74 26T89 31Q94 34 98 38T106 54T116 86T130 139L211 501ZM245 355Q256 353 271 351T304 349Q327 349 351 354T394 372T426 411T439 475Q439 507 427 529T395 563T349 581T296 584L245 355ZM197 133Q195 128 193 119T190 101T187 83T185 68Q185 44 206 32T273 20Q305 20 334 30T386 60T422 106T435 167Q435 205 421 234T384 284T334 316T279 327Q277 327 265 327T238 323L197 133Z"  />
<glyph unicode="C" horiz-adv-x="615" d="M592 131Q585 118 574 92T553 36Q539 30 519 22T472 5T415 -8T354 -14Q297 -14 249 5T165 60T110 142T90 247Q90 316 118 383T197 503T321 589T483 622Q495 622 515 621T561 613T618 592T684 553Q682 547 680 536T675 510T670 481T667 451L643 450V455Q643 506 622 535T572 577T518 594T483 597Q423 597 366 569T265 492T194 380T167 248Q167 188 185 144T232 71T296 28T363 13Q386 13 423 24T498 61Q518 75 533 93T570 142L592 131Z"  />
<glyph unicode="D" horiz-adv-x="667" d="M201 463Q209 500 212 527T216 562Q216 580 202 583T153 588L93 590L97 611H304Q346 611 387 607T466 593T538 566T600 522Q616 507 631 487T659 441T678 384T685 315Q685 268 674 228T643 156T600 98T552 56Q520 34 482 22T405 5T333 -2T274 -3H1V20Q40 19 61 21T95 34T114 71T131 140L201 463ZM224 252Q221 235 215 207T203 149T193 95T188 61Q188 49 193 41T213 29T250 23T309 21Q360 21 410 31T505 82Q548 120 577 183T607 327Q607 371 592 418T542 504T448 566T300 585Q298 577 291 548T276 483T260 416T249 371L224 252Z"  />
<glyph unicode="E" horiz-adv-x="469" d="M173 33L270 31Q283 31 294 31T316 30Q342 30 360 33T394 45T422 70T451 114L466 105Q465 101 462 90T452 64T438 32T419 -2Q410 -1 400 -1T372 1Q355 2 330 2T262 2Q244 2 210 2T138 2T63 0T2 -3L-1 20Q29 23 45 24T70 27T82 30T89 34Q102 44 109 67T124 124L210 492Q211 498 213 508T217 528T220 549T222 564Q222 578 212 582T185 589Q170 591 152 591T102 590L106 612H518Q518 599 517 585T513 558T509 534T505 517H490Q488 537 486 548T482 566T478 575T473 580Q468 583 457 584T431 587T404 588T384 588Q378 588 373 588T360 588T339 587T305 585Q301 574 296 555T285 516T275 480T270 459L247 357Q259 357 279 357T321 358T361 361T384 366Q388 369 392 377T400 394T407 410T411 420H434Q430 409 419 369T395 270H375Q375 271 376 277T378 290T379 303T380 312Q380 327 366 329T305 333L242 334L173 33Z"  />
<glyph unicode="F" horiz-adv-x="469" d="M247 355Q276 354 309 354T369 360Q377 361 381 362T389 366T396 375T405 393Q409 399 409 401H434Q420 363 411 329T395 265H373Q376 273 377 287T379 308Q379 322 368 325T348 329Q339 330 310 330T242 330L181 62Q177 46 176 41T170 26L284 22L278 0Q269 0 255 0T225 1L60 0L9 -1L16 21Q48 21 66 23T95 38T115 79T135 159L207 472Q212 497 216 518Q220 536 223 553T228 577Q219 580 211 582T191 585T165 587T126 589L132 611L538 612Q535 598 534 588T530 569T526 550T521 526H500Q501 548 499 560T486 578T449 585T378 586Q350 586 335 584T311 577T300 563T292 540Q287 524 285 515T280 497T276 481T271 460L247 355Z"  />
<glyph unicode="G" horiz-adv-x="615" d="M630 187Q616 182 608 179T595 173T588 165T584 155L572 107Q571 104 570 97T568 87Q568 80 571 79T577 77Q578 77 583 78T596 84L594 64Q547 32 487 9T359 -15Q305 -15 257 1T171 51T111 137T89 260Q89 336 115 402T190 517T306 595T458 624Q504 624 543 616T611 596T656 572T673 554Q673 554 670 538T662 503T654 468T649 451H628Q629 489 618 516T585 561T534 587T469 596Q383 596 325 563T231 479T180 369T164 258Q164 207 180 163T226 85T298 33T392 14Q427 14 448 21T486 38Q487 40 487 43T489 49L505 114Q506 118 509 131T512 149Q512 162 498 162Q494 162 482 161T455 157T428 154T412 152L414 173Q447 178 471 181T520 189T570 197T632 207L630 187Z"  />
<glyph unicode="H" horiz-adv-x="688" d="M563 306Q527 308 497 309T439 311T383 312T324 312Q309 312 300 312T283 312T263 312T233 311L203 174Q201 171 199 159T193 131T187 96T181 62T177 36T175 24Q190 22 200 22T220 20T240 19T265 18L259 -1Q245 0 232 0T204 1Q190 2 175 2T142 2Q102 2 67 1T13 -3L16 18Q51 20 67 23T94 35Q100 41 106 61T120 106T132 155T141 193L209 500Q209 500 210 508T214 526T218 546T220 559Q220 576 203 583T133 590L136 609H184Q189 609 201 609T226 608T250 608T267 607Q324 607 381 610L377 591Q349 590 333 588T306 579T290 556T278 513L270 480L240 339L364 336Q381 336 410 336T470 335Q502 335 529 335T570 337L598 459Q599 466 602 481T608 511T613 541T616 560Q616 579 599 585T535 590L538 609H734Q744 609 753 609T771 611V592Q745 592 728 590T699 574T678 531T659 447L616 250Q611 230 605 199T592 136T580 74T574 27Q589 25 599 24T619 23T639 21T664 19L660 0Q632 2 602 2T543 3Q535 3 515 3T472 1Q449 0 432 0T414 -1L417 18Q445 20 462 23T489 36T507 69T523 131L563 306Z"  />
<glyph unicode="I" horiz-adv-x="313" d="M198 104Q193 84 192 75T191 58Q191 51 193 44T202 32T224 23T265 19Q280 19 291 22T316 32L326 22Q313 13 298 5T250 -3Q243 -3 225 -2T186 0Q166 2 148 2T121 3Q115 3 101 3T71 2T41 2T21 1L27 21Q53 21 69 22T97 30T114 48T125 84L226 532Q230 547 230 552T231 559Q231 568 229 573T217 582T190 586T140 589L146 611Q161 610 180 610T218 609T254 608T282 608Q288 608 303 608T336 609T368 609T389 610L388 589Q358 589 341 587T315 578T302 559T293 524L198 104Z"  />
<glyph unicode="J" horiz-adv-x="271" d="M183 116Q163 24 144 -42T98 -154T31 -227T-69 -270L-109 -216L-87 -211Q-79 -219 -67 -228T-39 -237Q-29 -237 -15 -229T15 -204T44 -160T68 -94Q77 -57 82 -35T91 0T96 22T100 41L196 491Q198 502 201 520T204 555Q204 567 202 573T190 582T164 586T117 587L118 610H356L351 589Q329 588 315 587T292 576T277 549T264 496L183 116Z"  />
<glyph unicode="K" horiz-adv-x="635" d="M211 488Q219 521 221 536T224 562Q224 571 215 576T194 585T168 589T144 591L148 611H182Q186 611 195 611T216 610T238 610T254 609Q254 609 262 609T279 610T298 610T311 611L351 612L350 593Q334 591 324 587T306 571T292 536T277 476L247 343Q314 384 363 424T446 498T495 553T511 579Q511 584 505 586T489 590T469 592T453 592L455 612Q461 612 475 612T505 611T535 610T555 609Q577 609 599 609T643 611V592Q616 590 601 588T573 579T549 562T515 530Q445 459 389 415T295 346Q306 323 326 294T371 233T421 171T470 115T510 71T536 45Q557 27 582 22T634 17L635 -2Q626 -1 616 -1T583 0Q560 0 535 -1T493 -3L446 47Q400 96 348 157T239 305L197 114Q195 104 193 91T190 63Q190 38 201 28T224 18Q243 18 266 28L267 7Q256 3 245 1T214 -2Q208 -2 197 -2T175 -1T154 -1T140 0Q132 0 113 0T73 -1T33 -1T7 -2L8 19Q15 19 26 19T50 20T73 23T93 31Q98 34 102 39T111 58T123 100T141 178L211 488Z"  />
<glyph unicode="L" horiz-adv-x="458" d="M209 190Q205 172 201 152T194 113T189 81T187 60Q187 49 189 42T202 29T234 22T292 19Q322 19 343 21T383 32T420 57T462 100L481 93Q453 54 443 32T428 -2H324Q313 -2 288 -2T235 -1T181 -1T147 0Q139 0 119 0T76 -1T33 -1T6 -2L13 19Q17 19 28 19T51 21T76 25T95 31Q97 32 100 35T108 52T120 91T136 165L194 425Q200 450 204 473T212 514T216 545T218 561Q218 574 203 578T138 589L140 609Q180 609 209 609T266 608T321 608T386 609L383 589Q377 589 365 588T341 586T319 583T304 578Q296 571 288 541T270 467L209 190Z"  />
<glyph unicode="M" horiz-adv-x="698" d="M618 183Q616 172 614 152T611 112T608 73T606 46Q606 30 614 26T647 21Q655 21 666 21T701 27V6Q687 3 671 1T637 -1Q631 -1 618 -1T589 0T560 0T541 1Q536 1 526 1T504 0T482 -1T467 -2L471 19Q489 20 501 23T521 36T534 63T543 111L558 231L590 507L588 509Q586 505 582 496T572 476T561 455T554 441L528 391Q526 388 523 381T515 365T507 349T502 338L441 218Q434 204 427 190T414 163Q400 137 390 117T372 80T358 48T345 15H332L231 495H229L210 407L162 166Q162 164 159 148T152 111T145 71T141 44Q141 35 145 33T166 27Q167 27 174 26T189 23T204 20T214 18L201 -2Q182 0 156 1T107 2Q97 2 70 2T13 0V21Q42 23 60 24T86 30Q92 33 97 45T108 72T117 102T124 127L138 183Q143 203 147 222T154 252L173 347Q175 357 181 384T193 442T204 500T209 539Q209 550 205 559T188 575T155 585T101 589V608H134Q142 608 162 607T203 604T244 601T271 600L279 568Q280 562 283 547T290 514T297 484T300 469L336 303Q337 298 340 285T346 254T354 217T361 181T367 155T371 143Q381 160 391 179T411 215T427 244T435 260L614 610H758L753 590Q746 590 735 589T711 585T689 580T674 570Q670 565 666 550T659 515T654 478T651 451L644 385L618 183Z"  />
<glyph unicode="N" horiz-adv-x="625" d="M563 270Q561 262 558 249T552 222T546 195T542 176L521 84Q513 49 509 28T503 -13H489L443 81L236 487H234L157 144Q156 138 153 124T147 96T142 69T139 55Q139 43 145 36T162 26T187 23T218 22L212 1L97 2Q91 2 78 2T49 0T20 -2T1 -3L6 18Q36 18 54 23T84 36T100 56T110 79Q117 103 126 139T146 217T166 304T185 392T200 471T210 534Q196 554 181 565T151 581T119 588T87 589L88 610Q94 610 111 610T148 608T185 607T210 606Q221 606 230 606T248 607Q254 590 265 567T286 526L501 108Q504 120 507 136T511 156L579 446Q581 455 585 472T592 507T599 541T602 563Q602 569 601 573T594 581T573 587T533 589L538 609Q544 609 557 609T584 608Q598 607 611 607T630 606Q635 606 648 606T675 608Q690 608 703 608T721 609V589Q693 588 676 584T647 569T629 542T616 498L609 465L563 270Z"  />
<glyph unicode="O" horiz-adv-x="667" d="M89 255Q89 329 118 395T195 512T306 592T436 622Q494 622 540 600T617 541T665 454T682 351Q682 286 657 222T587 106T480 23T344 -9Q275 -9 227 17T148 82T103 167T89 255ZM162 247Q162 192 177 148T217 74T276 27T348 10Q381 10 424 26T504 80Q540 116 561 162T593 251T607 328T610 374Q610 421 598 462T563 534T506 582T430 600Q380 600 332 576T247 505T186 394T162 247Z"  />
<glyph unicode="P" horiz-adv-x="500" d="M204 166Q196 133 189 98T177 33Q198 24 217 22T245 19Q269 19 284 25T313 37L311 15Q296 7 279 2T245 -3Q238 -3 222 -3T187 0Q168 1 152 1T129 2L24 -1V20Q29 20 38 21T59 24T80 29T95 39Q101 46 107 65T120 108T132 155T140 191L196 433Q198 443 202 461T209 497T216 533T219 560Q219 570 216 576T203 585T174 590T121 591L127 612H263Q320 612 368 606T453 582Q498 559 518 522T539 447Q539 412 523 382T481 329T422 293T352 280Q338 280 315 283T265 298L270 317Q284 312 297 309T330 305Q357 305 382 315T427 344T457 387T469 443Q469 448 467 471T449 520T400 567T304 589Q293 554 286 521T274 471L204 166Z"  />
<glyph unicode="Q" horiz-adv-x="667" d="M350 -10Q294 -9 253 6T183 44T136 97T108 156T94 213T90 259Q90 331 119 396T197 512T307 593T436 623Q491 623 536 603T613 547T664 462T682 354Q682 281 657 219T591 105T500 12T401 -61T308 -115T238 -149Q259 -157 284 -166T339 -183T406 -196T488 -201Q537 -201 575 -195T642 -178T695 -155T736 -129L744 -143Q606 -248 461 -248Q438 -248 412 -245T355 -233T289 -206T214 -160Q211 -162 200 -166T177 -176T151 -185T130 -189Q117 -189 115 -181T113 -168Q113 -160 114 -153T120 -141T134 -132T159 -128Q165 -128 169 -128T179 -130T193 -133T214 -139Q246 -125 284 -104T362 -54T438 6T504 75Q558 140 584 218T610 380Q610 426 597 466T561 535T505 581T432 598Q373 598 324 569T238 492T182 381T162 253Q162 199 175 154T214 77T275 27T358 10L350 -10Z"  />
<glyph unicode="R" horiz-adv-x="531" d="M294 209Q288 221 280 235T265 261T251 284T242 301H235L191 102Q189 92 187 81T183 61T180 44T179 35Q179 25 205 23T269 21L268 0Q247 0 223 0T176 -1T133 -2T101 -3Q96 -3 84 -3T57 -2T29 -1T11 0L12 22Q37 22 57 23T92 34Q96 37 99 40T106 56T117 91T133 155L204 464Q207 476 210 492T217 524T223 553T226 572Q226 578 224 581T216 587T197 589T163 590H129L134 611H215Q234 611 261 610T317 605T376 592T429 566T467 524T482 461Q482 436 473 412T444 368T392 332T312 307L385 175Q393 161 406 137T435 88T463 44T483 19Q489 14 500 10T528 1V-16Q482 -15 456 -11T415 1T393 19T377 45L294 209ZM240 320Q324 318 368 358T412 469Q412 525 382 551T298 584L240 320Z"  />
<glyph unicode="S" horiz-adv-x="375" d="M393 490Q390 512 386 527T371 553Q370 554 362 561T342 577T313 593T281 600Q269 600 253 595T223 579T198 549T187 501Q187 475 193 454T212 413T241 371T282 323Q319 281 339 247T359 167Q359 126 342 93T295 36T223 -1T132 -14Q94 -14 71 -6T34 19Q34 20 35 29T38 48T45 67T55 75Q63 75 69 70T80 59Q94 44 113 28T161 12Q176 12 199 18T243 39T281 79T297 142Q297 166 291 186T272 225T243 265T203 311Q173 345 152 380T130 466Q130 509 148 538T193 586T249 613T302 622Q329 622 348 616T382 602T405 586T419 573Q417 559 416 550T413 531T411 513T408 490H393Z"  />
<glyph unicode="T" horiz-adv-x="531" d="M334 237Q312 142 307 99T302 55Q302 44 310 38T331 29T357 25T384 24Q417 24 431 29T456 42L466 30Q452 18 441 12T415 2T383 -1T338 -2H100L106 19Q144 18 166 20T201 34T222 65T238 121L320 473Q323 486 326 501T332 532T337 560T342 584H210Q196 584 186 583T167 575T148 558T127 528H109L127 612H637Q633 598 631 589T626 570T622 552T617 528H598Q599 541 598 551T590 569T571 580T536 584H416Q412 567 408 550T400 517T393 489T389 472L334 237Z"  />
<glyph unicode="U" horiz-adv-x="646" d="M204 533Q206 544 208 555T211 574Q211 579 210 582T202 588T180 592T137 593L141 611H372L366 593Q336 592 319 590T292 578T277 550T264 498L227 332Q216 285 211 253T205 185Q205 134 222 101T264 49T316 22T362 14Q411 14 442 36T494 91T526 164T545 239L612 534Q614 544 616 556T619 579Q619 584 612 586T595 590T570 592T543 592L547 611H733V592Q704 591 687 587T659 569T640 528T621 453L565 208Q560 186 549 149T514 76T448 14T342 -13Q332 -13 313 -11T271 -2T224 19T181 54T150 107T137 184Q137 212 142 244T154 302L204 533Z"  />
<glyph unicode="V" horiz-adv-x="563" d="M194 -17L178 -16L191 544Q191 570 191 576T185 585Q182 586 179 586T169 587T149 588T115 588V609H148Q153 609 165 609T190 608T215 608T232 607Q233 607 246 607T277 608T315 610T350 611L348 591Q311 591 293 586T267 563Q263 554 261 522T256 445T253 347T252 247T251 161T251 105H253Q258 115 266 127T282 148L384 294Q393 306 409 329T444 381T484 441T522 498T549 544T560 571Q560 578 553 581T534 585T509 587T483 586V609Q491 608 498 608T515 607Q526 606 540 606T576 606Q619 606 640 606T675 609V591Q649 586 634 581T606 566T581 540T551 496Q543 484 532 468T518 447L477 387Q469 373 458 358T436 326L194 -17Z"  />
<glyph unicode="W" horiz-adv-x="771" d="M480 -17H464L484 508L482 510L190 -17H175Q179 77 181 148T186 279T189 394T190 510Q190 548 190 561T187 580Q186 582 178 584T158 587T135 590T118 592V613Q126 613 136 613T158 611Q170 611 184 611T214 610Q248 610 281 611T336 614L334 592Q311 592 297 590T274 580T263 558T259 519L252 339Q252 338 252 318T250 268T249 202T248 136H250L473 541Q476 546 480 554T484 568Q484 585 466 588T420 592L423 613Q434 612 445 612T469 610Q480 610 492 610T515 609Q545 609 568 610T611 613V592Q595 591 586 589T571 585T563 579T559 573Q556 566 554 543T549 487T545 417T543 344T541 282T540 241Q540 212 540 196T539 169T539 150T538 131L540 129L736 476Q744 490 752 504T767 532T778 556T782 574Q782 588 766 590T722 591L730 612Q744 611 765 610T803 609Q821 609 842 610T880 613V592Q860 591 848 587T827 575T809 553T788 519L480 -17Z"  />
<glyph unicode="X" horiz-adv-x="656" d="M341 312L200 125Q187 108 173 90T150 58Q145 51 144 47T143 41Q143 29 153 25T174 20Q187 20 206 22T250 31L247 11Q231 7 208 3T147 -1H8L3 22Q9 21 17 20T33 19Q59 19 78 32T124 71Q139 86 158 109T198 161T241 219T285 278L329 337L249 503Q233 536 223 553T203 579T184 588T161 590Q146 590 137 589T121 587L119 603Q134 608 147 609T166 611L221 609Q227 609 240 609T269 611T297 612T316 613Q337 613 360 608L354 589Q333 590 320 590T287 583Q293 567 301 548T312 523L375 396L462 515Q466 521 472 530T485 549T496 567T501 580Q501 585 496 587T482 591T465 593T447 593L449 611Q467 611 489 610T532 609H645L642 590Q604 589 580 585T532 559T474 495T385 373L477 184Q481 176 489 159T508 120T531 75T555 30Q566 28 572 28T587 27Q612 27 626 32T652 42V21Q638 12 616 6T546 -1H394L396 21Q438 21 448 27T458 45Q458 62 449 85T430 127L341 312Z"  />
<glyph unicode="Y" horiz-adv-x="510" d="M371 360Q357 342 348 330T333 306T322 278T311 238Q307 223 300 194T286 135T273 78T267 41Q267 27 279 23T318 19Q330 19 347 20T376 24L373 5Q359 1 347 0T318 -1Q312 -1 299 -1T270 0T242 0T223 1Q215 1 196 1T156 0T117 -1T92 -2L95 18Q133 18 153 20T185 36Q190 42 195 58T206 93T215 132T223 164L254 301Q247 326 239 357T222 421T206 485T191 542Q183 573 167 581T114 592L116 610H324L319 589Q293 588 275 585T256 566Q256 562 256 558T258 545T263 524T271 491Q276 469 282 445T295 398T306 357T314 329Q322 339 339 359T377 405T420 459T460 511T489 554T501 579Q501 584 494 586T477 590T457 591T441 591L443 610Q462 610 488 609T535 608Q555 608 573 608T610 611V591Q589 591 577 589T549 575T513 538T455 466L371 360Z"  />
<glyph unicode="Z" horiz-adv-x="531" d="M120 24H263Q344 24 390 28T455 36Q469 38 484 49T523 81L544 82Q536 69 531 60T521 42T512 24T501 0H13Q29 20 38 32T57 57T76 83T105 122L329 425Q350 453 365 474T393 513T417 549T442 587H182Q178 584 169 574T151 553T132 532T119 518H101Q109 533 115 543T126 563T137 584T151 612H548L360 359Q343 336 330 318T304 283T281 249T255 213T224 170T185 115L120 24Z"  />
<glyph unicode="[" horiz-adv-x="354" d="M252 -275H52L248 671H447L441 643H271L86 -247H258L252 -275Z"  />
<glyph unicode="\" horiz-adv-x="531" d="M69 742H115L543 -145H497L69 742Z"  />
<glyph unicode="]" horiz-adv-x="354" d="M153 671H352L156 -275H-43L-37 -247H133L318 644H147L153 671Z"  />
<glyph unicode="^" horiz-adv-x="458" d="M288 633L510 259H462L279 565L97 259H48L272 633H288Z"  />
<glyph unicode="_" horiz-adv-x="500" d="M500 -125H0V-75H500V-125Z"  />
<glyph unicode="`" horiz-adv-x="333" d="M269 583L343 424H318L205 583H269Z"  />
<glyph unicode="a" horiz-adv-x="344" d="M349 75Q323 41 295 18T250 -6Q248 -6 243 -5T233 0T224 14T219 39Q219 50 221 65T226 96T232 124T236 141L234 143L209 112L188 89Q177 76 164 60T136 29T109 4T87 -6Q70 -6 61 1T47 19T42 42T41 66Q41 102 53 145T89 229T147 303T223 350Q230 352 246 355T280 361T314 366T336 370Q314 271 301 213T281 122T272 75T270 51Q270 46 271 42T278 38Q283 38 291 43T307 56T323 71T336 84L349 75ZM93 80Q93 73 96 62T110 50Q114 50 121 55T138 69T155 85T169 98Q193 122 207 137T230 164T243 190T252 221Q258 246 263 270T277 321Q239 319 208 312T151 276Q137 259 127 232T109 176T97 120T93 80Z"  />
<glyph unicode="b" horiz-adv-x="323" d="M140 539Q149 581 152 603T158 644Q153 645 149 645T133 646Q129 646 119 646T91 644L92 659L207 675Q210 675 211 673T212 669Q212 661 211 649T207 624T202 601T200 590L130 267L132 265Q142 276 159 293T195 326T232 354T261 366Q279 366 291 353T310 322T320 285T323 252Q323 202 298 156T240 73T175 16T126 -6Q119 -6 107 -1T82 17T61 49T52 97Q52 106 53 122T58 155L140 539ZM273 232Q273 247 270 262T262 289T249 308T233 315Q222 315 208 308T180 290T155 268T138 251Q132 243 126 223T114 180T106 135T102 104Q102 80 108 66T121 43T137 33T149 30Q155 30 175 40T216 75T255 137T273 232Z"  />
<glyph unicode="c" horiz-adv-x="250" d="M222 71Q211 61 195 48T159 23T121 3T85 -6Q62 -6 51 13T40 50Q40 71 46 102T63 169T90 239T126 302T172 347T225 365Q231 365 240 364T257 361T272 353T279 341Q279 338 278 333T274 322T268 312T261 307Q255 307 240 312T201 317Q180 317 164 306T136 263Q128 243 121 217T109 164T101 115T98 76Q98 64 103 51T125 38Q133 38 153 46T212 83L222 71Z"  />
<glyph unicode="d" horiz-adv-x="354" d="M287 113Q285 102 283 88T281 63Q281 55 283 46T293 36Q296 36 303 40T318 50T334 63T347 75L359 65Q347 52 334 40T307 17T282 1T261 -6Q251 -6 240 5T229 45Q229 62 233 83T240 114L238 116Q220 97 201 78T162 42T120 12T78 -6Q67 2 59 12T51 49Q51 119 72 177T123 278T187 343T247 367Q264 367 273 367T288 368L335 611Q336 615 337 623T339 636Q339 638 339 640T337 645Q317 646 304 646T265 644L268 660Q277 661 292 662T324 665T356 669T379 672H394Q394 667 394 664T392 652L287 113ZM280 325Q273 326 268 326T258 326Q232 326 216 319T170 292Q154 281 142 261T123 214T111 158T107 98Q107 69 111 59T127 48Q134 48 148 57T179 81T215 116T248 160L280 325Z"  />
<glyph unicode="e" horiz-adv-x="250" d="M98 132Q95 114 94 99T92 79Q92 60 101 52T124 43Q156 43 225 94L234 82Q215 66 194 51T152 23T113 2T85 -6Q80 -6 72 -4T57 7T44 29T38 67Q38 89 44 121T62 188T88 255T122 311Q129 319 139 329T160 347T182 362T204 368Q206 368 216 368T238 363T259 349T269 322Q269 301 255 280T217 239T164 202T106 171L98 132ZM223 297Q223 306 216 315T181 324Q166 324 156 314T138 285T124 244T112 197Q124 203 142 213T179 237T210 265T223 297Z"  />
<glyph unicode="f" horiz-adv-x="240" d="M281 323H171L145 143Q136 77 125 26T98 -65T61 -136T10 -196Q-23 -227 -63 -245T-149 -264Q-155 -264 -163 -264T-178 -261T-190 -254T-195 -240Q-195 -230 -190 -225T-178 -217T-164 -214T-154 -213Q-151 -213 -144 -213T-129 -214T-115 -214T-105 -215Q-52 -215 -19 -191T35 -124T67 -26T87 94L121 324L48 325Q49 333 50 337T53 349L126 351Q129 368 133 390T146 437T171 487T213 537Q244 566 274 576T325 586Q342 586 351 579T361 561Q361 550 355 545T341 536T323 533T306 532L284 533Q255 533 237 524T208 493T189 438T175 352H288L281 323Z"  />
<glyph unicode="g" horiz-adv-x="281" d="M287 264Q287 248 283 231T273 199T261 171T251 151Q232 119 206 101T142 64Q133 59 121 53T99 37T81 17T73 -8Q73 -28 88 -34T130 -47Q149 -51 171 -57T213 -74T246 -102T259 -145Q259 -167 252 -187T225 -219Q198 -234 171 -241T119 -253T78 -257T57 -258Q18 -258 -8 -250T-50 -228T-74 -198T-81 -167Q-81 -165 -79 -151T-67 -118T-33 -81T33 -52Q28 -43 28 -35T27 -25Q27 -6 36 9T59 36T85 55T105 66Q112 69 116 71T125 76Q123 78 116 81T103 88Q86 97 77 110T64 138T58 164T57 184Q57 220 74 253T116 311T168 352T213 367Q217 367 229 365T254 352T277 321T287 264ZM235 281Q234 293 232 300T224 312T204 318T165 320Q154 320 145 317T128 296Q127 293 123 282T115 255T108 221T104 185Q104 162 109 147T123 121T139 106T154 97Q185 112 202 136T226 185T235 229T237 256L235 281ZM208 -161Q208 -133 187 -122T133 -102Q94 -92 76 -86T45 -70Q33 -74 20 -78T-4 -91T-23 -110T-30 -140Q-30 -147 -26 -161T-8 -191T29 -217T94 -228Q116 -228 136 -224T173 -212T198 -192T208 -161Z"  />
<glyph unicode="h" horiz-adv-x="323" d="M40 -2L168 611Q168 613 169 617T170 623Q170 627 164 629T147 633T125 635T100 635L102 650L153 655Q161 656 171 657T192 660T209 663T218 664Q223 664 223 652Q223 646 222 637T218 617T214 599T212 588L142 255L144 253Q153 268 166 287T195 324T227 353T259 365Q273 365 285 356T307 333T321 299T326 259Q326 223 316 178T289 91T247 22T193 -6Q182 -6 176 0T169 17Q169 40 183 48T206 59Q216 62 223 65T237 71T248 80T258 93Q269 109 275 127T286 162T291 192T292 212Q292 242 285 262T268 294T246 311T227 316Q221 316 215 312T202 302T191 290T183 280Q166 257 154 236T134 192T120 145T108 92L93 19Q92 16 91 8T89 -2H40Z"  />
<glyph unicode="i" horiz-adv-x="208" d="M139 134Q137 125 134 114T129 91T125 69T123 51Q123 45 125 40Q142 49 155 61T187 94L200 85Q186 65 170 49T138 20T111 1T92 -6Q87 -6 79 0T70 31Q70 48 74 71T90 135L120 253Q123 266 125 275T129 290T132 303T135 317Q118 307 101 292T71 262L60 273Q84 301 103 319T136 347T161 361T178 365Q186 365 188 361T190 349Q190 344 188 331T182 303T174 272T168 249L139 134ZM191 536H229L207 457L164 458L191 536Z"  />
<glyph unicode="j" horiz-adv-x="198" d="M122 -18Q107 -87 83 -134T33 -210T-14 -251T-44 -264Q-61 -264 -76 -249T-91 -216Q-91 -207 -86 -198T-75 -184Q-74 -187 -71 -193T-62 -205T-50 -216T-33 -221Q-12 -221 4 -203T33 -158T53 -100T67 -44Q67 -41 68 -34T72 -18T75 -2T78 9L142 314Q118 304 103 290T73 257Q71 255 69 252T65 247H46Q68 281 90 303T131 339T166 359T188 365Q197 365 197 350Q197 342 195 331T190 306L122 -18ZM201 537H239L217 458L174 459L201 537Z"  />
<glyph unicode="k" horiz-adv-x="333" d="M137 193H135L94 -2H45L167 574Q170 586 173 605T176 635Q176 639 171 639Q160 639 144 639T116 637L118 654Q172 659 193 663T221 669Q229 670 231 669T234 663Q234 658 233 656L150 259L152 257Q165 271 181 287T215 318T255 346T300 366Q309 362 314 355T322 341T325 326T326 314Q326 272 312 249T277 216T231 203T181 201L243 94Q258 68 268 52T287 27T304 13T323 6L321 -10Q297 -7 282 -6T241 -6Q226 26 209 58L137 193ZM278 305Q278 307 277 314T270 328Q249 322 230 308T193 278T163 245T142 219Q159 217 165 217T179 217Q201 217 219 218T248 228Q255 234 260 244T270 266T276 288T278 305Z"  />
<glyph unicode="l" horiz-adv-x="198" d="M218 79Q200 62 181 47T144 20T114 1T95 -6Q94 -6 90 -4T81 2T73 14T69 33Q69 59 73 86T82 131L171 567Q172 573 174 582T178 602T181 621T182 635Q182 643 178 644T161 646L109 645L111 660Q116 660 129 661T159 665T191 669T219 673Q222 674 226 674Q235 674 235 664Q235 656 233 639T227 604T222 573T219 559L131 134Q126 109 124 96T121 69Q121 46 134 46Q138 46 148 51T172 65T197 81T218 97V79Z"  />
<glyph unicode="m" horiz-adv-x="573" d="M491 257Q494 271 496 282T498 301Q498 305 495 310T489 316Q478 316 455 305T407 276T363 235T338 189L299 -2H250L301 249Q304 263 306 277T309 302Q309 311 305 315T295 319Q287 319 275 313T249 297T222 278T202 262Q185 248 176 238T160 217T151 194T143 166L108 -2H60L119 288Q121 294 121 302Q121 308 117 311Q111 309 101 301T79 283T56 261T38 242L27 254Q36 263 53 281T90 318T127 351T154 365Q161 365 168 358T175 340Q175 322 170 298T159 250L161 248Q213 292 247 315T301 350T331 363T343 365Q350 365 354 361T360 352T362 340T363 330Q363 318 359 299T350 253L352 251Q381 276 410 297T463 333T505 356T529 365Q534 365 543 358T553 329Q553 323 551 310T547 289L507 101Q505 93 503 81T501 62Q501 59 502 55T508 50Q512 50 518 55T531 66T544 80T554 92L565 83Q556 71 544 56T519 27T492 4T469 -6Q464 -6 455 0T445 27Q445 37 447 48T451 68L491 257Z"  />
<glyph unicode="n" horiz-adv-x="396" d="M334 131Q333 126 331 113T325 86T320 60T318 44Q318 39 321 36Q328 39 337 46T354 62T369 78T377 88L388 80Q382 72 370 58T344 29T315 5T287 -6Q279 -6 275 -2T269 7T267 17T266 26Q266 28 267 41T272 68L311 252Q315 270 315 276T316 286Q316 300 310 305T299 310Q283 310 263 295T221 259T180 215T147 174L107 -2H58L124 291Q127 307 127 312Q127 319 123 319Q118 319 110 313T93 299T74 281T59 266L48 278Q62 292 77 307T108 335T137 356T162 364Q176 364 178 352T181 336Q181 332 180 326T178 313T175 301T173 294L155 216L157 214Q222 290 276 327T353 365Q356 365 364 356T372 331Q372 320 371 308T367 283T362 259T358 241L334 131Z"  />
<glyph unicode="o" horiz-adv-x="313" d="M190 -3Q185 -5 178 -6T160 -8Q138 -8 118 2T83 33T59 83T50 149Q50 183 65 221T105 291T158 343T214 364Q228 364 245 356T276 330T300 286T310 223Q310 213 307 190T292 136T256 69T190 -3ZM208 40Q222 55 233 74T252 116T264 160T268 202Q268 215 265 235T251 274T224 306T178 320Q153 320 142 306Q138 301 131 289T116 259T104 220T99 174Q99 151 103 127T116 82T139 48T175 35Q191 35 197 36T208 40Z"  />
<glyph unicode="p" horiz-adv-x="333" d="M33 257Q50 289 71 313T113 353T149 378T171 387Q174 387 178 383T183 369Q183 366 182 360T180 351L167 294L179 302L220 332Q224 335 232 341T248 352T262 361T271 365Q276 365 287 359T309 341T329 308T338 257Q338 221 326 176T291 90T234 23T159 -5Q156 -5 141 -4T108 7L70 -172Q68 -178 66 -192T64 -212Q64 -233 83 -240T147 -247L145 -263H94Q92 -263 86 -263T73 -262T60 -262T51 -261Q41 -261 26 -261T-4 -262T-31 -262T-49 -263L-50 -246Q-28 -245 -16 -243T3 -235T13 -216T20 -179L123 311Q124 320 124 321Q108 317 89 301T49 257H33ZM119 62Q132 36 143 30T170 24Q193 24 210 37T240 72T262 119T276 170T283 217T286 250Q286 254 286 268T284 287Q284 290 279 295T267 305T254 313T245 317Q242 317 233 313T213 303T188 288T163 273L119 62Z"  />
<glyph unicode="q" horiz-adv-x="323" d="M213 -188Q212 -193 210 -207T207 -228Q207 -232 208 -235T215 -240T230 -245T257 -247L255 -264Q244 -262 225 -261T171 -260Q135 -260 111 -261T74 -263V-246Q101 -245 116 -244T140 -239T152 -229T158 -214L168 -171L225 106L223 108Q210 96 190 77T147 39T103 8T68 -5Q57 -5 51 3T41 23T38 44T37 60Q37 86 44 119T65 186T101 252T151 309T216 349T297 365Q314 365 318 361T323 351Q323 349 322 340T320 329L213 -188ZM268 319Q225 315 202 310T161 289Q140 271 127 241T106 181T95 123T92 84Q92 65 94 54T106 43Q115 43 129 51T159 72T194 102T231 136L268 319Z"  />
<glyph unicode="r" horiz-adv-x="302" d="M89 -1L113 104Q116 117 121 141T132 192T141 240T145 273Q145 283 143 286T134 291Q123 285 107 272T78 246Q64 232 60 228T49 218Q45 222 39 225Q48 237 64 257T100 297T139 337T174 367Q184 358 189 346T195 316Q195 305 192 278T175 197L177 195L194 232Q200 244 212 266T239 310T271 348T304 365Q305 365 311 365T324 361T338 349T344 327Q344 321 340 316T330 305T321 297T315 294Q311 294 299 299T283 304Q276 304 268 298T253 284T240 269T231 257Q210 227 196 199T171 140T152 75T135 -1H89Z"  />
<glyph unicode="s" horiz-adv-x="250" d="M124 179Q101 205 93 220T85 253Q85 277 98 297T132 333T179 357T233 366Q244 366 254 362T264 340Q264 337 263 331T259 318T253 308T244 303Q240 303 233 306Q232 306 226 308T210 314T191 319T171 321Q150 321 138 306T125 277Q125 274 126 269T131 257T144 237T170 207Q194 181 207 161T221 109Q221 84 210 63T180 27T137 2T89 -7Q73 -7 61 -2T41 9T28 22T24 30Q24 32 27 39T35 55T45 72T57 83Q69 28 112 28Q125 28 137 34T159 49T175 69T181 90Q181 108 169 126T146 155L124 179Z"  />
<glyph unicode="t" horiz-adv-x="219" d="M84 348Q99 349 109 351T127 363T142 391T156 445L203 452L181 352H255L248 325L175 324L121 75Q119 68 118 58T119 39Q130 43 140 52T160 70T177 89T189 103L203 94Q176 58 155 38T120 8T97 -4T87 -7Q79 -7 75 -3T68 8T66 20T65 29Q65 41 67 53T72 77L125 324H77L84 348Z"  />
<glyph unicode="u" horiz-adv-x="406" d="M332 99Q332 98 331 93T329 82T327 69T326 58Q326 56 327 51T335 46Q342 46 351 52T369 68T385 85T396 98L409 89Q393 67 376 50T344 20T318 1T302 -6Q296 -6 284 3T272 27Q272 32 274 44T278 68Q281 82 284 98L317 249L315 251Q291 209 261 164T200 81T141 19T93 -6Q85 -6 81 -1T77 22Q77 51 84 87T98 155L114 239Q115 240 116 248T120 266T123 285T125 296Q125 300 123 303T116 307Q107 307 84 284T36 227L27 236Q30 242 45 263T80 307T122 348T162 366Q163 366 166 366T172 363T178 356T181 343Q181 341 180 328T173 287Q173 284 171 276T168 258T164 241T162 232L141 129Q141 128 140 123T138 109T135 92T134 77Q134 75 135 69T143 63Q149 63 164 76T197 112T237 162T277 221T311 281T335 335Q337 342 343 347T357 357T371 363T380 365Q382 365 382 363T383 353Q383 342 381 330T376 305L332 99Z"  />
<glyph unicode="v" horiz-adv-x="344" d="M39 266Q62 317 88 341T132 366Q148 366 154 344T167 282L206 49Q250 94 281 138T312 234Q312 267 301 286T275 323Q276 335 282 342T296 355T309 362T316 364Q323 364 329 357T339 338T346 312T349 285Q349 240 334 199T295 120T241 51T182 -6H168L124 260Q119 294 115 306T103 319Q96 319 83 306T51 258L39 266Z"  />
<glyph unicode="w" horiz-adv-x="563" d="M37 252Q51 287 64 309T89 344T108 361T122 366Q137 366 143 351T156 307L213 56Q236 88 266 131T327 227Q328 229 330 233T333 238L322 283Q318 300 317 306T312 323L353 366L424 56Q443 77 463 103T501 155T529 208T540 258Q540 261 539 267T536 281T529 294T518 301Q510 305 507 307T497 316Q502 324 510 339T528 366Q536 361 544 355T559 339T570 315T574 278Q574 236 558 202T516 133Q501 112 473 77T399 -6H389L341 206Q334 194 319 171T284 119T240 57T190 -6H178L114 281Q108 306 99 306Q94 306 88 300T75 286T63 267T52 249Q52 248 51 246T48 242L37 252Z"  />
<glyph unicode="x" horiz-adv-x="469" d="M296 196Q328 139 347 109T378 64T396 48T410 45Q423 45 437 55T461 73L471 59Q464 53 453 44T428 26T403 8T383 -6Q359 4 331 41T264 150Q231 103 206 73T160 26T122 1T86 -6Q60 -6 42 9T23 47Q23 64 38 76Q48 59 63 48T99 37Q134 37 170 73T253 170Q252 172 239 194T209 241T175 286T149 307Q136 307 119 291T85 257L73 269Q81 279 92 292T116 318T142 343T168 366Q187 352 205 331T239 288T265 246T284 213Q310 250 331 278T370 326T405 355T441 365Q453 365 461 359T474 345T481 328T484 316Q484 305 478 299T463 289Q461 304 454 311Q444 319 429 319Q406 319 383 300T325 235L296 196Z"  />
<glyph unicode="y" horiz-adv-x="354" d="M-61 -196Q-52 -205 -42 -212T-11 -220Q10 -220 43 -199T108 -145T163 -70T186 12Q186 33 182 62T170 124T153 189T133 246T114 288T97 304Q91 304 83 295T68 272T54 244T43 221L29 234Q41 262 54 286T79 328T103 355T123 365Q133 365 149 337T180 261T209 151T226 20H228Q242 45 257 75T285 138T306 201T315 262Q315 276 312 284T306 297T298 303T292 304Q287 304 284 301T278 296L268 306Q272 314 279 324T294 344T311 359T328 365Q332 365 335 358T341 341T345 317T347 293Q347 245 328 185T276 64T204 -57T121 -161T38 -235T-35 -263Q-38 -263 -45 -263T-60 -259T-77 -249T-93 -230L-61 -196Z"  />
<glyph unicode="z" horiz-adv-x="344" d="M95 51L97 49Q105 54 112 56T131 58Q137 58 153 55T188 49T222 42T246 39Q273 39 293 56T325 86L338 74Q335 71 324 58T295 30T255 5T209 -7Q204 -7 199 -7T187 -5T167 0T134 8Q120 12 106 12T90 13Q67 13 54 7T29 -7H3L313 307Q305 307 297 307T280 310Q264 314 254 316T237 319T225 321T213 322Q159 322 124 244Q122 246 118 250T114 257Q126 287 144 311Q159 331 182 348T238 366Q244 366 258 364T289 358T321 352T342 349Q356 349 365 354T382 368L391 348L95 51Z"  />
<glyph unicode="{" horiz-adv-x="510" d="M149 205Q173 208 193 217T229 239T252 270T261 307Q261 315 258 337T251 383Q247 408 244 430T241 462Q241 497 254 529T292 586T349 628T421 650V633Q363 620 336 588T309 521Q309 512 312 490T319 443T326 396T330 364Q330 309 293 265T189 197V195Q256 172 293 128T330 28Q330 20 327 -2T320 -50Q315 -75 312 -97T309 -129Q309 -164 336 -196T421 -241V-258Q382 -253 349 -236T292 -194T255 -137T241 -70Q241 -62 244 -40T251 6T258 53T261 85Q261 104 253 121T229 152T194 175T149 187V205Z"  />
<glyph unicode="|" horiz-adv-x="531" d="M278 750H325V-250H278V750Z"  />
<glyph unicode="}" horiz-adv-x="510" d="M422 187Q374 181 343 152T311 85Q311 67 314 50T322 13Q327 -6 330 -26T333 -70Q333 -105 319 -137T281 -194T223 -236T150 -258V-241Q208 -228 234 -196T260 -129Q260 -120 257 -98T249 -51T242 -4T238 28Q238 83 276 127T382 195V197Q315 220 277 264T238 364Q238 373 241 395T249 442Q253 467 256 489T260 521Q260 556 234 588T150 633V650Q189 645 222 628T280 586T319 529T333 462Q333 454 330 432T322 386T315 339T311 307Q311 269 342 240T422 205V187Z"  />
<glyph unicode="~" horiz-adv-x="667" d="M107 209Q109 244 118 268T139 309T166 333T194 346T216 351T228 352Q235 352 246 351T278 344T334 325T426 287Q455 275 474 268T505 258T526 254T542 253Q555 253 571 257T601 271T625 301T639 350H662Q661 317 651 291T623 246T583 218T535 208Q521 208 511 209T481 217T430 235T341 271Q290 291 266 297T226 304Q197 304 179 293T151 266T136 234T129 209H107Z"  />
<glyph unicode="&#xA0;" horiz-adv-x="240" />
<glyph unicode="&#xA1;" horiz-adv-x="167" d="M85 113Q88 120 91 137T97 164Q105 166 107 166H111Q115 166 118 164L69 -124Q69 -125 67 -139T61 -172T55 -207T51 -229Q51 -246 46 -249T27 -255Q25 -255 19 -256T7 -259T-5 -261T-11 -262Q-14 -262 -14 -257Q-14 -256 -8 -232T7 -177T22 -120T32 -86L68 44L85 113ZM170 345Q170 330 165 320T152 302T138 291T128 287Q116 287 109 303T101 334Q101 336 104 343T114 359T128 373T145 379Q154 379 159 375T167 364T169 353T170 345Z"  />
<glyph unicode="&#xA2;" horiz-adv-x="292" d="M180 199Q193 202 207 207T234 220T257 233T272 243L282 231Q259 215 230 197T169 168L112 10L93 17L145 162Q140 161 136 161T126 160Q103 160 92 178T80 219Q80 245 86 279T106 350T136 420T176 480T223 520T278 532L310 619L329 611L299 528Q325 522 331 519T337 506Q337 492 332 482T316 471Q314 471 310 472T300 475T289 478T282 480L180 199ZM261 485Q257 485 253 485T243 486Q214 486 198 465T170 408Q165 394 159 373T148 328T139 280T135 234Q135 223 138 214T158 199L261 485Z"  />
<glyph unicode="&#xA3;" horiz-adv-x="490" d="M108 330Q115 327 119 326T135 324Q154 324 175 325T216 329L232 410Q243 469 261 506T314 571Q340 591 375 604T437 617Q451 617 469 612T515 580L533 588L541 579L484 532Q461 558 440 573T398 589Q373 589 357 578T331 549T316 512T307 475L277 331Q296 330 324 331T381 333T437 337T482 341Q484 326 481 322T473 313Q469 313 454 313T417 312T371 311T327 309T291 308T272 307L257 232Q257 231 255 221Q250 196 246 179T232 144T204 105T153 51Q182 53 202 53T225 54Q234 54 258 52T309 48T355 43T378 41Q391 41 404 48T430 65T453 86T470 105L482 96Q478 90 475 85T465 73T449 55T423 28Q410 11 401 3T370 -5Q366 -5 357 -4T338 -2T319 0T307 2Q294 4 274 5T228 6Q207 6 186 5Q146 3 103 -3L90 -14L79 -5Q109 26 128 47T159 88T178 133T192 199L211 306Q208 305 183 304T131 303Q121 303 112 303T95 304L108 330Z"  />
<glyph unicode="&#xA4;" horiz-adv-x="729" d="M279 522Q290 530 304 539T335 556T375 569T426 574Q454 574 476 569T516 556T548 539T573 521L638 586L670 553L605 489Q613 478 622 465T639 433T652 392T657 340Q657 313 653 292T641 253T624 222T605 195L670 130L638 98L573 163Q562 155 549 146T517 129T477 116T426 110Q397 110 375 115T335 129T303 146T279 163L214 98L181 130L247 195Q239 205 230 219T213 250T200 290T194 342Q194 370 199 392T213 433T230 464T247 489L181 553L214 586L279 522ZM611 342Q611 380 597 414T557 473T498 512T426 527Q388 527 354 513T295 473T256 414T241 342Q241 304 255 270T295 211T354 172T426 157Q464 157 498 171T557 211T596 270T611 342Z"  />
<glyph unicode="&#xA5;" horiz-adv-x="521" d="M301 182Q296 160 291 137T281 95T275 61T272 41Q272 27 285 23T324 19Q335 19 352 20T381 24L378 5Q364 0 351 0T322 -1L252 0Q243 0 221 0T174 -1T127 -1T97 -2L100 18Q121 18 136 18T161 20T178 25T190 36Q198 46 208 82T232 182H75L81 210H238L259 301H88L94 329H251L204 510Q197 535 193 551T180 576T158 588T119 592L122 610H329L324 589Q297 588 280 585T262 566Q262 560 264 546T271 515T278 483T283 461L320 328L414 444Q418 451 433 469T465 509T494 550T507 579Q507 588 489 589T446 591L449 610L479 609Q486 609 500 609T532 608Q551 608 572 608T615 611V591Q600 591 589 590T567 583T547 569T525 545L496 509Q496 508 493 504T485 494T476 484T470 477L448 450Q446 448 434 433T406 398T375 359T352 329H514L508 301H336Q334 298 332 290T326 273T321 256T317 243L309 210H494L488 182H301Z"  />
<glyph unicode="&#xA6;" horiz-adv-x="531" d="M278 175H325V-175H278V175ZM278 675H325V325H278V675Z"  />
<glyph unicode="&#xA7;" horiz-adv-x="396" d="M169 421Q164 435 158 457T151 508Q151 545 165 575T200 626T247 660T297 672Q308 672 324 668T356 657T382 642T393 625Q393 623 391 618T386 607T378 597T367 592Q360 592 352 597T329 614Q315 625 301 632T273 640Q270 640 257 638T230 625T205 593T194 533Q194 493 213 444T269 328Q281 306 294 280T320 226T340 171T348 119Q348 87 338 63T312 22T281 -6T255 -24Q260 -38 266 -61T273 -111Q273 -141 262 -171T231 -225T183 -264T120 -279Q100 -279 82 -274T50 -262T28 -248T19 -234Q19 -232 21 -226T27 -214T36 -202T46 -197Q53 -197 59 -201T73 -212Q76 -215 83 -220T101 -231T124 -241T149 -246Q164 -246 178 -239T205 -218T224 -187T231 -145Q231 -120 226 -96T209 -45T180 15T141 90Q115 139 95 185T74 277Q74 308 83 331T107 371T138 400T169 421ZM177 401Q140 378 130 348T119 295Q119 262 135 217T189 106Q202 84 209 71T222 46T233 24T247 -5Q253 -1 262 7T281 27T296 56T303 99Q303 130 291 165T250 254Q215 321 196 359T177 401Z"  />
<glyph unicode="&#xA8;" horiz-adv-x="333" d="M170 478Q170 493 180 503T206 514Q222 514 232 503T242 478Q242 463 232 452T206 441Q192 441 181 451T170 478ZM315 478Q315 492 325 503T351 514Q366 514 376 503T387 478Q387 462 376 452T351 441Q337 441 326 451T315 478Z"  />
<glyph unicode="&#xA9;" horiz-adv-x="813" d="M648 591L658 445H638Q635 457 627 477T601 518T554 553T480 568Q405 568 359 515T313 365Q313 357 314 338T319 294T334 245T364 198T412 164T485 150Q528 150 570 167T648 234L667 225Q595 119 468 119Q412 119 368 138T292 189T243 263T226 350Q226 398 244 441T296 518T378 571T486 591Q500 591 510 590T530 587T553 582T582 572Q591 569 595 569T602 568Q614 568 619 575T627 591H648ZM465 723Q541 723 608 695T725 616T805 499T835 353Q835 276 806 209T726 92T609 13T465 -16Q388 -16 321 13T204 92T124 209T95 353Q95 431 124 498T204 616T322 694T465 723ZM465 691Q396 691 335 665T227 593T154 486T127 353Q127 283 153 222T226 115T333 43T465 16Q535 16 596 42T704 114T776 221T803 353Q803 424 776 486T703 593T596 665T465 691Z"  />
<glyph unicode="&#xAA;" horiz-adv-x="229" d="M216 484L193 457Q186 449 177 440T159 421T141 406T128 400Q116 400 110 405T101 417T98 431T97 445Q97 466 105 492T128 542T164 585T213 614Q217 615 228 617T251 621T273 624T288 627Q284 614 277 586T263 528T251 472T245 437Q245 431 249 431Q255 431 266 440T285 458Q288 456 290 455T296 451Q276 428 259 415T231 401Q231 401 228 401T220 404T213 413T209 430Q209 441 212 459T218 482L216 484ZM242 584Q242 585 243 588T245 593Q222 591 203 588T170 567Q161 558 155 542T144 509T137 477T134 453Q134 451 135 445T142 438Q143 438 157 447T188 472T219 508T233 551L242 584Z"  />
<glyph unicode="&#xAB;" horiz-adv-x="396" d="M169 0L51 188L245 374H265L126 187L186 0H169ZM328 0L210 187L403 374H424L283 187L346 0H328Z"  />
<glyph unicode="&#xAC;" horiz-adv-x="667" d="M81 430H641V130H596V384H81V430Z"  />
<glyph unicode="&#xAD;" horiz-adv-x="354" d="M251 205Q264 205 272 205T287 206T298 211T309 222Q315 225 320 233T334 242Q335 242 339 242T350 237Q350 237 344 226T330 200T315 172T305 153Q284 155 251 157T161 159Q131 159 101 156Q98 154 93 149T88 142Q81 135 76 131Q71 126 68 123T62 120Q60 120 56 121T51 125Q51 126 54 131T62 143T70 154T76 162Q89 188 100 197T121 206L251 205Z"  />
<glyph unicode="&#xAE;" horiz-adv-x="813" d="M261 581H462Q536 581 576 548T617 464Q617 432 603 411T570 376T531 357T501 348L610 193Q622 176 631 167T647 154T661 148T673 147V130H577L424 341H384V218Q384 197 385 184T392 162T410 150T446 147V130H255V147Q275 147 286 151T302 164T308 186T309 219V491Q309 511 308 524T303 546T289 558T261 562V581ZM384 363Q411 363 437 366T485 380T519 409T533 458Q533 498 505 528T428 558Q413 558 404 556T384 550V363ZM465 723Q541 723 608 695T725 616T805 499T835 353Q835 276 806 209T726 92T609 13T465 -16Q388 -16 321 13T204 92T124 209T95 353Q95 431 124 498T204 616T322 694T465 723ZM465 691Q396 691 335 665T227 593T154 486T127 353Q127 283 153 222T226 115T333 43T465 16Q535 16 596 42T704 114T776 221T803 353Q803 424 776 486T703 593T596 665T465 691Z"  />
<glyph unicode="&#xAF;" horiz-adv-x="333" d="M337 465H143L153 493H346L337 465Z"  />
<glyph unicode="&#xB0;" horiz-adv-x="427" d="M284 620Q317 620 346 608T397 574T431 523T444 460Q444 427 432 398T397 347T346 313T284 300Q251 300 222 312T171 346T137 397T124 460Q124 493 137 522T171 573T222 607T284 620ZM284 577Q260 577 239 568T202 543T177 506T168 460Q168 436 177 415T201 379T238 354T284 344Q308 344 329 353T366 378T391 415T400 460Q400 485 391 506T366 543T329 568T284 577Z"  />
<glyph unicode="&#xB1;" horiz-adv-x="667" d="M96 442H352V674H398V442H656V396H398V165H352V396H96V442ZM96 46H656V0H96V46Z"  />
<glyph unicode="&#xB2;" horiz-adv-x="281" d="M129 297Q106 297 95 296T72 291L78 307Q89 311 105 323T138 350T174 382T210 415Q234 438 255 468T277 533Q277 550 271 562T256 582T236 593T215 597Q197 597 184 589T163 568T150 544T143 524L122 534Q131 569 159 594T230 619Q249 619 266 613T297 596T319 569T328 536Q328 501 308 477T266 433Q258 427 240 411T202 378T165 345T140 323Q154 323 177 324T224 325T267 327T291 329Q295 330 296 331T301 337L323 339L296 297H129Z"  />
<glyph unicode="&#xB3;" horiz-adv-x="281" d="M179 470Q221 483 248 505T275 554Q275 568 264 579T233 591Q223 591 215 589T198 580T179 564T153 540Q157 562 158 568T167 581Q170 583 177 589T195 602T221 614T253 619Q281 619 300 605T319 567Q319 554 313 543T296 521T275 502T255 487Q275 483 286 474T303 455T310 437T312 424Q312 398 298 374T259 332T205 303T144 292Q124 292 112 296T93 305T82 317T76 327Q84 330 91 331T109 331Q116 320 128 315T152 309Q168 309 188 316T226 337T256 369T268 408Q268 425 263 435T249 450T232 457T214 459Q206 459 197 457T171 451L179 470Z"  />
<glyph unicode="&#xB4;" horiz-adv-x="333" d="M367 583L221 424H197L303 583H367Z"  />
<glyph unicode="&#xB5;" horiz-adv-x="500" d="M203 364H264L205 160Q205 159 203 155Q199 141 195 122T190 83Q190 74 193 65T202 47T219 34T245 29Q286 29 321 89T385 249L418 364H480L409 119Q406 108 403 92T400 65Q400 40 408 35T421 29Q432 29 441 38T458 60T469 82T475 96H494Q480 48 460 19T396 -11Q366 -11 348 14T340 79H337Q328 63 319 47T296 18T263 -3T215 -11Q193 -11 179 -5T157 11T145 32T138 52H136Q131 32 124 2T110 -75L102 -141Q101 -149 99 -161T91 -186T77 -206T55 -215Q42 -215 32 -206T22 -182Q22 -180 23 -169T32 -144Q50 -109 64 -79T90 -15T114 59T143 156L203 364Z"  />
<glyph unicode="&#xB6;" horiz-adv-x="479" d="M438 -114Q376 -107 333 -93T261 -61T214 -24T184 12Q166 38 151 66T125 121T107 168T101 201Q101 212 111 245T142 317T190 394T255 455Q286 474 324 486T401 505T472 515T527 520L524 494Q516 492 510 492T481 489Q458 487 441 485T410 481T384 475T356 468L345 -68Q350 -70 363 -72T391 -78T420 -85T441 -89L438 -114ZM329 459Q297 451 281 434T257 391Q251 373 248 344T244 279T242 202T241 121Q241 69 245 39T258 -9T282 -36T319 -57L329 459Z"  />
<glyph unicode="&#xB7;" horiz-adv-x="188" d="M110 294Q110 309 115 319T128 337T142 348T152 352Q164 352 171 336T179 305Q179 303 176 296T166 280T152 266T135 260Q126 260 121 264T113 275T111 286T110 294Z"  />
<glyph unicode="&#xB8;" horiz-adv-x="333" d="M196 6Q187 -4 183 -10T170 -30Q208 -36 222 -56T236 -98Q236 -122 220 -143T176 -178T111 -200T34 -205L41 -186Q84 -184 111 -175T154 -154T176 -130T182 -109Q182 -95 175 -87T158 -76T135 -72T112 -71Q119 -63 126 -54T145 -28Q147 -26 151 -21T159 -9T166 2T170 7L196 6Z"  />
<glyph unicode="&#xB9;" horiz-adv-x="281" d="M222 616Q243 616 255 616T285 618Q283 610 280 596T272 566T264 535T257 509L228 401Q226 395 223 384T217 361T212 339T208 324Q218 321 225 319T240 316T256 313T275 310L280 297H208Q208 297 201 297T185 297T165 297T146 295Q155 315 162 339T182 409L230 589Q212 596 194 598T159 602L164 616H222Z"  />
<glyph unicode="&#xBA;" horiz-adv-x="208" d="M105 494Q105 515 115 538T140 579T174 610T211 623Q220 623 231 618T251 603T266 576T273 538Q273 530 271 516T260 483T236 443T196 403Q194 402 189 401T176 400Q148 400 127 424T105 494ZM140 509Q140 497 142 483T149 457T164 437T187 429Q192 429 196 429T205 432Q218 444 225 459T237 487T242 511T243 525Q243 533 241 545T232 568T215 586T188 594Q174 594 165 583T151 558T143 529T140 509Z"  />
<glyph unicode="&#xBB;" horiz-adv-x="396" d="M266 374L384 186L190 0H170L310 187L249 374H266ZM107 374L225 187L32 0H11L152 187L89 374H107Z"  />
<glyph unicode="&#xBC;" horiz-adv-x="677" d="M382 119Q402 155 429 185T486 239T545 282T599 317Q607 322 612 324T632 326L584 162Q582 157 582 156T580 150L634 152L625 122H573L559 73Q558 72 555 61T548 35Q544 18 538 -2Q523 -3 515 -3T489 -6L527 121L382 119ZM534 149L546 189Q547 190 551 203T559 233T568 262T574 276L572 278Q540 257 519 240T481 208T452 178T427 148L534 149ZM166 616H224Q245 616 257 616T287 618L259 509L230 401Q227 392 226 386T222 372T217 353T210 324Q230 318 242 316T276 310L282 297H210Q208 297 201 297T184 297T165 297T148 295Q153 307 158 321T167 349T174 372T178 385L232 589Q214 596 196 598T161 602L166 616ZM682 674L138 -8H106L650 674H682Z"  />
<glyph unicode="&#xBD;" horiz-adv-x="677" d="M162 616H220Q241 616 253 616T283 618Q281 610 280 606T276 590L268 559Q268 557 264 541T255 509L212 349L206 324Q216 321 223 319T238 316T254 313T273 310L278 297H206Q204 297 197 297T181 297T161 297T144 295Q151 310 157 329T169 366T177 396T180 409L228 589Q210 596 192 598T157 602L162 616ZM678 674L134 -8H102L646 674H678ZM591 0H424Q401 0 391 -1T367 -6L373 10Q387 16 403 27T446 63Q478 92 501 114T541 156T564 195T572 236Q572 270 552 285T510 300Q492 300 479 292T458 271T445 247T438 227L418 237Q428 275 457 298T525 322Q544 322 561 316T592 299T614 273T623 239Q623 204 603 180T561 136Q553 130 535 114T497 81T460 48T436 26Q440 26 452 26T477 27T500 28T513 28L550 30Q576 31 583 32T596 40L619 42L591 0Z"  />
<glyph unicode="&#xBE;" horiz-adv-x="677" d="M382 119Q402 155 429 185T486 239T545 282T599 317Q607 322 612 324T632 326L583 162Q581 157 581 156T580 150L634 152L625 122H573L559 73Q558 72 555 61T548 35Q544 18 538 -2Q523 -3 515 -3T489 -6L527 121L382 119ZM534 149L546 189Q547 191 551 204T560 233T569 262T574 276L572 278Q540 257 518 240T480 207T451 177T427 148L534 149ZM181 470Q222 483 249 505T277 554Q277 568 266 579T235 591Q215 591 201 580T171 555Q169 553 163 548T155 540Q156 542 156 548T158 559Q159 569 168 579T192 599T222 613T255 619Q283 619 301 605T320 567Q320 554 314 543T298 521T277 502T256 487Q277 483 288 474T305 455T312 437T314 424Q314 398 300 374T261 332T207 303T146 292Q126 292 114 296T95 305T84 317T78 327Q84 329 89 330T100 332Q107 332 111 331Q118 320 130 315T154 309Q170 309 190 316T228 337T258 369T270 408Q270 425 265 435T251 450T234 457T216 459Q208 459 199 457T173 451L181 470ZM682 674L138 -8H106L650 674H682Z"  />
<glyph unicode="&#xBF;" horiz-adv-x="323" d="M273 156Q271 133 268 109T252 63T214 23T142 -8Q119 -14 98 -21T62 -40T37 -71T27 -122Q27 -137 32 -153T47 -184T74 -207T115 -216Q147 -216 162 -206T184 -187L194 -188Q195 -192 195 -200Q195 -209 192 -218T179 -240Q174 -247 173 -249T170 -256Q148 -264 133 -266T108 -269Q84 -269 63 -261T26 -238T0 -202T-10 -154Q-10 -140 -7 -123T3 -87T16 -53T30 -25Q50 7 71 17T116 32Q153 41 177 48T217 69T242 102T258 157L273 156ZM303 291Q303 276 298 266T285 248T271 237T261 233Q249 233 242 249T234 280Q234 282 237 289T247 305T261 319T278 325Q287 325 292 321T300 310T302 299T303 291Z"  />
<glyph unicode="&#xC0;" horiz-adv-x="552" d="M392 237Q383 238 372 238T350 239T332 240T322 240Q310 240 286 240T235 237L199 172Q188 149 177 127T158 87T144 55T138 37Q138 24 155 22T197 18L194 -2Q188 -2 173 -2T139 0Q122 0 106 0T83 1H-2L4 18Q30 19 44 20T69 27T87 45T110 78L135 120L191 220Q192 221 206 244T241 302T291 382T348 472T405 557T456 626H470L450 93Q450 81 450 69T454 46T467 30T494 23Q507 23 522 28T551 38V19Q540 11 523 4T472 -3Q471 -3 464 -3T447 -2T429 -1T417 0H380Q366 0 350 0T306 -2L308 21Q336 22 351 26T373 42T383 74T387 129L392 237ZM405 505L403 507Q387 484 365 450T323 385Q319 379 309 363T288 328T267 293T253 269Q263 267 279 266T326 265Q344 265 359 265T393 268L405 505ZM468 821L542 662H517L404 821H468Z"  />
<glyph unicode="&#xC1;" horiz-adv-x="552" d="M392 237Q383 238 372 238T350 239T332 240T322 240Q310 240 286 240T235 237L199 172Q188 149 177 127T158 87T144 55T138 37Q138 24 155 22T197 18L194 -2Q188 -2 173 -2T139 0Q122 0 106 0T83 1H-2L4 18Q30 19 44 20T69 27T87 45T110 78L135 120L191 220Q192 221 206 244T241 302T291 382T348 472T405 557T456 626H470L450 93Q450 81 450 69T454 46T467 30T494 23Q507 23 522 28T551 38V19Q540 11 523 4T472 -3Q471 -3 464 -3T447 -2T429 -1T417 0H380Q366 0 350 0T306 -2L308 21Q336 22 351 26T373 42T383 74T387 129L392 237ZM405 505L403 507Q387 484 365 450T323 385Q319 379 309 363T288 328T267 293T253 269Q263 267 279 266T326 265Q344 265 359 265T393 268L405 505ZM566 821L420 662H396L502 821H566Z"  />
<glyph unicode="&#xC2;" horiz-adv-x="552" d="M392 237Q383 238 372 238T350 239T332 240T322 240Q310 240 286 240T235 237L199 172Q188 149 177 127T158 87T144 55T138 37Q138 24 155 22T197 18L194 -2Q188 -2 173 -2T139 0Q122 0 106 0T83 1H-2L4 18Q30 19 44 20T69 27T87 45T110 78L135 120L191 220Q192 221 206 244T241 302T291 382T348 472T405 557T456 626H470L450 93Q450 81 450 69T454 46T467 30T494 23Q507 23 522 28T551 38V19Q540 11 523 4T472 -3Q471 -3 464 -3T447 -2T429 -1T417 0H380Q366 0 350 0T306 -2L308 21Q336 22 351 26T373 42T383 74T387 129L392 237ZM405 505L403 507Q387 484 365 450T323 385Q319 379 309 363T288 328T267 293T253 269Q263 267 279 266T326 265Q344 265 359 265T393 268L405 505ZM532 662L492 762L381 662H359L480 821H528L553 662H532Z"  />
<glyph unicode="&#xC3;" horiz-adv-x="552" d="M392 237Q383 238 372 238T350 239T332 240T322 240Q310 240 286 240T235 237L199 172Q188 149 177 127T158 87T144 55T138 37Q138 24 155 22T197 18L194 -2Q188 -2 173 -2T139 0Q122 0 106 0T83 1H-2L4 18Q30 19 44 20T69 27T87 45T110 78L135 120L191 220Q192 221 206 244T241 302T291 382T348 472T405 557T456 626H470L450 93Q450 81 450 69T454 46T467 30T494 23Q507 23 522 28T551 38V19Q540 11 523 4T472 -3Q471 -3 464 -3T447 -2T429 -1T417 0H380Q366 0 350 0T306 -2L308 21Q336 22 351 26T373 42T383 74T387 129L392 237ZM405 505L403 507Q387 484 365 450T323 385Q319 379 309 363T288 328T267 293T253 269Q263 267 279 266T326 265Q344 265 359 265T393 268L405 505ZM595 766Q584 719 563 699T517 679Q500 679 483 687T458 700Q438 712 429 716T409 721Q392 721 382 708T364 679H344Q358 721 377 743T424 765Q439 765 450 761T474 748Q500 733 511 729T531 724Q542 724 550 729T563 742T571 756T575 766H595Z"  />
<glyph unicode="&#xC4;" horiz-adv-x="552" d="M392 237Q383 238 372 238T350 239T332 240T322 240Q310 240 286 240T235 237L199 172Q188 149 177 127T158 87T144 55T138 37Q138 24 155 22T197 18L194 -2Q188 -2 173 -2T139 0Q122 0 106 0T83 1H-2L4 18Q30 19 44 20T69 27T87 45T110 78L135 120L191 220Q192 221 206 244T241 302T291 382T348 472T405 557T456 626H470L450 93Q450 81 450 69T454 46T467 30T494 23Q507 23 522 28T551 38V19Q540 11 523 4T472 -3Q471 -3 464 -3T447 -2T429 -1T417 0H380Q366 0 350 0T306 -2L308 21Q336 22 351 26T373 42T383 74T387 129L392 237ZM405 505L403 507Q387 484 365 450T323 385Q319 379 309 363T288 328T267 293T253 269Q263 267 279 266T326 265Q344 265 359 265T393 268L405 505ZM369 716Q369 731 379 741T405 752Q421 752 431 741T441 716Q441 701 431 690T405 679Q391 679 380 689T369 716ZM514 716Q514 730 524 741T550 752Q565 752 575 741T586 716Q586 700 575 690T550 679Q536 679 525 689T514 716Z"  />
<glyph unicode="&#xC5;" horiz-adv-x="552" d="M392 237Q383 238 372 238T350 239T332 240T322 240Q310 240 286 240T235 237L199 172Q188 149 177 127T158 87T144 55T138 37Q138 24 155 22T197 18L194 -2Q188 -2 173 -2T139 0Q122 0 106 0T83 1H-2L4 18Q30 19 44 20T69 27T87 45T110 78L135 120L191 220Q192 221 206 244T241 302T291 382T348 472T405 557T456 626H470L450 93Q450 81 450 69T454 46T467 30T494 23Q507 23 522 28T551 38V19Q540 11 523 4T472 -3Q471 -3 464 -3T447 -2T429 -1T417 0H380Q366 0 350 0T306 -2L308 21Q336 22 351 26T373 42T383 74T387 129L392 237ZM405 505L403 507Q387 484 365 450T323 385Q319 379 309 363T288 328T267 293T253 269Q263 267 279 266T326 265Q344 265 359 265T393 268L405 505ZM372 739Q372 771 394 792T447 814Q479 814 501 793T523 739Q523 707 501 686T447 664Q417 664 395 685T372 739ZM395 739Q395 716 410 701T447 686Q469 686 484 701T500 739Q500 762 485 777T447 792Q426 792 411 777T395 739Z"  />
<glyph unicode="&#xC6;" horiz-adv-x="750" d="M-7 24Q28 25 48 28T85 43T120 80T171 151L336 387L362 425Q368 434 385 457T421 506T454 552T468 577Q468 581 453 583T419 585T384 585T364 584L372 606H564Q571 606 589 606T626 607T663 607T687 608H782Q782 577 778 554T768 515L753 514Q754 530 749 547T739 573Q737 577 735 577T723 578L563 580Q561 572 560 567T556 552L505 327L638 329Q649 329 657 330T671 336T684 353T696 387H718Q704 341 695 300T680 231L660 230Q660 233 661 241T662 259T663 277T664 289Q664 297 659 298T633 300L566 298L499 299L462 130Q461 125 458 109T455 77Q455 57 463 46T488 29T527 23T581 22Q610 22 632 23T672 31T707 55T740 101L755 89Q751 79 745 67T733 42T721 18T709 -2H303L309 16Q332 18 344 20T364 27Q368 29 371 32T379 47T389 79T403 139L439 298Q412 298 394 298T361 297T334 296T309 295L225 165Q220 157 206 136T176 92T148 51T136 32Q136 29 144 28T162 25T181 24T192 24L236 21L229 -1Q221 0 210 0T183 0Q169 1 152 1T117 1Q72 1 44 0T-7 -2V24ZM500 570L498 572Q478 544 446 499T373 394L325 320Q344 320 357 320T384 321T411 322T445 324L500 570Z"  />
<glyph unicode="&#xC7;" horiz-adv-x="615" d="M592 131Q585 118 574 92T553 36Q539 30 519 22T471 5T412 -8T341 -14L330 -30Q368 -36 382 -56T396 -98Q396 -122 380 -143T336 -178T271 -200T194 -205L201 -186Q244 -184 271 -175T314 -154T336 -130T342 -109Q342 -95 335 -87T318 -76T295 -72T272 -71L317 -12Q267 -6 225 16T153 72T107 150T90 247Q90 316 118 383T197 503T321 589T483 622Q495 622 515 621T561 613T618 592T684 553Q682 547 680 536T675 510T670 481T667 451L643 450V455Q643 506 622 535T572 577T518 594T483 597Q423 597 366 569T265 492T194 380T167 248Q167 188 185 144T232 71T296 28T363 13Q386 13 423 24T498 61Q518 75 533 93T570 142L592 131Z"  />
<glyph unicode="&#xC8;" horiz-adv-x="469" d="M173 33L270 31Q283 31 294 31T316 30Q342 30 360 33T394 45T422 70T451 114L466 105Q465 101 462 90T452 64T438 32T419 -2Q410 -1 400 -1T372 1Q355 2 330 2T262 2Q244 2 210 2T138 2T63 0T2 -3L-1 20Q29 23 45 24T70 27T82 30T89 34Q102 44 109 67T124 124L210 492Q211 498 213 508T217 528T220 549T222 564Q222 578 212 582T185 589Q170 591 152 591T102 590L106 612H518Q518 599 517 585T513 558T509 534T505 517H490Q488 537 486 548T482 566T478 575T473 580Q468 583 457 584T431 587T404 588T384 588Q378 588 373 588T360 588T339 587T305 585Q301 574 296 555T285 516T275 480T270 459L247 357Q259 357 279 357T321 358T361 361T384 366Q388 369 392 377T400 394T407 410T411 420H434Q430 409 419 369T395 270H375Q375 271 376 277T378 290T379 303T380 312Q380 327 366 329T305 333L242 334L173 33ZM337 821L411 662H386L273 821H337Z"  />
<glyph unicode="&#xC9;" horiz-adv-x="469" d="M173 33L270 31Q283 31 294 31T316 30Q342 30 360 33T394 45T422 70T451 114L466 105Q465 101 462 90T452 64T438 32T419 -2Q410 -1 400 -1T372 1Q355 2 330 2T262 2Q244 2 210 2T138 2T63 0T2 -3L-1 20Q29 23 45 24T70 27T82 30T89 34Q102 44 109 67T124 124L210 492Q211 498 213 508T217 528T220 549T222 564Q222 578 212 582T185 589Q170 591 152 591T102 590L106 612H518Q518 599 517 585T513 558T509 534T505 517H490Q488 537 486 548T482 566T478 575T473 580Q468 583 457 584T431 587T404 588T384 588Q378 588 373 588T360 588T339 587T305 585Q301 574 296 555T285 516T275 480T270 459L247 357Q259 357 279 357T321 358T361 361T384 366Q388 369 392 377T400 394T407 410T411 420H434Q430 409 419 369T395 270H375Q375 271 376 277T378 290T379 303T380 312Q380 327 366 329T305 333L242 334L173 33ZM462 821L316 662H292L398 821H462Z"  />
<glyph unicode="&#xCA;" horiz-adv-x="469" d="M173 33L270 31Q283 31 294 31T316 30Q342 30 360 33T394 45T422 70T451 114L466 105Q465 101 462 90T452 64T438 32T419 -2Q410 -1 400 -1T372 1Q355 2 330 2T262 2Q244 2 210 2T138 2T63 0T2 -3L-1 20Q29 23 45 24T70 27T82 30T89 34Q102 44 109 67T124 124L210 492Q211 498 213 508T217 528T220 549T222 564Q222 578 212 582T185 589Q170 591 152 591T102 590L106 612H518Q518 599 517 585T513 558T509 534T505 517H490Q488 537 486 548T482 566T478 575T473 580Q468 583 457 584T431 587T404 588T384 588Q378 588 373 588T360 588T339 587T305 585Q301 574 296 555T285 516T275 480T270 459L247 357Q259 357 279 357T321 358T361 361T384 366Q388 369 392 377T400 394T407 410T411 420H434Q430 409 419 369T395 270H375Q375 271 376 277T378 290T379 303T380 312Q380 327 366 329T305 333L242 334L173 33ZM428 662L388 762L277 662H255L376 821H424L449 662H428Z"  />
<glyph unicode="&#xCB;" horiz-adv-x="469" d="M173 33L270 31Q283 31 294 31T316 30Q342 30 360 33T394 45T422 70T451 114L466 105Q465 101 462 90T452 64T438 32T419 -2Q410 -1 400 -1T372 1Q355 2 330 2T262 2Q244 2 210 2T138 2T63 0T2 -3L-1 20Q29 23 45 24T70 27T82 30T89 34Q102 44 109 67T124 124L210 492Q211 498 213 508T217 528T220 549T222 564Q222 578 212 582T185 589Q170 591 152 591T102 590L106 612H518Q518 599 517 585T513 558T509 534T505 517H490Q488 537 486 548T482 566T478 575T473 580Q468 583 457 584T431 587T404 588T384 588Q378 588 373 588T360 588T339 587T305 585Q301 574 296 555T285 516T275 480T270 459L247 357Q259 357 279 357T321 358T361 361T384 366Q388 369 392 377T400 394T407 410T411 420H434Q430 409 419 369T395 270H375Q375 271 376 277T378 290T379 303T380 312Q380 327 366 329T305 333L242 334L173 33ZM265 716Q265 731 275 741T301 752Q317 752 327 741T337 716Q337 701 327 690T301 679Q287 679 276 689T265 716ZM410 716Q410 730 420 741T446 752Q461 752 471 741T482 716Q482 700 471 690T446 679Q432 679 421 689T410 716Z"  />
<glyph unicode="&#xCC;" horiz-adv-x="313" d="M198 104Q193 84 192 75T191 58Q191 51 193 44T202 32T224 23T265 19Q280 19 291 22T316 32L326 22Q313 13 298 5T250 -3Q243 -3 225 -2T186 0Q166 2 148 2T121 3Q115 3 101 3T71 2T41 2T21 1L27 21Q53 21 69 22T97 30T114 48T125 84L226 532Q230 547 230 552T231 559Q231 568 229 573T217 582T190 586T140 589L146 611Q161 610 180 610T218 609T254 608T282 608Q288 608 303 608T336 609T368 609T389 610L388 589Q358 589 341 587T315 578T302 559T293 524L198 104ZM260 821L334 662H309L196 821H260Z"  />
<glyph unicode="&#xCD;" horiz-adv-x="313" d="M198 104Q193 84 192 75T191 58Q191 51 193 44T202 32T224 23T265 19Q280 19 291 22T316 32L326 22Q313 13 298 5T250 -3Q243 -3 225 -2T186 0Q166 2 148 2T121 3Q115 3 101 3T71 2T41 2T21 1L27 21Q53 21 69 22T97 30T114 48T125 84L226 532Q230 547 230 552T231 559Q231 568 229 573T217 582T190 586T140 589L146 611Q161 610 180 610T218 609T254 608T282 608Q288 608 303 608T336 609T368 609T389 610L388 589Q358 589 341 587T315 578T302 559T293 524L198 104ZM384 821L238 662H214L320 821H384Z"  />
<glyph unicode="&#xCE;" horiz-adv-x="313" d="M198 104Q193 84 192 75T191 58Q191 51 193 44T202 32T224 23T265 19Q280 19 291 22T316 32L326 22Q313 13 298 5T250 -3Q243 -3 225 -2T186 0Q166 2 148 2T121 3Q115 3 101 3T71 2T41 2T21 1L27 21Q53 21 69 22T97 30T114 48T125 84L226 532Q230 547 230 552T231 559Q231 568 229 573T217 582T190 586T140 589L146 611Q161 610 180 610T218 609T254 608T282 608Q288 608 303 608T336 609T368 609T389 610L388 589Q358 589 341 587T315 578T302 559T293 524L198 104ZM350 662L310 762L199 662H177L298 821H346L371 662H350Z"  />
<glyph unicode="&#xCF;" horiz-adv-x="313" d="M198 104Q193 84 192 75T191 58Q191 51 193 44T202 32T224 23T265 19Q280 19 291 22T316 32L326 22Q313 13 298 5T250 -3Q243 -3 225 -2T186 0Q166 2 148 2T121 3Q115 3 101 3T71 2T41 2T21 1L27 21Q53 21 69 22T97 30T114 48T125 84L226 532Q230 547 230 552T231 559Q231 568 229 573T217 582T190 586T140 589L146 611Q161 610 180 610T218 609T254 608T282 608Q288 608 303 608T336 609T368 609T389 610L388 589Q358 589 341 587T315 578T302 559T293 524L198 104ZM187 716Q187 731 197 741T223 752Q239 752 249 741T259 716Q259 701 249 690T223 679Q209 679 198 689T187 716ZM332 716Q332 730 342 741T368 752Q383 752 393 741T404 716Q404 700 393 690T368 679Q354 679 343 689T332 716Z"  />
<glyph unicode="&#xD0;" horiz-adv-x="667" d="M201 463Q210 507 213 532T216 563Q216 580 202 583T153 588L93 590L97 611H304Q384 611 453 595T574 544T655 452T685 316Q685 267 673 227T642 154T599 97T552 56Q520 34 482 22T405 5T333 -2T274 -3H1V20Q39 19 60 20T94 33T113 70T131 140L163 291H55L62 318H170L201 463ZM407 291H232L224 252Q223 250 221 237T214 204T206 162T197 119T191 83T188 61Q188 49 194 41T214 29T251 23T309 21Q360 21 410 31T505 82Q548 120 577 183T607 327Q607 383 588 430T534 512T448 566T333 586Q323 586 315 586T300 585Q298 578 292 552T279 496T265 438T256 400L239 318H414L407 291Z"  />
<glyph unicode="&#xD1;" horiz-adv-x="625" d="M563 270Q561 262 558 249T552 222T546 195T542 176L521 84Q513 49 509 28T503 -13H489L443 81L236 487H234L157 144Q156 138 153 124T147 96T142 69T139 55Q139 43 145 36T162 26T187 23T218 22L212 1L97 2Q91 2 78 2T49 0T20 -2T1 -3L6 18Q36 18 54 23T84 36T100 56T110 79Q117 103 126 139T146 217T166 304T185 392T200 471T210 534Q196 554 181 565T151 581T119 588T87 589L88 610Q94 610 111 610T148 608T185 607T210 606Q221 606 230 606T248 607Q254 590 265 567T286 526L501 108Q504 120 507 136T511 156L579 446Q581 455 585 472T592 507T599 541T602 563Q602 569 601 573T594 581T573 587T533 589L538 609Q544 609 557 609T584 608Q598 607 611 607T630 606Q635 606 648 606T675 608Q690 608 703 608T721 609V589Q693 588 676 584T647 569T629 542T616 498L609 465L563 270ZM542 766Q531 719 510 699T464 679Q447 679 430 687T405 700Q385 712 376 716T356 721Q339 721 329 708T311 679H291Q305 721 324 743T371 765Q386 765 397 761T421 748Q447 733 458 729T478 724Q489 724 497 729T510 742T518 756T522 766H542Z"  />
<glyph unicode="&#xD2;" horiz-adv-x="667" d="M89 255Q89 329 118 395T195 512T306 592T436 622Q494 622 540 600T617 541T665 454T682 351Q682 286 657 222T587 106T480 23T344 -9Q275 -9 227 17T148 82T103 167T89 255ZM162 247Q162 192 177 148T217 74T276 27T348 10Q381 10 424 26T504 80Q540 116 561 162T593 251T607 328T610 374Q610 421 598 462T563 534T506 582T430 600Q380 600 332 576T247 505T186 394T162 247ZM436 821L510 662H485L372 821H436Z"  />
<glyph unicode="&#xD3;" horiz-adv-x="667" d="M89 255Q89 329 118 395T195 512T306 592T436 622Q494 622 540 600T617 541T665 454T682 351Q682 286 657 222T587 106T480 23T344 -9Q275 -9 227 17T148 82T103 167T89 255ZM162 247Q162 192 177 148T217 74T276 27T348 10Q381 10 424 26T504 80Q540 116 561 162T593 251T607 328T610 374Q610 421 598 462T563 534T506 582T430 600Q380 600 332 576T247 505T186 394T162 247ZM534 821L388 662H364L470 821H534Z"  />
<glyph unicode="&#xD4;" horiz-adv-x="667" d="M89 255Q89 329 118 395T195 512T306 592T436 622Q494 622 540 600T617 541T665 454T682 351Q682 286 657 222T587 106T480 23T344 -9Q275 -9 227 17T148 82T103 167T89 255ZM162 247Q162 192 177 148T217 74T276 27T348 10Q381 10 424 26T504 80Q540 116 561 162T593 251T607 328T610 374Q610 421 598 462T563 534T506 582T430 600Q380 600 332 576T247 505T186 394T162 247ZM500 662L460 762L349 662H327L448 821H496L521 662H500Z"  />
<glyph unicode="&#xD5;" horiz-adv-x="667" d="M89 255Q89 329 118 395T195 512T306 592T436 622Q494 622 540 600T617 541T665 454T682 351Q682 286 657 222T587 106T480 23T344 -9Q275 -9 227 17T148 82T103 167T89 255ZM162 247Q162 192 177 148T217 74T276 27T348 10Q381 10 424 26T504 80Q540 116 561 162T593 251T607 328T610 374Q610 421 598 462T563 534T506 582T430 600Q380 600 332 576T247 505T186 394T162 247ZM563 766Q552 719 531 699T485 679Q468 679 451 687T426 700Q406 712 397 716T377 721Q360 721 350 708T332 679H312Q326 721 345 743T392 765Q407 765 418 761T442 748Q468 733 479 729T499 724Q510 724 518 729T531 742T539 756T543 766H563Z"  />
<glyph unicode="&#xD6;" horiz-adv-x="667" d="M89 255Q89 329 118 395T195 512T306 592T436 622Q494 622 540 600T617 541T665 454T682 351Q682 286 657 222T587 106T480 23T344 -9Q275 -9 227 17T148 82T103 167T89 255ZM162 247Q162 192 177 148T217 74T276 27T348 10Q381 10 424 26T504 80Q540 116 561 162T593 251T607 328T610 374Q610 421 598 462T563 534T506 582T430 600Q380 600 332 576T247 505T186 394T162 247ZM337 716Q337 731 347 741T373 752Q389 752 399 741T409 716Q409 701 399 690T373 679Q359 679 348 689T337 716ZM482 716Q482 730 492 741T518 752Q533 752 543 741T554 716Q554 700 543 690T518 679Q504 679 493 689T482 716Z"  />
<glyph unicode="&#xD7;" horiz-adv-x="667" d="M123 626L155 659L377 437L599 659L631 626L409 404L629 184L596 152L377 372L156 152L123 184L344 404L123 626Z"  />
<glyph unicode="&#xD8;" horiz-adv-x="667" d="M663 623L682 605L619 538Q640 512 652 484T671 430T680 383T682 351Q682 286 657 222T587 106T480 23T344 -9Q304 -9 274 -1T223 18T188 40T169 57L105 -11L87 6L152 76Q121 115 105 161T89 258Q89 328 117 393T193 510T304 591T436 622Q467 622 492 616T538 600T574 579T601 557L663 623ZM570 524Q553 548 535 563T499 586T464 597T430 600Q377 600 329 574T244 502T184 391T162 251Q162 240 162 225T166 192T174 155T190 116L570 524ZM203 93Q222 64 244 48T286 23T323 12T348 10Q381 10 424 26T504 80Q539 115 560 160T592 249T606 327T610 374Q610 439 584 500L203 93Z"  />
<glyph unicode="&#xD9;" horiz-adv-x="646" d="M204 533Q206 544 208 555T211 574Q211 579 210 582T202 588T180 592T137 593L141 611H372L366 593Q336 592 319 590T292 578T277 550T264 498L227 332Q216 285 211 253T205 185Q205 134 222 101T264 49T316 22T362 14Q411 14 442 36T494 91T526 164T545 239L612 534Q614 544 616 556T619 579Q619 584 612 586T595 590T570 592T543 592L547 611H733V592Q704 591 687 587T659 569T640 528T621 453L565 208Q560 186 549 149T514 76T448 14T342 -13Q332 -13 313 -11T271 -2T224 19T181 54T150 107T137 184Q137 212 142 244T154 302L204 533ZM426 821L500 662H475L362 821H426Z"  />
<glyph unicode="&#xDA;" horiz-adv-x="646" d="M204 533Q206 544 208 555T211 574Q211 579 210 582T202 588T180 592T137 593L141 611H372L366 593Q336 592 319 590T292 578T277 550T264 498L227 332Q216 285 211 253T205 185Q205 134 222 101T264 49T316 22T362 14Q411 14 442 36T494 91T526 164T545 239L612 534Q614 544 616 556T619 579Q619 584 612 586T595 590T570 592T543 592L547 611H733V592Q704 591 687 587T659 569T640 528T621 453L565 208Q560 186 549 149T514 76T448 14T342 -13Q332 -13 313 -11T271 -2T224 19T181 54T150 107T137 184Q137 212 142 244T154 302L204 533ZM551 821L405 662H381L487 821H551Z"  />
<glyph unicode="&#xDB;" horiz-adv-x="646" d="M204 533Q206 544 208 555T211 574Q211 579 210 582T202 588T180 592T137 593L141 611H372L366 593Q336 592 319 590T292 578T277 550T264 498L227 332Q216 285 211 253T205 185Q205 134 222 101T264 49T316 22T362 14Q411 14 442 36T494 91T526 164T545 239L612 534Q614 544 616 556T619 579Q619 584 612 586T595 590T570 592T543 592L547 611H733V592Q704 591 687 587T659 569T640 528T621 453L565 208Q560 186 549 149T514 76T448 14T342 -13Q332 -13 313 -11T271 -2T224 19T181 54T150 107T137 184Q137 212 142 244T154 302L204 533ZM517 662L477 762L366 662H344L465 821H513L538 662H517Z"  />
<glyph unicode="&#xDC;" horiz-adv-x="646" d="M204 533Q206 544 208 555T211 574Q211 579 210 582T202 588T180 592T137 593L141 611H372L366 593Q336 592 319 590T292 578T277 550T264 498L227 332Q216 285 211 253T205 185Q205 134 222 101T264 49T316 22T362 14Q411 14 442 36T494 91T526 164T545 239L612 534Q614 544 616 556T619 579Q619 584 612 586T595 590T570 592T543 592L547 611H733V592Q704 591 687 587T659 569T640 528T621 453L565 208Q560 186 549 149T514 76T448 14T342 -13Q332 -13 313 -11T271 -2T224 19T181 54T150 107T137 184Q137 212 142 244T154 302L204 533ZM354 716Q354 731 364 741T390 752Q406 752 416 741T426 716Q426 701 416 690T390 679Q376 679 365 689T354 716ZM499 716Q499 730 509 741T535 752Q550 752 560 741T571 716Q571 700 560 690T535 679Q521 679 510 689T499 716Z"  />
<glyph unicode="&#xDD;" horiz-adv-x="510" d="M371 360Q357 342 348 330T333 306T322 278T311 238Q307 223 300 194T286 135T273 78T267 41Q267 27 279 23T318 19Q330 19 347 20T376 24L373 5Q359 1 347 0T318 -1Q312 -1 299 -1T270 0T242 0T223 1Q215 1 196 1T156 0T117 -1T92 -2L95 18Q133 18 153 20T185 36Q190 42 195 58T206 93T215 132T223 164L254 301Q247 326 239 357T222 421T206 485T191 542Q183 573 167 581T114 592L116 610H324L319 589Q293 588 275 585T256 566Q256 562 256 558T258 545T263 524T271 491Q276 469 282 445T295 398T306 357T314 329Q322 339 339 359T377 405T420 459T460 511T489 554T501 579Q501 584 494 586T477 590T457 591T441 591L443 610Q462 610 488 609T535 608Q555 608 573 608T610 611V591Q589 591 577 589T549 575T513 538T455 466L371 360ZM483 821L337 662H313L419 821H483Z"  />
<glyph unicode="&#xDE;" horiz-adv-x="500" d="M169 33Q179 28 193 26T220 22T243 19T258 18L254 -1Q246 0 229 0T192 1Q172 2 152 2T117 2Q97 2 67 2T18 0L19 20Q22 21 29 22T45 24T61 27T71 29Q84 34 91 46T101 66Q106 80 116 119T139 209T165 318T188 424T206 510T213 555Q213 563 210 569T197 579T168 586T116 587L122 607Q130 607 150 607T194 605T238 604T268 603Q274 603 288 603T318 604T349 605T370 606V586Q338 582 315 574T287 547L269 478Q349 477 395 458T464 412T494 359T500 315Q500 288 490 259T454 206T389 165T289 149Q267 149 239 151T194 156L169 33ZM200 180Q224 175 242 175T264 174Q316 174 349 189T400 227T425 274T432 317Q432 339 425 364T398 409T346 443T263 456L200 180Z"  />
<glyph unicode="&#xDF;" horiz-adv-x="385" d="M219 360Q244 372 270 389T319 431T355 486T369 560Q369 602 347 625T291 648Q266 648 250 634T222 595T204 539T189 473L100 8Q94 -22 87 -52T68 -112T37 -168T-11 -219Q-39 -242 -71 -252T-133 -263Q-162 -263 -169 -257T-177 -236Q-177 -227 -173 -222T-163 -215T-153 -213T-147 -212Q-144 -212 -137 -212T-121 -213T-105 -214T-94 -215Q-60 -215 -38 -205T0 -174T25 -118T44 -34Q46 -24 48 -12T52 11T56 31T59 44L116 346Q129 415 142 475T174 579T223 648T298 673Q318 673 339 665T379 642T408 603T420 548Q420 519 409 494T380 447T337 408T286 377V375Q318 370 337 355T367 321T381 280T384 240Q384 192 369 148T328 69T271 13T206 -8Q186 -8 173 -2T153 14T144 33T141 50Q144 57 149 63Q154 68 162 73T185 82Q185 70 186 58T190 35T199 18T218 11Q238 11 258 29T293 79T319 152T329 238Q329 280 317 302T288 335T253 348T222 350L219 360Z"  />
<glyph unicode="&#xE0;" horiz-adv-x="344" d="M349 75Q323 41 295 18T250 -6Q248 -6 243 -5T233 0T224 14T219 39Q219 50 221 65T226 96T232 124T236 141L234 143L209 112L188 89Q177 76 164 60T136 29T109 4T87 -6Q70 -6 61 1T47 19T42 42T41 66Q41 102 53 145T89 229T147 303T223 350Q230 352 246 355T280 361T314 366T336 370Q314 271 301 213T281 122T272 75T270 51Q270 46 271 42T278 38Q283 38 291 43T307 56T323 71T336 84L349 75ZM93 80Q93 73 96 62T110 50Q114 50 121 55T138 69T155 85T169 98Q193 122 207 137T230 164T243 190T252 221Q258 246 263 270T277 321Q239 319 208 312T151 276Q137 259 127 232T109 176T97 120T93 80ZM275 583L349 424H324L211 583H275Z"  />
<glyph unicode="&#xE1;" horiz-adv-x="344" d="M349 75Q323 41 295 18T250 -6Q248 -6 243 -5T233 0T224 14T219 39Q219 50 221 65T226 96T232 124T236 141L234 143L209 112L188 89Q177 76 164 60T136 29T109 4T87 -6Q70 -6 61 1T47 19T42 42T41 66Q41 102 53 145T89 229T147 303T223 350Q230 352 246 355T280 361T314 366T336 370Q314 271 301 213T281 122T272 75T270 51Q270 46 271 42T278 38Q283 38 291 43T307 56T323 71T336 84L349 75ZM93 80Q93 73 96 62T110 50Q114 50 121 55T138 69T155 85T169 98Q193 122 207 137T230 164T243 190T252 221Q258 246 263 270T277 321Q239 319 208 312T151 276Q137 259 127 232T109 176T97 120T93 80ZM373 583L227 424H203L309 583H373Z"  />
<glyph unicode="&#xE2;" horiz-adv-x="344" d="M349 75Q323 41 295 18T250 -6Q248 -6 243 -5T233 0T224 14T219 39Q219 50 221 65T226 96T232 124T236 141L234 143L209 112L188 89Q177 76 164 60T136 29T109 4T87 -6Q70 -6 61 1T47 19T42 42T41 66Q41 102 53 145T89 229T147 303T223 350Q230 352 246 355T280 361T314 366T336 370Q314 271 301 213T281 122T272 75T270 51Q270 46 271 42T278 38Q283 38 291 43T307 56T323 71T336 84L349 75ZM93 80Q93 73 96 62T110 50Q114 50 121 55T138 69T155 85T169 98Q193 122 207 137T230 164T243 190T252 221Q258 246 263 270T277 321Q239 319 208 312T151 276Q137 259 127 232T109 176T97 120T93 80ZM339 424L299 524L188 424H166L287 583H335L360 424H339Z"  />
<glyph unicode="&#xE3;" horiz-adv-x="344" d="M349 75Q323 41 295 18T250 -6Q248 -6 243 -5T233 0T224 14T219 39Q219 50 221 65T226 96T232 124T236 141L234 143L209 112L188 89Q177 76 164 60T136 29T109 4T87 -6Q70 -6 61 1T47 19T42 42T41 66Q41 102 53 145T89 229T147 303T223 350Q230 352 246 355T280 361T314 366T336 370Q314 271 301 213T281 122T272 75T270 51Q270 46 271 42T278 38Q283 38 291 43T307 56T323 71T336 84L349 75ZM93 80Q93 73 96 62T110 50Q114 50 121 55T138 69T155 85T169 98Q193 122 207 137T230 164T243 190T252 221Q258 246 263 270T277 321Q239 319 208 312T151 276Q137 259 127 232T109 176T97 120T93 80ZM402 528Q391 481 370 461T324 441Q307 441 290 449T265 462Q245 474 236 478T216 483Q199 483 189 470T171 441H151Q165 483 184 505T231 527Q246 527 257 523T281 510Q307 495 318 491T338 486Q349 486 357 491T370 504T378 518T382 528H402Z"  />
<glyph unicode="&#xE4;" horiz-adv-x="344" d="M349 75Q323 41 295 18T250 -6Q248 -6 243 -5T233 0T224 14T219 39Q219 50 221 65T226 96T232 124T236 141L234 143L209 112L188 89Q177 76 164 60T136 29T109 4T87 -6Q70 -6 61 1T47 19T42 42T41 66Q41 102 53 145T89 229T147 303T223 350Q230 352 246 355T280 361T314 366T336 370Q314 271 301 213T281 122T272 75T270 51Q270 46 271 42T278 38Q283 38 291 43T307 56T323 71T336 84L349 75ZM93 80Q93 73 96 62T110 50Q114 50 121 55T138 69T155 85T169 98Q193 122 207 137T230 164T243 190T252 221Q258 246 263 270T277 321Q239 319 208 312T151 276Q137 259 127 232T109 176T97 120T93 80ZM176 478Q176 493 186 503T212 514Q228 514 238 503T248 478Q248 463 238 452T212 441Q198 441 187 451T176 478ZM321 478Q321 492 331 503T357 514Q372 514 382 503T393 478Q393 462 382 452T357 441Q343 441 332 451T321 478Z"  />
<glyph unicode="&#xE5;" horiz-adv-x="344" d="M349 75Q323 41 295 18T250 -6Q248 -6 243 -5T233 0T224 14T219 39Q219 50 221 65T226 96T232 124T236 141L234 143L209 112L188 89Q177 76 164 60T136 29T109 4T87 -6Q70 -6 61 1T47 19T42 42T41 66Q41 102 53 145T89 229T147 303T223 350Q230 352 246 355T280 361T314 366T336 370Q314 271 301 213T281 122T272 75T270 51Q270 46 271 42T278 38Q283 38 291 43T307 56T323 71T336 84L349 75ZM93 80Q93 73 96 62T110 50Q114 50 121 55T138 69T155 85T169 98Q193 122 207 137T230 164T243 190T252 221Q258 246 263 270T277 321Q239 319 208 312T151 276Q137 259 127 232T109 176T97 120T93 80ZM179 501Q179 533 201 554T254 576Q286 576 308 555T330 501Q330 469 308 448T254 426Q224 426 202 447T179 501ZM202 501Q202 478 217 463T254 448Q276 448 291 463T307 501Q307 524 292 539T254 554Q233 554 218 539T202 501Z"  />
<glyph unicode="&#xE6;" horiz-adv-x="406" d="M384 82Q383 81 366 67T324 37T274 7T228 -7Q215 -7 208 1T198 21T194 43T193 58Q193 63 194 73T197 99L195 101Q176 77 156 57T118 23T86 1T64 -7Q54 -7 49 0T41 18T38 39T37 54Q37 60 39 88T53 155T88 235T154 312Q174 328 198 342T247 358Q263 359 276 360T302 365Q303 365 304 365T307 366Q311 366 311 363Q311 363 309 357T303 343T296 328T292 319L294 317Q320 337 347 351T393 365Q410 365 417 353T425 324Q425 295 409 271T367 229T312 197T256 176Q248 136 247 109T245 77Q245 72 245 66T248 55T255 46T270 42Q281 42 295 47T322 60T348 76T368 89L375 94L384 82ZM93 77Q93 69 95 57T108 45Q120 45 136 58T168 89T194 123T205 147Q207 155 211 173T224 216T242 266T267 315Q259 313 255 313T234 310Q213 308 200 305T178 297T164 289T155 279Q136 257 124 225T105 161T96 106T93 77ZM378 305Q378 319 371 324T355 330Q334 330 319 315T292 279T274 234T261 192Q304 210 328 229T363 263T376 290T378 305Z"  />
<glyph unicode="&#xE7;" horiz-adv-x="250" d="M72 -4Q56 1 48 18T40 50Q40 71 46 102T63 169T90 239T126 302T172 347T225 365Q231 365 240 364T257 361T272 353T279 341Q279 338 278 333T274 322T268 312T261 307Q258 307 250 308T232 312T214 315T201 317Q180 317 164 306T136 263Q128 243 121 217T109 164T101 115T98 76Q98 64 103 51T125 38Q133 38 153 46T212 83L222 71Q213 62 198 51T166 28T132 7T98 -5L80 -30Q118 -36 132 -56T146 -98Q146 -122 130 -143T86 -178T21 -200T-56 -205L-49 -186Q-6 -184 21 -175T64 -154T86 -130T92 -109Q92 -95 85 -87T68 -76T45 -72T22 -71L72 -4Z"  />
<glyph unicode="&#xE8;" horiz-adv-x="250" d="M98 132Q95 114 94 99T92 79Q92 60 101 52T124 43Q156 43 225 94L234 82Q215 66 194 51T152 23T113 2T85 -6Q80 -6 72 -4T57 7T44 29T38 67Q38 89 44 121T62 188T88 255T122 311Q129 319 139 329T160 347T182 362T204 368Q206 368 216 368T238 363T259 349T269 322Q269 301 255 280T217 239T164 202T106 171L98 132ZM223 297Q223 306 216 315T181 324Q166 324 156 314T138 285T124 244T112 197Q124 203 142 213T179 237T210 265T223 297ZM229 583L303 424H278L165 583H229Z"  />
<glyph unicode="&#xE9;" horiz-adv-x="250" d="M98 132Q95 114 94 99T92 79Q92 60 101 52T124 43Q156 43 225 94L234 82Q215 66 194 51T152 23T113 2T85 -6Q80 -6 72 -4T57 7T44 29T38 67Q38 89 44 121T62 188T88 255T122 311Q129 319 139 329T160 347T182 362T204 368Q206 368 216 368T238 363T259 349T269 322Q269 301 255 280T217 239T164 202T106 171L98 132ZM223 297Q223 306 216 315T181 324Q166 324 156 314T138 285T124 244T112 197Q124 203 142 213T179 237T210 265T223 297ZM327 583L181 424H157L263 583H327Z"  />
<glyph unicode="&#xEA;" horiz-adv-x="250" d="M98 132Q95 114 94 99T92 79Q92 60 101 52T124 43Q156 43 225 94L234 82Q215 66 194 51T152 23T113 2T85 -6Q80 -6 72 -4T57 7T44 29T38 67Q38 89 44 121T62 188T88 255T122 311Q129 319 139 329T160 347T182 362T204 368Q206 368 216 368T238 363T259 349T269 322Q269 301 255 280T217 239T164 202T106 171L98 132ZM223 297Q223 306 216 315T181 324Q166 324 156 314T138 285T124 244T112 197Q124 203 142 213T179 237T210 265T223 297ZM293 424L253 524L142 424H120L241 583H289L314 424H293Z"  />
<glyph unicode="&#xEB;" horiz-adv-x="250" d="M98 132Q95 114 94 99T92 79Q92 60 101 52T124 43Q156 43 225 94L234 82Q215 66 194 51T152 23T113 2T85 -6Q80 -6 72 -4T57 7T44 29T38 67Q38 89 44 121T62 188T88 255T122 311Q129 319 139 329T160 347T182 362T204 368Q206 368 216 368T238 363T259 349T269 322Q269 301 255 280T217 239T164 202T106 171L98 132ZM223 297Q223 306 216 315T181 324Q166 324 156 314T138 285T124 244T112 197Q124 203 142 213T179 237T210 265T223 297ZM130 478Q130 493 140 503T166 514Q182 514 192 503T202 478Q202 463 192 452T166 441Q152 441 141 451T130 478ZM275 478Q275 492 285 503T311 514Q326 514 336 503T347 478Q347 462 336 452T311 441Q297 441 286 451T275 478Z"  />
<glyph unicode="&#xEC;" horiz-adv-x="208" d="M139 134Q137 127 135 116T130 93T125 70T123 51Q123 45 125 40Q142 49 155 61T187 94L200 85Q186 65 170 49T138 20T111 1T92 -6Q91 -6 88 -5T80 0T73 11T70 31Q70 48 74 71T90 135L120 253Q123 266 125 275T129 290T132 303T135 317Q118 307 101 292T71 262L60 273Q84 301 103 319T136 347T161 361T178 365Q186 365 188 361T190 349Q190 343 188 331T182 303T175 274T168 249L139 134ZM184 583L258 424H233L120 583H184Z"  />
<glyph unicode="&#xED;" horiz-adv-x="208" d="M139 134Q137 127 135 116T130 93T125 70T123 51Q123 45 125 40Q142 49 155 61T187 94L200 85Q186 65 170 49T138 20T111 1T92 -6Q91 -6 88 -5T80 0T73 11T70 31Q70 48 74 71T90 135L120 253Q123 266 125 275T129 290T132 303T135 317Q118 307 101 292T71 262L60 273Q84 301 103 319T136 347T161 361T178 365Q186 365 188 361T190 349Q190 343 188 331T182 303T175 274T168 249L139 134ZM306 583L160 424H136L242 583H306Z"  />
<glyph unicode="&#xEE;" horiz-adv-x="208" d="M139 134Q137 127 135 116T130 93T125 70T123 51Q123 45 125 40Q142 49 155 61T187 94L200 85Q186 65 170 49T138 20T111 1T92 -6Q91 -6 88 -5T80 0T73 11T70 31Q70 48 74 71T90 135L120 253Q123 266 125 275T129 290T132 303T135 317Q118 307 101 292T71 262L60 273Q84 301 103 319T136 347T161 361T178 365Q186 365 188 361T190 349Q190 343 188 331T182 303T175 274T168 249L139 134ZM272 424L232 524L121 424H99L220 583H268L293 424H272Z"  />
<glyph unicode="&#xEF;" horiz-adv-x="208" d="M139 134Q137 127 135 116T130 93T125 70T123 51Q123 45 125 40Q142 49 155 61T187 94L200 85Q186 65 170 49T138 20T111 1T92 -6Q91 -6 88 -5T80 0T73 11T70 31Q70 48 74 71T90 135L120 253Q123 266 125 275T129 290T132 303T135 317Q118 307 101 292T71 262L60 273Q84 301 103 319T136 347T161 361T178 365Q186 365 188 361T190 349Q190 343 188 331T182 303T175 274T168 249L139 134ZM109 478Q109 493 119 503T145 514Q161 514 171 503T181 478Q181 463 171 452T145 441Q131 441 120 451T109 478ZM254 478Q254 492 264 503T290 514Q305 514 315 503T326 478Q326 462 315 452T290 441Q276 441 265 451T254 478Z"  />
<glyph unicode="&#xF0;" horiz-adv-x="344" d="M277 193Q277 216 271 238T252 279T221 308T181 319Q164 319 155 313T138 292Q120 260 113 229T106 170Q106 153 109 130T122 86T146 49T184 34Q202 34 211 37T226 48Q242 66 252 88T267 130T275 167T277 193ZM262 535Q284 500 296 463T316 391T325 326T327 275Q327 226 319 190T299 125T272 77T244 40Q229 22 219 12T200 -2T185 -7T170 -8Q144 -8 123 3T87 36T64 85T56 147Q56 184 72 222T112 292T161 343T207 363Q215 363 232 358T273 325L275 327Q275 334 274 353T268 399T256 457T232 519L122 461L112 480L222 538Q210 562 192 584T149 623L168 634Q218 602 250 553L359 611L370 592L262 535Z"  />
<glyph unicode="&#xF1;" horiz-adv-x="396" d="M334 131Q333 126 331 113T325 86T320 60T318 44Q318 39 321 36Q328 39 337 46T354 62T369 78T377 88L388 80Q382 72 370 58T344 29T315 5T287 -6Q279 -6 275 -2T269 7T267 17T266 26Q266 28 267 41T272 68L311 252Q315 270 315 276T316 286Q316 300 310 305T299 310Q283 310 263 295T221 259T180 215T147 174L107 -2H58L124 291Q127 307 127 312Q127 319 123 319Q118 319 110 313T93 299T74 281T59 266L48 278Q62 292 77 307T108 335T137 356T162 364Q176 364 178 352T181 336Q181 332 180 326T178 313T175 301T173 294L155 216L157 214Q222 290 276 327T353 365Q356 365 364 356T372 331Q372 320 371 308T367 283T362 259T358 241L334 131ZM405 528Q394 481 373 461T327 441Q310 441 293 449T268 462Q248 474 239 478T219 483Q202 483 192 470T174 441H154Q168 483 187 505T234 527Q249 527 260 523T284 510Q310 495 321 491T341 486Q352 486 360 491T373 504T381 518T385 528H405Z"  />
<glyph unicode="&#xF2;" horiz-adv-x="313" d="M190 -3Q185 -5 178 -6T160 -8Q138 -8 118 2T83 33T59 83T50 149Q50 183 65 221T105 291T158 343T214 364Q228 364 245 356T276 330T300 286T310 223Q310 213 307 190T292 136T256 69T190 -3ZM208 40Q222 55 233 74T252 116T264 160T268 202Q268 215 265 235T251 274T224 306T178 320Q153 320 142 306Q138 301 131 289T116 259T104 220T99 174Q99 151 103 127T116 82T139 48T175 35Q191 35 197 36T208 40ZM237 583L311 424H286L173 583H237Z"  />
<glyph unicode="&#xF3;" horiz-adv-x="313" d="M190 -3Q185 -5 178 -6T160 -8Q138 -8 118 2T83 33T59 83T50 149Q50 183 65 221T105 291T158 343T214 364Q228 364 245 356T276 330T300 286T310 223Q310 213 307 190T292 136T256 69T190 -3ZM208 40Q222 55 233 74T252 116T264 160T268 202Q268 215 265 235T251 274T224 306T178 320Q153 320 142 306Q138 301 131 289T116 259T104 220T99 174Q99 151 103 127T116 82T139 48T175 35Q191 35 197 36T208 40ZM335 583L189 424H165L271 583H335Z"  />
<glyph unicode="&#xF4;" horiz-adv-x="313" d="M190 -3Q185 -5 178 -6T160 -8Q138 -8 118 2T83 33T59 83T50 149Q50 183 65 221T105 291T158 343T214 364Q228 364 245 356T276 330T300 286T310 223Q310 213 307 190T292 136T256 69T190 -3ZM208 40Q222 55 233 74T252 116T264 160T268 202Q268 215 265 235T251 274T224 306T178 320Q153 320 142 306Q138 301 131 289T116 259T104 220T99 174Q99 151 103 127T116 82T139 48T175 35Q191 35 197 36T208 40ZM301 424L261 524L150 424H128L249 583H297L322 424H301Z"  />
<glyph unicode="&#xF5;" horiz-adv-x="313" d="M190 -3Q185 -5 178 -6T160 -8Q138 -8 118 2T83 33T59 83T50 149Q50 183 65 221T105 291T158 343T214 364Q228 364 245 356T276 330T300 286T310 223Q310 213 307 190T292 136T256 69T190 -3ZM208 40Q222 55 233 74T252 116T264 160T268 202Q268 215 265 235T251 274T224 306T178 320Q153 320 142 306Q138 301 131 289T116 259T104 220T99 174Q99 151 103 127T116 82T139 48T175 35Q191 35 197 36T208 40ZM364 528Q353 481 332 461T286 441Q269 441 252 449T227 462Q207 474 198 478T178 483Q161 483 151 470T133 441H113Q127 483 146 505T193 527Q208 527 219 523T243 510Q269 495 280 491T300 486Q311 486 319 491T332 504T340 518T344 528H364Z"  />
<glyph unicode="&#xF6;" horiz-adv-x="313" d="M190 -3Q185 -5 178 -6T160 -8Q138 -8 118 2T83 33T59 83T50 149Q50 183 65 221T105 291T158 343T214 364Q228 364 245 356T276 330T300 286T310 223Q310 213 307 190T292 136T256 69T190 -3ZM208 40Q222 55 233 74T252 116T264 160T268 202Q268 215 265 235T251 274T224 306T178 320Q153 320 142 306Q138 301 131 289T116 259T104 220T99 174Q99 151 103 127T116 82T139 48T175 35Q191 35 197 36T208 40ZM138 478Q138 493 148 503T174 514Q190 514 200 503T210 478Q210 463 200 452T174 441Q160 441 149 451T138 478ZM283 478Q283 492 293 503T319 514Q334 514 344 503T355 478Q355 462 344 452T319 441Q305 441 294 451T283 478Z"  />
<glyph unicode="&#xF7;" horiz-adv-x="667" d="M342 66Q342 80 352 88T375 96Q388 96 397 87T407 64Q407 51 398 41T375 31Q361 31 352 41T342 66ZM342 496Q342 510 352 518T375 526Q388 526 397 517T407 494Q407 481 398 471T375 461Q361 461 352 471T342 496ZM96 301H656V256H96V301Z"  />
<glyph unicode="&#xF8;" horiz-adv-x="313" d="M296 374L312 362L284 320Q298 299 304 273T310 223Q310 200 304 174T285 121T257 70T220 25Q210 15 204 9T191 -1T177 -6T160 -8Q129 -8 112 5T89 26L64 -12L47 0L76 44Q71 53 61 77T50 148Q50 183 65 221T105 291T158 343T214 364Q225 364 242 356T272 336L296 374ZM241 290Q221 312 203 316T178 320Q155 320 140 301T115 258T103 209T99 175Q99 159 101 138T111 95L241 290ZM120 73Q129 57 140 46T175 35Q196 35 202 38T216 49Q232 67 242 90T258 136T266 176T268 202Q268 209 266 228T253 272L120 73Z"  />
<glyph unicode="&#xF9;" horiz-adv-x="406" d="M332 99Q332 98 331 93T329 82T327 69T326 58Q326 56 327 51T335 46Q342 46 351 52T369 68T385 85T396 98L409 89Q393 67 376 50T344 20T318 1T302 -6Q296 -6 284 3T272 27Q272 32 274 44T278 68Q281 82 284 98L317 249L315 251Q291 209 261 164T200 81T141 19T93 -6Q85 -6 81 -1T77 22Q77 51 84 87T98 155L114 239Q115 240 116 248T120 266T123 285T125 296Q125 300 123 303T116 307Q107 307 84 284T36 227L27 236Q30 242 45 263T80 307T122 348T162 366Q163 366 166 366T172 363T178 356T181 343Q181 341 180 328T173 287Q173 284 171 276T168 258T164 241T162 232L141 129Q141 128 140 123T138 109T135 92T134 77Q134 75 135 69T143 63Q149 63 164 76T197 112T237 162T277 221T311 281T335 335Q337 342 343 347T357 357T371 363T380 365Q382 365 382 363T383 353Q383 342 381 330T376 305L332 99ZM283 583L357 424H332L219 583H283Z"  />
<glyph unicode="&#xFA;" horiz-adv-x="406" d="M332 99Q332 98 331 93T329 82T327 69T326 58Q326 56 327 51T335 46Q342 46 351 52T369 68T385 85T396 98L409 89Q393 67 376 50T344 20T318 1T302 -6Q296 -6 284 3T272 27Q272 32 274 44T278 68Q281 82 284 98L317 249L315 251Q291 209 261 164T200 81T141 19T93 -6Q85 -6 81 -1T77 22Q77 51 84 87T98 155L114 239Q115 240 116 248T120 266T123 285T125 296Q125 300 123 303T116 307Q107 307 84 284T36 227L27 236Q30 242 45 263T80 307T122 348T162 366Q163 366 166 366T172 363T178 356T181 343Q181 341 180 328T173 287Q173 284 171 276T168 258T164 241T162 232L141 129Q141 128 140 123T138 109T135 92T134 77Q134 75 135 69T143 63Q149 63 164 76T197 112T237 162T277 221T311 281T335 335Q337 342 343 347T357 357T371 363T380 365Q382 365 382 363T383 353Q383 342 381 330T376 305L332 99ZM404 583L258 424H234L340 583H404Z"  />
<glyph unicode="&#xFB;" horiz-adv-x="406" d="M332 99Q332 98 331 93T329 82T327 69T326 58Q326 56 327 51T335 46Q342 46 351 52T369 68T385 85T396 98L409 89Q393 67 376 50T344 20T318 1T302 -6Q296 -6 284 3T272 27Q272 32 274 44T278 68Q281 82 284 98L317 249L315 251Q291 209 261 164T200 81T141 19T93 -6Q85 -6 81 -1T77 22Q77 51 84 87T98 155L114 239Q115 240 116 248T120 266T123 285T125 296Q125 300 123 303T116 307Q107 307 84 284T36 227L27 236Q30 242 45 263T80 307T122 348T162 366Q163 366 166 366T172 363T178 356T181 343Q181 341 180 328T173 287Q173 284 171 276T168 258T164 241T162 232L141 129Q141 128 140 123T138 109T135 92T134 77Q134 75 135 69T143 63Q149 63 164 76T197 112T237 162T277 221T311 281T335 335Q337 342 343 347T357 357T371 363T380 365Q382 365 382 363T383 353Q383 342 381 330T376 305L332 99ZM347 424L307 524L196 424H174L295 583H343L368 424H347Z"  />
<glyph unicode="&#xFC;" horiz-adv-x="406" d="M332 99Q332 98 331 93T329 82T327 69T326 58Q326 56 327 51T335 46Q342 46 351 52T369 68T385 85T396 98L409 89Q393 67 376 50T344 20T318 1T302 -6Q296 -6 284 3T272 27Q272 32 274 44T278 68Q281 82 284 98L317 249L315 251Q291 209 261 164T200 81T141 19T93 -6Q85 -6 81 -1T77 22Q77 51 84 87T98 155L114 239Q115 240 116 248T120 266T123 285T125 296Q125 300 123 303T116 307Q107 307 84 284T36 227L27 236Q30 242 45 263T80 307T122 348T162 366Q163 366 166 366T172 363T178 356T181 343Q181 341 180 328T173 287Q173 284 171 276T168 258T164 241T162 232L141 129Q141 128 140 123T138 109T135 92T134 77Q134 75 135 69T143 63Q149 63 164 76T197 112T237 162T277 221T311 281T335 335Q337 342 343 347T357 357T371 363T380 365Q382 365 382 363T383 353Q383 342 381 330T376 305L332 99ZM184 478Q184 493 194 503T220 514Q236 514 246 503T256 478Q256 463 246 452T220 441Q206 441 195 451T184 478ZM329 478Q329 492 339 503T365 514Q380 514 390 503T401 478Q401 462 390 452T365 441Q351 441 340 451T329 478Z"  />
<glyph unicode="&#xFD;" horiz-adv-x="354" d="M-61 -196Q-52 -205 -42 -212T-11 -220Q10 -220 43 -199T108 -145T163 -70T186 12Q186 33 182 62T170 124T153 189T133 246T114 288T97 304Q91 304 83 295T68 272T54 244T43 221L29 234Q41 262 54 286T79 328T103 355T123 365Q133 365 149 337T180 261T209 151T226 20H228Q242 45 257 75T285 138T306 201T315 262Q315 276 312 284T306 297T298 303T292 304Q287 304 284 301T278 296L268 306Q272 314 279 324T294 344T311 359T328 365Q332 365 335 358T341 341T345 317T347 293Q347 245 328 185T276 64T204 -57T121 -161T38 -235T-35 -263Q-38 -263 -45 -263T-60 -259T-77 -249T-93 -230L-61 -196ZM378 583L232 424H208L314 583H378Z"  />
<glyph unicode="&#xFE;" horiz-adv-x="333" d="M178 576Q183 596 185 612T187 635Q187 643 183 644T166 646L114 645L117 660Q122 660 135 661T164 665T196 669T224 673Q227 674 231 674Q240 674 240 664Q240 655 238 642T234 614T228 586T223 564Q206 497 194 432T167 294L179 302L220 332Q224 335 232 341T248 352T262 361T271 365Q276 365 287 359T309 340T329 307T338 257Q338 221 326 176T291 90T234 23T159 -5Q155 -5 141 -4T108 7L70 -172Q68 -179 66 -193T64 -213Q64 -234 84 -240T147 -247L145 -263H94Q92 -263 86 -263T73 -262T60 -262T51 -261Q41 -261 26 -261T-4 -262T-31 -262T-49 -263L-50 -246Q-28 -245 -16 -243T3 -235T13 -216T20 -179L178 576ZM119 62Q132 36 143 30T170 24Q193 24 210 37T241 72T262 120T276 172T284 217T286 249Q286 253 286 266T284 284Q284 290 279 295T266 306T253 314T245 317Q242 317 233 313T212 302T187 288T163 273L119 62Z"  />
<glyph unicode="&#xFF;" horiz-adv-x="354" d="M-61 -196Q-52 -205 -42 -212T-11 -220Q10 -220 43 -199T108 -145T163 -70T186 12Q186 33 182 62T170 124T153 189T133 246T114 288T97 304Q91 304 83 295T68 272T54 244T43 221L29 234Q41 262 54 286T79 328T103 355T123 365Q133 365 149 337T180 261T209 151T226 20H228Q242 45 257 75T285 138T306 201T315 262Q315 276 312 284T306 297T298 303T292 304Q287 304 284 301T278 296L268 306Q272 314 279 324T294 344T311 359T328 365Q332 365 335 358T341 341T345 317T347 293Q347 245 328 185T276 64T204 -57T121 -161T38 -235T-35 -263Q-38 -263 -45 -263T-60 -259T-77 -249T-93 -230L-61 -196ZM158 478Q158 493 168 503T194 514Q210 514 220 503T230 478Q230 463 220 452T194 441Q180 441 169 451T158 478ZM303 478Q303 492 313 503T339 514Q354 514 364 503T375 478Q375 462 364 452T339 441Q325 441 314 451T303 478Z"  />
<glyph unicode="&#x131;" horiz-adv-x="208" d="M139 134Q137 127 135 116T130 93T125 70T123 51Q123 45 125 40Q142 49 155 61T187 94L200 85Q186 65 170 49T138 20T111 1T92 -6Q91 -6 88 -5T80 0T73 11T70 31Q70 48 74 71T90 135L120 253Q123 266 125 275T129 290T132 303T135 317Q118 307 101 292T71 262L60 273Q84 301 103 319T136 347T161 361T178 365Q186 365 188 361T190 349Q190 343 188 331T182 303T175 274T168 249L139 134Z"  />
<glyph unicode="&#x152;" horiz-adv-x="698" d="M707 99Q698 81 692 69T679 45T665 22T646 -7Q636 -6 628 -5T607 -4T575 -3T522 -3Q511 -3 480 -3T414 -5Q379 -7 348 -7T302 -8Q251 -8 215 7T154 47T116 100T94 157T85 208T83 244Q83 319 110 386T181 504T280 585T393 615Q398 615 409 615T434 612Q448 611 459 610T475 609H550Q576 609 604 610T658 612T704 615T736 617Q736 603 733 577T721 528H706Q704 548 702 559T692 577T669 584T627 586Q612 586 594 586T560 584T532 582T515 581L460 334Q480 334 503 334T547 334T587 336T617 339Q621 340 624 341T632 348T640 365T652 397H670L636 251H617Q619 262 620 272T621 294Q621 306 612 308T566 309L487 308Q487 308 482 308T472 308T461 307T454 306L414 131Q411 117 407 96T403 60Q403 51 405 44T416 32T447 25T508 22Q548 22 573 23T616 31T649 54T686 99H707ZM450 589Q442 591 432 593T406 595Q358 595 312 568T231 491T175 376T153 234Q153 174 166 132T200 65T245 28T290 16Q307 16 312 20T319 30Q323 39 328 56T337 92T345 126T351 148L450 589Z"  />
<glyph unicode="&#x153;" horiz-adv-x="438" d="M233 83Q225 70 213 55T186 25T155 2T120 -8Q106 -8 93 -1T68 21T50 56T43 104Q43 141 59 187T102 272T161 339T228 366Q247 366 265 346T290 274Q314 312 341 340T400 368Q401 368 409 367T428 361T447 347T456 321Q456 299 442 279T404 239T354 204T301 174Q296 147 292 118T288 74Q288 63 291 56T298 46T307 41T315 40Q324 40 336 45T361 57T389 73T415 90L423 77Q414 70 396 56T357 28T316 3T282 -8Q264 -8 255 3T241 30T236 60T235 83H233ZM100 125Q100 115 101 99T108 68T123 42T148 31Q157 31 175 43T210 80T240 141T253 225Q253 240 250 257T240 289T223 314T197 324Q176 324 158 306T127 260T107 196T100 125ZM305 196Q350 221 380 248T410 298Q410 300 409 304T405 314T396 323T379 327Q362 327 350 317T330 289T315 247T305 196Z"  />
<glyph unicode="&#x160;" horiz-adv-x="375" d="M393 490Q390 512 386 527T371 553Q370 554 362 561T342 577T313 593T281 600Q269 600 253 595T223 579T198 549T187 501Q187 475 193 454T212 413T241 371T282 323Q319 281 339 247T359 167Q359 126 342 93T295 36T223 -1T132 -14Q94 -14 71 -6T34 19Q34 20 35 29T38 48T45 67T55 75Q63 75 69 70T80 59Q94 44 113 28T161 12Q176 12 199 18T243 39T281 79T297 142Q297 166 291 186T272 225T243 265T203 311Q173 345 152 380T130 466Q130 509 148 538T193 586T249 613T302 622Q329 622 348 616T382 602T405 586T419 573Q417 559 416 550T413 531T411 513T408 490H393ZM265 821L306 722L415 821H438L316 662H272L244 821H265Z"  />
<glyph unicode="&#x161;" horiz-adv-x="250" d="M124 179Q101 205 93 220T85 253Q85 277 98 297T132 333T179 357T233 366Q244 366 254 362T264 340Q264 337 263 331T259 318T253 308T244 303Q240 303 233 306Q232 306 226 308T210 314T191 319T171 321Q150 321 138 306T125 277Q125 274 126 269T131 257T144 237T170 207Q194 181 207 161T221 109Q221 84 210 63T180 27T137 2T89 -7Q73 -7 61 -2T41 9T28 22T24 30Q24 32 27 39T35 55T45 72T57 83Q69 28 112 28Q125 28 137 34T159 49T175 69T181 90Q181 108 169 126T146 155L124 179ZM177 583L218 484L327 583H350L228 424H184L156 583H177Z"  />
<glyph unicode="&#x178;" horiz-adv-x="510" d="M371 360Q357 342 348 330T333 306T322 278T311 238Q307 223 300 194T286 135T273 78T267 41Q267 27 279 23T318 19Q330 19 347 20T376 24L373 5Q359 1 347 0T318 -1Q312 -1 299 -1T270 0T242 0T223 1Q215 1 196 1T156 0T117 -1T92 -2L95 18Q133 18 153 20T185 36Q190 42 195 58T206 93T215 132T223 164L254 301Q247 326 239 357T222 421T206 485T191 542Q183 573 167 581T114 592L116 610H324L319 589Q293 588 275 585T256 566Q256 562 256 558T258 545T263 524T271 491Q276 469 282 445T295 398T306 357T314 329Q322 339 339 359T377 405T420 459T460 511T489 554T501 579Q501 584 494 586T477 590T457 591T441 591L443 610Q462 610 488 609T535 608Q555 608 573 608T610 611V591Q589 591 577 589T549 575T513 538T455 466L371 360ZM286 716Q286 731 296 741T322 752Q338 752 348 741T358 716Q358 701 348 690T322 679Q308 679 297 689T286 716ZM431 716Q431 730 441 741T467 752Q482 752 492 741T503 716Q503 700 492 690T467 679Q453 679 442 689T431 716Z"  />
<glyph unicode="&#x17D;" horiz-adv-x="531" d="M120 24H263Q344 24 390 28T455 36Q469 38 484 49T523 81L544 82Q536 69 531 60T521 42T512 24T501 0H13Q29 20 38 32T57 57T76 83T105 122L329 425Q350 453 365 474T393 513T417 549T442 587H182Q178 584 169 574T151 553T132 532T119 518H101Q109 533 115 543T126 563T137 584T151 612H548L360 359Q343 336 330 318T304 283T281 249T255 213T224 170T185 115L120 24ZM316 821L357 722L466 821H489L367 662H323L295 821H316Z"  />
<glyph unicode="&#x17E;" horiz-adv-x="344" d="M95 51L97 49Q105 54 112 56T131 58Q137 58 153 55T188 49T222 42T246 39Q273 39 293 56T325 86L338 74Q335 71 324 58T295 30T255 5T209 -7Q204 -7 199 -7T187 -5T167 0T134 8Q120 12 106 12T90 13Q67 13 54 7T29 -7H3L313 307Q305 307 297 307T280 310Q264 314 254 316T237 319T225 321T213 322Q159 322 124 244Q122 246 118 250T114 257Q126 287 144 311Q159 331 182 348T238 366Q244 366 258 364T289 358T321 352T342 349Q356 349 365 354T382 368L391 348L95 51ZM233 583L274 484L383 583H406L284 424H240L212 583H233Z"  />
<glyph unicode="&#x192;" horiz-adv-x="552" d="M466 356H356L330 176Q321 110 310 59T283 -32T246 -103T195 -163Q162 -194 122 -212T36 -231Q30 -231 22 -231T7 -228T-5 -221T-10 -207Q-10 -197 -5 -192T7 -184T21 -181T31 -180Q34 -180 41 -180T55 -181T70 -181T79 -182Q133 -182 166 -158T219 -91T251 7T272 127L306 357L233 358Q234 366 235 370T238 382L311 384Q314 401 318 423T331 470T356 520T398 570Q429 599 459 609T510 619Q527 619 536 612T546 594Q546 583 540 578T526 569T508 566T491 565L469 566Q440 567 422 558T393 528T374 471T360 385H473L466 356Z"  />
<glyph unicode="&#x2C6;" horiz-adv-x="333" d="M333 424L293 524L182 424H160L281 583H329L354 424H333Z"  />
<glyph unicode="&#x2C7;" horiz-adv-x="333" d="M217 583L258 484L367 583H390L268 424H224L196 583H217Z"  />
<glyph unicode="&#x2DA;" horiz-adv-x="333" d="M173 501Q173 533 195 554T248 576Q280 576 302 555T324 501Q324 469 302 448T248 426Q218 426 196 447T173 501ZM196 501Q196 478 211 463T248 448Q270 448 285 463T301 501Q301 524 286 539T248 554Q227 554 212 539T196 501Z"  />
<glyph unicode="&#x2DC;" horiz-adv-x="333" d="M396 528Q385 481 364 461T318 441Q301 441 284 449T259 462Q239 474 230 478T210 483Q193 483 183 470T165 441H145Q159 483 178 505T225 527Q240 527 251 523T275 510Q301 495 312 491T332 486Q343 486 351 491T364 504T372 518T376 528H396Z"  />
<glyph unicode="&#x2013;" horiz-adv-x="500" d="M14 214H526V161H14V214Z"  />
<glyph unicode="&#x2014;" horiz-adv-x="1000" d="M14 214H1026V161H14V214Z"  />
<glyph unicode="&#x2018;" horiz-adv-x="177" d="M254 627Q228 621 209 607T178 573T159 532T152 492Q152 475 158 467T172 454T189 449T203 448L204 436Q190 431 180 423T151 390L145 383Q135 391 122 406T108 456Q108 479 116 509T143 567T190 618T260 648L254 627Z"  />
<glyph unicode="&#x2019;" horiz-adv-x="177" d="M145 593Q164 601 179 617T202 648Q230 629 236 607T243 572Q243 547 233 516T203 457T155 409T90 384L97 404Q121 409 140 424T172 458T192 498T199 535Q199 558 188 571T148 581L145 593Z"  />
<glyph unicode="&#x201A;" horiz-adv-x="177" d="M-11 -185Q17 -177 36 -161T66 -125T81 -87T86 -53Q86 -37 82 -28T70 -14T53 -8T36 -5Q36 -3 36 -1T35 3Q52 10 66 25T92 58Q112 42 121 27T130 -14Q130 -33 124 -62T100 -119T55 -172T-17 -205L-11 -185Z"  />
<glyph unicode="&#x201C;" horiz-adv-x="354" d="M254 627Q230 622 211 608T179 574T159 533T152 495Q152 488 154 480T161 464T177 453T203 450Q203 447 203 444T204 438Q187 431 172 417T148 385Q125 401 117 419T108 460Q108 485 118 515T147 573T194 622T259 648L254 627ZM433 627Q408 622 389 608T357 574T338 534T331 495Q331 478 341 463T371 448Q377 448 381 449Q381 446 381 444T382 438Q367 431 357 423T330 392L324 384Q297 404 292 423T287 458Q287 481 295 511T322 570T369 620T439 648L433 627Z"  />
<glyph unicode="&#x201D;" horiz-adv-x="354" d="M96 406Q118 410 137 424T169 457T190 497T198 536Q198 553 193 562T179 576T162 581T147 582L143 592Q170 607 181 619T201 648Q205 645 212 640T225 625T236 603T241 571Q241 545 230 514T199 455T151 407T89 384L96 406ZM273 404Q298 408 317 423T350 459T370 500T377 536Q377 565 361 573T327 581L323 593Q340 601 356 616T380 648Q394 637 402 626T414 605T419 587T420 573Q420 552 412 522T385 462T337 411T266 383L273 404Z"  />
<glyph unicode="&#x201E;" horiz-adv-x="354" d="M-12 -185Q16 -177 35 -161T65 -125T80 -87T85 -53Q85 -37 81 -28T69 -14T52 -8T35 -5Q35 -3 35 -1T34 3Q51 10 65 25T91 58Q111 42 120 27T129 -14Q129 -39 123 -61T108 -101T89 -134T69 -159Q46 -184 23 -192T-18 -205L-12 -185ZM167 -185Q195 -177 214 -161T244 -125T259 -87T264 -53Q264 -37 260 -28T248 -14T231 -8T214 -5Q214 -3 214 -1T213 3Q230 10 244 25T270 58Q290 42 299 27T308 -14Q308 -33 302 -62T278 -119T233 -172T161 -205L167 -185Z"  />
<glyph unicode="&#x2020;" horiz-adv-x="354" d="M110 410H121Q129 398 137 391T158 380T187 373T231 368Q234 408 236 432T242 472T249 502T261 533Q265 541 266 549T268 562Q268 575 260 580T239 590Q237 591 235 591T231 593L234 606H355L352 591Q332 586 321 579T305 560T297 534T294 501Q293 485 292 474T287 452T280 431T269 405Q263 391 261 384T256 368Q285 368 304 371T338 380T363 393T382 410H395L371 305H361Q355 312 348 319T328 331T297 341T249 346Q243 320 243 294Q243 274 247 262T257 241Q238 207 220 154T187 41T159 -77T137 -180H110Q121 -135 133 -81T155 27T171 130T178 215Q178 219 178 226T177 241Q182 247 188 254T200 273T214 302T228 345Q196 345 174 341T138 331T116 318T101 305H87L110 410Z"  />
<glyph unicode="&#x2021;" horiz-adv-x="344" d="M132 506H145Q155 492 168 484T195 472T225 467T255 465Q257 478 257 483T257 496Q257 517 257 531T259 556T265 578T277 604Q281 612 282 617T283 626Q283 632 276 642T246 654L250 667H370L368 654Q349 649 339 642T323 626T317 605T314 581Q313 569 312 560T309 542T303 523T290 496Q286 489 283 480T277 465Q309 467 330 471T365 481T388 493T404 506H418L395 403H384Q379 409 372 416T352 429T320 439T272 445Q269 429 269 424T268 410Q268 383 273 371T285 350Q251 293 231 234T210 110Q210 95 211 76T217 43Q205 31 192 13T164 -49Q216 -50 244 -40T292 -8H306L284 -111H271Q261 -97 247 -89T217 -78T186 -73T159 -71Q159 -104 159 -123T157 -156T152 -180T143 -204Q138 -215 136 -220T134 -231Q134 -240 138 -245T148 -254T159 -258T168 -259L166 -274H45L48 -261Q63 -255 73 -250T88 -237T96 -219T101 -191Q103 -170 106 -151T124 -103Q125 -101 127 -96T131 -86T136 -77T138 -71Q125 -71 109 -72T76 -77T43 -89T13 -110H-1L21 -9H34Q54 -35 83 -41T144 -49Q147 -36 147 -26T148 -13Q148 10 142 22T131 43Q144 66 157 93T181 151T199 215T206 283Q206 302 204 317T199 350Q239 390 251 444Q241 444 225 444T191 439T155 427T123 403H110L132 506Z"  />
<glyph unicode="&#x2022;" horiz-adv-x="375" d="M247 484Q274 484 298 474T339 446T367 404T378 353Q378 326 368 303T340 261T298 233T247 222Q219 222 195 232T154 261T126 302T116 353Q116 380 126 404T154 445T196 473T247 484Z"  />
<glyph unicode="&#x2026;" horiz-adv-x="1000" d="M465 24Q465 39 470 49T483 67T497 78T507 82Q519 82 526 66T534 35Q534 33 531 26T521 10T507 -4T490 -10Q481 -10 476 -6T468 5T466 16T465 24ZM820 24Q820 39 825 49T838 67T852 78T862 82Q874 82 881 66T889 35Q889 33 886 26T876 10T862 -4T845 -10Q836 -10 831 -6T823 5T821 16T820 24ZM110 24Q110 39 115 49T128 67T142 78T152 82Q164 82 171 66T179 35Q179 33 176 26T166 10T152 -4T135 -10Q126 -10 121 -6T113 5T111 16T110 24Z"  />
<glyph unicode="&#x2030;" horiz-adv-x="1094" d="M352 564Q352 577 350 592T341 621T323 642T294 651Q260 651 237 626T200 565T179 492T172 429Q172 395 180 377T198 349T219 338T233 336Q257 336 278 358T316 415T342 489T352 564ZM687 668H717L176 -8H145L687 668ZM515 102Q515 68 523 50T541 22T562 11T575 9Q599 9 620 31T658 88T684 162T694 237Q694 250 692 265T683 294T665 315T637 324Q603 324 580 299T543 238T522 165T515 102ZM124 458Q124 490 134 526T165 594T215 647T287 668Q326 668 349 652T383 615T397 572T400 540Q400 503 390 464T358 393T307 340T237 319Q205 319 184 333T149 367T130 412T124 458ZM467 131Q467 163 477 199T507 267T558 320T629 341Q668 341 691 325T725 288T739 245T742 213Q742 176 732 137T700 66T649 13T580 -8Q548 -8 526 6T491 40T473 85T467 131ZM791 131Q791 163 801 199T831 267T882 320T953 341Q992 341 1015 325T1049 288T1063 245T1066 213Q1066 176 1056 137T1024 66T973 13T904 -8Q872 -8 850 6T815 40T797 85T791 131ZM839 102Q839 68 847 50T865 22T886 11T899 9Q923 9 944 31T982 88T1008 162T1018 237Q1018 250 1016 265T1007 294T989 315T961 324Q927 324 904 299T867 238T846 165T839 102Z"  />
<glyph unicode="&#x2039;" horiz-adv-x="240" d="M169 0L51 188L245 374H265L126 187L186 0H169Z"  />
<glyph unicode="&#x203A;" horiz-adv-x="240" d="M108 374L227 187L33 0H14L152 187L90 374H108Z"  />
<glyph unicode="&#x20AC;" horiz-adv-x="480" d="M522 555Q521 549 519 538T516 513T513 484T511 455L488 454V458Q488 501 477 527T450 568T416 587T385 592Q352 592 321 574T265 523T220 447T190 352Q220 354 245 354T280 355Q299 355 327 356T384 358T440 361T485 365Q487 350 484 346T476 337Q472 337 457 337T420 336T374 335T330 333T294 332T275 331Q262 331 238 331T186 329Q182 299 180 267Q209 269 235 270T270 271Q289 271 315 272T369 274T421 277T465 281Q467 266 464 262T456 253Q452 253 437 253T402 252T360 251T317 249T283 248T265 247Q252 247 229 247T180 245Q180 181 190 137T217 66T256 26T303 13Q327 13 347 25T384 55T414 96T438 139L459 129Q454 116 447 90T433 35Q414 23 377 8T296 -8Q257 -8 225 12T168 68T131 148T116 244L84 243Q74 243 65 243T48 244L61 270Q68 267 72 266T88 264Q92 264 99 264T116 265Q117 296 122 328L84 327Q74 327 65 327T48 328L61 354Q68 351 72 350T88 348Q93 348 102 348T126 349Q138 403 161 452T217 538T293 597T385 619Q394 619 407 619T438 612T477 593T522 555Z"  />
<glyph unicode="&#x2122;" horiz-adv-x="1042" d="M205 295Q222 295 233 297T250 307T259 331T262 374V650H217Q201 650 188 648T165 640T149 620T140 582H127V674H456V582H444Q439 621 425 635T367 650H322V374Q322 347 324 331T333 307T350 297T379 295V279H205V295ZM607 674L751 364L891 674H1002V658Q983 657 972 655T955 646T948 628T946 595V364Q946 342 947 329T955 309T972 298T1002 295V279H833V295Q852 295 863 297T881 307T889 327T891 364V615H889L739 279H731L576 609H574V361Q574 340 575 327T581 307T598 298T631 295V279H491V295Q512 295 523 297T540 307T546 328T547 364V588Q547 607 546 619T540 640T524 652T491 658V674H607Z"  />

</font>
</defs>
</svg>
