<?xml  version="1.0" encoding="UTF-8"?>
<!DOCTYPE svg PUBLIC "-//W3C//DTD SVG 1.0//EN" "http://www.w3.org/TR/2001/REC-SVG-20010904/DTD/svg10.dtd" >
<svg xmlns="http://www.w3.org/2000/svg" >
<metadata>
<version>1.0</version>
<id><![CDATA[Bell Gothic W01 Light]]></id>
<vendor>Monotype Imaging Inc.</vendor>
<credits>
<name>Fonts.com WebFonts</name>
<URL>http://webfonts.fonts.com</URL>
<role>Home of the Web fonts</role>
</credits>
<license>
<URL>http://webfonts.fonts.com/Legal</URL>
</license>
<copyright><![CDATA[Copyright © 1992, 2001 Adobe Systems Incorporated.  All Rights Reserved.]]></copyright>
<trademark><![CDATA[Bell Gothic]]></trademark>
<licensee>
<name></name>
</licensee>
</metadata>
<defs >
<font horiz-adv-x="527" id="5f0d35e8-7261-4b8e-b90c-8dbcfce25a08">
<font-face font-family="" panose-1="2 11 5 6 2 2 3 2 2 4" ascent="864" descent="-250" units-per-em="1000" alphabetic="0">
</font-face>
<missing-glyph horiz-adv-x="275" />

<glyph unicode="&#xA;" />
<glyph unicode="&#xD;" />
<glyph unicode=" " horiz-adv-x="275" />
<glyph unicode="!" horiz-adv-x="389" d="M219 233H171L155 682H231L219 233ZM136 54Q136 79 154 96T195 114Q218 114 236 97T254 54Q254 31 238 13T194 -5Q164 -5 150 14T136 54Z"  />
<glyph unicode="&quot;" horiz-adv-x="333" d="M70 701H136V430H70V701ZM198 701H264V430H198V701Z"  />
<glyph unicode="#" horiz-adv-x="600" d="M518 220H412L382 0H320L351 220H221L191 0H129L160 220H56L54 274H168L189 426H84L82 480H196L227 700H288L257 480H387L418 700H479L448 480H544L546 426H441L420 274H516L518 220ZM250 426L229 274H359L380 426H250Z"  />
<glyph unicode="$" horiz-adv-x="556" d="M244 706H296V618Q344 612 382 598T456 552L422 501Q393 524 364 542T296 565V356Q328 343 359 330T416 297T457 250T473 181Q473 139 460 109T424 57T368 24T296 7V-126H244V5Q214 7 190 12T145 27T103 50T59 83L93 137Q124 102 161 85T244 61V303Q213 315 183 329T128 362T89 409T74 476Q74 512 88 538T127 583T181 609T244 618V706ZM244 567Q213 566 193 557T160 536T142 508T137 479Q137 451 149 433T186 400Q189 398 197 395T215 387T232 380T244 375V567ZM296 63Q320 65 340 72T377 91T402 123T411 169Q411 197 400 217T372 250T335 272T296 287V63Z"  />
<glyph unicode="%" horiz-adv-x="1000" d="M105 468Q105 501 118 529T152 579T203 612T265 625Q296 625 324 613T373 580T407 530T420 468Q420 435 408 406T375 356T326 322T265 309Q233 309 205 320T154 353T118 403T105 468ZM265 561Q247 561 230 555T199 536T177 506T169 467Q169 427 196 400T264 373Q306 373 331 401T356 467Q356 489 348 506T327 536T298 554T265 561ZM580 168Q580 201 593 229T627 279T678 313T740 325Q770 325 798 313T847 280T882 230T895 168Q895 135 883 106T849 56T800 22T740 9Q708 9 679 20T628 53T593 103T580 168ZM740 262Q721 262 704 255T673 236T651 206T643 167Q643 147 650 130T671 100T701 80T738 73Q780 73 805 101T831 168Q831 190 823 207T801 237T771 255T740 262ZM726 644L325 -6H274L675 644H726Z"  />
<glyph unicode="&amp;" horiz-adv-x="722" d="M635 313Q621 270 594 218T517 111Q527 99 538 87T562 66T591 50T627 43Q647 43 657 47T678 58V-11Q667 -15 654 -18T623 -22Q594 -22 572 -14T531 6T498 33T471 60Q442 32 413 16T357 -9T310 -20T280 -23Q223 -23 183 -4T118 44T80 109T68 178Q68 224 85 258T128 318T182 361T231 391Q208 429 192 464T175 545Q175 572 185 596T215 638T259 667T313 678Q355 678 382 664T425 630T447 587T454 546Q454 510 438 482T400 432T355 395T316 372Q337 338 355 312T391 261T429 212T475 155Q498 185 525 228T575 340L635 313ZM279 40Q307 40 331 47T375 65T407 88T429 109Q372 172 333 229T260 340Q236 325 214 311T175 277T148 234T138 177Q138 168 142 146T160 100T203 58T279 40ZM286 420Q300 428 318 439T352 465T379 501T390 549Q390 572 382 587T362 611T337 623T313 627Q290 627 276 619T253 598T241 571T237 545Q237 526 243 506T257 469T274 439T286 420Z"  />
<glyph unicode="&apos;" horiz-adv-x="222" d="M78 701H144V430H78V701Z"  />
<glyph unicode="(" horiz-adv-x="389" d="M302 683Q268 646 241 604T196 516T167 426T157 336Q157 275 168 227T198 138T244 60T301 -18H234Q199 24 174 64T131 146T106 234T97 335Q97 402 111 456T147 554T191 630T231 683H302Z"  />
<glyph unicode=")" horiz-adv-x="389" d="M158 683Q175 662 198 630T242 555T277 457T292 335Q292 281 284 235T258 146T215 64T155 -18H88Q119 22 145 59T190 138T221 227T232 336Q232 380 222 425T194 516T148 603T87 683H158Z"  />
<glyph unicode="*" horiz-adv-x="556" d="M115 589L260 524L242 681H306L291 524L437 595L459 531L298 498L414 381L361 339L276 479L204 340L149 381L255 497L95 525L115 589Z"  />
<glyph unicode="+" horiz-adv-x="600" d="M267 506H333V286H552V220H333V0H267V220H48V286H267V506Z"  />
<glyph unicode="&#x2c;" horiz-adv-x="278" d="M193 111L78 -184H14L130 111H193Z"  />
<glyph unicode="-" horiz-adv-x="333" d="M39 285H295V230H39V285Z"  />
<glyph unicode="." horiz-adv-x="278" d="M137 -7Q112 -7 94 9T76 52Q76 77 94 94T136 112Q162 112 179 94T197 52Q197 26 179 10T137 -7Z"  />
<glyph unicode="/" horiz-adv-x="278" d="M-22 -24L230 678H300L46 -24H-22Z"  />
<glyph unicode="0" horiz-adv-x="556" d="M485 310Q485 278 482 242T471 169T448 98T412 39T358 -2T285 -18Q222 -18 181 12T115 88T82 191T72 300Q72 388 88 451T133 553T200 611T283 630Q318 630 354 614T419 560T466 461T485 310ZM139 313Q139 267 145 218T167 129T210 63T279 37Q325 37 352 67T394 139T413 228T417 308Q417 343 413 388T393 475T350 544T274 573Q229 573 203 544T162 474T143 389T139 313Z"  />
<glyph unicode="1" horiz-adv-x="556" d="M322 613V56H454V0H113V56H250V556H90V613H322Z"  />
<glyph unicode="2" horiz-adv-x="556" d="M67 488Q73 501 86 524T122 570T179 609T263 626Q312 626 348 611T407 572T442 517T454 453Q454 414 439 382T400 324T347 274T289 230Q269 215 245 197T198 158T160 112T139 60H461V0H69Q75 58 91 98T133 169T194 229T274 294Q304 319 324 338T358 375T377 410T383 448Q383 472 376 493T354 531T316 557T262 567Q224 567 198 553T156 521T131 483T118 454L67 488Z"  />
<glyph unicode="3" horiz-adv-x="556" d="M56 30Q83 30 113 31T175 37T241 51T306 79Q324 89 341 102T373 132T396 169T405 212Q405 264 374 287T293 311Q266 311 245 306T201 292L183 340Q207 351 239 364T301 395T350 438T370 498Q370 529 348 549T283 569Q258 569 236 563T194 546T155 521T118 491L88 537Q133 576 181 601T281 626Q326 626 356 614T405 583T431 541T439 496Q439 463 425 441T392 403T355 377T326 358V356Q326 352 342 352Q403 352 439 314T476 216Q476 173 459 140T420 84T375 46T342 27Q307 9 268 0T191 -14T118 -20T56 -22V30Z"  />
<glyph unicode="4" horiz-adv-x="556" d="M343 561Q343 571 337 571Q333 571 331 569T326 564L112 259Q109 253 109 250Q109 245 110 243T118 241H343V561ZM493 241V181H412V0H344V181H49V267L299 625H412V241H493Z"  />
<glyph unicode="5" horiz-adv-x="556" d="M435 613V558H171L155 381Q177 391 205 400T275 410Q311 410 347 399T412 364T459 304T477 216Q477 157 455 113T396 39T310 -5T206 -20Q184 -20 161 -17T117 -10T80 1T53 12L64 72Q86 64 105 57T142 46T179 39T223 36Q275 36 311 53T369 97T400 153T410 211Q410 250 396 276T361 318T314 341T267 348Q235 348 213 341T177 324T153 307T140 299H83L118 613H435Z"  />
<glyph unicode="6" horiz-adv-x="556" d="M322 627Q307 612 284 586T237 529T189 462T150 394Q142 378 137 363T129 335T124 316T122 307Q122 301 125 301Q129 301 132 301T139 306Q157 324 173 338T208 361T246 374T293 379Q337 379 373 363T436 320T476 257T491 180Q491 132 474 94T428 30T359 -10T273 -24Q219 -24 178 -3T110 54T69 135T55 230Q55 288 69 341T108 443T165 537T231 627H322ZM424 178Q424 208 413 234T382 279T336 310T280 321Q250 321 224 310T179 279T148 233T137 178Q137 148 148 122T178 76T224 45T280 34Q310 34 336 45T381 75T412 121T424 178Z"  />
<glyph unicode="7" horiz-adv-x="556" d="M472 613V575Q409 463 345 322T230 0H146Q160 57 189 130T253 279T325 426T391 551H53V613H472Z"  />
<glyph unicode="8" horiz-adv-x="556" d="M488 161Q488 111 469 76T417 19T343 -12T256 -22Q207 -22 170 -7T106 33T67 91T53 161Q53 200 63 226T89 268T120 295T150 312Q160 317 170 320T181 329Q181 331 176 333T163 338T146 345T128 354Q109 366 90 391T71 461Q71 502 86 532T128 583T191 614T269 624Q305 624 341 616T405 589T452 541T470 469Q470 427 452 400T410 358Q390 347 375 340T360 330Q360 327 362 326T378 319Q432 297 460 259T488 161ZM271 299Q254 299 229 294T180 275T141 235T124 166Q124 108 161 70T267 32Q306 32 335 43T383 73T411 116T420 167Q420 206 404 231T364 272T315 293T271 299ZM405 468Q405 509 372 538T263 568Q239 568 216 562T176 543T148 510T137 463Q137 437 147 417T175 383T214 362T260 354Q290 354 316 360T362 379T393 414T405 468Z"  />
<glyph unicode="9" horiz-adv-x="556" d="M221 -21Q252 10 293 57T373 174Q377 182 385 198T401 233T415 269T421 295Q421 297 420 300T413 303Q410 303 407 301T396 289Q365 253 333 240T255 226Q214 226 178 239T113 277T69 337T52 415Q52 463 67 502T110 569T177 612T265 628Q317 628 358 609T428 556T472 479T487 384Q487 325 474 271T437 167T381 71T311 -21H221ZM119 427Q119 397 130 371T160 325T206 295T263 284Q292 284 318 295T363 325T394 371T406 427Q406 457 395 483T364 528T318 559T263 571Q233 571 207 560T161 529T130 483T119 427Z"  />
<glyph unicode=":" horiz-adv-x="333" d="M169 368Q140 368 124 386T107 428Q107 455 126 471T168 488Q191 488 209 471T227 428Q227 402 210 385T169 368ZM169 -8Q140 -8 124 10T107 52Q107 79 126 95T168 112Q191 112 209 95T227 52Q227 26 210 9T169 -8Z"  />
<glyph unicode=";" horiz-adv-x="333" d="M204 113L86 -182H24L139 113H204ZM106 432Q106 458 125 475T167 492Q191 492 210 475T229 431Q229 411 214 392T168 372Q139 372 123 390T106 432Z"  />
<glyph unicode="&lt;" horiz-adv-x="600" d="M554 -8L46 222V284L554 514V446L129 253L554 60V-8Z"  />
<glyph unicode="=" horiz-adv-x="600" d="M552 320H48V386H552V320ZM552 120H48V186H552V120Z"  />
<glyph unicode="&gt;" horiz-adv-x="600" d="M471 253L46 446V514L554 284V222L46 -8V60L471 253Z"  />
<glyph unicode="?" horiz-adv-x="500" d="M201 231V274Q201 321 220 351T262 405L294 438Q316 461 328 483T341 537Q341 554 336 570T318 599T287 619T239 627Q229 627 215 626T183 616T149 589T117 537L53 561Q59 574 72 595T109 635T167 669T248 684Q288 684 318 671T369 637T399 590T409 535Q409 509 402 488T382 448T356 415T326 385Q306 365 293 351T272 321T261 284T258 231H201ZM167 50Q167 74 184 91T227 109Q251 109 269 92T287 50Q287 24 269 8T227 -8Q201 -8 184 8T167 50Z"  />
<glyph unicode="@" horiz-adv-x="800" d="M699 125Q678 96 649 71T583 28T506 -1T419 -12Q342 -12 275 16T159 94T81 209T53 353Q53 428 82 493T160 607T275 684T415 712Q482 712 542 690T648 630T720 540T747 429Q747 367 725 317T669 230T595 173T519 153Q493 153 475 169T455 217L453 215Q432 192 400 173T329 153Q300 153 276 165T234 196T207 241T197 295Q197 341 213 388T258 473T329 535T423 559Q456 559 484 541T531 481L551 537H611L537 285Q532 271 530 258T528 234T533 216T549 209Q576 209 601 228T645 276T675 340T687 407Q687 465 665 512T606 591T519 641T415 659Q350 659 296 634T201 567T138 468T115 347Q115 282 139 227T204 130T301 65T421 41Q490 41 555 73T663 159L699 125ZM423 499Q388 499 360 479T311 431T279 369T267 311Q267 267 290 241T349 215Q381 215 409 235T457 284T489 346T501 405Q501 423 495 440T477 470T452 491T423 499Z"  />
<glyph unicode="A" horiz-adv-x="667" d="M472 218L340 578Q338 581 335 581Q332 581 330 576L196 218H472ZM42 0L300 674H370L626 0H551L491 162H176L116 0H42Z"  />
<glyph unicode="B" horiz-adv-x="667" d="M204 387Q246 387 278 387T336 387T380 390T416 398Q430 402 444 410T471 430T491 460T499 500Q499 538 476 564T424 600Q409 605 388 607T353 609H204V387ZM134 664H356Q407 664 448 655T519 617Q536 601 545 583T559 550T564 523T565 508Q565 466 550 439T514 396T475 374T448 366Q446 365 446 362Q446 358 450 357T457 356Q482 353 506 341T549 308T579 258T591 194Q591 152 575 114T527 47Q507 29 485 20T439 6T391 1T345 0H134V664ZM352 60Q372 60 401 62T458 76T504 115T523 191Q523 200 522 213T516 242T499 274T465 303Q439 319 409 325T347 331H204V60H352Z"  />
<glyph unicode="C" horiz-adv-x="611" d="M463 473Q460 505 450 532T423 580T381 611T324 623Q283 623 254 605T205 559T174 496T156 428T149 366T147 324Q147 311 148 285T153 226T168 159T198 96T247 50T320 32Q359 32 386 47T430 85T457 138T471 194L531 176Q528 154 518 120T485 54T422 -1T322 -24Q310 -24 289 -23T244 -13T192 14T141 67Q110 112 95 170T80 299Q80 326 81 358T88 425T104 494T133 561Q158 605 187 628T245 663T296 676T333 678Q372 678 405 665T463 627T503 568T523 493L463 473Z"  />
<glyph unicode="D" horiz-adv-x="667" d="M132 664H304Q338 664 371 661T436 645T495 610T549 547Q581 494 589 438T598 327Q598 257 578 194T515 81Q491 53 464 37T407 13T346 2T284 0H132V664ZM201 60H295Q328 60 356 63T409 77T453 107T491 157Q504 179 511 206T523 258T529 303T531 332Q531 413 510 476T434 574Q416 586 399 592T358 602T297 605T201 606V60Z"  />
<glyph unicode="E" horiz-adv-x="667" d="M144 664H563V606H213V380H514V319H213V60H574V0H144V664Z"  />
<glyph unicode="F" horiz-adv-x="611" d="M123 664H539V606H192V366H484V308H192V0H123V664Z"  />
<glyph unicode="G" horiz-adv-x="667" d="M469 494Q463 513 454 535T429 576T389 609T326 622Q267 622 232 589T179 508T155 405T149 307Q149 288 151 261T161 203T180 142T213 87T261 47T328 32Q351 32 369 36T400 47T423 61T438 74Q457 93 468 116T484 164T491 210T493 250H315V308H551V-18H530L491 59Q483 49 469 35T436 8T391 -14T332 -24Q288 -24 255 -14T198 12T157 50T128 93Q111 124 102 157T88 222T82 277T80 313Q80 422 105 494T168 608Q192 634 216 648T262 669T302 677T332 678Q335 678 346 677T373 673T407 663T441 645Q462 630 477 613T502 578T519 544T529 517L469 494Z"  />
<glyph unicode="H" horiz-adv-x="722" d="M146 664H216V377H507V664H577V0H507V319H216V0H146V664Z"  />
<glyph unicode="I" horiz-adv-x="389" d="M86 39H159V625H86V664H302V625H229V39H302V0H86V39Z"  />
<glyph unicode="J" horiz-adv-x="500" d="M91 183Q90 173 90 164T89 145Q89 139 90 121T102 83T133 48T193 33Q237 33 261 50T296 92T309 144T311 192V664H380V182Q380 150 375 117T355 56T311 7T234 -22Q222 -24 213 -24T192 -25Q154 -25 120 -16T57 28Q42 45 34 63T22 97T17 127T16 148L91 183Z"  />
<glyph unicode="K" horiz-adv-x="667" d="M615 664L314 363L638 0H546L227 360L531 664H615ZM127 664H194V0H127V664Z"  />
<glyph unicode="L" horiz-adv-x="611" d="M206 60H546V0H137V664H206V60Z"  />
<glyph unicode="M" horiz-adv-x="889" d="M135 664H274L391 255Q399 226 406 191T425 115Q427 110 430 102T440 93Q447 93 452 101T461 122T467 146T472 166Q477 185 480 197T485 218T490 237T497 260L614 664H755V0H688V618Q688 633 675 633Q667 633 665 629T658 613Q657 610 655 603T651 588T646 572T642 559L482 0H401L260 506Q258 513 254 529T245 564T236 598T230 620Q228 625 226 629T216 634Q202 634 202 618V0H135V664Z"  />
<glyph unicode="N" horiz-adv-x="722" d="M258 664L432 243Q438 228 445 210T459 172T473 134T486 100Q491 87 496 74T509 61Q511 61 514 64T517 76V664H583V0H462L278 451Q270 470 265 482T256 505T248 527T236 558Q228 580 224 591T214 603Q210 603 208 600T206 594V0H140V664H258Z"  />
<glyph unicode="O" horiz-adv-x="611" d="M470 326Q470 350 468 381T461 446T444 510T415 567T370 607T306 622Q271 622 247 609T207 578T182 543T170 517Q159 490 153 461T145 405T142 355T141 319Q141 300 142 276T146 224T157 170T176 119Q200 72 233 52T303 32Q349 32 382 56T435 123Q461 178 465 231T470 326ZM540 326Q540 249 529 196T498 101Q481 63 459 39T411 1T360 -18T311 -24Q300 -24 282 -23T242 -15T195 6T146 47Q122 74 108 107T85 175T74 244T71 307Q71 364 77 428T113 558Q121 575 136 596T173 635T227 665T301 678Q358 678 402 657T479 588Q511 541 525 471T540 326Z"  />
<glyph unicode="P" horiz-adv-x="667" d="M218 609V336H334Q428 336 470 365T512 466Q512 509 499 537T462 581T406 603T336 609H218ZM148 664H341Q400 664 442 655T515 620Q581 566 581 471Q581 442 575 419T560 377T540 345T520 323Q502 306 482 297T440 284T397 279T354 278H218V0H148V664Z"  />
<glyph unicode="Q" horiz-adv-x="611" d="M560 -117Q553 -118 544 -118T523 -119Q479 -119 457 -101T415 -53L385 -10Q375 -14 366 -16T347 -21Q327 -24 311 -24Q300 -24 282 -23T242 -15T195 6T146 47Q122 74 108 107T85 175T74 244T71 307Q71 364 77 428T113 558Q121 575 136 596T173 635T227 665T301 678Q358 678 402 657T479 588Q511 541 525 471T540 326Q540 249 529 196T498 101Q486 73 470 53T436 19L448 1Q463 -20 482 -35T527 -50Q542 -50 560 -45V-117ZM399 71Q421 91 435 123Q461 178 465 231T470 326Q470 350 468 381T461 446T444 510T415 567T370 607T306 622Q271 622 247 609T207 578T182 543T170 517Q159 490 153 461T145 405T142 355T141 319Q141 300 142 276T146 224T156 170T175 119Q199 72 233 52T303 32Q328 32 350 40L269 157L314 190L399 71Z"  />
<glyph unicode="R" horiz-adv-x="667" d="M144 664H361Q401 664 429 659T476 647T506 630T527 613Q534 606 542 596T558 571T571 534T576 483Q576 453 568 421T540 363T484 319T395 299L604 0H520L328 294H213V0H144V664ZM325 354Q350 354 381 356T439 370T485 407T504 480Q504 524 490 549T453 586T405 601T355 604H213V354H325Z"  />
<glyph unicode="S" horiz-adv-x="611" d="M432 510Q427 523 419 542T394 579T353 609T289 622Q278 622 258 619T218 604T183 570T168 508Q168 481 179 462T207 429T240 406T270 392Q290 384 318 373T366 354Q402 339 430 323T477 284T505 233T515 162Q515 117 495 78T446 17Q425 2 403 -6T361 -19T324 -23T297 -24Q256 -24 223 -12T164 22T119 71T84 131L144 160Q152 135 163 117T187 86T209 66T224 55Q252 39 277 36T320 33Q338 33 360 38T402 58T435 97T449 159Q449 196 432 225T378 272L345 288Q314 304 282 316T218 343Q196 354 170 371T123 428Q113 448 109 470T105 507Q105 544 117 575T152 629T212 665T296 678Q327 678 354 672T406 649T452 607T494 541L432 510Z"  />
<glyph unicode="T" horiz-adv-x="611" d="M554 664V606H341V0H270V606H58V664H554Z"  />
<glyph unicode="U" horiz-adv-x="722" d="M212 664V189Q212 138 229 107T270 60T317 39T352 34Q427 34 470 77T513 199V664H580V198Q580 89 520 33T353 -24Q303 -24 264 -8T197 38T156 107T142 196V664H212Z"  />
<glyph unicode="V" horiz-adv-x="667" d="M299 0L65 664H135L326 109Q327 108 327 106T330 103H337Q339 103 340 105T342 109L533 664H604L367 0H299Z"  />
<glyph unicode="W" horiz-adv-x="944" d="M815 664H887L695 0H624L500 465Q491 499 487 524T474 560H467Q459 552 455 526T441 461L323 0H252L57 664H126L254 206Q256 198 260 181T268 146T277 115T284 102H290Q293 102 296 113T303 141T311 177T319 213L435 664H506L628 208Q630 200 633 185T639 152T647 121T655 102H661Q664 102 668 115T677 147T686 185T694 215L815 664Z"  />
<glyph unicode="X" horiz-adv-x="667" d="M608 0H527L375 221Q370 228 367 233T361 242T356 252T349 265Q347 270 345 276T339 285Q330 293 321 284Q319 282 318 278T314 270Q312 266 310 262T304 252T294 237T278 214L133 0H59L293 341L74 664H154L284 472Q290 463 297 452T310 430T321 412T326 403Q328 400 329 398T335 396Q340 396 349 413Q358 429 363 438T374 456T385 472T400 495L514 664H589L371 346L608 0Z"  />
<glyph unicode="Y" horiz-adv-x="667" d="M371 0H301V254L57 664H134L310 359Q318 345 323 334T337 323Q345 323 354 344T381 395L534 664H611L371 254V0Z"  />
<glyph unicode="Z" horiz-adv-x="611" d="M81 664H521V617L225 154Q222 150 213 137T193 110T174 83T166 68Q166 61 173 60T182 59H530V0H74V47L377 522Q380 527 389 539T408 565T425 589T433 602Q433 606 428 606H81V664Z"  />
<glyph unicode="[" horiz-adv-x="389" d="M123 37Q177 36 229 37T336 42V5Q267 5 200 3T63 0V681Q132 681 199 678T336 676V641Q282 641 230 642T123 644V37Z"  />
<glyph unicode="\" horiz-adv-x="278" d="M232 -24L-22 678H48L300 -24H232Z"  />
<glyph unicode="]" horiz-adv-x="389" d="M266 644Q212 644 160 643T53 641V676Q122 674 189 677T326 681V0Q257 0 190 2T53 5V42Q107 39 159 38T266 37V644Z"  />
<glyph unicode="^" horiz-adv-x="600" d="M331 700L559 246H487L299 626L113 246H41L267 700H331Z"  />
<glyph unicode="_" horiz-adv-x="500" d="M0 -125V-75H500V-125H0Z"  />
<glyph unicode="`" horiz-adv-x="278" d="M84 679L196 541H145L7 679H84Z"  />
<glyph unicode="a" horiz-adv-x="500" d="M352 355Q352 367 351 381T341 407T313 427T260 436Q219 436 186 422T116 384L88 447Q118 461 140 470T183 484T222 492T263 494Q271 494 284 494T312 490T342 481T372 465Q390 452 399 438T413 411T418 385T419 362V97Q419 77 424 68T435 54Q442 49 448 48T475 47V-8Q447 -8 430 -7T399 3Q389 9 382 18T370 38T363 59T360 75Q360 83 359 86Q358 86 358 86T356 87Q354 87 353 86Q335 65 317 48T278 19T235 0T182 -7Q138 -7 116 5T79 32Q68 44 61 57T51 82T46 104T44 120Q44 154 55 179T83 222T118 251T148 267Q199 289 248 292T352 296V355ZM350 255Q311 255 273 252T198 234Q161 219 137 192T112 125Q112 117 115 104T127 77T152 55T197 46Q220 46 244 57T289 83T326 113T350 137V255Z"  />
<glyph unicode="b" horiz-adv-x="500" d="M135 708V404Q135 401 137 398T142 395Q147 395 148 397T152 404Q159 417 169 432T193 461T228 482T277 491Q296 491 325 483T382 450T429 376T449 247Q449 234 448 213T443 168T430 117T409 69Q393 42 374 27T337 4T302 -4T275 -6Q252 -6 234 0T202 17T178 38T161 60Q160 62 157 66T151 76T145 85T141 89Q139 89 136 88T133 79V-11L69 25V672L135 708ZM266 49Q299 49 321 66T357 112T377 173T383 240Q383 253 381 285T369 350T335 409T268 435Q241 435 217 421T174 381T145 319T134 237Q134 203 142 170T168 109T209 66T266 49Z"  />
<glyph unicode="c" horiz-adv-x="444" d="M332 367Q329 373 323 385T305 409T276 429T234 438Q195 438 171 418T133 368T114 302T109 234Q109 212 113 176T138 106Q150 87 163 76T190 58T216 50T235 48Q260 48 277 56T306 76T323 101T333 123L402 93Q378 38 332 15T229 -8Q196 -8 163 5T102 49T58 129T41 249Q41 301 55 346T94 424T155 475T234 494Q265 494 287 489T327 472T359 442T388 398L332 367Z"  />
<glyph unicode="d" horiz-adv-x="500" d="M429 25L365 -11V79Q365 84 363 88T357 89Q351 83 342 68T318 36T279 7T222 -6Q174 -6 141 16T88 72T58 149T48 233Q48 275 55 320T82 404T134 466T221 491Q254 491 277 478T316 449T340 417T350 397Q351 395 356 395Q357 395 360 396T363 404V675L429 712V25ZM227 49Q266 49 292 67T334 113T357 176T364 244Q364 286 354 321T325 382T283 421T231 435Q193 435 170 414T135 363T118 302T114 249Q114 198 123 160T147 98T183 61T227 49Z"  />
<glyph unicode="e" horiz-adv-x="444" d="M326 296Q326 303 326 314T324 338T318 365T306 392Q291 417 267 427T220 438Q177 438 143 406T102 296H326ZM100 248Q100 215 104 180T123 116T162 69T228 50Q262 50 287 63T334 103L380 67Q348 27 313 11T226 -6Q178 -6 142 14T82 68T46 144T33 229Q33 273 40 319T76 411Q105 457 143 475T223 493Q278 493 311 471T362 414T386 335T394 248H100Z"  />
<glyph unicode="f" horiz-adv-x="333" d="M318 627Q305 635 289 640T257 645Q234 645 220 637T199 614T189 582T186 545V458H302V407H188V0H122V407H24V458H122V547Q122 560 123 577T128 613T143 648T173 679Q192 693 210 697T246 701Q258 701 266 701T282 699T298 695T318 689V627Z"  />
<glyph unicode="g" horiz-adv-x="500" d="M364 481H423V79Q423 37 418 -4T392 -77T331 -128T221 -148Q182 -148 155 -143T109 -129V-63H146Q155 -71 163 -77T181 -87T205 -94T238 -97Q272 -97 294 -87T330 -58T350 -16T356 35V117Q356 119 355 122T351 125Q349 125 348 124Q334 83 296 63T218 43Q176 43 145 63T92 115T61 185T50 260Q50 320 64 363T102 434T156 475T219 488Q251 488 274 478T314 453T339 424T352 399Q354 393 360 392Q362 394 363 395T364 399V481ZM235 98Q263 98 286 111T325 147T351 200T360 264Q360 303 351 334T325 388T285 423T234 436Q202 436 180 421T144 382T123 332T116 282Q116 267 118 236T131 175T166 121T235 98Z"  />
<glyph unicode="h" horiz-adv-x="500" d="M69 0V671L137 705V384Q137 378 140 376H144Q158 395 174 414T209 449T250 475T298 485Q335 485 359 474T398 444T418 396T424 334V0H358V321Q358 340 357 360T348 396T327 423T288 433Q269 433 249 425T205 396Q197 390 186 378T163 353T143 329T135 315V0H69Z"  />
<glyph unicode="i" horiz-adv-x="278" d="M171 479V0H109V479H171ZM95 674H183V574H95V674Z"  />
<glyph unicode="j" horiz-adv-x="278" d="M12 -70Q27 -80 42 -87T76 -94Q91 -94 99 -87T112 -69T116 -46T117 -21V479H181V-35Q181 -90 155 -119T71 -149Q53 -149 41 -147T12 -138V-70ZM104 674H192V574H104V674Z"  />
<glyph unicode="k" horiz-adv-x="500" d="M88 669L153 706V0H88V669ZM170 250L377 479H455L241 248L462 0H376L170 236V250Z"  />
<glyph unicode="l" horiz-adv-x="278" d="M108 669L170 701V0H108V669Z"  />
<glyph unicode="m" horiz-adv-x="778" d="M76 454L137 488V384Q137 373 144 373Q157 385 170 404T200 441T241 472T302 485Q341 485 362 473T395 444T410 407T420 374Q422 371 423 371T426 373Q435 382 446 400T475 438T521 471T591 486Q625 486 646 476T680 447T698 403T703 347V0H640V339Q640 356 638 373T629 403T609 425T573 434Q546 434 519 418T471 380T435 340T421 317V0H358V332Q358 350 356 368T348 400T328 424T292 433Q270 433 252 425T215 401T179 363T139 314V0H76V454Z"  />
<glyph unicode="n" horiz-adv-x="500" d="M74 456L137 490V382Q137 377 140 375T145 375Q152 380 164 398T196 435T244 470T311 486Q346 486 368 475T403 443T421 396T426 339V0H361V341Q361 357 360 374T353 404T335 425T298 434Q266 434 242 421T197 387Q176 367 162 347T139 309V0H74V456Z"  />
<glyph unicode="o" horiz-adv-x="500" d="M378 231Q378 262 373 297T354 363T315 414T250 434Q209 434 184 413T146 361T128 293T123 225Q123 195 130 164T154 107T195 65T255 49Q291 49 315 66T353 110T372 169T378 231ZM444 236Q444 184 435 140T402 62T341 10T246 -9Q194 -9 158 13T100 70T67 151T57 242Q57 286 67 330T101 411T160 469T249 492Q303 492 340 470T400 411T434 329T444 236Z"  />
<glyph unicode="p" horiz-adv-x="500" d="M134 230Q134 201 143 170T169 112T211 69T270 51Q304 51 326 69T360 115T378 174T383 231Q383 261 380 296T364 362T328 413T264 434Q241 434 218 423T176 388T146 324T134 230ZM134 493V396Q134 391 137 391H139Q145 396 154 412T179 446T220 477T281 491Q309 491 338 478T392 436T432 360T448 243Q448 187 437 141T403 63T350 13T278 -5Q246 -5 222 8T182 38T157 70T146 90Q146 93 142 93Q137 93 137 86V-173H69V456L134 493Z"  />
<glyph unicode="q" horiz-adv-x="500" d="M427 456V-173H360V86L358 91Q357 93 355 93T350 90Q333 51 298 23T218 -5Q171 -5 139 17T87 74T57 152T48 237Q48 276 55 321T82 403T133 466T215 491Q243 491 263 483T299 462T328 430T356 391H358Q362 391 362 396V493L427 456ZM362 246Q362 289 352 324T324 383T283 421T233 434Q196 434 173 416T136 370T117 308T112 241Q112 214 116 181T133 119T168 71T226 51Q252 51 276 64T320 103T350 165T362 246Z"  />
<glyph unicode="r" horiz-adv-x="389" d="M84 454L149 488V313Q149 307 152 307Q161 307 174 328T209 378T266 438T353 487V375Q317 375 289 367T236 342T192 302T151 251V0H84V454Z"  />
<glyph unicode="s" horiz-adv-x="389" d="M63 102Q90 78 122 62T192 45Q242 45 268 68T294 126Q294 151 280 169T242 198Q237 200 219 207T180 223T139 240T111 252Q105 255 94 261T71 280T52 312T43 358Q43 390 54 415T84 457T131 484T189 493Q229 493 261 483T329 456L308 397Q281 417 250 428T184 440Q154 440 129 423T104 372Q104 354 110 342T129 320T165 300T221 277Q249 266 273 255T314 228T341 190T351 134Q351 98 338 72T304 28T253 3T190 -6Q143 -6 109 6T37 45L63 102Z"  />
<glyph unicode="t" horiz-adv-x="333" d="M12 458H100V579L166 660V458H272V407H166V120Q166 107 166 94T171 71T185 53T211 46Q234 46 262 58T309 83V21Q287 7 256 -2T198 -11Q171 -11 152 -2T122 24T105 61T100 108V407H12V458Z"  />
<glyph unicode="u" horiz-adv-x="500" d="M76 479H142V147Q142 129 143 111T151 78T173 54T215 44Q239 44 265 61T312 99T347 139T361 163V479H425V23L364 -9V98Q364 100 364 102T360 104Q356 104 350 97Q336 75 321 56T286 23T245 1T195 -7Q159 -7 136 4T100 36T81 84T76 142V479Z"  />
<glyph unicode="v" horiz-adv-x="444" d="M99 479L203 140Q204 138 206 129T212 109T217 89T222 78H227Q230 81 233 89T239 108T244 127T248 142L351 479H414L262 0H182L28 479H99Z"  />
<glyph unicode="w" horiz-adv-x="667" d="M161 0L13 479H80L169 178Q172 167 174 160T177 148T180 139T183 128Q185 117 188 107T193 91Q197 89 198 89Q200 89 204 91Q206 96 209 109T215 136T220 163T224 181L301 479H369L448 183Q453 167 457 146T466 105Q469 93 472 90T479 87Q483 87 485 92T492 115Q494 130 498 147T507 179L596 479H655L509 0H440L354 319Q353 322 352 330T348 347T344 367T341 384Q339 394 339 396T336 402H331Q327 399 326 396T323 381L311 318L231 0H161Z"  />
<glyph unicode="x" horiz-adv-x="500" d="M452 0H374L270 161Q263 171 257 182T248 193Q246 193 243 189T237 179T230 167T223 156L123 0H51L212 241L49 479H128L239 307Q243 301 246 297T252 292Q255 292 261 303T272 322L373 479H447L288 244L452 0Z"  />
<glyph unicode="y" horiz-adv-x="444" d="M30 -68H51Q57 -79 66 -87T99 -96Q123 -96 138 -83T164 -49T181 -7T194 32L25 479H96L192 215L212 159Q217 145 220 134T228 123Q233 123 238 145T260 215L349 479H412L241 -15Q232 -42 220 -68T191 -114T151 -147T94 -160Q74 -160 61 -157T30 -145V-68Z"  />
<glyph unicode="z" horiz-adv-x="444" d="M60 479H391V422L183 130Q166 106 157 95T140 73Q132 65 131 62T129 57Q129 53 139 53H391V0H53V52L245 326Q261 349 278 371T314 414V421H60V479Z"  />
<glyph unicode="{" horiz-adv-x="333" d="M301 632H262Q246 632 236 624T219 603T211 572T208 537V478Q208 440 198 413T175 368T149 341T129 330V328Q136 326 149 317T175 291T198 247T208 179V128Q208 110 210 93T219 63T235 41T262 33H301V-18H250Q202 -18 172 15T142 110V163Q142 192 137 217T122 262T98 292T65 303V356Q84 356 98 367T122 397T137 441T142 494V555Q142 616 172 649T250 683H301V632Z"  />
<glyph unicode="|" horiz-adv-x="222" d="M78 750H144V-250H78V750Z"  />
<glyph unicode="}" horiz-adv-x="333" d="M32 683H83Q131 683 161 650T191 555V494Q191 466 196 441T210 397T234 367T268 356V303Q249 303 235 292T211 262T196 218T191 163V110Q191 49 161 16T83 -18H32V33H71Q87 33 97 41T114 62T122 93T125 128V179Q125 219 135 246T158 291T184 317T204 328V330Q197 332 184 341T158 368T135 413T125 478V537Q125 555 123 572T114 602T98 624T71 632H32V683Z"  />
<glyph unicode="~" horiz-adv-x="600" d="M65 225Q88 263 117 289T191 315Q227 315 255 304T309 281Q335 267 359 257T409 247Q438 247 459 268T495 313L535 271Q524 252 511 236T483 207T450 189T409 183Q376 183 349 194T295 217Q269 231 245 241T191 251Q162 251 141 230T105 185L65 225Z"  />
<glyph unicode="&#xA0;" horiz-adv-x="275" />
<glyph unicode="&#xA1;" horiz-adv-x="389" d="M231 -153H155L171 296H219L231 -153ZM136 473Q136 498 154 515T195 533Q218 533 236 516T254 473Q254 450 238 432T194 414Q164 414 150 433T136 473Z"  />
<glyph unicode="&#xA2;" horiz-adv-x="556" d="M338 426Q327 434 315 436T289 438Q250 438 226 417T187 363T168 295T163 228Q163 193 173 155T207 90L338 426ZM396 462Q415 446 425 429T443 398L388 367Q384 374 380 381T370 396L241 62Q264 48 293 48Q330 48 352 69T389 123L457 93Q445 65 428 46T389 15T344 -2T296 -8Q282 -8 262 -6T219 6L163 -138H118L182 26Q158 42 142 68T116 124T102 186T97 243Q97 299 111 345T151 425T212 476T290 494Q333 494 360 482L412 616H456L396 462Z"  />
<glyph unicode="&#xA3;" horiz-adv-x="556" d="M67 287V329H175Q170 346 162 380T154 455Q154 487 164 519T197 576T252 617T332 633Q362 633 385 625T427 606T458 582T480 559L449 508Q440 520 430 532T406 555T374 571T332 578Q299 578 278 567T244 538T226 499T221 460Q221 431 229 394T243 329H398V287H250Q252 270 254 253T256 218Q256 200 255 185T250 157T243 129T233 98Q269 77 307 60T381 42Q407 42 423 52T450 78T465 110T472 141H512Q510 105 504 75T472 19Q452 -1 424 -10T366 -19Q347 -19 326 -12T283 7T244 32T212 58Q197 39 187 27T164 7T137 -7T97 -20V58Q128 64 146 77T175 110T188 154T191 205Q191 231 190 246T183 287H67Z"  />
<glyph unicode="&#xA4;" horiz-adv-x="600" d="M301 462Q269 462 242 450T196 417T165 369T153 312Q153 281 164 254T195 205T242 172T301 160Q332 160 359 172T405 205T436 253T447 312Q447 342 436 369T406 417T359 450T301 462ZM126 185Q107 210 96 242T85 312Q85 350 97 382T126 437L28 535L78 583L174 487Q199 504 231 515T301 526Q339 526 371 515T426 487L524 583L572 535L476 437Q493 414 504 382T515 312Q515 274 504 242T476 185L572 89L524 39L426 137Q404 120 372 108T301 96Q263 96 230 108T174 137L78 39L28 89L126 185Z"  />
<glyph unicode="&#xA5;" horiz-adv-x="556" d="M473 664L334 386H473V350H317L315 344V194H473V158H315V0H245V158H84V194H245V344L242 350H84V386H223L84 664H158L259 449Q262 443 265 437T270 425Q271 423 273 418T279 413Q286 413 291 429L315 485L398 664H473Z"  />
<glyph unicode="&#xA6;" horiz-adv-x="222" d="M78 175H144V-175H78V175ZM78 675H144V325H78V675Z"  />
<glyph unicode="&#xA7;" horiz-adv-x="556" d="M154 115Q170 82 189 65T228 39T264 30T291 28Q320 28 338 35T365 54T378 77T382 98Q382 115 376 126T360 146T339 160T317 170L234 204Q217 211 190 223T138 254T93 298T74 355Q74 371 79 389T96 423T127 450T176 465Q138 491 127 515T115 566Q115 589 124 610T153 648T201 673T268 683Q293 683 320 676T371 656T415 625T449 584L396 558Q370 590 338 611T260 633Q254 633 241 632T213 624T189 607T178 574Q178 543 200 527T247 499Q273 488 308 473T369 446Q408 427 430 409T463 373T476 339T479 311Q479 304 478 293T472 268T455 241T422 219Q413 214 401 212T384 207V205Q390 202 400 194T418 178Q437 157 440 138T444 108Q444 71 430 47T393 7T339 -14T277 -20Q250 -20 223 -13T172 8T127 42T95 86L154 115ZM189 439Q169 439 157 432T138 415T128 393T125 375Q125 357 137 341T169 311T215 284T269 260Q290 251 304 246T328 237T348 233T371 232Q389 232 401 238T420 254T429 274T432 293Q432 310 422 326T383 361Q376 365 353 378T299 404T239 428T189 439Z"  />
<glyph unicode="&#xA8;" horiz-adv-x="278" d="M93 653V551H28V653H93ZM251 653V551H187V653H251Z"  />
<glyph unicode="&#xA9;" horiz-adv-x="800" d="M765 351Q765 274 736 208T658 92T542 16T401 -12Q327 -12 261 15T144 92T65 207T35 351Q35 428 64 494T144 608T260 684T401 712Q475 712 541 685T657 609T736 494T765 351ZM93 351Q93 286 117 229T182 130T280 64T401 39Q465 39 521 63T618 130T683 229T707 351Q707 415 684 471T619 570T521 636T401 661Q336 661 280 637T183 570T117 472T93 351ZM593 281Q578 210 529 168T413 126Q364 126 324 143T256 191T213 262T197 351Q197 399 211 440T253 511T320 558T410 575Q444 575 475 565T530 536T570 489T592 425H531Q523 465 491 491T411 517Q375 517 348 505T301 470T273 417T263 353Q263 319 273 289T303 235T350 198T413 184Q461 184 492 211T531 281H593Z"  />
<glyph unicode="&#xAA;" horiz-adv-x="400" d="M229 543Q229 550 228 558T222 574T204 587T169 592Q143 592 121 583T75 560L57 598Q76 607 91 612T119 621T144 625T171 626Q182 626 203 624T242 609Q265 593 268 576T272 547V388Q272 376 276 370T283 362Q288 359 291 359T309 358V325Q291 325 280 326T259 332Q246 339 240 353T234 375Q234 380 233 382H229Q206 357 181 342T118 326Q90 326 76 333T51 349Q37 363 33 378T29 402Q29 423 36 438T54 463T76 480T96 490Q129 504 161 506T229 508V543ZM228 483Q202 483 177 481T129 470Q105 461 89 445T73 405Q73 400 75 392T82 377T99 364T128 358Q143 358 158 364T188 380T212 398T228 412V483Z"  />
<glyph unicode="&#xAB;" horiz-adv-x="500" d="M433 391L297 236L427 79H361L231 236L363 391H433ZM200 391H271L139 236L267 79H201L71 236L200 391Z"  />
<glyph unicode="&#xAC;" horiz-adv-x="600" d="M486 320H48V386H552V108H486V320Z"  />
<glyph unicode="&#xAD;" horiz-adv-x="333" d="M39 285H295V230H39V285Z"  />
<glyph unicode="&#xAE;" horiz-adv-x="800" d="M317 514V382H415Q458 382 475 402T493 448Q493 461 490 473T477 494T453 508T415 514H317ZM413 562Q440 562 465 558T511 542T543 510T555 458Q555 420 533 393T475 358V354Q495 351 507 344T525 326T535 300T541 266Q546 237 550 205T565 146H501Q496 164 493 183T487 220Q484 246 482 267T467 304Q456 319 440 325T405 332H317V146H257V562H413ZM765 351Q765 274 736 208T658 92T542 16T401 -12Q327 -12 261 15T144 92T65 207T35 351Q35 428 64 494T144 608T260 684T401 712Q475 712 541 685T657 609T736 494T765 351ZM93 351Q93 286 117 229T182 130T280 64T401 39Q465 39 521 63T618 130T683 229T707 351Q707 415 684 471T619 570T521 636T401 661Q336 661 280 637T183 570T117 472T93 351Z"  />
<glyph unicode="&#xAF;" horiz-adv-x="278" d="M287 624V579H-9V624H287Z"  />
<glyph unicode="&#xB0;" horiz-adv-x="400" d="M201 712Q231 712 257 701T304 669T335 623T347 566Q347 535 336 508T304 461T258 430T201 418Q170 418 143 429T96 461T65 508T53 566Q53 596 64 622T96 669T143 700T201 712ZM201 674Q178 674 159 666T126 642T103 608T95 566Q95 543 103 523T125 488T159 465T201 456Q223 456 242 464T275 488T297 523T305 566Q305 588 297 607T275 642T242 665T201 674Z"  />
<glyph unicode="&#xB1;" horiz-adv-x="600" d="M267 518H333V339H552V273H333V94H267V273H48V339H267V518ZM48 42H552V-24H48V42Z"  />
<glyph unicode="&#xB2;" horiz-adv-x="400" d="M48 542Q52 550 60 564T84 591T121 615T175 625Q208 625 232 616T272 593T295 559T303 521Q303 496 293 476T268 440T233 410T196 383Q184 374 169 364T140 341T116 315T102 289H304V249H45Q49 284 59 308T86 350T126 386T178 425Q216 455 232 474T249 518Q249 544 231 564T174 585Q151 585 135 577T109 558T93 535T85 517L48 542Z"  />
<glyph unicode="&#xB3;" horiz-adv-x="400" d="M36 268Q71 269 114 272T199 297Q222 309 242 329T263 377Q263 409 243 423T190 437Q173 437 159 434T131 425L119 454Q135 461 156 468T196 487T228 513T241 549Q241 567 226 579T184 591Q158 591 135 578T87 545L57 572Q86 595 117 610T183 626Q216 626 237 619T272 600T290 575T295 548Q295 528 286 515T264 492T237 477T212 465V464Q212 461 222 461Q270 461 294 439T319 380Q319 354 308 334T283 300T254 278T232 266Q209 255 184 250T133 241T82 238T36 237V268Z"  />
<glyph unicode="&#xB4;" horiz-adv-x="278" d="M182 679H259L122 541H71L182 679Z"  />
<glyph unicode="&#xB5;" horiz-adv-x="576" d="M153 479V184Q153 121 187 84T283 46Q316 46 342 60T387 98T415 152T425 214V479H491V0H425V80H421Q394 32 357 10T271 -12Q236 -12 206 1T155 44H153V-192H85V479H153Z"  />
<glyph unicode="&#xB6;" horiz-adv-x="600" d="M514 700V-190H448V642H324V-190H258V306Q211 306 173 321T107 363T64 425T48 502Q48 598 109 649T276 700H514Z"  />
<glyph unicode="&#xB7;" horiz-adv-x="278" d="M200 304Q200 281 183 263T138 244Q113 244 96 261T78 304Q78 330 95 347T138 365Q165 365 182 346T200 304Z"  />
<glyph unicode="&#xB8;" horiz-adv-x="278" d="M38 -158Q60 -166 72 -169T102 -173Q133 -173 151 -160T169 -127Q169 -112 156 -100T118 -87Q107 -87 96 -89T74 -95L59 -82L119 0H157L111 -59Q126 -56 133 -55T148 -53Q160 -53 173 -57T198 -69T218 -92T226 -126Q226 -161 198 -184T121 -208Q85 -208 65 -203T23 -188L38 -158Z"  />
<glyph unicode="&#xB9;" horiz-adv-x="400" d="M219 616V288H317V249H73V288H167V578H57V616H219Z"  />
<glyph unicode="&#xBA;" horiz-adv-x="400" d="M283 469Q283 488 280 509T267 549T242 579T200 591Q173 591 157 579T132 547T120 507T117 466Q117 448 122 429T137 395T164 370T203 360Q227 360 242 370T267 396T279 431T283 469ZM326 472Q326 441 320 415T298 368T259 337T197 325Q163 325 140 338T102 373T81 422T74 476Q74 503 81 529T103 577T141 612T199 626Q234 626 258 613T297 577T319 528T326 472Z"  />
<glyph unicode="&#xBB;" horiz-adv-x="500" d="M300 391L429 234L300 79H232L363 234L233 391H300ZM67 79L201 237L72 391H137L265 236L134 79H67Z"  />
<glyph unicode="&#xBC;" horiz-adv-x="800" d="M681 337Q681 343 677 343Q672 343 670 338L531 155Q529 151 529 150Q529 145 535 145H681V337ZM786 145V105H733V0H681V105H466V160L644 375H733V145H786ZM172 -15L619 628H671L226 -15H172ZM177 626V298H275V259H31V298H125V588H15V626H177Z"  />
<glyph unicode="&#xBD;" horiz-adv-x="800" d="M529 293Q533 301 541 315T565 342T602 366T656 376Q689 376 713 367T753 344T776 310T784 272Q784 247 774 227T749 191T714 161T677 134Q665 125 650 115T621 92T597 66T583 40H785V0H526Q530 35 540 59T567 101T607 137T659 176Q697 206 713 225T730 269Q730 295 712 315T655 336Q632 336 616 328T590 309T574 286T566 268L529 293ZM172 -15L619 628H671L226 -15H172ZM177 626V298H275V259H31V298H125V588H15V626H177Z"  />
<glyph unicode="&#xBE;" horiz-adv-x="800" d="M681 337Q681 343 677 343Q672 343 670 338L531 155Q529 151 529 150Q529 145 535 145H681V337ZM786 145V105H733V0H681V105H466V160L644 375H733V145H786ZM16 268Q51 269 94 272T179 297Q202 309 222 329T243 377Q243 409 223 423T170 437Q153 437 139 434T111 425L99 454Q115 461 136 468T176 487T208 513T221 549Q221 567 206 579T164 591Q138 591 115 578T67 545L37 572Q66 595 97 610T163 626Q196 626 217 619T252 600T270 575T275 548Q275 528 266 515T244 492T217 477T192 465V464Q192 461 202 461Q250 461 274 439T299 380Q299 354 288 334T263 300T234 278T212 266Q189 255 164 250T113 241T62 238T16 237V268ZM172 -15L619 628H671L226 -15H172Z"  />
<glyph unicode="&#xBF;" horiz-adv-x="500" d="M333 480Q333 457 316 439T272 421Q248 421 230 437T212 480Q212 506 230 522T272 539Q298 539 315 521T333 480ZM299 300V257Q299 210 280 180T238 126L206 93Q184 70 172 48T159 -6Q159 -23 164 -39T181 -68T212 -88T261 -96Q271 -96 285 -95T317 -85T351 -58T383 -6L447 -30Q441 -43 428 -64T391 -104T333 -138T252 -153Q211 -153 181 -140T131 -106T101 -59T91 -4Q91 22 98 43T118 83T144 116T174 146Q194 165 207 179T228 210T239 247T242 300H299Z"  />
<glyph unicode="&#xC0;" horiz-adv-x="667" d="M472 218L340 578Q338 581 335 581Q332 581 330 576L196 218H472ZM42 0L300 674H370L626 0H551L491 162H176L116 0H42ZM279 864L391 726H340L202 864H279Z"  />
<glyph unicode="&#xC1;" horiz-adv-x="667" d="M472 218L340 578Q338 581 335 581Q332 581 330 576L196 218H472ZM42 0L300 674H370L626 0H551L491 162H176L116 0H42ZM377 864H454L317 726H266L377 864Z"  />
<glyph unicode="&#xC2;" horiz-adv-x="667" d="M472 218L340 578Q338 581 335 581Q332 581 330 576L196 218H472ZM42 0L300 674H370L626 0H551L491 162H176L116 0H42ZM368 864L481 726H416L334 827L252 726H187L301 864H368Z"  />
<glyph unicode="&#xC3;" horiz-adv-x="667" d="M472 218L340 578Q338 581 335 581Q332 581 330 576L196 218H472ZM42 0L300 674H370L626 0H551L491 162H176L116 0H42ZM486 839Q476 782 454 762T403 742Q395 742 388 742T372 746T350 754T314 769Q300 775 291 778T277 784T267 786T258 787Q245 787 236 782T222 768T213 752T209 737H173Q175 753 181 770T198 802T224 825T261 834Q269 834 275 833T290 830T310 822T344 808Q372 796 382 793T402 789Q416 789 424 795T438 809T444 825T447 839H486Z"  />
<glyph unicode="&#xC4;" horiz-adv-x="667" d="M472 218L340 578Q338 581 335 581Q332 581 330 576L196 218H472ZM42 0L300 674H370L626 0H551L491 162H176L116 0H42ZM288 838V736H223V838H288ZM446 838V736H382V838H446Z"  />
<glyph unicode="&#xC5;" horiz-adv-x="667" d="M472 218L340 578Q338 581 335 581Q332 581 330 576L196 218H472ZM42 0L300 674H370L626 0H551L491 162H176L116 0H42ZM335 864Q365 864 386 843T408 791Q408 760 387 739T335 717Q304 717 283 738T261 791Q261 821 282 842T335 864ZM335 832Q318 832 307 820T295 791Q295 774 306 762T335 750Q352 750 363 762T374 791Q374 808 363 820T335 832Z"  />
<glyph unicode="&#xC6;" horiz-adv-x="944" d="M449 610Q449 620 442 623T426 627Q415 627 409 622T398 606L216 245H449V610ZM863 664V606H521V380H813V319H521V60H873V0H451V190H189L94 0H17L358 664H863Z"  />
<glyph unicode="&#xC7;" horiz-adv-x="611" d="M463 473Q460 505 450 532T423 580T381 611T324 623Q283 623 254 605T205 559T174 496T156 428T149 366T147 324Q147 311 148 285T153 226T168 159T198 96T247 50T320 32Q359 32 386 47T430 85T457 138T471 194L531 176Q528 155 519 123T488 59T430 4T339 -23L311 -59Q326 -56 333 -55T348 -53Q360 -53 373 -57T398 -69T418 -92T426 -126Q426 -161 398 -184T321 -208Q285 -208 265 -203T223 -188L238 -158Q260 -166 272 -169T302 -173Q333 -173 351 -160T369 -127Q369 -112 356 -100T318 -87Q307 -87 296 -89T274 -95L259 -82L302 -23Q288 -23 269 -20T228 -7T184 20T141 67Q110 112 95 170T80 299Q80 326 81 358T88 425T104 494T133 561Q158 605 187 628T245 663T296 676T333 678Q372 678 405 665T463 627T503 568T523 493L463 473Z"  />
<glyph unicode="&#xC8;" horiz-adv-x="667" d="M144 664H563V606H213V380H514V319H213V60H574V0H144V664ZM279 864L391 726H340L202 864H279Z"  />
<glyph unicode="&#xC9;" horiz-adv-x="667" d="M144 664H563V606H213V380H514V319H213V60H574V0H144V664ZM377 864H454L317 726H266L377 864Z"  />
<glyph unicode="&#xCA;" horiz-adv-x="667" d="M144 664H563V606H213V380H514V319H213V60H574V0H144V664ZM368 864L481 726H416L334 827L252 726H187L301 864H368Z"  />
<glyph unicode="&#xCB;" horiz-adv-x="667" d="M144 664H563V606H213V380H514V319H213V60H574V0H144V664ZM288 838V736H223V838H288ZM446 838V736H382V838H446Z"  />
<glyph unicode="&#xCC;" horiz-adv-x="389" d="M86 39H159V625H86V664H302V625H229V39H302V0H86V39ZM140 864L252 726H201L63 864H140Z"  />
<glyph unicode="&#xCD;" horiz-adv-x="389" d="M86 39H159V625H86V664H302V625H229V39H302V0H86V39ZM238 864H315L178 726H127L238 864Z"  />
<glyph unicode="&#xCE;" horiz-adv-x="389" d="M86 39H159V625H86V664H302V625H229V39H302V0H86V39ZM229 864L342 726H277L195 827L113 726H48L162 864H229Z"  />
<glyph unicode="&#xCF;" horiz-adv-x="389" d="M86 39H159V625H86V664H302V625H229V39H302V0H86V39ZM149 838V736H84V838H149ZM307 838V736H243V838H307Z"  />
<glyph unicode="&#xD0;" horiz-adv-x="667" d="M132 377V664H304Q338 664 371 661T436 645T495 610T549 547Q565 521 574 491T589 430T596 373T598 327Q598 298 593 266T578 200T552 137T515 81Q491 53 464 37T407 13T346 2T284 0H132V319H41V377H132ZM201 319V60H295Q328 60 356 63T409 77T453 107T491 157Q504 179 511 206T523 258T529 303T531 332Q531 413 510 476T434 574Q416 586 399 592T358 602T297 605T201 606V377H351V319H201Z"  />
<glyph unicode="&#xD1;" horiz-adv-x="722" d="M258 664L432 243Q438 228 445 210T459 172T473 134T486 100Q491 87 496 74T509 61Q511 61 514 64T517 76V664H583V0H462L278 451Q270 470 265 482T256 505T248 527T236 558Q228 580 224 591T214 603Q210 603 208 600T206 594V0H140V664H258ZM513 839Q503 782 481 762T430 742Q422 742 415 742T399 746T377 754T341 769Q327 775 318 778T304 784T294 786T285 787Q272 787 263 782T249 768T240 752T236 737H200Q202 753 208 770T225 802T251 825T288 834Q296 834 302 833T317 830T337 822T371 808Q399 796 409 793T429 789Q443 789 451 795T465 809T471 825T474 839H513Z"  />
<glyph unicode="&#xD2;" horiz-adv-x="611" d="M470 326Q470 350 468 381T461 446T444 510T415 567T370 607T306 622Q271 622 247 609T207 578T182 543T170 517Q159 490 153 461T145 405T142 355T141 319Q141 300 142 276T146 224T157 170T176 119Q200 72 233 52T303 32Q349 32 382 56T435 123Q461 178 465 231T470 326ZM540 326Q540 249 529 196T498 101Q481 63 459 39T411 1T360 -18T311 -24Q300 -24 282 -23T242 -15T195 6T146 47Q122 74 108 107T85 175T74 244T71 307Q71 364 77 428T113 558Q121 575 136 596T173 635T227 665T301 678Q358 678 402 657T479 588Q511 541 525 471T540 326ZM251 864L363 726H312L174 864H251Z"  />
<glyph unicode="&#xD3;" horiz-adv-x="611" d="M470 326Q470 350 468 381T461 446T444 510T415 567T370 607T306 622Q271 622 247 609T207 578T182 543T170 517Q159 490 153 461T145 405T142 355T141 319Q141 300 142 276T146 224T157 170T176 119Q200 72 233 52T303 32Q349 32 382 56T435 123Q461 178 465 231T470 326ZM540 326Q540 249 529 196T498 101Q481 63 459 39T411 1T360 -18T311 -24Q300 -24 282 -23T242 -15T195 6T146 47Q122 74 108 107T85 175T74 244T71 307Q71 364 77 428T113 558Q121 575 136 596T173 635T227 665T301 678Q358 678 402 657T479 588Q511 541 525 471T540 326ZM349 864H426L289 726H238L349 864Z"  />
<glyph unicode="&#xD4;" horiz-adv-x="611" d="M470 326Q470 350 468 381T461 446T444 510T415 567T370 607T306 622Q271 622 247 609T207 578T182 543T170 517Q159 490 153 461T145 405T142 355T141 319Q141 300 142 276T146 224T157 170T176 119Q200 72 233 52T303 32Q349 32 382 56T435 123Q461 178 465 231T470 326ZM540 326Q540 249 529 196T498 101Q481 63 459 39T411 1T360 -18T311 -24Q300 -24 282 -23T242 -15T195 6T146 47Q122 74 108 107T85 175T74 244T71 307Q71 364 77 428T113 558Q121 575 136 596T173 635T227 665T301 678Q358 678 402 657T479 588Q511 541 525 471T540 326ZM340 864L453 726H388L306 827L224 726H159L273 864H340Z"  />
<glyph unicode="&#xD5;" horiz-adv-x="611" d="M470 326Q470 350 468 381T461 446T444 510T415 567T370 607T306 622Q271 622 247 609T207 578T182 543T170 517Q159 490 153 461T145 405T142 355T141 319Q141 300 142 276T146 224T157 170T176 119Q200 72 233 52T303 32Q349 32 382 56T435 123Q461 178 465 231T470 326ZM540 326Q540 249 529 196T498 101Q481 63 459 39T411 1T360 -18T311 -24Q300 -24 282 -23T242 -15T195 6T146 47Q122 74 108 107T85 175T74 244T71 307Q71 364 77 428T113 558Q121 575 136 596T173 635T227 665T301 678Q358 678 402 657T479 588Q511 541 525 471T540 326ZM458 839Q448 782 426 762T375 742Q367 742 360 742T344 746T322 754T286 769Q272 775 263 778T249 784T239 786T230 787Q217 787 208 782T194 768T185 752T181 737H145Q147 753 153 770T170 802T196 825T233 834Q241 834 247 833T262 830T282 822T316 808Q344 796 354 793T374 789Q388 789 396 795T410 809T416 825T419 839H458Z"  />
<glyph unicode="&#xD6;" horiz-adv-x="611" d="M470 326Q470 350 468 381T461 446T444 510T415 567T370 607T306 622Q271 622 247 609T207 578T182 543T170 517Q159 490 153 461T145 405T142 355T141 319Q141 300 142 276T146 224T157 170T176 119Q200 72 233 52T303 32Q349 32 382 56T435 123Q461 178 465 231T470 326ZM540 326Q540 249 529 196T498 101Q481 63 459 39T411 1T360 -18T311 -24Q300 -24 282 -23T242 -15T195 6T146 47Q122 74 108 107T85 175T74 244T71 307Q71 364 77 428T113 558Q121 575 136 596T173 635T227 665T301 678Q358 678 402 657T479 588Q511 541 525 471T540 326ZM260 838V736H195V838H260ZM418 838V736H354V838H418Z"  />
<glyph unicode="&#xD7;" horiz-adv-x="600" d="M67 440L113 486L299 298L487 486L533 440L345 253L533 66L487 20L299 208L113 20L67 66L254 253L67 440Z"  />
<glyph unicode="&#xD8;" horiz-adv-x="611" d="M455 617Q466 606 479 588Q511 541 525 471T540 326Q540 249 529 196T498 101Q481 63 459 39T411 1T360 -18T311 -24Q296 -24 265 -21T199 4L131 -159H91L168 26Q163 31 157 36T146 47Q122 74 108 107T85 175T74 244T71 307Q71 364 77 428T113 558Q121 575 136 596T173 635T227 665T301 678Q337 678 368 670T426 642L482 775H521L455 617ZM223 61Q240 46 261 39T303 32Q349 32 382 56T435 123Q461 178 465 231T470 326Q470 348 469 376T463 434T449 493T426 547L223 61ZM401 582Q384 600 361 611T306 622Q271 622 247 609T207 578T182 543T170 517Q159 490 153 461T145 405T142 355T141 319Q141 300 142 276T146 224T157 170T176 119Q181 111 185 104T195 89L401 582Z"  />
<glyph unicode="&#xD9;" horiz-adv-x="722" d="M212 664V189Q212 138 229 107T270 60T317 39T352 34Q427 34 470 77T513 199V664H580V198Q580 89 520 33T353 -24Q303 -24 264 -8T197 38T156 107T142 196V664H212ZM306 864L418 726H367L229 864H306Z"  />
<glyph unicode="&#xDA;" horiz-adv-x="722" d="M212 664V189Q212 138 229 107T270 60T317 39T352 34Q427 34 470 77T513 199V664H580V198Q580 89 520 33T353 -24Q303 -24 264 -8T197 38T156 107T142 196V664H212ZM404 864H481L344 726H293L404 864Z"  />
<glyph unicode="&#xDB;" horiz-adv-x="722" d="M212 664V189Q212 138 229 107T270 60T317 39T352 34Q427 34 470 77T513 199V664H580V198Q580 89 520 33T353 -24Q303 -24 264 -8T197 38T156 107T142 196V664H212ZM395 864L508 726H443L361 827L279 726H214L328 864H395Z"  />
<glyph unicode="&#xDC;" horiz-adv-x="722" d="M212 664V189Q212 138 229 107T270 60T317 39T352 34Q427 34 470 77T513 199V664H580V198Q580 89 520 33T353 -24Q303 -24 264 -8T197 38T156 107T142 196V664H212ZM315 838V736H250V838H315ZM473 838V736H409V838H473Z"  />
<glyph unicode="&#xDD;" horiz-adv-x="667" d="M371 0H301V254L57 664H134L310 359Q318 345 323 334T337 323Q345 323 354 344T381 395L534 664H611L371 254V0ZM377 864H454L317 726H266L377 864Z"  />
<glyph unicode="&#xDE;" horiz-adv-x="667" d="M218 484V211Q234 210 263 210T321 211T375 212T404 214Q436 218 457 230T490 261T507 300T512 341Q512 384 499 412T462 456T406 478T336 484H218ZM218 542H341Q400 542 442 531T515 495Q581 441 581 346Q581 317 575 294T560 252T540 220T520 198Q502 181 482 172T440 159T397 154T354 153H218V0H148V664H218V542Z"  />
<glyph unicode="&#xDF;" horiz-adv-x="556" d="M250 63Q267 54 280 51T312 48Q342 48 362 58T394 87T412 128T418 178Q418 259 379 300T262 345V403Q319 401 351 436T383 529Q383 586 353 617T267 648Q233 648 212 633T178 593T162 540T157 484V0H91V479Q91 522 100 563T130 635T185 685T268 704Q348 704 396 659T444 532Q444 494 434 468T408 426T376 400T346 385Q338 382 338 377Q338 371 350 369Q384 364 409 345T450 300T475 241T484 179Q484 140 473 105T440 45T387 4T314 -11Q296 -11 282 -7T250 3V63Z"  />
<glyph unicode="&#xE0;" horiz-adv-x="500" d="M352 355Q352 367 351 381T341 407T313 427T260 436Q219 436 186 422T116 384L88 447Q118 461 140 470T183 484T222 492T263 494Q271 494 284 494T312 490T342 481T372 465Q390 452 399 438T413 411T418 385T419 362V97Q419 77 424 68T435 54Q442 49 448 48T475 47V-8Q447 -8 430 -7T399 3Q389 9 382 18T370 38T363 59T360 75Q360 83 359 86Q358 86 358 86T356 87Q354 87 353 86Q335 65 317 48T278 19T235 0T182 -7Q138 -7 116 5T79 32Q68 44 61 57T51 82T46 104T44 120Q44 154 55 179T83 222T118 251T148 267Q199 289 248 292T352 296V355ZM350 255Q311 255 273 252T198 234Q161 219 137 192T112 125Q112 117 115 104T127 77T152 55T197 46Q220 46 244 57T289 83T326 113T350 137V255ZM195 679L307 541H256L118 679H195Z"  />
<glyph unicode="&#xE1;" horiz-adv-x="500" d="M352 355Q352 367 351 381T341 407T313 427T260 436Q219 436 186 422T116 384L88 447Q118 461 140 470T183 484T222 492T263 494Q271 494 284 494T312 490T342 481T372 465Q390 452 399 438T413 411T418 385T419 362V97Q419 77 424 68T435 54Q442 49 448 48T475 47V-8Q447 -8 430 -7T399 3Q389 9 382 18T370 38T363 59T360 75Q360 83 359 86Q358 86 358 86T356 87Q354 87 353 86Q335 65 317 48T278 19T235 0T182 -7Q138 -7 116 5T79 32Q68 44 61 57T51 82T46 104T44 120Q44 154 55 179T83 222T118 251T148 267Q199 289 248 292T352 296V355ZM350 255Q311 255 273 252T198 234Q161 219 137 192T112 125Q112 117 115 104T127 77T152 55T197 46Q220 46 244 57T289 83T326 113T350 137V255ZM293 679H370L233 541H182L293 679Z"  />
<glyph unicode="&#xE2;" horiz-adv-x="500" d="M352 355Q352 367 351 381T341 407T313 427T260 436Q219 436 186 422T116 384L88 447Q118 461 140 470T183 484T222 492T263 494Q271 494 284 494T312 490T342 481T372 465Q390 452 399 438T413 411T418 385T419 362V97Q419 77 424 68T435 54Q442 49 448 48T475 47V-8Q447 -8 430 -7T399 3Q389 9 382 18T370 38T363 59T360 75Q360 83 359 86Q358 86 358 86T356 87Q354 87 353 86Q335 65 317 48T278 19T235 0T182 -7Q138 -7 116 5T79 32Q68 44 61 57T51 82T46 104T44 120Q44 154 55 179T83 222T118 251T148 267Q199 289 248 292T352 296V355ZM350 255Q311 255 273 252T198 234Q161 219 137 192T112 125Q112 117 115 104T127 77T152 55T197 46Q220 46 244 57T289 83T326 113T350 137V255ZM284 679L397 541H332L250 642L168 541H103L217 679H284Z"  />
<glyph unicode="&#xE3;" horiz-adv-x="500" d="M352 355Q352 367 351 381T341 407T313 427T260 436Q219 436 186 422T116 384L88 447Q118 461 140 470T183 484T222 492T263 494Q271 494 284 494T312 490T342 481T372 465Q390 452 399 438T413 411T418 385T419 362V97Q419 77 424 68T435 54Q442 49 448 48T475 47V-8Q447 -8 430 -7T399 3Q389 9 382 18T370 38T363 59T360 75Q360 83 359 86Q358 86 358 86T356 87Q354 87 353 86Q335 65 317 48T278 19T235 0T182 -7Q138 -7 116 5T79 32Q68 44 61 57T51 82T46 104T44 120Q44 154 55 179T83 222T118 251T148 267Q199 289 248 292T352 296V355ZM350 255Q311 255 273 252T198 234Q161 219 137 192T112 125Q112 117 115 104T127 77T152 55T197 46Q220 46 244 57T289 83T326 113T350 137V255ZM402 654Q392 597 370 577T319 557Q311 557 304 557T288 561T266 569T230 584Q216 590 207 593T193 599T183 601T174 602Q161 602 152 597T138 583T129 567T125 552H89Q91 568 97 585T114 617T140 640T177 649Q185 649 191 648T206 645T226 637T260 623Q288 611 298 608T318 604Q332 604 340 610T354 624T360 640T363 654H402Z"  />
<glyph unicode="&#xE4;" horiz-adv-x="500" d="M352 355Q352 367 351 381T341 407T313 427T260 436Q219 436 186 422T116 384L88 447Q118 461 140 470T183 484T222 492T263 494Q271 494 284 494T312 490T342 481T372 465Q390 452 399 438T413 411T418 385T419 362V97Q419 77 424 68T435 54Q442 49 448 48T475 47V-8Q447 -8 430 -7T399 3Q389 9 382 18T370 38T363 59T360 75Q360 83 359 86Q358 86 358 86T356 87Q354 87 353 86Q335 65 317 48T278 19T235 0T182 -7Q138 -7 116 5T79 32Q68 44 61 57T51 82T46 104T44 120Q44 154 55 179T83 222T118 251T148 267Q199 289 248 292T352 296V355ZM350 255Q311 255 273 252T198 234Q161 219 137 192T112 125Q112 117 115 104T127 77T152 55T197 46Q220 46 244 57T289 83T326 113T350 137V255ZM204 653V551H139V653H204ZM362 653V551H298V653H362Z"  />
<glyph unicode="&#xE5;" horiz-adv-x="500" d="M352 355Q352 367 351 381T341 407T313 427T260 436Q219 436 186 422T116 384L88 447Q118 461 140 470T183 484T222 492T263 494Q271 494 284 494T312 490T342 481T372 465Q390 452 399 438T413 411T418 385T419 362V97Q419 77 424 68T435 54Q442 49 448 48T475 47V-8Q447 -8 430 -7T399 3Q389 9 382 18T370 38T363 59T360 75Q360 83 359 86Q358 86 358 86T356 87Q354 87 353 86Q335 65 317 48T278 19T235 0T182 -7Q138 -7 116 5T79 32Q68 44 61 57T51 82T46 104T44 120Q44 154 55 179T83 222T118 251T148 267Q199 289 248 292T352 296V355ZM350 255Q311 255 273 252T198 234Q161 219 137 192T112 125Q112 117 115 104T127 77T152 55T197 46Q220 46 244 57T289 83T326 113T350 137V255ZM251 679Q281 679 302 658T324 606Q324 575 303 554T251 532Q220 532 199 553T177 606Q177 636 198 657T251 679ZM251 647Q234 647 223 635T211 606Q211 589 222 577T251 565Q268 565 279 577T290 606Q290 623 279 635T251 647Z"  />
<glyph unicode="&#xE6;" horiz-adv-x="778" d="M426 238Q426 206 430 172T447 109T485 62T550 43Q587 43 611 55T661 94L706 58Q698 48 686 36T655 12T610 -7T548 -15Q498 -15 461 4T404 56Q395 72 392 76T384 81Q381 81 369 70T343 48Q332 40 318 30T285 10T245 -6T198 -13Q169 -13 143 -5T98 19T67 59T55 115Q55 155 70 183T109 231T166 262T232 279T301 287T365 289V346Q365 370 356 385T332 411T298 425T259 429Q221 429 190 418T127 389L102 442Q123 452 141 460T177 474T214 483T257 487Q290 487 313 481T353 467T379 451T394 436Q401 427 404 422T411 416Q414 416 415 417T420 425Q428 439 444 452T483 475Q497 480 511 482T539 484Q595 484 630 464T685 409T712 330T720 238H426ZM363 248Q349 248 326 248T276 244T223 232T174 210T139 173T125 119Q125 93 134 78T156 54T184 44T211 41Q235 41 259 51T305 75T341 102T363 120V248ZM653 287Q653 300 652 323T640 370T607 410T544 427Q508 427 487 413T453 377T436 331T428 287H653Z"  />
<glyph unicode="&#xE7;" horiz-adv-x="444" d="M332 367Q329 373 323 385T305 409T276 429T234 438Q195 438 171 418T133 368T114 302T109 234Q109 212 113 176T138 106Q150 87 163 76T190 58T216 50T235 48Q260 48 277 56T306 76T323 101T333 123L402 93Q382 46 346 23T263 -6L221 -59Q236 -56 243 -55T258 -53Q270 -53 283 -57T308 -69T328 -92T336 -126Q336 -161 308 -184T231 -208Q195 -208 175 -203T133 -188L148 -158Q170 -166 182 -169T212 -173Q243 -173 261 -160T279 -127Q279 -112 266 -100T228 -87Q217 -87 206 -89T184 -95L169 -82L224 -7Q191 -7 159 7T100 51T58 130T41 249Q41 301 55 346T94 424T155 475T234 494Q265 494 287 489T327 472T359 442T388 398L332 367Z"  />
<glyph unicode="&#xE8;" horiz-adv-x="444" d="M326 296Q326 303 326 314T324 338T318 365T306 392Q291 417 267 427T220 438Q177 438 143 406T102 296H326ZM100 248Q100 215 104 180T123 116T162 69T228 50Q262 50 287 63T334 103L380 67Q348 27 313 11T226 -6Q178 -6 142 14T82 68T46 144T33 229Q33 273 40 319T76 411Q105 457 143 475T223 493Q278 493 311 471T362 414T386 335T394 248H100ZM167 679L279 541H228L90 679H167Z"  />
<glyph unicode="&#xE9;" horiz-adv-x="444" d="M326 296Q326 303 326 314T324 338T318 365T306 392Q291 417 267 427T220 438Q177 438 143 406T102 296H326ZM100 248Q100 215 104 180T123 116T162 69T228 50Q262 50 287 63T334 103L380 67Q348 27 313 11T226 -6Q178 -6 142 14T82 68T46 144T33 229Q33 273 40 319T76 411Q105 457 143 475T223 493Q278 493 311 471T362 414T386 335T394 248H100ZM265 679H342L205 541H154L265 679Z"  />
<glyph unicode="&#xEA;" horiz-adv-x="444" d="M326 296Q326 303 326 314T324 338T318 365T306 392Q291 417 267 427T220 438Q177 438 143 406T102 296H326ZM100 248Q100 215 104 180T123 116T162 69T228 50Q262 50 287 63T334 103L380 67Q348 27 313 11T226 -6Q178 -6 142 14T82 68T46 144T33 229Q33 273 40 319T76 411Q105 457 143 475T223 493Q278 493 311 471T362 414T386 335T394 248H100ZM256 679L369 541H304L222 642L140 541H75L189 679H256Z"  />
<glyph unicode="&#xEB;" horiz-adv-x="444" d="M326 296Q326 303 326 314T324 338T318 365T306 392Q291 417 267 427T220 438Q177 438 143 406T102 296H326ZM100 248Q100 215 104 180T123 116T162 69T228 50Q262 50 287 63T334 103L380 67Q348 27 313 11T226 -6Q178 -6 142 14T82 68T46 144T33 229Q33 273 40 319T76 411Q105 457 143 475T223 493Q278 493 311 471T362 414T386 335T394 248H100ZM176 653V551H111V653H176ZM334 653V551H270V653H334Z"  />
<glyph unicode="&#xEC;" horiz-adv-x="278" d="M170 479V0H108V479H170ZM84 679L196 541H145L7 679H84Z"  />
<glyph unicode="&#xED;" horiz-adv-x="278" d="M170 479V0H108V479H170ZM182 679H259L122 541H71L182 679Z"  />
<glyph unicode="&#xEE;" horiz-adv-x="278" d="M170 479V0H108V479H170ZM173 679L286 541H221L139 642L57 541H-8L106 679H173Z"  />
<glyph unicode="&#xEF;" horiz-adv-x="278" d="M170 479V0H108V479H170ZM93 653V551H28V653H93ZM251 653V551H187V653H251Z"  />
<glyph unicode="&#xF0;" horiz-adv-x="500" d="M378 231Q378 262 373 297T354 363T315 414T250 434Q209 434 184 413T146 361T128 293T123 225Q123 195 130 164T154 107T195 65T255 49Q291 49 315 66T353 110T372 169T378 231ZM339 605Q444 445 444 236Q444 184 435 140T402 62T341 10T246 -9Q194 -9 158 13T100 70T67 151T57 242Q57 286 67 330T101 411T160 469T249 492Q280 492 306 478T351 439H358Q344 484 330 520T296 588L175 539L165 562L283 610Q269 633 251 656T211 702L250 720Q271 697 289 675T325 627L437 673L447 649L339 605Z"  />
<glyph unicode="&#xF1;" horiz-adv-x="500" d="M74 456L137 490V382Q137 377 140 375T145 375Q152 380 164 398T196 435T244 470T311 486Q346 486 368 475T403 443T421 396T426 339V0H361V341Q361 357 360 374T353 404T335 425T298 434Q266 434 242 421T197 387Q176 367 162 347T139 309V0H74V456ZM402 654Q392 597 370 577T319 557Q311 557 304 557T288 561T266 569T230 584Q216 590 207 593T193 599T183 601T174 602Q161 602 152 597T138 583T129 567T125 552H89Q91 568 97 585T114 617T140 640T177 649Q185 649 191 648T206 645T226 637T260 623Q288 611 298 608T318 604Q332 604 340 610T354 624T360 640T363 654H402Z"  />
<glyph unicode="&#xF2;" horiz-adv-x="500" d="M378 231Q378 262 373 297T354 363T315 414T250 434Q209 434 184 413T146 361T128 293T123 225Q123 195 130 164T154 107T195 65T255 49Q291 49 315 66T353 110T372 169T378 231ZM444 236Q444 184 435 140T402 62T341 10T246 -9Q194 -9 158 13T100 70T67 151T57 242Q57 286 67 330T101 411T160 469T249 492Q303 492 340 470T400 411T434 329T444 236ZM195 679L307 541H256L118 679H195Z"  />
<glyph unicode="&#xF3;" horiz-adv-x="500" d="M378 231Q378 262 373 297T354 363T315 414T250 434Q209 434 184 413T146 361T128 293T123 225Q123 195 130 164T154 107T195 65T255 49Q291 49 315 66T353 110T372 169T378 231ZM444 236Q444 184 435 140T402 62T341 10T246 -9Q194 -9 158 13T100 70T67 151T57 242Q57 286 67 330T101 411T160 469T249 492Q303 492 340 470T400 411T434 329T444 236ZM293 679H370L233 541H182L293 679Z"  />
<glyph unicode="&#xF4;" horiz-adv-x="500" d="M378 231Q378 262 373 297T354 363T315 414T250 434Q209 434 184 413T146 361T128 293T123 225Q123 195 130 164T154 107T195 65T255 49Q291 49 315 66T353 110T372 169T378 231ZM444 236Q444 184 435 140T402 62T341 10T246 -9Q194 -9 158 13T100 70T67 151T57 242Q57 286 67 330T101 411T160 469T249 492Q303 492 340 470T400 411T434 329T444 236ZM284 679L397 541H332L250 642L168 541H103L217 679H284Z"  />
<glyph unicode="&#xF5;" horiz-adv-x="500" d="M378 231Q378 262 373 297T354 363T315 414T250 434Q209 434 184 413T146 361T128 293T123 225Q123 195 130 164T154 107T195 65T255 49Q291 49 315 66T353 110T372 169T378 231ZM444 236Q444 184 435 140T402 62T341 10T246 -9Q194 -9 158 13T100 70T67 151T57 242Q57 286 67 330T101 411T160 469T249 492Q303 492 340 470T400 411T434 329T444 236ZM402 654Q392 597 370 577T319 557Q311 557 304 557T288 561T266 569T230 584Q216 590 207 593T193 599T183 601T174 602Q161 602 152 597T138 583T129 567T125 552H89Q91 568 97 585T114 617T140 640T177 649Q185 649 191 648T206 645T226 637T260 623Q288 611 298 608T318 604Q332 604 340 610T354 624T360 640T363 654H402Z"  />
<glyph unicode="&#xF6;" horiz-adv-x="500" d="M378 231Q378 262 373 297T354 363T315 414T250 434Q209 434 184 413T146 361T128 293T123 225Q123 195 130 164T154 107T195 65T255 49Q291 49 315 66T353 110T372 169T378 231ZM444 236Q444 184 435 140T402 62T341 10T246 -9Q194 -9 158 13T100 70T67 151T57 242Q57 286 67 330T101 411T160 469T249 492Q303 492 340 470T400 411T434 329T444 236ZM204 653V551H139V653H204ZM362 653V551H298V653H362Z"  />
<glyph unicode="&#xF7;" horiz-adv-x="600" d="M552 220H48V286H552V220ZM364 468Q364 444 345 424T301 404Q275 404 256 423T236 468Q236 494 255 513T300 532Q326 532 345 513T364 468ZM364 38Q364 14 345 -6T301 -26Q275 -26 256 -7T236 38Q236 64 255 83T300 102Q326 102 345 83T364 38Z"  />
<glyph unicode="&#xF8;" horiz-adv-x="500" d="M371 447Q410 411 427 354T444 236Q444 184 435 140T402 62T341 10T246 -9Q200 -9 166 9L97 -140H62L139 26Q117 44 102 68T76 120T62 180T57 242Q57 286 67 330T101 411T160 469T249 492Q278 492 301 486T344 467L409 606H445L371 447ZM193 66Q206 58 221 54T255 49Q291 49 315 66T353 110T372 169T378 231Q378 268 371 310T342 384L193 66ZM318 411Q305 422 289 428T250 434Q209 434 184 413T146 361T128 293T123 225Q123 189 134 152T168 88L318 411Z"  />
<glyph unicode="&#xF9;" horiz-adv-x="500" d="M76 479H142V147Q142 129 143 111T151 78T173 54T215 44Q239 44 265 61T312 99T347 139T361 163V479H425V23L364 -9V98Q364 100 364 102T360 104Q356 104 350 97Q336 75 321 56T286 23T245 1T195 -7Q159 -7 136 4T100 36T81 84T76 142V479ZM195 679L307 541H256L118 679H195Z"  />
<glyph unicode="&#xFA;" horiz-adv-x="500" d="M76 479H142V147Q142 129 143 111T151 78T173 54T215 44Q239 44 265 61T312 99T347 139T361 163V479H425V23L364 -9V98Q364 100 364 102T360 104Q356 104 350 97Q336 75 321 56T286 23T245 1T195 -7Q159 -7 136 4T100 36T81 84T76 142V479ZM293 679H370L233 541H182L293 679Z"  />
<glyph unicode="&#xFB;" horiz-adv-x="500" d="M76 479H142V147Q142 129 143 111T151 78T173 54T215 44Q239 44 265 61T312 99T347 139T361 163V479H425V23L364 -9V98Q364 100 364 102T360 104Q356 104 350 97Q336 75 321 56T286 23T245 1T195 -7Q159 -7 136 4T100 36T81 84T76 142V479ZM284 679L397 541H332L250 642L168 541H103L217 679H284Z"  />
<glyph unicode="&#xFC;" horiz-adv-x="500" d="M76 479H142V147Q142 129 143 111T151 78T173 54T215 44Q239 44 265 61T312 99T347 139T361 163V479H425V23L364 -9V98Q364 100 364 102T360 104Q356 104 350 97Q336 75 321 56T286 23T245 1T195 -7Q159 -7 136 4T100 36T81 84T76 142V479ZM204 653V551H139V653H204ZM362 653V551H298V653H362Z"  />
<glyph unicode="&#xFD;" horiz-adv-x="444" d="M30 -68H51Q57 -79 66 -87T99 -96Q123 -96 138 -83T164 -49T181 -7T194 32L25 479H96L192 215L212 159Q217 145 220 134T228 123Q233 123 238 145T260 215L349 479H412L241 -15Q232 -42 220 -68T191 -114T151 -147T94 -160Q74 -160 61 -157T30 -145V-68ZM265 679H342L205 541H154L265 679Z"  />
<glyph unicode="&#xFE;" horiz-adv-x="500" d="M134 230Q134 221 136 207T142 176T152 143T167 113Q184 88 211 70T270 51Q304 51 326 69T360 115T378 174T383 231Q383 249 381 283T368 350T333 409T264 434Q241 434 218 423T176 388T146 324T134 230ZM134 701V396Q134 394 134 394T135 391H140Q144 395 145 397T152 409Q153 412 161 425T186 453T225 479T281 491Q309 491 338 478T392 436T432 360T448 243Q448 187 437 141T403 63T350 13T278 -5Q246 -5 222 8T182 38T157 70T146 90Q144 90 143 90T140 91Q137 88 137 86V-173H69V669L134 701Z"  />
<glyph unicode="&#xFF;" horiz-adv-x="444" d="M30 -68H51Q57 -79 66 -87T99 -96Q123 -96 138 -83T164 -49T181 -7T194 32L25 479H96L192 215L212 159Q217 145 220 134T228 123Q233 123 238 145T260 215L349 479H412L241 -15Q232 -42 220 -68T191 -114T151 -147T94 -160Q74 -160 61 -157T30 -145V-68ZM176 653V551H111V653H176ZM334 653V551H270V653H334Z"  />
<glyph unicode="&#x131;" horiz-adv-x="278" d="M170 479V0H108V479H170Z"  />
<glyph unicode="&#x152;" horiz-adv-x="944" d="M813 319H525V60H873V0H368Q347 0 316 1T251 12T183 40T121 94Q97 125 84 159T65 226T58 287T57 332Q57 405 73 466T124 571T214 639T347 664H863V609H525V380H813V319ZM454 527Q454 540 452 555T440 582T407 603T344 611Q278 611 236 588T169 524T135 431T126 320Q126 265 136 217T172 134T238 78T339 57Q381 57 404 66T439 89T452 119T454 149V527Z"  />
<glyph unicode="&#x153;" horiz-adv-x="778" d="M436 241Q435 207 439 172T458 108T498 61T565 42Q586 42 602 47T631 61T653 79T670 96L715 60Q689 25 652 6T569 -13Q534 -13 509 -6T465 14T433 40T410 67Q404 73 403 73Q403 73 397 66T382 50T364 32T346 17Q320 0 295 -4T239 -9Q196 -9 162 8T103 58T65 136T51 242Q51 287 61 331T95 412T155 470T243 492Q284 492 313 480T362 451T391 422T403 405Q404 404 407 404Q409 404 410 405Q419 420 432 434T463 460T505 479T559 486Q613 486 646 464T698 407T722 329T729 241H436ZM662 289Q661 315 656 340T639 386T607 418T554 431Q506 431 475 396T438 289H662ZM372 228Q372 260 367 296T348 362T309 413T243 433Q202 433 177 412T139 360T121 291T117 223Q117 198 123 168T144 111T183 67T246 49Q285 49 309 64T348 105T367 163T372 228Z"  />
<glyph unicode="&#x160;" horiz-adv-x="611" d="M432 510Q427 523 419 542T394 579T353 609T289 622Q278 622 258 619T218 604T183 570T168 508Q168 481 179 462T207 429T240 406T270 392Q290 384 318 373T366 354Q402 339 430 323T477 284T505 233T515 162Q515 117 495 78T446 17Q425 2 403 -6T361 -19T324 -23T297 -24Q256 -24 223 -12T164 22T119 71T84 131L144 160Q152 135 163 117T187 86T209 66T224 55Q252 39 277 36T320 33Q338 33 360 38T402 58T435 97T449 159Q449 196 432 225T378 272L345 288Q314 304 282 316T218 343Q196 354 170 371T123 428Q113 448 109 470T105 507Q105 544 117 575T152 629T212 665T296 678Q327 678 354 672T406 649T452 607T494 541L432 510ZM453 864L340 726H273L159 864H224L306 763L388 864H453Z"  />
<glyph unicode="&#x161;" horiz-adv-x="389" d="M63 102Q90 78 122 62T192 45Q242 45 268 68T294 126Q294 151 280 169T242 198Q237 200 219 207T180 223T139 240T111 252Q105 255 94 261T71 280T52 312T43 358Q43 390 54 415T84 457T131 484T189 493Q229 493 261 483T329 456L308 397Q281 417 250 428T184 440Q154 440 129 423T104 372Q104 354 110 342T129 320T165 300T221 277Q249 266 273 255T314 228T341 190T351 134Q351 98 338 72T304 28T253 3T190 -6Q143 -6 109 6T37 45L63 102ZM342 679L229 541H162L48 679H113L195 578L277 679H342Z"  />
<glyph unicode="&#x178;" horiz-adv-x="667" d="M371 0H301V254L57 664H134L310 359Q318 345 323 334T337 323Q345 323 354 344T381 395L534 664H611L371 254V0ZM288 838V736H223V838H288ZM446 838V736H382V838H446Z"  />
<glyph unicode="&#x17D;" horiz-adv-x="611" d="M81 664H521V617L225 154Q222 150 213 137T193 110T174 83T166 68Q166 61 173 60T182 59H530V0H74V47L377 522Q380 527 389 539T408 565T425 589T433 602Q433 606 428 606H81V664ZM453 864L340 726H273L159 864H224L306 763L388 864H453Z"  />
<glyph unicode="&#x17E;" horiz-adv-x="444" d="M60 479H391V422L183 130Q166 106 157 95T140 73Q132 65 131 62T129 57Q129 53 139 53H391V0H53V52L245 326Q261 349 278 371T314 414V421H60V479ZM369 679L256 541H189L75 679H140L222 578L304 679H369Z"  />
<glyph unicode="&#x192;" horiz-adv-x="556" d="M102 405H245Q255 466 267 517T298 605T345 662T414 683Q425 683 451 678T503 656L480 600Q472 606 455 616T416 627Q394 627 380 616T356 585T341 542T329 491Q328 486 326 474T322 448T319 422T316 405H458V347H310L287 181Q286 173 283 149T274 94T263 32T251 -20Q247 -34 239 -58T214 -107T171 -149T104 -167Q95 -167 70 -163T19 -140L42 -80Q59 -96 75 -101T105 -107Q131 -107 148 -90T175 -48T190 8T199 64L238 347H102V405Z"  />
<glyph unicode="&#x2C6;" horiz-adv-x="278" d="M173 679L286 541H221L139 642L57 541H-8L106 679H173Z"  />
<glyph unicode="&#x2C7;" horiz-adv-x="278" d="M286 679L173 541H106L-8 679H57L139 578L221 679H286Z"  />
<glyph unicode="&#x2DA;" horiz-adv-x="278" d="M140 679Q170 679 191 658T213 606Q213 575 192 554T140 532Q109 532 88 553T66 606Q66 636 87 657T140 679ZM140 647Q123 647 112 635T100 606Q100 589 111 577T140 565Q157 565 168 577T179 606Q179 623 168 635T140 647Z"  />
<glyph unicode="&#x2DC;" horiz-adv-x="278" d="M291 654Q281 597 259 577T208 557Q200 557 193 557T177 561T155 569T119 584Q105 590 96 593T82 599T72 601T63 602Q50 602 41 597T27 583T18 567T14 552H-22Q-20 568 -14 585T3 617T29 640T66 649Q74 649 80 648T95 645T115 637T149 623Q177 611 187 608T207 604Q221 604 229 610T243 624T249 640T252 654H291Z"  />
<glyph unicode="&#x2013;" horiz-adv-x="500" d="M500 282V234H-1V282H500Z"  />
<glyph unicode="&#x2014;" horiz-adv-x="1000" d="M875 234H125V282H875V234Z"  />
<glyph unicode="&#x2018;" horiz-adv-x="278" d="M215 383H153L34 678H100L215 383Z"  />
<glyph unicode="&#x2019;" horiz-adv-x="278" d="M178 678H244L125 383H63L178 678Z"  />
<glyph unicode="&#x201A;" horiz-adv-x="278" d="M178 115H244L125 -180H63L178 115Z"  />
<glyph unicode="&#x201C;" horiz-adv-x="556" d="M65 678H131L244 382H182L65 678ZM369 678L481 382H419L303 678H369Z"  />
<glyph unicode="&#x201D;" horiz-adv-x="556" d="M374 382H312L425 678H491L374 382ZM253 678L138 382H75L188 678H253Z"  />
<glyph unicode="&#x201E;" horiz-adv-x="556" d="M326 -180H264L377 116H443L326 -180ZM205 116L89 -180H27L139 116H205Z"  />
<glyph unicode="&#x2020;" horiz-adv-x="556" d="M108 523L265 500L241 683H315L293 500L448 524V449L293 473Q293 459 293 450T295 434T297 418T302 397Q303 393 305 383T310 361T315 341T317 331Q317 325 315 317T312 303Q309 284 307 244T302 157T298 62T296 -18H265L259 128Q258 140 257 165T253 217T249 266T246 296Q244 307 242 315T240 330Q240 331 241 338T245 356T250 375T253 387Q256 404 258 414T261 433T263 451T265 474L108 449V523Z"  />
<glyph unicode="&#x2021;" horiz-adv-x="556" d="M108 218L265 191Q262 217 261 232T258 257T256 273T253 287Q253 288 252 295T248 310T245 326T243 336Q243 339 245 348T249 369T254 391T257 405Q262 427 262 440T265 473L108 451V525L265 500L242 683H316L293 500L449 524V450L293 472L297 437L309 367Q311 357 313 349T316 334Q316 328 313 317T307 294Q305 287 304 281T302 265T299 238T295 193L449 216V142L297 165L316 -15H242L265 167L108 143V218Z"  />
<glyph unicode="&#x2022;" horiz-adv-x="500" d="M385 350Q385 322 375 298T346 255T303 226T250 215Q222 215 198 225T155 254T126 297T115 350Q114 378 124 402T153 445T197 474T250 485Q278 485 303 475T346 446T374 403T385 350Z"  />
<glyph unicode="&#x2026;" horiz-adv-x="1000" d="M250 -7Q225 -7 207 9T189 52Q189 77 207 94T249 112Q275 112 292 94T310 52Q310 26 292 10T250 -7ZM500 -7Q475 -7 457 9T439 52Q439 77 457 94T499 112Q525 112 542 94T560 52Q560 26 542 10T500 -7ZM750 -7Q725 -7 707 9T689 52Q689 77 707 94T749 112Q775 112 792 94T810 52Q810 26 792 10T750 -7Z"  />
<glyph unicode="&#x2030;" horiz-adv-x="1000" d="M155 466Q192 466 219 493T246 560Q246 579 239 596T219 626T189 646T154 654Q117 654 90 628T63 560Q63 523 87 495T155 466ZM5 560Q5 591 17 618T49 665T96 697T155 709Q186 709 213 697T260 665T292 618T304 560Q304 528 293 501T261 453T213 421T155 409Q123 409 96 420T49 452T17 500T5 560ZM478 50Q515 50 542 76T569 144Q569 163 562 180T542 209T512 229T477 237Q459 237 443 230T414 211T394 181T386 144Q386 106 410 78T478 50ZM328 144Q328 175 340 202T372 249T419 281T478 293Q509 293 536 281T583 249T614 202T626 144Q626 112 615 85T583 37T536 5T478 -7Q446 -7 419 4T372 36T340 84T328 144ZM848 50Q866 50 882 57T911 76T930 106T938 144Q938 163 931 179T911 209T882 229T846 237Q828 237 812 230T783 211T763 182T755 144Q755 106 779 78T848 50ZM697 144Q697 175 709 202T741 249T789 281T848 293Q879 293 906 281T953 249T984 202T996 144Q996 112 985 85T953 37T906 5T848 -7Q816 -7 789 4T741 36T709 84T697 144ZM493 725H547L132 -22H76L493 725Z"  />
<glyph unicode="&#x2039;" horiz-adv-x="333" d="M191 76L56 233L180 391H246L120 234L257 76H191Z"  />
<glyph unicode="&#x203A;" horiz-adv-x="333" d="M76 76L213 234L87 391H153L277 233L142 76H76Z"  />
<glyph unicode="&#x20AC;" horiz-adv-x="556" d="M512 515Q488 538 449 555T354 572Q309 572 275 558T217 518T179 460T160 391H467L448 342H153Q152 335 152 326T151 308Q151 297 151 288T153 272H421L402 222H160Q173 136 222 88T355 39Q409 39 447 55T512 95V30Q492 13 450 -2T348 -17Q244 -17 180 42T97 222H27L46 272H91Q90 278 90 288T90 308Q90 317 90 326T91 342H27L46 391H96Q103 440 121 483T169 559T244 610T348 629Q405 629 447 614T512 580V515Z"  />
<glyph unicode="&#x2122;" horiz-adv-x="990" d="M390 646H260V288H194V646H64V700H390V646ZM541 288H475V700H579L702 387L823 700H926V288H860V634H858L722 288H679L543 634H541V288Z"  />

</font>
</defs>
</svg>
