<?xml  version="1.0" encoding="UTF-8"?>
<!DOCTYPE svg PUBLIC "-//W3C//DTD SVG 1.0//EN" "http://www.w3.org/TR/2001/REC-SVG-20010904/DTD/svg10.dtd" >
<svg xmlns="http://www.w3.org/2000/svg" >
<metadata>
<version>1.0</version>
<id><![CDATA[Futura W01 Book]]></id>
<vendor>Monotype Imaging Inc.</vendor>
<credits>
<name>Fonts.com WebFonts</name>
<URL>http://webfonts.fonts.com</URL>
<role>Home of the Web fonts</role>
</credits>
<license>
<URL>http://webfonts.fonts.com/Legal</URL>
</license>
<copyright><![CDATA[Part of the digitally encoded machine readable outline data for producing the Typefaces provided is copyrighted © 2006 Linotype GmbH, www.linotype.com. All rights reserved. This software is the property of Linotype GmbH, and may not be reproduced, used, displayed, modified, disclosed or transferred without the express written approval of Linotype GmbH.  Copyright © 1987, 1991, 1992, 1993 Adobe Systems Incorporated. All Rights Reserved.]]></copyright>
<trademark><![CDATA[Futura is either a registered trademark or a trademark of Bauer Types SA.]]></trademark>
<licensee>
<name></name>
</licensee>
</metadata>
<defs >
<font horiz-adv-x="552" id="15c556fc-4608-4b01-8a0d-9c8631c8bd74">
<font-face font-family="" panose-1="2 11 5 2 2 2 4 2 3 3" ascent="1040" descent="-264" units-per-em="1000" alphabetic="0">
</font-face>
<missing-glyph horiz-adv-x="308" />

<glyph unicode="&#xA;" />
<glyph unicode="&#xD;" horiz-adv-x="0" />
<glyph unicode=" " horiz-adv-x="308" />
<glyph unicode="!" horiz-adv-x="338" d="M169 99Q192 99 208 83T225 44Q225 21 209 4T169 -13Q146 -13 130 4T113 44Q113 67 129 83T169 99ZM128 754H210V153H128V754Z"  />
<glyph unicode="&quot;" horiz-adv-x="457" d="M196 754L178 426H120L102 754H196ZM355 754L337 426H279L261 754H355Z"  />
<glyph unicode="#" horiz-adv-x="616" d="M313 754L277 550H401L436 754H515L480 550H572V472H467L438 301H539V223H424L384 0H308L347 223H224L182 0H107L146 223H44V301H159L188 472H81V550H200L236 754H313ZM237 301H360L389 472H266L237 301Z"  />
<glyph unicode="$" horiz-adv-x="616" d="M356 76Q404 92 431 130T458 219Q458 243 450 262T427 296T394 323T356 344V76ZM290 682Q250 674 224 643T197 569Q197 548 205 532T227 503T256 480T290 463V682ZM290 374Q256 388 224 405T168 445T128 499T113 572Q113 611 126 643T164 700T220 740T290 761V864H356V761Q407 754 449 723T514 647L448 604Q433 630 411 652T356 681V434Q393 418 427 400T486 357T527 299T542 221Q542 179 528 142T490 75T431 24T356 -5V-115H290V-11Q249 -9 213 6T149 48T101 109T74 183L155 206Q158 180 169 156T199 114T240 83T290 69V374Z"  />
<glyph unicode="%" horiz-adv-x="797" d="M200 767Q234 767 265 755T318 720T354 667T368 602Q368 567 355 538T318 486T265 451T200 438Q166 438 136 450T82 485T46 537T32 602Q32 637 45 667T81 719T134 754T200 767ZM200 703Q179 703 160 695T127 674T105 642T96 602Q96 581 104 563T127 532T160 510T200 502Q221 502 240 510T273 531T295 563T304 602Q304 623 296 641T273 673T240 695T200 703ZM637 743L201 -13L158 13L597 767L637 743ZM598 316Q632 316 663 304T716 269T752 216T766 151Q766 116 753 87T716 35T663 0T598 -13Q564 -13 534 -1T480 34T444 86T430 151Q430 186 443 216T479 268T532 303T598 316ZM598 252Q577 252 558 244T525 223T503 191T494 151Q494 130 502 112T525 81T558 59T598 51Q619 51 638 59T671 80T693 112T702 151Q702 172 694 190T671 222T638 244T598 252Z"  />
<glyph unicode="&amp;" horiz-adv-x="695" d="M309 497Q325 509 342 521T372 548T394 579T403 619Q403 654 379 675T321 696Q286 696 262 672T238 613Q238 584 253 562T284 517L302 492L309 497ZM500 106Q475 83 448 62T390 24T327 -3T259 -13Q216 -13 176 2T106 45T57 110T39 193Q39 240 54 276T96 341T155 394T224 441L233 447Q220 465 207 483T183 521T165 562T158 607Q158 643 170 672T205 723T257 755T323 767Q355 767 384 756T435 726T470 679T483 619Q483 585 472 559T441 510T398 468T350 431L509 228L594 327L655 277L559 165L687 0H581L500 106ZM246 361Q225 346 203 330T162 295T133 252T121 199Q121 172 132 148T161 105T203 75T254 63Q282 63 309 73T360 98T407 132T450 169L282 385L246 361Z"  />
<glyph unicode="&apos;" horiz-adv-x="289" d="M192 754L174 426H116L98 754H192Z"  />
<glyph unicode="(" horiz-adv-x="287" d="M255 754Q212 640 194 519T175 274Q175 150 193 29T255 -206L184 -240Q158 -184 141 -120T113 12T98 146T93 274Q93 335 97 402T112 536T140 667T184 788L255 754Z"  />
<glyph unicode=")" horiz-adv-x="287" d="M103 788Q129 732 146 668T174 536T189 402T194 274Q194 213 190 146T175 12T147 -119T103 -240L32 -206Q75 -92 93 29T112 274Q112 398 94 519T32 754L103 788Z"  />
<glyph unicode="*" horiz-adv-x="592" d="M259 754H334L328 614L460 663L484 591L348 553L435 443L374 398L296 516L218 398L157 443L245 553L109 591L133 663L265 614L259 754Z"  />
<glyph unicode="+" horiz-adv-x="616" d="M347 498V295H550V217H347V14H269V217H66V295H269V498H347Z"  />
<glyph unicode="&#x2c;" horiz-adv-x="308" d="M225 84L112 -172L58 -150L151 110L225 84Z"  />
<glyph unicode="-" horiz-adv-x="208" d="M207 278V204H2V278H207Z"  />
<glyph unicode="." horiz-adv-x="308" d="M154 99Q177 99 193 83T210 44Q210 21 194 4T154 -13Q131 -13 115 4T98 44Q98 67 114 83T154 99Z"  />
<glyph unicode="/" horiz-adv-x="570" d="M552 795L83 -157L18 -127L486 825L552 795Z"  />
<glyph unicode="0" horiz-adv-x="616" d="M308 767Q356 767 394 749T463 701T514 630T550 547T571 459T578 376Q578 306 560 237T508 112T423 22T308 -13Q243 -13 193 21T109 111T56 236T38 376Q38 415 44 459T65 546T101 630T153 700T221 749T308 767ZM308 689Q255 689 219 655T161 571T130 467T122 372Q123 346 127 313T140 245T163 179T198 121T246 81T308 65Q343 65 370 80T417 121T452 178T476 245T489 312T494 372Q495 412 486 466T455 570T397 654T308 689Z"  />
<glyph unicode="1" horiz-adv-x="616" d="M158 676L202 754H367V0H283V676H158Z"  />
<glyph unicode="2" horiz-adv-x="616" d="M529 78V0H41L394 417Q417 444 431 475T445 543Q445 574 433 601T401 647T353 678T295 689Q261 689 233 677T186 645T155 596T143 534H59Q60 583 78 626T127 700T200 749T292 767Q339 767 382 751T457 705T509 634T529 544Q529 451 472 385L211 78H529Z"  />
<glyph unicode="3" horiz-adv-x="616" d="M271 435Q301 436 328 442T375 461T408 498T420 557Q420 617 384 653T288 689Q231 689 200 656T164 568H81Q90 658 143 712T290 767Q335 767 374 752T442 710T487 645T504 561Q504 511 479 465T407 396Q462 371 488 320T515 211Q515 161 497 120T447 50T372 4T281 -13Q235 -13 195 2T124 44T76 110T57 196H139Q140 167 152 143T184 102T229 75T284 65Q315 65 342 77T389 109T420 157T431 216Q431 288 386 323T271 357V435Z"  />
<glyph unicode="4" horiz-adv-x="616" d="M569 200V122H476V0H392V122H6L474 796H476V200H569ZM392 541H390L153 200H392V541Z"  />
<glyph unicode="5" horiz-adv-x="616" d="M282 676L233 515L278 519Q334 519 380 499T459 443T510 359T529 256Q529 197 508 148T449 63T361 7T252 -13Q177 -13 118 22T21 122L88 170Q114 124 157 95T255 65Q297 65 331 79T391 120T431 181T445 258Q445 298 431 331T391 389T331 427T257 441Q218 441 182 428T114 393L223 754H523V676H282Z"  />
<glyph unicode="6" horiz-adv-x="616" d="M426 720L252 486L254 484Q285 495 320 495Q371 495 415 475T493 422T545 343T564 246Q564 192 544 145T488 63T405 7T304 -13Q250 -13 203 7T121 63T65 145T44 245Q44 297 64 341T113 426L363 767L426 720ZM304 65Q341 65 373 79T429 117T466 173T480 243Q480 280 466 311T428 366T372 403T304 417Q267 417 235 404T179 367T142 312T128 243Q128 206 141 174T179 117T235 79T304 65Z"  />
<glyph unicode="7" horiz-adv-x="616" d="M51 676V754H607L101 -13L35 26L463 676H51Z"  />
<glyph unicode="8" horiz-adv-x="616" d="M308 355Q277 355 251 344T205 313T174 267T162 210Q162 180 173 154T204 108T250 77T308 65Q339 65 365 76T411 107T442 153T454 210Q454 240 443 266T412 312T366 343T308 355ZM308 767Q352 767 390 751T457 707T502 641T519 557Q519 507 495 462T427 392Q481 368 509 319T538 211Q538 162 521 121T472 50T399 4T308 -13Q259 -13 217 3T144 50T96 121T78 211Q78 269 106 318T189 392Q145 417 121 462T97 557Q97 602 113 640T158 707T225 751T308 767ZM308 689Q281 689 257 679T216 651T188 610T177 559Q177 532 187 508T215 466T257 438T308 427Q335 427 359 437T400 466T428 508T439 559Q439 586 429 609T401 651T359 679T308 689Z"  />
<glyph unicode="9" horiz-adv-x="616" d="M182 30L356 269L354 271Q339 266 323 264T289 261Q237 261 193 280T115 334T64 413T45 510Q45 564 65 610T121 692T204 747T305 767Q358 767 405 747T488 692T544 611T565 510Q565 459 545 415T495 329L245 -13L182 30ZM305 689Q268 689 236 675T180 637T143 581T129 513Q129 476 142 445T180 390T236 353T305 339Q341 339 373 352T429 389T467 444T481 513Q481 549 467 581T429 637T373 675T305 689Z"  />
<glyph unicode=":" horiz-adv-x="308" d="M154 99Q177 99 193 83T210 44Q210 21 194 4T154 -13Q131 -13 115 4T98 44Q98 67 114 83T154 99ZM154 483Q177 483 193 467T210 428Q210 405 194 388T154 371Q131 371 115 388T98 428Q98 451 114 467T154 483Z"  />
<glyph unicode=";" horiz-adv-x="308" d="M227 84L114 -172L60 -150L153 110L227 84ZM179 483Q202 483 218 467T235 428Q235 405 219 388T179 371Q156 371 140 388T123 428Q123 451 139 467T179 483Z"  />
<glyph unicode="&lt;" horiz-adv-x="616" d="M550 413L182 256L550 99V14L66 221V291L550 498V413Z"  />
<glyph unicode="=" horiz-adv-x="616" d="M550 373V295H66V373H550ZM550 217V139H66V217H550Z"  />
<glyph unicode="&gt;" horiz-adv-x="616" d="M66 498L550 291V221L66 14V99L434 256L66 413V498Z"  />
<glyph unicode="?" horiz-adv-x="488" d="M406 328Q407 292 396 261T362 206T310 169T243 155Q208 155 178 167T127 202T93 253T80 318Q80 352 90 376T120 419T163 449T217 471Q241 478 264 485T304 505T333 536T344 586Q344 632 315 661T241 690Q198 690 171 662T143 591Q143 567 149 543H66L62 596Q62 635 77 666T117 720T175 755T246 767Q284 767 317 753T374 715T412 658T426 587Q426 550 413 514T372 453Q346 430 309 418T239 395Q207 386 185 368T162 312Q162 278 186 255T244 232Q265 232 280 240T305 261T320 292T325 328H406ZM242 99Q265 99 281 83T298 44Q298 21 282 4T242 -13Q219 -13 203 4T186 44Q186 67 202 83T242 99Z"  />
<glyph unicode="@" horiz-adv-x="800" d="M261 346Q261 295 288 261T369 226Q402 226 426 239T466 272T491 319T503 372Q510 432 482 469T401 507Q371 507 345 493T301 455T272 404T261 346ZM542 566H613L563 311Q560 299 558 284T555 256T559 235T577 226Q594 226 613 242T650 286T679 347T693 417Q697 483 677 534T619 622T529 676T415 695Q348 695 292 671T195 605T131 504T108 377Q108 305 133 247T202 146T305 82T432 59Q559 59 623 105L693 54Q667 40 639 28T578 7T507 -7T424 -13Q343 -13 273 16T150 98T67 221T36 377Q36 460 65 531T147 655T268 737T418 767Q484 767 543 747T653 681Q704 636 734 579T765 452Q765 390 749 336T703 242Q667 194 626 174T549 156Q528 157 514 172T495 217Q469 191 437 174T359 156Q326 156 296 170T242 209T205 267T191 339Q191 384 205 426T246 502T310 555T395 575Q433 575 465 560T528 505L542 566Z"  />
<glyph unicode="A" horiz-adv-x="699" d="M189 214L98 0H6L354 790L693 0H600L511 214H189ZM352 594L223 292H478L352 594Z"  />
<glyph unicode="B" horiz-adv-x="568" d="M160 78H244Q279 78 313 83T375 104T420 146T437 216Q437 260 418 286T370 327T304 345T233 350H160V78ZM76 754H200Q251 754 297 744T377 710T432 647T452 550Q452 504 434 467T378 403Q412 395 438 377T483 332T511 275T521 210Q521 154 500 114T442 49T356 12T251 0H76V754ZM160 422H192Q228 422 260 425T316 442T354 480T368 550Q368 593 355 618T319 656T264 672T193 676H160V422Z"  />
<glyph unicode="C" horiz-adv-x="717" d="M651 589Q606 636 547 662T421 689Q358 689 303 664T206 595T141 496T117 377Q117 315 141 259T206 159T304 91T423 65Q487 65 546 92T651 165V61Q602 26 544 7T426 -13Q346 -13 275 17T150 100T65 223T33 374Q33 455 64 526T148 651T273 736T426 767Q552 767 651 693V589Z"  />
<glyph unicode="D" horiz-adv-x="678" d="M76 754H218Q260 754 299 751T374 737T444 709T512 663Q577 607 607 534T637 376Q637 293 607 222T514 95Q480 65 446 47T376 18T300 4T216 0H76V754ZM221 78Q255 78 287 81T348 92T405 116T459 156Q506 200 529 257T553 377Q553 442 529 501T455 603Q403 649 346 662T221 676H160V78H221Z"  />
<glyph unicode="E" horiz-adv-x="534" d="M76 754H467V676H160V452H458V374H160V78H467V0H76V754Z"  />
<glyph unicode="F" horiz-adv-x="478" d="M160 676V452H411V374H160V0H76V754H419V676H160Z"  />
<glyph unicode="G" horiz-adv-x="820" d="M777 379Q778 341 776 306T765 238T741 174T699 113Q647 53 573 20T420 -13Q340 -13 270 18T147 101T63 224T32 375Q32 456 63 527T147 652T272 736T425 767Q525 767 604 725T744 604L683 547Q635 614 572 651T424 689Q359 689 303 664T206 595T140 495T116 374Q116 314 139 259T204 161Q246 119 302 92T418 65Q467 65 515 82T601 130T663 205T687 301H463V379H777Z"  />
<glyph unicode="H" horiz-adv-x="714" d="M550 448V754H634V0H550V370H164V0H80V754H164V448H550Z"  />
<glyph unicode="I" horiz-adv-x="239" d="M162 0H78V754H162V0Z"  />
<glyph unicode="J" horiz-adv-x="314" d="M236 157Q236 112 231 67T198 -16Q175 -47 141 -62T68 -78Q30 -78 -3 -62T-66 -22L-19 43Q1 24 21 12T70 0Q101 0 117 16T141 56T150 107T152 157V754H236V157Z"  />
<glyph unicode="K" horiz-adv-x="611" d="M481 754H594L240 403L606 0H490L181 346L160 325V0H76V754H160V431L481 754Z"  />
<glyph unicode="L" horiz-adv-x="375" d="M160 78H368V0H76V754H160V78Z"  />
<glyph unicode="M" horiz-adv-x="896" d="M174 797L448 164L723 797L876 0H790L693 510H691L448 -31L206 510H204L107 0H21L174 797Z"  />
<glyph unicode="N" horiz-adv-x="834" d="M81 786L669 170V754H753V-34L165 581V0H81V786Z"  />
<glyph unicode="O" horiz-adv-x="862" d="M431 767Q512 767 583 737T708 653T793 528T824 376Q824 295 793 224T709 101T584 18T431 -13Q350 -13 279 17T154 100T69 224T38 376Q38 457 69 528T153 652T278 736T431 767ZM431 689Q366 689 310 665T212 598T146 498T122 377Q122 313 146 257T212 158T310 90T431 65Q495 65 551 90T650 157T716 256T740 377Q740 441 716 498T651 597T553 664T431 689Z"  />
<glyph unicode="P" horiz-adv-x="503" d="M160 0H76V754H200Q249 754 297 748T387 714Q429 685 450 639T472 542Q472 496 454 453T400 380Q362 348 315 339T221 330H160V0ZM160 408H216Q251 408 282 414T336 435T374 477T388 544Q388 590 371 616T326 656T263 672T191 676H160V408Z"  />
<glyph unicode="Q" horiz-adv-x="862" d="M657 168Q740 255 740 377Q740 441 716 498T651 597T553 664T431 689Q366 689 310 665T212 598T146 498T122 377Q122 313 146 257T212 158T310 90T431 65Q473 65 518 80T599 121L417 304H527L657 168ZM658 61Q611 26 550 7T431 -13Q350 -13 279 17T154 100T69 224T38 376Q38 457 69 528T153 652T278 736T431 767Q513 767 584 736T709 652T793 527T824 374Q824 295 797 230T715 108L828 -7H721L658 61Z"  />
<glyph unicode="R" horiz-adv-x="542" d="M160 405H186Q222 405 256 409T317 428T360 469T377 540Q377 586 361 613T319 654T258 672T185 676H160V405ZM160 0H76V754H185Q239 754 288 746T376 714T438 651T461 546Q461 458 411 402T272 338L512 0H409L181 331H160V0Z"  />
<glyph unicode="S" horiz-adv-x="559" d="M418 607Q395 646 366 667T288 689Q263 689 241 681T201 657T173 620T163 572Q163 548 174 530T203 497T241 473T281 454L331 432Q368 416 400 398T458 355T497 298T512 220Q512 170 494 128T443 54T367 5T275 -13Q230 -13 191 1T122 40T70 102T40 182L122 205Q126 176 139 151T171 106T217 76T273 65Q303 65 331 76T380 106T415 153T428 212Q428 245 416 268T385 308T340 337T289 362L243 382Q210 397 180 414T128 453T92 504T79 575Q79 619 96 654T142 715T210 753T290 767Q353 767 404 737T485 650L418 607Z"  />
<glyph unicode="T" horiz-adv-x="470" d="M276 0H192V676H10V754H460V676H276V0Z"  />
<glyph unicode="U" horiz-adv-x="685" d="M158 305Q158 284 158 262T161 218T171 176T191 137Q216 102 258 84T343 65Q384 65 424 82T491 132Q506 150 513 171T524 214T528 260T528 305V754H612V282Q612 251 610 224T602 170T582 120T546 73Q507 31 454 9T343 -13Q289 -13 238 6T148 64Q123 88 109 112T87 164T77 220T74 282V754H158V305Z"  />
<glyph unicode="V" horiz-adv-x="624" d="M312 179L527 754H618L312 -45L6 754H97L312 179Z"  />
<glyph unicode="W" horiz-adv-x="1091" d="M302 189L546 793L790 189L988 754H1079L790 -39L546 568L302 -39L13 754H104L302 189Z"  />
<glyph unicode="X" horiz-adv-x="564" d="M32 754H128L282 470L436 754H532L328 390L551 0H455L282 310L109 0H13L236 390L32 754Z"  />
<glyph unicode="Y" horiz-adv-x="593" d="M8 754H105L297 418L489 754H586L339 324V0H255V324L8 754Z"  />
<glyph unicode="Z" horiz-adv-x="586" d="M554 78V0H14L425 676H66V754H565L153 78H554Z"  />
<glyph unicode="[" horiz-adv-x="315" d="M186 -166H294V-240H104V788H294V714H186V-166Z"  />
<glyph unicode="\" horiz-adv-x="570" d="M84 825L552 0L487 -30L18 795L84 825Z"  />
<glyph unicode="]" horiz-adv-x="315" d="M129 714H21V788H211V-240H21V-166H129V714Z"  />
<glyph unicode="^" horiz-adv-x="616" d="M272 754H344L550 322H461L308 650L153 322H66L272 754Z"  />
<glyph unicode="_" horiz-adv-x="500" d="M500 -125H0V-75H500V-125Z"  />
<glyph unicode="`" horiz-adv-x="358" d="M162 744L281 580L231 552L78 706L162 744Z"  />
<glyph unicode="a" horiz-adv-x="577" d="M271 409Q236 409 208 395T160 358T129 304T118 240Q118 205 128 173T157 116T205 76T272 61Q311 61 340 75T389 114T419 171T429 239Q429 274 418 305T387 359T338 395T271 409ZM505 0H425V65H423Q361 -13 261 -13Q209 -13 168 7T97 62T52 140T36 234Q36 284 51 329T96 409T167 463T262 483Q310 483 352 462T423 403H425V470H505V0Z"  />
<glyph unicode="b" horiz-adv-x="577" d="M301 409Q266 409 238 395T190 358T159 304T148 240Q148 205 158 173T187 116T235 76T302 61Q341 61 370 75T419 114T449 171T459 239Q459 274 448 305T417 359T368 395T301 409ZM72 825H152V403H154Q183 441 225 462T315 483Q367 483 409 463T480 409T525 330T541 235Q541 186 525 141T480 62T410 8T316 -13Q267 -13 225 7T154 65H152V0H72V825Z"  />
<glyph unicode="c" horiz-adv-x="476" d="M425 330H423Q395 365 360 387T277 409Q241 409 211 395T158 357T124 302T111 235Q111 200 122 169T155 113T206 75T273 61Q324 61 360 82T426 142H428V35Q393 12 357 0T279 -13Q226 -13 180 6T101 58T48 136T29 235Q29 287 49 332T103 411T182 464T280 483Q318 483 355 471T425 436V330Z"  />
<glyph unicode="d" horiz-adv-x="577" d="M271 409Q236 409 208 395T160 358T129 304T118 240Q118 205 128 173T157 116T205 76T272 61Q311 61 340 75T389 114T419 171T429 239Q429 274 418 305T387 359T338 395T271 409ZM425 65H423Q394 27 352 7T261 -13Q209 -13 168 7T97 62T52 140T36 234Q36 284 51 329T96 409T167 463T262 483Q310 483 352 462T423 403H425V825H505V0H425V65Z"  />
<glyph unicode="e" horiz-adv-x="519" d="M116 218Q116 185 127 157T159 107T207 74T270 61Q321 61 355 88T413 158L481 119Q447 56 392 22T264 -13Q211 -13 169 6T96 57T50 134T34 229Q34 281 49 327T93 408T164 463T262 483Q319 483 362 462T433 403T475 318T485 218H116ZM401 286Q397 311 385 333T354 373T313 399T263 409Q237 409 213 400T170 373T137 334T120 286H401Z"  />
<glyph unicode="f" horiz-adv-x="274" d="M163 0H83V396H39V470H83V657Q83 686 85 719T104 779Q124 811 156 824T225 838Q239 838 253 836T282 828V747Q268 752 256 755T228 758Q204 758 191 750T171 725T164 684T163 629V470H282V396H163V0Z"  />
<glyph unicode="g" horiz-adv-x="580" d="M266 409Q231 409 203 395T155 358T124 304T113 240Q113 205 123 173T152 116T200 76T267 61Q306 61 335 75T384 114T414 171T424 239Q424 274 413 305T382 359T333 395T266 409ZM500 23Q500 -5 499 -31T494 -83T480 -132T452 -179Q419 -221 371 -241T270 -262Q221 -262 179 -247T107 -204T58 -136T39 -46H119Q120 -112 162 -150T269 -188Q315 -188 344 -172T391 -129T414 -67T420 9V65H418Q389 28 346 8T255 -13Q204 -13 163 7T92 61T47 139T31 233Q31 282 47 327T92 407T164 462T258 483Q307 483 348 462T418 403H420V470H500V23Z"  />
<glyph unicode="h" horiz-adv-x="528" d="M156 825V415L158 413Q183 447 215 465T292 483Q341 483 372 467T421 422T445 357T452 279V0H372V265Q372 293 370 319T358 365T328 397T273 409Q232 409 209 392T174 347T159 287T156 223V0H76V825H156Z"  />
<glyph unicode="i" horiz-adv-x="262" d="M171 0H91V470H171V0ZM131 704Q154 704 171 687T188 647Q188 623 171 607T131 590Q108 590 91 606T74 647Q74 670 91 687T131 704Z"  />
<glyph unicode="j" horiz-adv-x="262" d="M171 -264H91V470H171V-264ZM131 704Q154 704 171 687T188 647Q188 623 171 607T131 590Q108 590 91 606T74 647Q74 670 91 687T131 704Z"  />
<glyph unicode="k" horiz-adv-x="470" d="M152 296L323 470H430L229 270L468 0H362L173 214L152 193V0H72V825H152V296Z"  />
<glyph unicode="l" horiz-adv-x="227" d="M154 0H74V825H154V0Z"  />
<glyph unicode="m" horiz-adv-x="768" d="M156 419H158Q177 448 206 465T271 483Q313 483 347 463T401 405Q422 444 460 463T542 483Q587 483 616 466T662 422T685 359T692 286V0H612V273Q612 296 610 320T600 364T574 396T526 409Q491 409 471 394T441 356T427 304T424 249V0H344V267Q344 289 342 314T331 360T306 395T260 409Q225 409 204 393T173 353T159 299T156 243V0H76V470H156V419Z"  />
<glyph unicode="n" horiz-adv-x="528" d="M156 413H158Q183 447 215 465T292 483Q341 483 372 467T421 422T445 357T452 279V0H372V265Q372 293 370 319T358 365T328 397T273 409Q232 409 209 392T174 347T159 287T156 223V0H76V470H156V413Z"  />
<glyph unicode="o" horiz-adv-x="562" d="M281 -13Q230 -13 185 6T107 58T54 137T34 234Q34 286 53 331T105 410T184 463T281 483Q333 483 378 464T456 410T509 331T528 234Q528 182 509 137T456 59T377 6T281 -13ZM281 409Q244 409 213 395T160 358T126 303T114 235Q114 199 126 168T160 112T213 75T281 61Q318 61 349 74T402 112T436 167T448 235Q448 271 436 302T402 357T349 395T281 409Z"  />
<glyph unicode="p" horiz-adv-x="577" d="M301 409Q266 409 238 395T190 358T159 304T148 240Q148 205 158 173T187 116T235 76T302 61Q341 61 370 75T419 114T449 171T459 239Q459 274 448 305T417 359T368 395T301 409ZM152 403H154Q183 442 225 462T316 483Q368 483 409 463T480 408T525 328T541 234Q541 184 526 139T481 60T410 7T315 -13Q267 -13 225 7T154 66H152V-264H72V470H152V403Z"  />
<glyph unicode="q" horiz-adv-x="577" d="M271 409Q236 409 208 395T160 358T129 304T118 240Q118 205 128 173T157 116T205 76T272 61Q311 61 340 75T389 114T419 171T429 239Q429 274 418 305T387 359T338 395T271 409ZM505 -264H425V66H423Q394 28 352 8T262 -13Q209 -13 167 6T96 60T52 138T36 233Q36 282 51 327T96 407T167 462T261 483Q309 483 351 463T423 403H425V470H505V-264Z"  />
<glyph unicode="r" horiz-adv-x="335" d="M152 419H154Q175 447 197 465T258 483Q278 483 295 477T330 461L292 388Q280 396 270 402T244 409Q211 409 193 391T165 345T154 288T152 235V0H72V470H152V419Z"  />
<glyph unicode="s" horiz-adv-x="399" d="M266 361Q258 380 241 394T202 409Q181 409 163 395T144 357Q144 341 153 330T178 309T212 292T253 275Q274 266 293 255T328 229T352 192T362 140Q362 107 350 79T315 30T265 -1T203 -13Q143 -13 100 18T37 106L108 136Q123 103 143 82T204 61Q236 61 258 81T280 133Q280 159 265 175T225 203T174 225T123 251T84 290T68 350Q68 380 79 404T109 446T154 473T208 483Q249 483 283 458T333 396L266 361Z"  />
<glyph unicode="t" horiz-adv-x="240" d="M160 0H80V396H31V470H80V639H160V470H244V396H160V0Z"  />
<glyph unicode="u" horiz-adv-x="512" d="M150 208Q150 178 153 152T166 105T198 73T256 61Q292 61 313 73T345 105T359 151T362 208V470H442V199Q442 152 433 113T401 46T344 3T256 -13Q204 -13 169 2T111 46T80 113T70 199V470H150V208Z"  />
<glyph unicode="v" horiz-adv-x="463" d="M232 154L372 470H462L232 -31L1 470H92L232 154Z"  />
<glyph unicode="w" horiz-adv-x="760" d="M233 152L379 506L526 152L666 470H757L524 -33L379 317L234 -33L3 470H94L233 152Z"  />
<glyph unicode="x" horiz-adv-x="498" d="M30 470H128L251 310L374 470H474L302 250L497 0H400L251 191L101 0H1L201 250L30 470Z"  />
<glyph unicode="y" horiz-adv-x="498" d="M-2 470H91L257 133L409 470H500L153 -264H62L214 44L-2 470Z"  />
<glyph unicode="z" horiz-adv-x="519" d="M496 74V0H10L349 396H73V470H510L172 74H496Z"  />
<glyph unicode="{" horiz-adv-x="334" d="M51 306Q76 314 91 327T114 361T124 407T126 466V653Q126 683 135 708T157 751T185 778T211 788H284V714H244Q217 714 213 694T208 638V449Q208 405 198 374T175 321T150 289T132 274Q137 271 149 260T175 227T198 174T208 98V-90Q208 -125 212 -145T244 -166H284V-240H211Q200 -240 185 -231T157 -203T135 -160T126 -105V81Q126 114 124 140T114 187T91 220T51 242V306Z"  />
<glyph unicode="|" horiz-adv-x="570" d="M324 -214H246V786H324V-214Z"  />
<glyph unicode="}" horiz-adv-x="334" d="M283 242Q257 234 243 221T220 187T210 141T208 81V-105Q208 -135 199 -160T177 -203T149 -230T123 -240H50V-166H90Q117 -166 121 -146T126 -90V98Q126 142 136 174T159 227T184 259T202 274Q197 277 185 288T159 321T136 373T126 449V638Q126 673 122 693T90 714H50V788H123Q134 788 149 779T177 751T199 708T208 653V466Q208 433 210 407T220 361T242 328T283 306V242Z"  />
<glyph unicode="~" horiz-adv-x="616" d="M66 200Q77 230 91 256T122 303T160 335T205 347Q231 347 259 333T314 302Q327 294 340 285T365 267T389 254T411 248Q432 248 451 276T482 345L550 317Q540 287 526 261T495 214T457 182T411 170Q385 170 359 184T309 214Q276 236 251 252T205 268Q184 268 166 241T135 172L66 200Z"  />
<glyph unicode="&#xA0;" horiz-adv-x="308" />
<glyph unicode="&#xA1;" horiz-adv-x="338" d="M169 483Q192 483 208 467T225 428Q225 405 209 388T169 371Q146 371 130 388T113 428Q113 451 129 467T169 483ZM210 -284H128V317H210V-284Z"  />
<glyph unicode="&#xA2;" horiz-adv-x="616" d="M491 481H489Q467 509 437 530T371 557V213Q409 218 439 241T491 293H493V186Q466 168 435 155T371 139V27H305V140Q261 145 223 166T156 221T111 295T95 380Q95 426 110 468T153 545T219 601T305 629V735H371V631Q436 625 491 587V481ZM305 555Q276 549 252 533T212 494T186 442T177 386Q177 356 185 328T210 277T251 237T305 214V555Z"  />
<glyph unicode="&#xA3;" horiz-adv-x="616" d="M81 268V332H181L162 369Q150 392 139 413T118 457T104 502T98 553Q98 599 116 638T164 706T235 751T321 767Q370 767 410 750T479 702T524 631T540 541L458 519Q458 551 451 581T427 635T386 673T323 687Q294 687 269 677T225 648T195 605T184 551Q184 521 193 493T217 438T246 385T273 332H415V268H295Q298 257 300 246T302 223Q302 196 293 167T269 115L274 113Q287 108 307 101T347 87T387 75T419 70Q436 70 449 77T474 94T493 118T510 145L578 104Q567 81 552 60T518 23T475 -2T424 -12Q393 -12 362 -3T302 17Q272 28 245 37T192 46Q161 46 139 29T102 -15L37 29Q61 68 98 96T183 126Q197 146 206 169T215 219Q215 231 214 243T208 268H81Z"  />
<glyph unicode="&#xA4;" horiz-adv-x="616" d="M102 534L144 492Q185 521 222 535T308 550Q356 550 393 536T472 492L514 534L550 498L510 458Q538 415 550 379T563 300Q563 257 551 221T510 142L550 102L514 66L472 108Q431 79 394 65T308 50Q260 50 223 64T144 108L102 66L66 102L106 142Q78 185 66 221T53 300Q53 343 65 379T106 458L66 498L102 534ZM308 486Q267 485 232 471T171 433T131 374T117 300Q118 262 133 229T174 170T234 129T308 114Q347 114 381 129T442 169T483 228T499 300Q500 340 486 374T445 432T384 471T308 486Z"  />
<glyph unicode="&#xA5;" horiz-adv-x="616" d="M266 256H29V320H266L211 420H29V484H174L19 754H116L308 420L500 754H597L442 484H587V420H405L350 320H587V256H350V0H266V256Z"  />
<glyph unicode="&#xA6;" horiz-adv-x="570" d="M324 -89H246V161H324V-89ZM324 411H246V661H324V411Z"  />
<glyph unicode="&#xA7;" horiz-adv-x="592" d="M296 402Q273 402 253 394T218 370T195 335T186 292Q186 269 194 249T218 214T253 190T296 181Q319 181 339 190T374 214T398 249T407 292Q407 315 398 335T374 370T339 393T296 402ZM186 4Q186 -47 209 -79T288 -112Q336 -112 363 -87T391 -12Q391 16 381 34T355 65T318 87T275 104Q248 115 217 127T163 159Q131 184 117 217T102 291Q102 346 129 389T207 454Q165 475 142 511T119 595Q119 634 134 666T176 720T236 755T308 767Q347 767 387 750T451 700Q470 674 478 639T487 571H407Q404 628 381 659T307 690Q262 690 232 664T201 589Q201 560 213 541T246 509T292 487T346 468Q373 458 399 446T445 413T477 363T490 289Q490 233 462 194T385 129Q473 84 473 -17Q473 -58 459 -89T419 -143T360 -177T287 -189Q239 -189 206 -176T150 -137T118 -76T105 4H186Z"  />
<glyph unicode="&#xA8;" horiz-adv-x="467" d="M135 705Q158 705 173 690T189 651Q189 628 174 613T135 597Q112 597 97 612T81 651Q81 674 96 689T135 705ZM332 705Q355 705 370 690T386 651Q386 628 371 613T332 597Q309 597 294 612T278 651Q278 674 293 689T332 705Z"  />
<glyph unicode="&#xA9;" horiz-adv-x="800" d="M400 -13Q318 -13 247 17T122 100T39 224T8 377Q8 458 38 529T122 653T246 736T400 767Q482 767 553 737T678 654T761 530T792 377Q792 296 762 225T678 101T554 18T400 -13ZM400 47Q467 47 527 72T633 143T705 248T732 377Q732 446 706 506T634 611T528 681T400 707Q333 707 273 682T167 611T95 506T68 377Q68 308 94 248T166 143T272 73T400 47ZM538 457Q529 499 497 522T414 545Q373 545 344 531T296 493T267 440T258 382Q258 347 268 317T299 265T349 229T416 216Q466 216 496 240T538 307H599Q594 272 578 244T537 197T481 167T416 156Q366 156 326 173T258 221T214 292T198 380Q198 428 213 469T256 541T324 588T415 605Q449 605 480 595T535 566T575 520T599 457H538Z"  />
<glyph unicode="&#xAA;" horiz-adv-x="346" d="M174 723Q151 723 133 715T101 692T80 660T73 621Q73 600 79 581T99 546T131 522T174 513Q199 513 218 521T250 545T269 579T276 620Q276 663 249 693T174 723ZM326 477H274V516H272Q233 469 167 469Q133 469 106 481T60 513T31 561T21 617Q21 647 31 674T60 722T106 755T168 767Q199 767 226 755T272 719H274V759H326V477Z"  />
<glyph unicode="&#xAB;" horiz-adv-x="500" d="M432 74L379 33L211 240L379 453L432 411L297 240L432 74ZM262 74L209 33L41 240L209 453L262 411L127 240L262 74Z"  />
<glyph unicode="&#xAC;" horiz-adv-x="616" d="M472 295H66V373H550V103H472V295Z"  />
<glyph unicode="&#xAD;" horiz-adv-x="208" d="M207 278V204H2V278H207Z"  />
<glyph unicode="&#xAE;" horiz-adv-x="800" d="M400 -13Q318 -13 247 17T122 100T39 224T8 377Q8 458 38 529T122 653T246 736T400 767Q482 767 553 737T678 654T761 530T792 377Q792 296 762 225T678 101T554 18T400 -13ZM400 47Q467 47 527 72T633 143T705 248T732 377Q732 446 706 506T634 611T528 681T400 707Q333 707 273 682T167 611T95 506T68 377Q68 308 94 248T166 143T272 73T400 47ZM586 166H514L386 363H314V166H254V593H440Q469 593 496 589T545 571T579 536T592 480Q592 448 582 427T553 391T510 371T457 363L586 166ZM386 423Q406 423 431 423T478 426T516 443T532 481Q532 497 522 507T497 523T464 531T428 533H314V423H386Z"  />
<glyph unicode="&#xAF;" horiz-adv-x="499" d="M421 682V614H79V682H421Z"  />
<glyph unicode="&#xB0;" horiz-adv-x="400" d="M350 617Q350 586 338 559T306 511T258 479T200 467Q169 467 142 479T94 511T62 558T50 617Q50 648 61 675T93 722T141 755T200 767Q231 767 258 755T305 723T338 675T350 617ZM302 617Q302 638 294 656T272 689T239 711T199 719Q178 719 160 711T127 689T106 657T98 617Q98 574 127 545T200 515Q221 515 239 523T272 544T294 577T302 617Z"  />
<glyph unicode="&#xB1;" horiz-adv-x="616" d="M347 498V345H550V267H347V114H269V267H66V345H269V498H347ZM66 78H550V0H66V78Z"  />
<glyph unicode="&#xB2;" horiz-adv-x="369" d="M343 359V307H26L255 557Q270 574 276 592T283 633Q283 671 257 693T191 715Q146 715 122 691T98 627H38Q39 657 50 682T82 726T129 756T189 767Q222 767 250 757T298 730T331 688T343 633Q343 609 336 583T311 538L146 359H343Z"  />
<glyph unicode="&#xB3;" horiz-adv-x="369" d="M175 571Q214 571 240 589T266 641Q266 659 259 673T241 696T215 710T186 715Q153 715 134 698T111 648H51Q57 702 91 734T187 767Q217 767 242 758T286 733T315 694T326 643Q326 613 310 586T263 544Q299 530 316 499T333 433Q333 369 291 334T181 299Q151 299 125 308T80 333T48 373T36 424H96Q96 389 121 370T183 351Q223 351 248 375T273 436Q273 475 247 498T175 519V571Z"  />
<glyph unicode="&#xB4;" horiz-adv-x="358" d="M281 706L128 552L78 580L197 744L281 706Z"  />
<glyph unicode="&#xB5;" horiz-adv-x="512" d="M150 208Q150 178 153 152T166 105T198 73T256 61Q292 61 313 73T345 105T359 151T362 208V470H442V199Q442 152 433 113T401 46T344 3T256 -13Q230 -13 206 -5T150 34V-264H70V470H150V208Z"  />
<glyph unicode="&#xB6;" horiz-adv-x="592" d="M534 689H476V-153H411V689H330V-153H265V283Q223 283 187 297T123 339T80 406T59 497Q56 542 70 588T113 671T183 731T274 754H534V689Z"  />
<glyph unicode="&#xB7;" horiz-adv-x="308" d="M154 311Q177 311 193 295T210 256Q210 233 194 216T154 199Q131 199 115 216T98 256Q98 279 114 295T154 311Z"  />
<glyph unicode="&#xB8;" horiz-adv-x="325" d="M134 -199L78 -171L174 -23L248 -53L134 -199Z"  />
<glyph unicode="&#xB9;" horiz-adv-x="369" d="M114 707L143 759H255V307H195V707H114Z"  />
<glyph unicode="&#xBA;" horiz-adv-x="337" d="M169 469Q136 469 107 480T55 512T21 559T8 617Q8 648 20 675T54 723T105 755T169 767Q203 767 232 755T283 723T317 676T330 617Q330 586 318 559T283 512T232 481T169 469ZM169 723Q145 723 125 715T91 692T68 659T60 618Q60 596 68 577T90 544T125 521T169 513Q193 513 213 521T247 543T270 577T278 618Q278 639 270 658T248 692T213 714T169 723Z"  />
<glyph unicode="&#xBB;" horiz-adv-x="500" d="M203 240L68 411L121 453L289 240L121 33L68 74L203 240ZM373 240L238 411L291 453L459 240L291 33L238 74L373 240Z"  />
<glyph unicode="&#xBC;" horiz-adv-x="924" d="M100 707L129 759H241V307H181V707H100ZM692 743L253 -13L209 11L648 767L692 743ZM824 125V73H764V0H704V73H459L763 478H764V125H824ZM704 315H702L560 125H704V315Z"  />
<glyph unicode="&#xBD;" horiz-adv-x="924" d="M100 707L129 759H241V307H181V707H100ZM824 52V0H507L736 250Q751 267 757 285T764 326Q764 364 738 386T672 408Q627 408 603 384T579 320H519Q520 350 531 375T563 419T610 449T670 460Q703 460 731 450T779 423T812 381T824 326Q824 302 817 276T792 231L627 52H824ZM647 743L208 -13L164 11L603 767L647 743Z"  />
<glyph unicode="&#xBE;" horiz-adv-x="924" d="M844 125V73H784V0H724V73H479L783 478H784V125H844ZM724 315H722L580 125H724V315ZM750 743L311 -13L267 11L706 767L750 743ZM219 571Q258 571 284 589T310 641Q310 659 303 673T285 696T259 710T230 715Q197 715 178 698T155 648H95Q101 702 135 734T231 767Q261 767 286 758T330 733T359 694T370 643Q370 613 354 586T307 544Q343 530 360 499T377 433Q377 369 335 334T225 299Q195 299 169 308T124 333T92 373T80 424H140Q140 389 165 370T227 351Q267 351 292 375T317 436Q317 475 291 498T219 519V571Z"  />
<glyph unicode="&#xBF;" horiz-adv-x="488" d="M82 146Q81 182 92 213T126 268T178 305T245 319Q280 319 310 307T361 272T395 220T408 156Q408 122 398 98T368 55T324 25T271 3Q247 -5 224 -12T184 -31T155 -62T144 -112Q144 -158 173 -187T247 -216Q290 -216 317 -188T345 -117Q345 -93 339 -69H422L426 -122Q426 -161 411 -192T371 -246T313 -281T242 -293Q204 -293 171 -279T114 -241T76 -184T62 -113Q62 -76 75 -40T116 21Q142 44 179 56T249 79Q281 88 303 106T326 162Q326 196 302 219T244 242Q223 242 208 234T183 213T168 182T163 146H82ZM246 483Q269 483 285 467T302 427Q302 404 286 388T246 371Q223 371 207 387T190 427Q190 450 206 466T246 483Z"  />
<glyph unicode="&#xC0;" horiz-adv-x="699" d="M189 214L98 0H6L354 790L693 0H600L511 214H189ZM352 594L223 292H478L352 594ZM293 1003L412 839L362 811L209 965L293 1003Z"  />
<glyph unicode="&#xC1;" horiz-adv-x="699" d="M189 214L98 0H6L354 790L693 0H600L511 214H189ZM352 594L223 292H478L352 594ZM492 965L339 811L289 839L408 1003L492 965Z"  />
<glyph unicode="&#xC2;" horiz-adv-x="699" d="M189 214L98 0H6L354 790L693 0H600L511 214H189ZM352 594L223 292H478L352 594ZM349 996L507 863L449 818L349 903L250 818L193 863L349 996Z"  />
<glyph unicode="&#xC3;" horiz-adv-x="699" d="M189 214L98 0H6L354 790L693 0H600L511 214H189ZM352 594L223 292H478L352 594ZM175 886Q184 901 194 915T216 940T243 958T277 965Q300 965 320 958T358 942Q377 934 392 927T422 919Q443 919 456 934T478 967L525 929Q511 896 484 872T419 848Q401 848 382 855T344 871Q325 879 308 886T274 893Q253 893 243 879T224 847L175 886Z"  />
<glyph unicode="&#xC4;" horiz-adv-x="699" d="M189 214L98 0H6L354 790L693 0H600L511 214H189ZM352 594L223 292H478L352 594ZM251 964Q274 964 289 949T305 910Q305 887 290 872T251 856Q228 856 213 871T197 910Q197 933 212 948T251 964ZM448 964Q471 964 486 949T502 910Q502 887 487 872T448 856Q425 856 410 871T394 910Q394 933 409 948T448 964Z"  />
<glyph unicode="&#xC5;" horiz-adv-x="699" d="M189 214L98 0H6L354 790L693 0H600L511 214H189ZM352 594L223 292H478L352 594ZM351 1006Q371 1006 388 999T419 978T440 947T448 909Q448 868 420 840T351 811Q310 811 282 839T253 909Q253 929 260 946T281 977T313 998T351 1006ZM351 956Q331 956 317 943T303 909Q303 889 317 875T351 861Q371 861 384 875T398 909Q398 929 385 942T351 956Z"  />
<glyph unicode="&#xC6;" horiz-adv-x="1000" d="M188 212L99 0H6L342 754H673L707 676H402L496 451H793L828 373H530L653 78H959L992 0H599L510 212H188ZM352 587L224 290H476L352 587Z"  />
<glyph unicode="&#xC7;" horiz-adv-x="717" d="M651 589Q606 636 547 662T421 689Q358 689 303 664T206 595T141 496T117 377Q117 315 141 259T206 159T304 91T423 65Q487 65 546 92T651 165V61Q602 26 544 7T426 -13Q346 -13 275 17T150 100T65 223T33 374Q33 455 64 526T148 651T273 736T426 767Q552 767 651 693V589ZM330 -199L274 -171L370 -23L444 -53L330 -199Z"  />
<glyph unicode="&#xC8;" horiz-adv-x="534" d="M76 754H467V676H160V452H458V374H160V78H467V0H76V754ZM225 1003L344 839L294 811L141 965L225 1003Z"  />
<glyph unicode="&#xC9;" horiz-adv-x="534" d="M76 754H467V676H160V452H458V374H160V78H467V0H76V754ZM409 965L256 811L206 839L325 1003L409 965Z"  />
<glyph unicode="&#xCA;" horiz-adv-x="534" d="M76 754H467V676H160V452H458V374H160V78H467V0H76V754ZM266 996L424 863L366 818L266 903L167 818L110 863L266 996Z"  />
<glyph unicode="&#xCB;" horiz-adv-x="534" d="M76 754H467V676H160V452H458V374H160V78H467V0H76V754ZM169 964Q192 964 207 949T223 910Q223 887 208 872T169 856Q146 856 131 871T115 910Q115 933 130 948T169 964ZM366 964Q389 964 404 949T420 910Q420 887 405 872T366 856Q343 856 328 871T312 910Q312 933 327 948T366 964Z"  />
<glyph unicode="&#xCC;" horiz-adv-x="239" d="M162 0H78V754H162V0ZM79 1003L198 839L148 811L-5 965L79 1003Z"  />
<glyph unicode="&#xCD;" horiz-adv-x="239" d="M162 0H78V754H162V0ZM248 965L95 811L45 839L164 1003L248 965Z"  />
<glyph unicode="&#xCE;" horiz-adv-x="239" d="M162 0H78V754H162V0ZM120 996L278 863L220 818L120 903L21 818L-36 863L120 996Z"  />
<glyph unicode="&#xCF;" horiz-adv-x="239" d="M162 0H78V754H162V0ZM22 964Q45 964 60 949T76 910Q76 887 61 872T22 856Q-1 856 -16 871T-32 910Q-32 933 -17 948T22 964ZM219 964Q242 964 257 949T273 910Q273 887 258 872T219 856Q196 856 181 871T165 910Q165 933 180 948T219 964Z"  />
<glyph unicode="&#xD0;" horiz-adv-x="678" d="M76 370H0V442H76V754H218Q260 754 299 751T374 737T444 709T512 663Q577 607 607 534T637 376Q637 293 607 222T514 95Q480 65 446 47T376 18T300 4T216 0H76V370ZM221 78Q255 78 287 81T348 92T405 116T459 156Q506 200 529 257T553 377Q553 442 529 501T455 603Q403 649 346 662T221 676H160V442H294V370H160V78H221Z"  />
<glyph unicode="&#xD1;" horiz-adv-x="834" d="M81 786L669 170V754H753V-34L165 581V0H81V786ZM242 886Q251 901 261 915T283 940T310 958T344 965Q367 965 387 958T425 942Q444 934 459 927T489 919Q510 919 523 934T545 967L592 929Q578 896 551 872T486 848Q468 848 449 855T411 871Q392 879 375 886T341 893Q320 893 310 879T291 847L242 886Z"  />
<glyph unicode="&#xD2;" horiz-adv-x="862" d="M431 767Q512 767 583 737T708 653T793 528T824 376Q824 295 793 224T709 101T584 18T431 -13Q350 -13 279 17T154 100T69 224T38 376Q38 457 69 528T153 652T278 736T431 767ZM431 689Q366 689 310 665T212 598T146 498T122 377Q122 313 146 257T212 158T310 90T431 65Q495 65 551 90T650 157T716 256T740 377Q740 441 716 498T651 597T553 664T431 689ZM374 1003L493 839L443 811L290 965L374 1003Z"  />
<glyph unicode="&#xD3;" horiz-adv-x="862" d="M431 767Q512 767 583 737T708 653T793 528T824 376Q824 295 793 224T709 101T584 18T431 -13Q350 -13 279 17T154 100T69 224T38 376Q38 457 69 528T153 652T278 736T431 767ZM431 689Q366 689 310 665T212 598T146 498T122 377Q122 313 146 257T212 158T310 90T431 65Q495 65 551 90T650 157T716 256T740 377Q740 441 716 498T651 597T553 664T431 689ZM573 965L420 811L370 839L489 1003L573 965Z"  />
<glyph unicode="&#xD4;" horiz-adv-x="862" d="M431 767Q512 767 583 737T708 653T793 528T824 376Q824 295 793 224T709 101T584 18T431 -13Q350 -13 279 17T154 100T69 224T38 376Q38 457 69 528T153 652T278 736T431 767ZM431 689Q366 689 310 665T212 598T146 498T122 377Q122 313 146 257T212 158T310 90T431 65Q495 65 551 90T650 157T716 256T740 377Q740 441 716 498T651 597T553 664T431 689ZM430 996L588 863L530 818L430 903L331 818L274 863L430 996Z"  />
<glyph unicode="&#xD5;" horiz-adv-x="862" d="M431 767Q512 767 583 737T708 653T793 528T824 376Q824 295 793 224T709 101T584 18T431 -13Q350 -13 279 17T154 100T69 224T38 376Q38 457 69 528T153 652T278 736T431 767ZM431 689Q366 689 310 665T212 598T146 498T122 377Q122 313 146 257T212 158T310 90T431 65Q495 65 551 90T650 157T716 256T740 377Q740 441 716 498T651 597T553 664T431 689ZM256 886Q265 901 275 915T297 940T324 958T358 965Q381 965 401 958T439 942Q458 934 473 927T503 919Q524 919 537 934T559 967L606 929Q592 896 565 872T500 848Q482 848 463 855T425 871Q406 879 389 886T355 893Q334 893 324 879T305 847L256 886Z"  />
<glyph unicode="&#xD6;" horiz-adv-x="862" d="M431 767Q512 767 583 737T708 653T793 528T824 376Q824 295 793 224T709 101T584 18T431 -13Q350 -13 279 17T154 100T69 224T38 376Q38 457 69 528T153 652T278 736T431 767ZM431 689Q366 689 310 665T212 598T146 498T122 377Q122 313 146 257T212 158T310 90T431 65Q495 65 551 90T650 157T716 256T740 377Q740 441 716 498T651 597T553 664T431 689ZM333 964Q356 964 371 949T387 910Q387 887 372 872T333 856Q310 856 295 871T279 910Q279 933 294 948T333 964ZM530 964Q553 964 568 949T584 910Q584 887 569 872T530 856Q507 856 492 871T476 910Q476 933 491 948T530 964Z"  />
<glyph unicode="&#xD7;" horiz-adv-x="616" d="M121 498L308 311L494 498L550 443L363 256L550 69L494 14L308 201L121 14L66 69L253 256L66 443L121 498Z"  />
<glyph unicode="&#xD8;" horiz-adv-x="862" d="M626 620Q587 652 538 670T431 689Q366 689 310 665T212 598T146 498T122 377Q122 322 139 273T189 184L626 620ZM234 138Q275 103 324 84T431 65Q495 65 551 90T650 157T716 256T740 377Q740 433 722 482T671 574L234 138ZM131 126Q87 177 63 240T38 376Q38 457 69 528T153 652T278 736T431 767Q503 767 567 743T682 676L774 767L820 722L728 631Q773 580 798 515T824 376Q824 295 793 224T709 101T584 18T431 -13Q358 -13 293 11T176 80L86 -10L42 37L131 126Z"  />
<glyph unicode="&#xD9;" horiz-adv-x="685" d="M158 305Q158 284 158 262T161 218T171 176T191 137Q216 102 258 84T343 65Q384 65 424 82T491 132Q506 150 513 171T524 214T528 260T528 305V754H612V282Q612 251 610 224T602 170T582 120T546 73Q507 31 454 9T343 -13Q289 -13 238 6T148 64Q123 88 109 112T87 164T77 220T74 282V754H158V305ZM286 1003L405 839L355 811L202 965L286 1003Z"  />
<glyph unicode="&#xDA;" horiz-adv-x="685" d="M158 305Q158 284 158 262T161 218T171 176T191 137Q216 102 258 84T343 65Q384 65 424 82T491 132Q506 150 513 171T524 214T528 260T528 305V754H612V282Q612 251 610 224T602 170T582 120T546 73Q507 31 454 9T343 -13Q289 -13 238 6T148 64Q123 88 109 112T87 164T77 220T74 282V754H158V305ZM485 965L332 811L282 839L401 1003L485 965Z"  />
<glyph unicode="&#xDB;" horiz-adv-x="685" d="M158 305Q158 284 158 262T161 218T171 176T191 137Q216 102 258 84T343 65Q384 65 424 82T491 132Q506 150 513 171T524 214T528 260T528 305V754H612V282Q612 251 610 224T602 170T582 120T546 73Q507 31 454 9T343 -13Q289 -13 238 6T148 64Q123 88 109 112T87 164T77 220T74 282V754H158V305ZM342 996L500 863L442 818L342 903L243 818L186 863L342 996Z"  />
<glyph unicode="&#xDC;" horiz-adv-x="685" d="M158 305Q158 284 158 262T161 218T171 176T191 137Q216 102 258 84T343 65Q384 65 424 82T491 132Q506 150 513 171T524 214T528 260T528 305V754H612V282Q612 251 610 224T602 170T582 120T546 73Q507 31 454 9T343 -13Q289 -13 238 6T148 64Q123 88 109 112T87 164T77 220T74 282V754H158V305ZM244 964Q267 964 282 949T298 910Q298 887 283 872T244 856Q221 856 206 871T190 910Q190 933 205 948T244 964ZM441 964Q464 964 479 949T495 910Q495 887 480 872T441 856Q418 856 403 871T387 910Q387 933 402 948T441 964Z"  />
<glyph unicode="&#xDD;" horiz-adv-x="593" d="M8 754H105L297 418L489 754H586L339 324V0H255V324L8 754ZM459 965L306 811L256 839L375 1003L459 965Z"  />
<glyph unicode="&#xDE;" horiz-adv-x="503" d="M160 0H76V754H160V614H200Q249 614 297 608T387 574Q429 545 450 499T472 402Q472 356 454 313T400 240Q362 208 315 199T221 190H160V0ZM160 268H216Q251 268 282 274T336 295T374 337T388 404Q388 450 371 476T326 516T263 532T191 536H160V268Z"  />
<glyph unicode="&#xDF;" horiz-adv-x="577" d="M72 396H28V470H72V614Q72 634 73 654T79 695T90 733T111 768Q139 804 182 821T270 838Q311 838 346 824T408 785T449 726T464 650Q464 605 443 565T380 504Q417 491 447 466T498 409T530 339T541 263Q541 204 518 154T455 67T363 9T254 -13V61Q296 64 333 80T398 123T442 186T459 266Q459 308 441 348T388 414Q359 436 324 445T254 458V532Q282 532 305 540T346 564T374 602T384 654Q384 704 351 734T269 764Q237 764 207 750T165 704Q154 678 153 642T152 577V0H72V396Z"  />
<glyph unicode="&#xE0;" horiz-adv-x="577" d="M271 409Q236 409 208 395T160 358T129 304T118 240Q118 205 128 173T157 116T205 76T272 61Q311 61 340 75T389 114T419 171T429 239Q429 274 418 305T387 359T338 395T271 409ZM505 0H425V65H423Q361 -13 261 -13Q209 -13 168 7T97 62T52 140T36 234Q36 284 51 329T96 409T167 463T262 483Q310 483 352 462T423 403H425V470H505V0ZM232 744L351 580L301 552L148 706L232 744Z"  />
<glyph unicode="&#xE1;" horiz-adv-x="577" d="M271 409Q236 409 208 395T160 358T129 304T118 240Q118 205 128 173T157 116T205 76T272 61Q311 61 340 75T389 114T419 171T429 239Q429 274 418 305T387 359T338 395T271 409ZM505 0H425V65H423Q361 -13 261 -13Q209 -13 168 7T97 62T52 140T36 234Q36 284 51 329T96 409T167 463T262 483Q310 483 352 462T423 403H425V470H505V0ZM431 706L278 552L228 580L347 744L431 706Z"  />
<glyph unicode="&#xE2;" horiz-adv-x="577" d="M271 409Q236 409 208 395T160 358T129 304T118 240Q118 205 128 173T157 116T205 76T272 61Q311 61 340 75T389 114T419 171T429 239Q429 274 418 305T387 359T338 395T271 409ZM505 0H425V65H423Q361 -13 261 -13Q209 -13 168 7T97 62T52 140T36 234Q36 284 51 329T96 409T167 463T262 483Q310 483 352 462T423 403H425V470H505V0ZM288 737L446 604L388 559L288 644L189 559L132 604L288 737Z"  />
<glyph unicode="&#xE3;" horiz-adv-x="577" d="M271 409Q236 409 208 395T160 358T129 304T118 240Q118 205 128 173T157 116T205 76T272 61Q311 61 340 75T389 114T419 171T429 239Q429 274 418 305T387 359T338 395T271 409ZM505 0H425V65H423Q361 -13 261 -13Q209 -13 168 7T97 62T52 140T36 234Q36 284 51 329T96 409T167 463T262 483Q310 483 352 462T423 403H425V470H505V0ZM114 627Q123 642 133 656T155 681T182 699T216 706Q239 706 259 699T297 683Q316 675 331 668T361 660Q382 660 395 675T417 708L464 670Q450 637 423 613T358 589Q340 589 321 596T283 612Q264 620 247 627T213 634Q192 634 182 620T163 588L114 627Z"  />
<glyph unicode="&#xE4;" horiz-adv-x="577" d="M271 409Q236 409 208 395T160 358T129 304T118 240Q118 205 128 173T157 116T205 76T272 61Q311 61 340 75T389 114T419 171T429 239Q429 274 418 305T387 359T338 395T271 409ZM505 0H425V65H423Q361 -13 261 -13Q209 -13 168 7T97 62T52 140T36 234Q36 284 51 329T96 409T167 463T262 483Q310 483 352 462T423 403H425V470H505V0ZM190 705Q213 705 228 690T244 651Q244 628 229 613T190 597Q167 597 152 612T136 651Q136 674 151 689T190 705ZM387 705Q410 705 425 690T441 651Q441 628 426 613T387 597Q364 597 349 612T333 651Q333 674 348 689T387 705Z"  />
<glyph unicode="&#xE5;" horiz-adv-x="577" d="M271 409Q236 409 208 395T160 358T129 304T118 240Q118 205 128 173T157 116T205 76T272 61Q311 61 340 75T389 114T419 171T429 239Q429 274 418 305T387 359T338 395T271 409ZM505 0H425V65H423Q361 -13 261 -13Q209 -13 168 7T97 62T52 140T36 234Q36 284 51 329T96 409T167 463T262 483Q310 483 352 462T423 403H425V470H505V0ZM290 747Q310 747 327 740T358 719T379 688T387 650Q387 609 359 581T290 552Q249 552 221 580T192 650Q192 670 199 687T220 718T252 739T290 747ZM290 697Q270 697 256 684T242 650Q242 630 256 616T290 602Q310 602 323 616T337 650Q337 670 324 683T290 697Z"  />
<glyph unicode="&#xE6;" horiz-adv-x="843" d="M728 286Q724 311 712 333T681 373T640 399T590 409Q564 409 540 400T497 373T464 334T447 286H728ZM228 223Q209 223 188 219T150 204T121 178T109 140Q109 117 120 102T149 78T187 65T227 61Q247 61 269 65T310 78T341 104T354 144Q354 167 341 182T309 206T268 219T228 223ZM439 218Q439 185 450 157T482 107T530 74T593 61Q644 61 678 88T736 158L804 119Q770 56 715 22T587 -13Q534 -13 487 10T407 80Q378 29 334 8T231 -13Q196 -13 160 -5T95 22T48 68T29 138Q29 179 46 208T92 257T155 285T225 294Q264 294 295 285T359 254Q359 289 352 317T330 366T288 398T224 409Q187 409 151 400T80 379V455Q118 466 154 474T229 483Q255 483 281 478T331 460T373 430T403 386Q431 433 481 458T585 483Q642 483 684 462T755 403T797 318T809 218H439Z"  />
<glyph unicode="&#xE7;" horiz-adv-x="476" d="M425 330H423Q395 365 360 387T277 409Q241 409 211 395T158 357T124 302T111 235Q111 200 122 169T155 113T206 75T273 61Q324 61 360 82T426 142H428V35Q393 12 357 0T279 -13Q226 -13 180 6T101 58T48 136T29 235Q29 287 49 332T103 411T182 464T280 483Q318 483 355 471T425 436V330ZM210 -199L154 -171L250 -23L324 -53L210 -199Z"  />
<glyph unicode="&#xE8;" horiz-adv-x="519" d="M116 218Q116 185 127 157T159 107T207 74T270 61Q321 61 355 88T413 158L481 119Q447 56 392 22T264 -13Q211 -13 169 6T96 57T50 134T34 229Q34 281 49 327T93 408T164 463T262 483Q319 483 362 462T433 403T475 318T485 218H116ZM401 286Q397 311 385 333T354 373T313 399T263 409Q237 409 213 400T170 373T137 334T120 286H401ZM203 744L322 580L272 552L119 706L203 744Z"  />
<glyph unicode="&#xE9;" horiz-adv-x="519" d="M116 218Q116 185 127 157T159 107T207 74T270 61Q321 61 355 88T413 158L481 119Q447 56 392 22T264 -13Q211 -13 169 6T96 57T50 134T34 229Q34 281 49 327T93 408T164 463T262 483Q319 483 362 462T433 403T475 318T485 218H116ZM401 286Q397 311 385 333T354 373T313 399T263 409Q237 409 213 400T170 373T137 334T120 286H401ZM402 706L249 552L199 580L318 744L402 706Z"  />
<glyph unicode="&#xEA;" horiz-adv-x="519" d="M116 218Q116 185 127 157T159 107T207 74T270 61Q321 61 355 88T413 158L481 119Q447 56 392 22T264 -13Q211 -13 169 6T96 57T50 134T34 229Q34 281 49 327T93 408T164 463T262 483Q319 483 362 462T433 403T475 318T485 218H116ZM401 286Q397 311 385 333T354 373T313 399T263 409Q237 409 213 400T170 373T137 334T120 286H401ZM259 737L417 604L359 559L259 644L160 559L103 604L259 737Z"  />
<glyph unicode="&#xEB;" horiz-adv-x="519" d="M116 218Q116 185 127 157T159 107T207 74T270 61Q321 61 355 88T413 158L481 119Q447 56 392 22T264 -13Q211 -13 169 6T96 57T50 134T34 229Q34 281 49 327T93 408T164 463T262 483Q319 483 362 462T433 403T475 318T485 218H116ZM401 286Q397 311 385 333T354 373T313 399T263 409Q237 409 213 400T170 373T137 334T120 286H401ZM161 705Q184 705 199 690T215 651Q215 628 200 613T161 597Q138 597 123 612T107 651Q107 674 122 689T161 705ZM358 705Q381 705 396 690T412 651Q412 628 397 613T358 597Q335 597 320 612T304 651Q304 674 319 689T358 705Z"  />
<glyph unicode="&#xEC;" horiz-adv-x="262" d="M171 0H91V470H171V0ZM90 744L209 580L159 552L6 706L90 744Z"  />
<glyph unicode="&#xED;" horiz-adv-x="262" d="M171 0H91V470H171V0ZM259 706L106 552L56 580L175 744L259 706Z"  />
<glyph unicode="&#xEE;" horiz-adv-x="262" d="M171 0H91V470H171V0ZM131 737L289 604L231 559L131 644L32 559L-25 604L131 737Z"  />
<glyph unicode="&#xEF;" horiz-adv-x="262" d="M171 0H91V470H171V0ZM34 705Q57 705 72 690T88 651Q88 628 73 613T34 597Q11 597 -4 612T-20 651Q-20 674 -5 689T34 705ZM231 705Q254 705 269 690T285 651Q285 628 270 613T231 597Q208 597 193 612T177 651Q177 674 192 689T231 705Z"  />
<glyph unicode="&#xF0;" horiz-adv-x="561" d="M137 831Q162 815 180 803T213 781T242 759T274 733L412 825L452 784L318 694Q330 682 350 662T394 612T441 546T484 465T515 368T527 256Q527 185 504 135T445 52T366 4T281 -12Q229 -12 184 7T106 60T53 139T34 235Q34 282 51 326T99 405T175 460T273 481Q306 481 332 474T377 456T408 435T429 417Q404 487 359 546T260 656L127 567L88 608L218 695Q205 706 177 728T93 785L137 831ZM115 236Q115 197 128 165T164 110T217 75T282 62Q319 62 349 76T402 114T436 169T448 236Q448 270 436 301T403 357T351 395T283 410Q246 410 216 397T163 360T128 305T115 236Z"  />
<glyph unicode="&#xF1;" horiz-adv-x="528" d="M156 413H158Q183 447 215 465T292 483Q341 483 372 467T421 422T445 357T452 279V0H372V265Q372 293 370 319T358 365T328 397T273 409Q232 409 209 392T174 347T159 287T156 223V0H76V470H156V413ZM89 627Q98 642 108 656T130 681T157 699T191 706Q214 706 234 699T272 683Q291 675 306 668T336 660Q357 660 370 675T392 708L439 670Q425 637 398 613T333 589Q315 589 296 596T258 612Q239 620 222 627T188 634Q167 634 157 620T138 588L89 627Z"  />
<glyph unicode="&#xF2;" horiz-adv-x="562" d="M281 -13Q230 -13 185 6T107 58T54 137T34 234Q34 286 53 331T105 410T184 463T281 483Q333 483 378 464T456 410T509 331T528 234Q528 182 509 137T456 59T377 6T281 -13ZM281 409Q244 409 213 395T160 358T126 303T114 235Q114 199 126 168T160 112T213 75T281 61Q318 61 349 74T402 112T436 167T448 235Q448 271 436 302T402 357T349 395T281 409ZM224 744L343 580L293 552L140 706L224 744Z"  />
<glyph unicode="&#xF3;" horiz-adv-x="562" d="M281 -13Q230 -13 185 6T107 58T54 137T34 234Q34 286 53 331T105 410T184 463T281 483Q333 483 378 464T456 410T509 331T528 234Q528 182 509 137T456 59T377 6T281 -13ZM281 409Q244 409 213 395T160 358T126 303T114 235Q114 199 126 168T160 112T213 75T281 61Q318 61 349 74T402 112T436 167T448 235Q448 271 436 302T402 357T349 395T281 409ZM423 706L270 552L220 580L339 744L423 706Z"  />
<glyph unicode="&#xF4;" horiz-adv-x="562" d="M281 -13Q230 -13 185 6T107 58T54 137T34 234Q34 286 53 331T105 410T184 463T281 483Q333 483 378 464T456 410T509 331T528 234Q528 182 509 137T456 59T377 6T281 -13ZM281 409Q244 409 213 395T160 358T126 303T114 235Q114 199 126 168T160 112T213 75T281 61Q318 61 349 74T402 112T436 167T448 235Q448 271 436 302T402 357T349 395T281 409ZM280 737L438 604L380 559L280 644L181 559L124 604L280 737Z"  />
<glyph unicode="&#xF5;" horiz-adv-x="562" d="M281 -13Q230 -13 185 6T107 58T54 137T34 234Q34 286 53 331T105 410T184 463T281 483Q333 483 378 464T456 410T509 331T528 234Q528 182 509 137T456 59T377 6T281 -13ZM281 409Q244 409 213 395T160 358T126 303T114 235Q114 199 126 168T160 112T213 75T281 61Q318 61 349 74T402 112T436 167T448 235Q448 271 436 302T402 357T349 395T281 409ZM106 627Q115 642 125 656T147 681T174 699T208 706Q231 706 251 699T289 683Q308 675 323 668T353 660Q374 660 387 675T409 708L456 670Q442 637 415 613T350 589Q332 589 313 596T275 612Q256 620 239 627T205 634Q184 634 174 620T155 588L106 627Z"  />
<glyph unicode="&#xF6;" horiz-adv-x="562" d="M281 -13Q230 -13 185 6T107 58T54 137T34 234Q34 286 53 331T105 410T184 463T281 483Q333 483 378 464T456 410T509 331T528 234Q528 182 509 137T456 59T377 6T281 -13ZM281 409Q244 409 213 395T160 358T126 303T114 235Q114 199 126 168T160 112T213 75T281 61Q318 61 349 74T402 112T436 167T448 235Q448 271 436 302T402 357T349 395T281 409ZM183 705Q206 705 221 690T237 651Q237 628 222 613T183 597Q160 597 145 612T129 651Q129 674 144 689T183 705ZM380 705Q403 705 418 690T434 651Q434 628 419 613T380 597Q357 597 342 612T326 651Q326 674 341 689T380 705Z"  />
<glyph unicode="&#xF7;" horiz-adv-x="616" d="M66 295H550V217H66V295ZM308 124Q331 124 348 107T365 67Q365 43 348 27T308 10Q285 10 268 26T251 67Q251 90 268 107T308 124ZM308 502Q331 502 348 485T365 445Q365 421 348 405T308 388Q285 388 268 404T251 445Q251 468 268 485T308 502Z"  />
<glyph unicode="&#xF8;" horiz-adv-x="562" d="M383 374Q363 391 337 400T281 409Q244 409 213 395T160 358T126 303T114 235Q114 206 121 181T143 134L383 374ZM181 94Q222 61 281 61Q318 61 349 74T402 112T436 167T448 235Q448 292 419 333L181 94ZM88 79Q62 111 48 150T34 234Q34 286 53 331T105 410T184 463T281 483Q326 483 366 469T437 428L503 494L542 456L475 389Q500 358 514 319T528 234Q528 182 509 137T456 59T377 6T281 -13Q237 -13 198 1T127 40L59 -28L20 11L88 79Z"  />
<glyph unicode="&#xF9;" horiz-adv-x="512" d="M150 208Q150 178 153 152T166 105T198 73T256 61Q292 61 313 73T345 105T359 151T362 208V470H442V199Q442 152 433 113T401 46T344 3T256 -13Q204 -13 169 2T111 46T80 113T70 199V470H150V208ZM199 744L318 580L268 552L115 706L199 744Z"  />
<glyph unicode="&#xFA;" horiz-adv-x="512" d="M150 208Q150 178 153 152T166 105T198 73T256 61Q292 61 313 73T345 105T359 151T362 208V470H442V199Q442 152 433 113T401 46T344 3T256 -13Q204 -13 169 2T111 46T80 113T70 199V470H150V208ZM398 706L245 552L195 580L314 744L398 706Z"  />
<glyph unicode="&#xFB;" horiz-adv-x="512" d="M150 208Q150 178 153 152T166 105T198 73T256 61Q292 61 313 73T345 105T359 151T362 208V470H442V199Q442 152 433 113T401 46T344 3T256 -13Q204 -13 169 2T111 46T80 113T70 199V470H150V208ZM255 737L413 604L355 559L255 644L156 559L99 604L255 737Z"  />
<glyph unicode="&#xFC;" horiz-adv-x="512" d="M150 208Q150 178 153 152T166 105T198 73T256 61Q292 61 313 73T345 105T359 151T362 208V470H442V199Q442 152 433 113T401 46T344 3T256 -13Q204 -13 169 2T111 46T80 113T70 199V470H150V208ZM158 705Q181 705 196 690T212 651Q212 628 197 613T158 597Q135 597 120 612T104 651Q104 674 119 689T158 705ZM355 705Q378 705 393 690T409 651Q409 628 394 613T355 597Q332 597 317 612T301 651Q301 674 316 689T355 705Z"  />
<glyph unicode="&#xFD;" horiz-adv-x="498" d="M-2 470H91L257 133L409 470H500L153 -264H62L214 44L-2 470ZM411 706L258 552L208 580L327 744L411 706Z"  />
<glyph unicode="&#xFE;" horiz-adv-x="577" d="M152 403H154Q183 442 225 462T316 483Q368 483 409 463T480 408T525 328T541 234Q541 184 526 139T481 60T410 7T315 -13Q267 -13 225 7T154 66H152V-264H72V825H152V403ZM301 409Q266 409 238 395T190 358T159 304T148 240Q148 205 158 173T187 116T235 76T302 61Q341 61 370 75T419 114T449 171T459 239Q459 274 448 305T417 359T368 395T301 409Z"  />
<glyph unicode="&#xFF;" horiz-adv-x="498" d="M-2 470H91L257 133L409 470H500L153 -264H62L214 44L-2 470ZM156 705Q179 705 194 690T210 651Q210 628 195 613T156 597Q133 597 118 612T102 651Q102 674 117 689T156 705ZM353 705Q376 705 391 690T407 651Q407 628 392 613T353 597Q330 597 315 612T299 651Q299 674 314 689T353 705Z"  />
<glyph unicode="&#x131;" horiz-adv-x="262" d="M171 0H91V470H171V0Z"  />
<glyph unicode="&#x152;" horiz-adv-x="1190" d="M729 145H727Q678 70 600 28T431 -13Q350 -13 279 17T154 100T69 224T38 376Q38 457 69 528T153 652T278 736T431 767Q521 767 598 725T727 606H729V754H1123V676H813V452H1114V374H813V78H1123V0H729V145ZM431 689Q366 689 310 665T212 598T146 498T122 377Q122 313 146 257T212 158T310 90T431 65Q495 65 551 90T650 157T716 256T740 377Q740 441 716 498T651 597T553 664T431 689Z"  />
<glyph unicode="&#x153;" horiz-adv-x="940" d="M535 218Q535 185 546 157T578 107T626 74T689 61Q740 61 774 88T832 158L900 119Q866 56 811 22T683 -13Q654 -13 625 -6T570 16T523 52T489 99Q474 72 451 51T401 16T343 -5T281 -13Q230 -13 185 6T107 58T54 137T34 234Q34 286 53 331T105 410T184 463T281 483Q347 481 403 452T489 369Q517 424 568 452T681 483Q738 483 781 462T853 403T895 318T906 218H535ZM823 286Q819 311 807 333T776 373T735 399T685 409Q659 409 635 400T592 373T559 334T542 286H823ZM283 409Q246 409 215 395T162 358T128 303T116 235Q116 199 128 168T162 112T215 75T283 61Q320 61 351 74T404 112T438 167T450 235Q450 271 438 302T404 357T351 395T283 409Z"  />
<glyph unicode="&#x160;" horiz-adv-x="559" d="M418 607Q395 646 366 667T288 689Q263 689 241 681T201 657T173 620T163 572Q163 548 174 530T203 497T241 473T281 454L331 432Q368 416 400 398T458 355T497 298T512 220Q512 170 494 128T443 54T367 5T275 -13Q230 -13 191 1T122 40T70 102T40 182L122 205Q126 176 139 151T171 106T217 76T273 65Q303 65 331 76T380 106T415 153T428 212Q428 245 416 268T385 308T340 337T289 362L243 382Q210 397 180 414T128 453T92 504T79 575Q79 619 96 654T142 715T210 753T290 767Q353 767 404 737T485 650L418 607ZM291 818L133 951L191 996L291 911L390 996L447 951L291 818Z"  />
<glyph unicode="&#x161;" horiz-adv-x="399" d="M266 361Q258 380 241 394T202 409Q181 409 163 395T144 357Q144 341 153 330T178 309T212 292T253 275Q274 266 293 255T328 229T352 192T362 140Q362 107 350 79T315 30T265 -1T203 -13Q143 -13 100 18T37 106L108 136Q123 103 143 82T204 61Q236 61 258 81T280 133Q280 159 265 175T225 203T174 225T123 251T84 290T68 350Q68 380 79 404T109 446T154 473T208 483Q249 483 283 458T333 396L266 361ZM202 559L44 692L102 737L202 652L301 737L358 692L202 559Z"  />
<glyph unicode="&#x178;" horiz-adv-x="593" d="M8 754H105L297 418L489 754H586L339 324V0H255V324L8 754ZM210 964Q233 964 248 949T264 910Q264 887 249 872T210 856Q187 856 172 871T156 910Q156 933 171 948T210 964ZM407 964Q430 964 445 949T461 910Q461 887 446 872T407 856Q384 856 369 871T353 910Q353 933 368 948T407 964Z"  />
<glyph unicode="&#x17D;" horiz-adv-x="586" d="M554 78V0H14L425 676H66V754H565L153 78H554ZM306 818L148 951L206 996L306 911L405 996L462 951L306 818Z"  />
<glyph unicode="&#x17E;" horiz-adv-x="519" d="M496 74V0H10L349 396H73V470H510L172 74H496ZM276 559L118 692L176 737L276 652L375 737L432 692L276 559Z"  />
<glyph unicode="&#x192;" horiz-adv-x="616" d="M523 750Q498 761 473 761Q452 761 436 755T409 729Q399 709 394 684T383 638L358 502H478L467 434H346L288 120Q284 99 280 75T269 27T255 -19T234 -60Q204 -104 155 -122T55 -140L5 -136L21 -61L55 -62Q100 -62 126 -47T168 -6T192 54T206 124L263 434H181L192 502H276L304 660Q310 697 320 729T350 786T398 824T470 838Q506 838 538 825L523 750Z"  />
<glyph unicode="&#x2C6;" horiz-adv-x="470" d="M234 737L392 604L334 559L234 644L135 559L78 604L234 737Z"  />
<glyph unicode="&#x2C7;" horiz-adv-x="470" d="M236 559L78 692L136 737L236 652L335 737L392 692L236 559Z"  />
<glyph unicode="&#x2DA;" horiz-adv-x="350" d="M176 747Q196 747 213 740T244 719T265 688T273 650Q273 609 245 581T176 552Q135 552 107 580T78 650Q78 670 85 687T106 718T138 739T176 747ZM176 697Q156 697 142 684T128 650Q128 630 142 616T176 602Q196 602 209 616T223 650Q223 670 210 683T176 697Z"  />
<glyph unicode="&#x2DC;" horiz-adv-x="506" d="M78 627Q87 642 97 656T119 681T146 699T180 706Q203 706 223 699T261 683Q280 675 295 668T325 660Q346 660 359 675T381 708L428 670Q414 637 387 613T322 589Q304 589 285 596T247 612Q228 620 211 627T177 634Q156 634 146 620T127 588L78 627Z"  />
<glyph unicode="&#x2013;" horiz-adv-x="500" d="M500 278V204H0V278H500Z"  />
<glyph unicode="&#x2014;" horiz-adv-x="1000" d="M870 278V204H130V278H870Z"  />
<glyph unicode="&#x2018;" horiz-adv-x="289" d="M61 512L175 767L229 746L135 485L61 512Z"  />
<glyph unicode="&#x2019;" horiz-adv-x="289" d="M228 740L114 485L60 506L154 767L228 740Z"  />
<glyph unicode="&#x201A;" horiz-adv-x="289" d="M229 84L115 -172L61 -150L155 110L229 84Z"  />
<glyph unicode="&#x201C;" horiz-adv-x="457" d="M229 512L343 767L397 746L303 485L229 512ZM61 512L175 767L229 746L135 485L61 512Z"  />
<glyph unicode="&#x201D;" horiz-adv-x="457" d="M229 740L115 485L61 506L155 767L229 740ZM397 740L283 485L229 506L323 767L397 740Z"  />
<glyph unicode="&#x201E;" horiz-adv-x="464" d="M229 84L115 -172L61 -150L155 110L229 84ZM404 84L290 -172L236 -150L330 110L404 84Z"  />
<glyph unicode="&#x2020;" horiz-adv-x="592" d="M337 754V569H504V491H337V-163H255V491H88V569H255V754H337Z"  />
<glyph unicode="&#x2021;" horiz-adv-x="592" d="M337 754V569H504V491H337V128H504V50H337V-163H255V50H88V128H255V491H88V569H255V754H337Z"  />
<glyph unicode="&#x2022;" horiz-adv-x="592" d="M296 189Q257 189 223 203T164 243T123 303T108 377Q108 416 122 450T162 510T222 551T296 566Q335 566 369 551T429 511T470 451T485 377Q485 338 470 304T429 244T369 204T296 189Z"  />
<glyph unicode="&#x2026;" horiz-adv-x="1000" d="M168 99Q191 99 207 83T224 44Q224 21 208 4T168 -13Q145 -13 129 4T112 44Q112 67 128 83T168 99ZM500 99Q523 99 539 83T556 44Q556 21 540 4T500 -13Q477 -13 461 4T444 44Q444 67 460 83T500 99ZM832 99Q855 99 871 83T888 44Q888 21 872 4T832 -13Q809 -13 793 4T776 44Q776 67 792 83T832 99Z"  />
<glyph unicode="&#x2030;" horiz-adv-x="1212" d="M202 767Q236 767 267 755T320 720T356 667T370 602Q370 567 357 538T320 486T267 451T202 438Q168 438 138 450T84 485T48 537T34 602Q34 637 47 667T83 719T136 754T202 767ZM202 703Q181 703 162 695T129 674T107 642T98 602Q98 581 106 563T129 532T162 510T202 502Q223 502 242 510T275 531T297 563T306 602Q306 623 298 641T275 673T242 695T202 703ZM639 743L203 -13L160 13L599 767L639 743ZM600 316Q634 316 665 304T718 269T754 216T768 151Q768 116 755 87T718 35T665 0T600 -13Q566 -13 536 -1T482 34T446 86T432 151Q432 186 445 216T481 268T534 303T600 316ZM600 252Q579 252 560 244T527 223T505 191T496 151Q496 130 504 112T527 81T560 59T600 51Q621 51 640 59T673 80T695 112T704 151Q704 172 696 190T673 222T640 244T600 252ZM1010 316Q1044 316 1075 304T1128 269T1164 216T1178 151Q1178 116 1165 87T1128 35T1075 0T1010 -13Q976 -13 946 -1T892 34T856 86T842 151Q842 186 855 216T891 268T944 303T1010 316ZM1010 252Q989 252 970 244T937 223T915 191T906 151Q906 130 914 112T937 81T970 59T1010 51Q1031 51 1050 59T1083 80T1105 112T1114 151Q1114 172 1106 190T1083 222T1050 244T1010 252Z"  />
<glyph unicode="&#x2039;" horiz-adv-x="330" d="M262 74L209 33L41 240L209 453L262 411L127 240L262 74Z"  />
<glyph unicode="&#x203A;" horiz-adv-x="330" d="M203 240L68 411L121 453L289 240L121 33L68 74L203 240Z"  />
<glyph unicode="&#x20AC;" horiz-adv-x="616" d="M545 656Q519 671 486 678T413 686Q329 686 269 634T187 483H499L477 416H177Q175 405 175 393T174 369Q174 357 174 346T176 327H456L435 261H186Q194 213 214 176T264 113T331 74T412 60Q453 60 487 69T553 100L586 30Q552 7 507 -5T405 -18Q340 -18 288 3T196 62T133 151T98 261H17L40 327H90Q89 335 89 346T89 368Q89 379 89 391T90 416H18L41 483H98Q113 551 142 603T214 691T307 745T417 764Q462 764 504 755T575 729L545 656H545Z"  />
<glyph unicode="&#x2122;" horiz-adv-x="940" d="M905 333H845V694H843L699 333H660L520 694H518V333H458V754H559L680 451L805 754H905V333ZM377 694H237V333H177V694H36V754H377V694Z"  />

</font>
</defs>
</svg>
