<?xml version="1.0" standalone="no"?>
<!DOCTYPE svg PUBLIC "-//W3C//DTD SVG 1.1//EN" "http://www.w3.org/Graphics/SVG/1.1/DTD/svg11.dtd" >
<svg xmlns="http://www.w3.org/2000/svg">
<metadata></metadata>
<defs>
<font id="MatterhornSemiBoldItalic" horiz-adv-x="1083" >
<font-face units-per-em="2048" ascent="1536" descent="-512" />
<missing-glyph horiz-adv-x="553" />
<glyph horiz-adv-x="0" />
<glyph horiz-adv-x="0" />
<glyph unicode="&#xd;" horiz-adv-x="553" />
<glyph unicode=" "  horiz-adv-x="553" />
<glyph unicode="&#x09;" horiz-adv-x="553" />
<glyph unicode="&#xa0;" horiz-adv-x="553" />
<glyph unicode="!" horiz-adv-x="565" d="M164 498l174 936h278l-223 -936h-229zM168 -29q-65 0 -104 37.5t-39 97.5q0 43 17.5 81.5t47.5 67t69 45.5t81 17q65 0 103 -36.5t38 -96.5q0 -44 -18 -83t-48 -68t-68.5 -45.5t-78.5 -16.5z" />
<glyph unicode="&#x22;" horiz-adv-x="874" d="M188 874l117 588h256l-158 -588h-215zM623 874l116 588h256l-157 -588h-215z" />
<glyph unicode="#" horiz-adv-x="1370" d="M608 0l129 375h-241l-127 -375h-205l129 375h-205l39 180h225l113 324h-205l39 180h227l129 375h203l-127 -375h240l129 375h203l-127 -375h202l-39 -180h-227l-111 -324h205l-39 -180h-227l-127 -375h-205zM909 879h-241l-111 -324h240z" />
<glyph unicode="$" horiz-adv-x="1069" d="M283 -242l47 215q-58 4 -109 15t-92.5 24.5t-73 28.5t-49.5 27l51 233q30 -18 67 -36.5t80 -33t91 -23.5t100 -9q48 0 95 12.5t83.5 37.5t59 63.5t22.5 90.5q0 59 -31.5 104t-79 85.5t-102.5 81.5t-102.5 91.5t-79 115t-31.5 153.5q0 90 30.5 163t86 127t131.5 87.5 t168 44.5l39 180h207l-39 -184q75 -11 135 -31.5t94 -40.5l-49 -235q-23 15 -55 31.5t-71 30.5t-84.5 23t-96.5 9q-48 0 -88 -13t-69 -36.5t-45.5 -56t-16.5 -72.5q0 -42 18 -77t48 -66.5t68 -61.5t78 -62.5t78 -69t68 -81.5t48 -99.5t18 -123.5q0 -89 -29 -161.5 t-81.5 -128t-124.5 -92.5t-158 -54l-48 -226h-206z" />
<glyph unicode="%" horiz-adv-x="1952" d="M496 618q-67 0 -120.5 21t-91 59t-57.5 92.5t-20 122.5q0 70 16.5 135.5t46.5 123.5t72 106t93.5 83t110 54t122.5 19q67 0 120 -21t90.5 -59.5t57.5 -93.5t20 -123q0 -104 -36 -198t-98.5 -165.5t-146.5 -113.5t-179 -42zM532 791q48 0 88 27t69.5 71.5t46 101.5 t16.5 117q0 72 -30 113t-89 41q-48 0 -88.5 -27.5t-69.5 -72.5t-45 -102.5t-16 -117.5q0 -71 30 -111t88 -40zM416 -29l1020 1491h200l-1020 -1491h-200zM1384 0q-67 0 -120 21t-90.5 59t-57.5 92.5t-20 122.5q0 104 36.5 198.5t99 166t146 113.5t178.5 42q67 0 120.5 -21 t90.5 -60t56.5 -94t19.5 -122q0 -105 -36.5 -199t-98.5 -165t-146 -112.5t-178 -41.5zM1419 172q48 0 88 27t69 71t45.5 101.5t16.5 117.5q0 72 -30 113t-88 41q-48 0 -88.5 -27t-70 -72t-45.5 -102.5t-16 -117.5q0 -72 30 -112t89 -40z" />
<glyph unicode="&#x26;" horiz-adv-x="1339" d="M975 0l-98 152q-97 -87 -209.5 -134t-245.5 -47q-83 0 -149 22t-112 62t-70.5 95t-24.5 120q0 94 34.5 171.5t90.5 141.5t127 116t143 96q-40 69 -57 133t-17 121q0 83 32 158t91 131.5t142.5 90t187.5 33.5q64 0 119.5 -16.5t95.5 -48t63 -76.5t23 -102 q0 -85 -36 -152.5t-93 -123t-127.5 -100.5t-139.5 -85l179 -271q28 47 53.5 98t50.5 111h203q-38 -102 -87.5 -196.5t-111.5 -177.5l213 -322h-270zM555 651q-43 -29 -83 -61.5t-71 -69.5t-51 -79.5t-24 -90.5q-5 -41 5.5 -73t33.5 -54t56.5 -33.5t74.5 -11.5 q68 0 142.5 33.5t137.5 95.5zM653 901q49 29 95 59.5t82.5 64t60 70.5t27.5 79q5 54 -25.5 87t-83.5 33q-45 0 -82 -21t-63.5 -55t-41 -76t-14.5 -85q0 -34 10.5 -73.5t34.5 -82.5z" />
<glyph unicode="'" horiz-adv-x="440" d="M188 874l117 588h256l-158 -588h-215z" />
<glyph unicode="(" horiz-adv-x="805" d="M313 -297q-35 60 -64.5 129.5t-51.5 149t-34.5 168.5t-12.5 188q0 179 40.5 352t114.5 335.5t179 312t233 280.5h268q-112 -105 -216 -243.5t-183.5 -302t-127.5 -349t-48 -385.5q0 -105 14 -197.5t37.5 -172.5t54.5 -146.5t66 -118.5h-269z" />
<glyph unicode=")" horiz-adv-x="815" d="M-100 -297q112 105 216 243t184.5 301t128.5 348t48 386q0 105 -14 197.5t-37.5 172.5t-55 147t-65.5 120h270q34 -61 63.5 -131t51 -149.5t33.5 -168.5t12 -188q0 -180 -40 -353t-114 -335t-178.5 -311t-234.5 -279h-268z" />
<glyph unicode="*" horiz-adv-x="1098" d="M748 633l-115 276l-230 -276l-145 127l258 250l-297 80l107 200l276 -119l49 324h211l-90 -324l330 119l20 -200l-329 -80l153 -250z" />
<glyph unicode="+" horiz-adv-x="1231" d="M522 14v469h-416v217h416v467h219v-467h418v-217h-418v-469h-219z" />
<glyph unicode="," horiz-adv-x="502" d="M-82 -266q37 27 70.5 57t60.5 61t47 61.5t29 57.5q-59 5 -95 40.5t-36 92.5q0 43 17 81.5t46 68t67.5 46.5t82.5 17q31 0 58.5 -10t47.5 -29.5t31.5 -47.5t11.5 -64q0 -74 -31.5 -146.5t-83.5 -139t-119 -126.5t-138 -108z" />
<glyph unicode="-" horiz-adv-x="758" d="M119 508l45 211h530l-45 -211h-530z" />
<glyph unicode="." horiz-adv-x="494" d="M350 184q0 -44 -18 -83t-47.5 -68t-68 -45.5t-79.5 -16.5q-65 0 -104 37.5t-39 97.5q0 43 17.5 81.5t47.5 67t69 45.5t81 17q65 0 103 -36.5t38 -96.5z" />
<glyph unicode="/" horiz-adv-x="772" d="M-111 -152l854 1737h238l-854 -1737h-238z" />
<glyph unicode="0" horiz-adv-x="1300" d="M561 -29q-104 0 -183 37.5t-132.5 106t-81 163.5t-27.5 209q0 97 18.5 207.5t56.5 218.5t95 207.5t134 175.5t174.5 121t215.5 45q104 0 183 -37.5t132.5 -106t81 -163.5t27.5 -209q0 -98 -18.5 -208t-56 -218.5t-94.5 -207.5t-134 -175t-174.5 -121t-216.5 -45zM580 188 q53 0 103.5 31t95.5 86t82.5 128.5t65 159.5t43 179t15.5 186q0 135 -43.5 211t-128.5 76q-52 0 -102.5 -31t-95 -85.5t-82.5 -128.5t-65 -160t-42.5 -179.5t-15.5 -187.5q0 -134 42.5 -209.5t127.5 -75.5z" />
<glyph unicode="1" horiz-adv-x="735" d="M174 0l260 1225h-239l43 209h497l-303 -1434h-258z" />
<glyph unicode="2" horiz-adv-x="1087" d="M-37 0l21 96l471 475q85 87 149.5 157.5t108 131t65.5 115.5t21 112q0 73 -53 116.5t-144 43.5q-54 0 -107.5 -12.5t-102 -32t-90.5 -42.5t-73 -44l52 242q78 45 173 74.5t195 29.5q93 0 169.5 -24.5t131.5 -69.5t85 -108.5t30 -141.5q0 -80 -28 -154.5t-77 -147.5 t-114.5 -144.5t-140.5 -145.5l-320 -315h543l-45 -211h-920z" />
<glyph unicode="3" horiz-adv-x="1075" d="M49 264q27 -16 61 -30t71.5 -24t77.5 -16t79 -6q70 0 133.5 20t111.5 57.5t76.5 91.5t28.5 122q0 47 -18.5 87.5t-55.5 70.5t-92.5 47.5t-130.5 17.5q-11 0 -21.5 -0.5t-19.5 -1.5q-11 -1 -20 -2l24 117l373 410h-469l43 209h823l-20 -99l-434 -471q57 -15 108.5 -45 t91 -74.5t63 -101.5t23.5 -125q0 -117 -47 -217.5t-131 -173.5t-200.5 -114.5t-255.5 -41.5q-47 0 -93 6t-88 16t-78 22.5t-61 25.5z" />
<glyph unicode="4" horiz-adv-x="1180" d="M567 0l60 285h-637l30 135l971 1028h135l-204 -961h182l-43 -202h-182l-60 -285h-252zM776 991l-463 -504h357z" />
<glyph unicode="5" horiz-adv-x="1112" d="M23 43q12 56 24 111t23 112q60 -34 139.5 -58t167.5 -24q71 0 136.5 23t115.5 64.5t80 99.5t30 127q0 96 -65 149t-180 53q-50 0 -97 -7.5t-86 -17t-69 -20t-47 -16.5q54 199 107 397t106 398h741l-43 -209h-522q-23 -84 -46.5 -167.5t-48.5 -166.5q8 0 32 5t54 5 q92 0 170.5 -24.5t136 -71.5t90 -114.5t32.5 -153.5q0 -121 -48 -224.5t-133.5 -179.5t-204.5 -119t-260 -43q-51 0 -99.5 6t-92 16t-80 23t-63.5 27z" />
<glyph unicode="6" horiz-adv-x="1206" d="M674 924q8 1 17 2q8 1 17.5 1.5t20.5 0.5q87 0 159.5 -29t124 -80t80.5 -121.5t29 -154.5q0 -125 -49 -229.5t-133 -181t-195 -119t-235 -42.5q-101 0 -183 27.5t-140.5 77.5t-91 119t-34.5 153q0 119 49.5 223.5t133.5 198.5l594 664h309zM543 178q60 0 116 25t99.5 70 t69.5 106.5t26 134.5q0 48 -15 86.5t-43 65.5t-67.5 42t-87.5 15q-65 0 -121.5 -28t-99.5 -74.5t-67.5 -107t-24.5 -126.5q0 -48 15.5 -86.5t44 -65.5t68 -42t87.5 -15z" />
<glyph unicode="7" horiz-adv-x="1030" d="M31 0l798 1225h-626l43 209h950l-20 -99l-867 -1335h-278z" />
<glyph unicode="8" horiz-adv-x="1223" d="M455 748q-36 21 -68 45t-55.5 55t-37 69t-13.5 87q0 106 47 190.5t123.5 144t173 91.5t194.5 32q84 0 154 -20t121 -57t79.5 -89.5t28.5 -117.5q0 -81 -30.5 -148t-77.5 -119.5t-104 -90.5t-111 -62q41 -23 81 -50.5t71.5 -63.5t51 -82t19.5 -105q0 -114 -49 -204.5 t-131 -153t-189 -95.5t-223 -33q-98 0 -177 24t-135.5 66.5t-87 102t-30.5 131.5q0 94 35 168t90 130t121.5 94t128.5 61zM610 662q-16 -7 -42 -20.5t-55 -33.5t-58.5 -46.5t-53 -60.5t-38.5 -76t-15 -91q0 -76 53.5 -123t149.5 -47q51 0 102 18.5t91 53t65 82t25 106.5 q0 46 -19 80.5t-50.5 62t-72 50t-82.5 45.5zM727 844q26 13 62.5 37.5t70 60.5t57 83t23.5 105q0 62 -41.5 101t-114.5 39q-43 0 -85 -15.5t-75.5 -44t-54 -69t-20.5 -90.5q0 -38 14 -67.5t38 -54t56.5 -45t69.5 -40.5z" />
<glyph unicode="9" horiz-adv-x="1206" d="M156 0l473 508q-8 -1 -17 -1q-8 -1 -18 -1h-21q-87 0 -159 29t-124 80t-81 121t-29 153q0 125 49.5 230.5t133.5 181.5t195 118.5t235 42.5q100 0 182 -27.5t140.5 -77.5t91 -119.5t34.5 -152.5q0 -120 -49.5 -223.5t-132.5 -197.5l-594 -664h-309zM662 711 q64 0 121 27.5t100 73t67.5 106t24.5 126.5q0 49 -15.5 87.5t-44 65.5t-68 41.5t-87.5 14.5q-60 0 -116 -25t-99.5 -69t-69.5 -106t-26 -135q0 -48 15 -86t42.5 -65t67 -41.5t88.5 -14.5z" />
<glyph unicode=":" horiz-adv-x="555" d="M170 -29q-65 0 -104 37.5t-39 97.5q0 43 17.5 81.5t47.5 67t69 45.5t81 17q65 0 103 -36.5t38 -96.5q0 -44 -18 -83t-47.5 -68t-68 -45.5t-79.5 -16.5zM319 680q-65 0 -103 37.5t-38 97.5q0 43 18 81.5t47.5 67t68.5 45.5t81 17q63 0 102.5 -36.5t39.5 -96.5 q0 -45 -18 -83.5t-48 -67.5t-69 -45.5t-81 -16.5z" />
<glyph unicode=";" horiz-adv-x="561" d="M-49 -266q37 27 70.5 57t60.5 61t47 61.5t29 57.5q-59 5 -95 40.5t-36 92.5q0 42 16.5 80.5t45.5 68t67.5 47t83.5 17.5q31 0 58.5 -10t47.5 -29.5t31.5 -47.5t11.5 -64q0 -74 -31.5 -146.5t-83.5 -139t-119 -126.5t-139 -108zM319 680q-65 0 -103 37.5t-38 97.5 q0 43 18 81.5t47.5 67t68.5 45.5t81 17q63 0 102.5 -36.5t39.5 -96.5q0 -45 -18 -83.5t-48 -67.5t-69 -45.5t-81 -16.5z" />
<glyph unicode="&#x3c;" horiz-adv-x="1198" d="M106 481v219l1027 482v-246l-762 -346l762 -344v-246z" />
<glyph unicode="=" horiz-adv-x="1450" d="M199 727v217h1112v-217h-1112zM199 238v217h1112v-217h-1112z" />
<glyph unicode="&#x3e;" horiz-adv-x="1198" d="M127 0v246l762 344l-762 346v246l1024 -482v-219z" />
<glyph unicode="?" horiz-adv-x="838" d="M221 498q6 92 39 161t78.5 124t97 99t95 85t72 82.5t28.5 91.5q0 54 -38.5 81t-113.5 27q-65 0 -130.5 -17.5t-125.5 -43.5l47 217q68 29 147.5 43t151.5 14q76 0 138.5 -19.5t107.5 -54.5t69.5 -84.5t24.5 -109.5q0 -65 -18.5 -117t-49.5 -95t-70.5 -79.5t-81.5 -70.5 t-84 -69t-76.5 -74t-58.5 -86t-32 -105h-217zM432 184q0 -44 -18 -83t-47.5 -68t-68 -45.5t-79.5 -16.5q-65 0 -104 37.5t-39 97.5q0 43 17.5 81.5t47.5 67t69 45.5t81 17q65 0 103 -36.5t38 -96.5z" />
<glyph unicode="@" horiz-adv-x="1819" d="M1225 -80q-115 -60 -242 -93.5t-266 -33.5q-141 0 -256 39t-196.5 111.5t-126 177.5t-44.5 237q0 137 38 272t107 257.5t167 227.5t217.5 182t258 121t289.5 44q138 0 252 -40.5t195 -115t125.5 -178t44.5 -229.5q0 -85 -18 -171t-51.5 -166t-81 -149t-108 -120.5 t-131.5 -81t-151 -29.5q-65 0 -105 19t-63 42q-26 27 -39 62q-21 -14 -48 -31t-61.5 -32t-76.5 -25t-92 -10q-113 0 -170 63.5t-57 178.5q0 69 17.5 140.5t49 138.5t75 125.5t96 102.5t112 69.5t123.5 25.5q65 0 106 -23t72 -65l26 79h193l-174 -567q-19 -57 -0.5 -91 t69.5 -34q55 0 106.5 43.5t91.5 116t63.5 167t23.5 195.5q0 97 -30.5 174.5t-88 131.5t-140 83t-185.5 29q-112 0 -218 -35.5t-199 -97.5t-170.5 -147.5t-133 -185.5t-86.5 -211t-31 -224q0 -103 33 -181.5t94.5 -131.5t148 -80t193.5 -27q108 0 207 25.5t188 75.5z M1141 809q-7 7 -19 17t-29 19t-38.5 15t-48.5 6q-59 0 -105.5 -34t-78 -86t-48 -113.5t-16.5 -116.5q0 -26 4.5 -48.5t15.5 -39t29.5 -26t46.5 -9.5q27 0 53 6t49 15t41 18.5t29 16.5z" />
<glyph unicode="A" horiz-adv-x="1284" d="M938 0l-41 270h-557l-156 -270h-301l871 1442h188l260 -1442h-264zM780 1042l-329 -573h417z" />
<glyph unicode="B" horiz-adv-x="1286" d="M86 0l303 1434h457q104 0 181 -21.5t127.5 -59.5t75.5 -92t25 -118q0 -63 -21.5 -121.5t-61.5 -107t-97 -85t-127 -55.5v-4q59 -13 104.5 -41t76 -67t46 -87t15.5 -102q0 -74 -24 -138t-67 -116.5t-102.5 -93.5t-129.5 -68.5t-149 -42t-161 -14.5h-471zM575 209 q85 0 150 21.5t109 58t66 86t22 106.5q0 41 -14.5 75t-44.5 58.5t-77.5 38t-113.5 13.5h-180l-97 -457h180zM705 870q73 0 123.5 19.5t82 50t46 67.5t14.5 72q0 30 -10 56.5t-32.5 46.5t-59 31.5t-89.5 11.5h-170l-75 -355h170z" />
<glyph unicode="C" horiz-adv-x="1268" d="M1073 63q-33 -19 -76.5 -36t-94 -29.5t-107.5 -19.5t-117 -7q-126 0 -228 44t-174.5 121t-111.5 182t-39 227q0 115 28 227.5t80.5 214.5t128.5 189t172.5 150.5t211.5 99.5t247 36q58 0 110.5 -8.5t98.5 -22t83.5 -30.5t64.5 -35l-56 -238q-25 19 -58.5 37.5t-75 33 t-90 23.5t-103.5 9q-114 0 -215.5 -51.5t-178.5 -141t-122 -210.5t-45 -259q0 -87 21 -155t63 -115.5t104.5 -72.5t146.5 -25q58 0 112.5 11t103.5 28.5t91.5 39.5t75.5 44z" />
<glyph unicode="D" horiz-adv-x="1430" d="M86 0l303 1434h340q172 0 298.5 -40.5t209 -113t122.5 -174t40 -223.5q0 -194 -68 -356.5t-194.5 -279.5t-306.5 -182t-404 -65h-340zM469 215q134 0 252 45.5t205.5 130.5t138.5 207.5t51 275.5q0 166 -106.5 255.5t-327.5 89.5h-74l-213 -1004h74z" />
<glyph unicode="E" horiz-adv-x="1139" d="M86 0l303 1434h821l-45 -215h-557l-76 -359h476l-45 -215h-476l-92 -430h557l-45 -215h-821z" />
<glyph unicode="F" horiz-adv-x="1067" d="M86 0l303 1434h791l-45 -215h-527l-84 -398h465l-45 -215h-465l-129 -606h-264z" />
<glyph unicode="G" horiz-adv-x="1405" d="M1004 520h-199l43 201h463l-140 -655q-74 -38 -185.5 -66.5t-254.5 -28.5q-142 0 -254.5 42t-190.5 117.5t-119.5 180.5t-41.5 232q0 119 28.5 233t82.5 216t132 188.5t177 149t217 97.5t252 35q67 0 125.5 -8.5t109 -22t91 -30t71.5 -33.5l-51 -229q-27 15 -65.5 31.5 t-86.5 30.5t-104 23t-117 9q-81 0 -156 -23.5t-139.5 -66.5t-117 -103t-90 -133t-58 -157t-20.5 -175q0 -179 89.5 -277.5t274.5 -98.5q45 0 88.5 7t81.5 19z" />
<glyph unicode="H" horiz-adv-x="1505" d="M948 0l137 649h-598l-137 -649h-264l303 1434h264l-118 -570h598l118 570h265l-304 -1434h-264z" />
<glyph unicode="I" horiz-adv-x="643" d="M86 0l303 1434h264l-303 -1434h-264z" />
<glyph unicode="J" horiz-adv-x="864" d="M623 1434h264l-217 -1018q-24 -114 -70 -197.5t-111.5 -138.5t-149 -82t-181.5 -27q-34 0 -70 3.5t-69.5 9.5t-61 14t-43.5 16l49 230q37 -22 88 -34.5t101 -12.5q48 0 90 16t74.5 44.5t55.5 68.5t34 88z" />
<glyph unicode="K" horiz-adv-x="1319" d="M928 0l-273 616l-213 -182l-92 -434h-264l303 1434h264l-143 -678l661 678h332l-653 -662l364 -772h-286z" />
<glyph unicode="L" horiz-adv-x="1018" d="M86 0l303 1434h264l-258 -1219h557l-45 -215h-821z" />
<glyph unicode="M" horiz-adv-x="1858" d="M1300 0l197 930l-557 -613h-100l-295 605l-195 -922h-264l305 1442h174l379 -778l709 778h217l-305 -1442h-265z" />
<glyph unicode="N" horiz-adv-x="1595" d="M1124 -8l-569 975l-205 -967h-264l305 1442h176l570 -977l204 969h265l-306 -1442h-176z" />
<glyph unicode="O" horiz-adv-x="1618" d="M764 199q80 0 150 25.5t129 70t105.5 105.5t79 132.5t49.5 150t17 159.5q0 84 -21 156t-64.5 124.5t-109.5 82.5t-155 30q-79 0 -149.5 -25.5t-129.5 -70.5t-106 -106t-79.5 -133t-50 -151t-17.5 -159q0 -84 21.5 -155.5t65 -124t110 -82t155.5 -29.5zM745 -29 q-137 0 -250 45t-193.5 126t-124.5 194t-44 248q0 111 26 219t75.5 206t121.5 180.5t164 143.5t203.5 95t239.5 34q137 0 250 -45t193.5 -126t124.5 -194t44 -249q0 -110 -26 -218t-75.5 -205.5t-121.5 -180.5t-164 -143.5t-203.5 -95t-239.5 -34.5z" />
<glyph unicode="P" horiz-adv-x="1229" d="M86 0l303 1434h420q114 0 198 -27.5t139 -77t82 -118t27 -150.5q0 -125 -47 -231t-131 -183.5t-201 -121.5t-258 -44h-165l-103 -481h-264zM635 696q75 0 137.5 23.5t107.5 66.5t70 104t25 136q0 99 -54 146t-165 47h-148l-110 -523h137z" />
<glyph unicode="Q" horiz-adv-x="1618" d="M1200 -86l-94 139q-79 -40 -168.5 -61t-192.5 -21q-137 0 -250 45t-193.5 126t-124.5 194t-44 248q0 111 26 219t75.5 206t121.5 180.5t164 143.5t203.5 95t239.5 34q137 0 250 -45t193.5 -126t124.5 -194t44 -249q0 -94 -18.5 -185.5t-54 -177t-87.5 -162t-119 -139.5 l183 -270h-279zM817 494l187 127l147 -220q68 91 105.5 205.5t37.5 235.5q0 84 -21 156t-64.5 124.5t-109.5 82.5t-155 30q-79 0 -149.5 -25.5t-129.5 -70.5t-106 -106t-79.5 -133t-50 -151t-17.5 -159q0 -84 21.5 -155.5t65 -124t110 -82t155.5 -29.5q116 0 213 53z" />
<glyph unicode="R" horiz-adv-x="1298" d="M905 0l-227 526h-217l-111 -526h-264l303 1434h428q106 0 187 -27t135.5 -75t82 -114.5t27.5 -146.5t-24.5 -153t-68 -135.5t-104 -112t-132.5 -82.5l274 -588h-289zM647 741q65 0 123.5 19.5t102.5 57.5t70 94t26 130q0 90 -58 133.5t-163 43.5h-140l-100 -478h139z" />
<glyph unicode="S" horiz-adv-x="1069" d="M57 301q30 -18 67 -36.5t80 -33t91 -23.5t100 -9q48 0 95 12.5t83.5 37.5t59 63.5t22.5 90.5q0 59 -31.5 104t-79 85.5t-102.5 81.5t-102.5 91.5t-79 115t-31.5 153.5q0 101 38 180.5t105 134.5t159 84t200 29q57 0 110 -7.5t98.5 -19t81.5 -26t60 -29.5l-49 -235 q-23 15 -55 31.5t-71 30.5t-84.5 23t-96.5 9q-48 0 -88 -13t-69 -36.5t-45.5 -56t-16.5 -72.5q0 -42 18 -77t48 -66.5t68 -61.5t78 -62.5t78 -69t68 -81.5t48 -99.5t18 -123.5q0 -105 -41.5 -188.5t-114 -141.5t-170.5 -88.5t-211 -30.5q-69 0 -130 10t-111 24.5t-87.5 31.5 t-58.5 31z" />
<glyph unicode="T" horiz-adv-x="1112" d="M326 0l258 1219h-410l45 215h1086l-45 -215h-412l-258 -1219h-264z" />
<glyph unicode="U" horiz-adv-x="1479" d="M1237 1434h264l-190 -893q-31 -149 -93 -256.5t-149 -177t-197 -103t-237 -33.5q-129 0 -226 42t-156.5 117t-79 180t6.5 231l191 893h264l-191 -895q-34 -167 21 -255.5t203 -88.5q144 0 243.5 87t135.5 257z" />
<glyph unicode="V" horiz-adv-x="1270" d="M436 -8l-239 1442h264l141 -1031l572 1031h301l-850 -1442h-189z" />
<glyph unicode="W" horiz-adv-x="1939" d="M1206 -8l-123 1026l-561 -1026h-200l-119 1442h264l63 -969l535 977h195l118 -977l477 969h281l-729 -1442h-201z" />
<glyph unicode="X" horiz-adv-x="1262" d="M844 0l-199 506l-395 -506h-324l621 750l-281 684h281l178 -465l362 465h318l-582 -707l299 -727h-278z" />
<glyph unicode="Y" horiz-adv-x="1135" d="M332 0l119 557l-265 877h277l160 -609l405 609h320l-633 -877l-119 -557h-264z" />
<glyph unicode="Z" horiz-adv-x="1124" d="M-29 0l31 143l823 1076h-575l45 215h924l-29 -144l-825 -1075h626l-45 -215h-975z" />
<glyph unicode="[" horiz-adv-x="879" d="M70 -297l405 1915h510l-45 -213h-248l-317 -1489h248l-43 -213h-510z" />
<glyph unicode="\" horiz-adv-x="774" d="M381 -152l-117 1737h228l116 -1737h-227z" />
<glyph unicode="]" horiz-adv-x="879" d="M-33 -297l43 213h248l317 1489h-247l45 213h510l-406 -1915h-510z" />
<glyph unicode="^" horiz-adv-x="1106" d="M829 756l-208 499l-207 -499h-244l326 706h252l325 -706h-244z" />
<glyph unicode="_" horiz-adv-x="1182" d="M-221 -512l41 184h1239l-41 -184h-1239z" />
<glyph unicode="`" horiz-adv-x="778" d="M612 1255l-299 301h332l184 -301h-217z" />
<glyph unicode="a" d="M989 184q-8 -42 -16.5 -84t-18.5 -84q-2 -2 -13.5 -6.5t-29.5 -9t-42 -7.5t-52 -3q-92 0 -139.5 38.5t-56.5 100.5q-27 -32 -58 -61t-68 -50.5t-80.5 -34t-95.5 -12.5q-60 0 -111.5 18.5t-89 53t-58.5 83.5t-21 110q0 90 38 165t104.5 129t158 84.5t199.5 30.5 q51 0 92 -8t67 -14q7 27 14 59t7 53v13v14q0 131 -174 131q-58 0 -109.5 -8t-92.5 -18.5t-68 -21t-35 -14.5q11 53 21.5 106t23.5 107q7 3 35 11.5t71.5 17t100.5 15t122 6.5q76 0 142 -19.5t114.5 -57.5t76.5 -94.5t28 -129.5q0 -22 -2.5 -45t-7.5 -48l-88 -411 q-7 -27 -7 -49q0 -31 16 -48.5t56 -17.5q18 0 33 5q8 2 14 5zM666 463q-19 6 -50 14t-71 8q-51 0 -96.5 -15.5t-79 -42.5t-53 -65t-19.5 -83q0 -48 30.5 -81.5t90.5 -33.5q32 0 62.5 10t57.5 27.5t50 40t41 47.5z" />
<glyph unicode="b" horiz-adv-x="1288" d="M358 215q13 -6 33 -13t44.5 -12.5t52.5 -9.5t57 -4q93 0 168 41t127.5 107.5t81 151t28.5 171.5q0 59 -16 105t-45 77.5t-70 47.5t-92 16q-40 0 -77 -9.5t-69.5 -23.5t-58 -30t-41.5 -29zM82 82q75 355 150 706.5t149 706.5h248l-105 -494q25 17 56.5 34t67 30t75.5 21 t82 8q97 0 172 -33t126.5 -92t78 -140t26.5 -178q0 -88 -22 -173t-64 -160.5t-102.5 -139t-137.5 -109.5t-169 -72t-197 -26q-71 0 -137.5 11.5t-123.5 28t-101.5 36t-71.5 35.5z" />
<glyph unicode="c" horiz-adv-x="1026" d="M809 29q-51 -23 -122.5 -40.5t-149.5 -17.5q-100 0 -182.5 30.5t-141 87t-91 137.5t-32.5 182q0 91 20.5 177t60 162.5t96.5 140t130 109.5t160.5 71.5t187.5 25.5q88 0 159.5 -19t117.5 -45l-43 -205q-18 10 -42 21t-54 20t-65.5 15t-74.5 6q-86 0 -158.5 -35.5 t-125 -97t-82 -144.5t-29.5 -178q0 -124 67 -188t189 -64q76 0 141 22.5t111 47.5z" />
<glyph unicode="d" horiz-adv-x="1278" d="M823 0q-1 10 -1 21q-1 10 -1 23v30v35q-29 -26 -66 -51t-80 -44.5t-91.5 -31t-100.5 -11.5q-94 0 -167 32.5t-123.5 91t-76.5 139.5t-26 178q0 89 21 174t62 161t100 139.5t134.5 109.5t167 72t197.5 26q35 0 68.5 -4t61.5 -10t49.5 -12.5t33.5 -10.5q23 109 46.5 219 t47.5 219h250l-260 -1225q-13 -59 -21.5 -108.5t-13.5 -85.5t-7 -56t-1 -20h-203zM944 860q-31 14 -78.5 25.5t-107.5 11.5q-86 0 -160.5 -37.5t-129.5 -102.5t-86.5 -153t-31.5 -188q0 -119 58.5 -180.5t160.5 -61.5q42 0 81 11t72 27.5t58.5 35.5t40.5 35z" />
<glyph unicode="e" horiz-adv-x="1163" d="M920 66q-70 -42 -166.5 -68.5t-202.5 -26.5q-109 0 -194.5 31.5t-145 89.5t-90.5 141t-31 185q0 139 47.5 262t131 215t197 145.5t245.5 53.5q86 0 157.5 -25.5t123 -73t80 -114t28.5 -148.5q0 -39 -5 -78t-12.5 -73t-15.5 -61t-14 -42h-697q-2 -5 -4 -23t-2 -38 q0 -117 61 -182.5t199 -65.5q43 0 89.5 8.5t92.5 23.5t90 34.5t83 42.5zM844 651q3 10 5.5 32t2.5 48q0 82 -43 126t-121 44q-51 0 -96.5 -19t-84 -52.5t-68.5 -79.5t-48 -99h453z" />
<glyph unicode="f" horiz-adv-x="711" d="M96 0l185 866h-158q9 51 20.5 99.5t20.5 99.5h158q6 25 11 50.5t11 49.5q35 168 129.5 249t239.5 81q31 0 61.5 -3t55 -7t41.5 -9t22 -8l-41 -196q-16 5 -48 13.5t-75 8.5q-53 0 -87.5 -29.5t-49.5 -97.5l-23 -102h228l-43 -199h-226l-184 -866h-248z" />
<glyph unicode="g" horiz-adv-x="1276" d="M774 88q-25 -16 -56 -31.5t-67 -27.5t-75.5 -19.5t-81.5 -7.5q-96 0 -171 32t-127 89.5t-79 137.5t-27 177q0 87 22 170t63.5 156t101.5 133.5t136.5 104t168 68t196.5 24.5q72 0 138.5 -11.5t123.5 -29t101 -37t71 -35.5l-204 -971q-28 -131 -85.5 -229t-141 -163 t-190 -97.5t-231.5 -32.5q-74 0 -136 13t-109.5 32t-80.5 40t-50 36l47 219q17 -16 49 -40t77 -46t102.5 -37.5t125.5 -15.5q70 0 131.5 20.5t109.5 60t81.5 97.5t48.5 133zM938 848q-13 7 -33 14t-44.5 12.5t-52 9t-56.5 3.5q-93 0 -167.5 -37t-126.5 -99t-80 -142.5 t-28 -166.5q0 -59 16 -104.5t45 -77t70 -47.5t92 -16q40 0 77 9.5t69 23.5t57 30t41 29z" />
<glyph unicode="h" horiz-adv-x="1245" d="M735 0l139 657q11 52 8.5 94.5t-20 72.5t-50.5 46.5t-83 16.5q-38 0 -76.5 -14t-72 -34t-61 -42t-44.5 -39l-160 -758h-249l317 1495h250l-121 -561q21 19 54 46.5t76.5 52.5t96 43t111.5 18q97 0 159 -34.5t95 -91t39 -128t-10 -146.5l-148 -694h-250z" />
<glyph unicode="i" horiz-adv-x="588" d="M63 0l226 1065h250l-226 -1065h-250zM627 1395q0 -38 -15 -68.5t-40 -51.5t-57 -32.5t-66 -11.5q-54 0 -86.5 27.5t-32.5 76.5q0 38 15 68.5t40 51.5t56.5 32.5t64.5 11.5q56 0 88.5 -28t32.5 -76z" />
<glyph unicode="j" horiz-adv-x="594" d="M-178 -299q9 -3 20 -6q10 -2 24 -4t32 -2q52 0 85 31.5t50 115.5l262 1229h250l-260 -1221q-39 -184 -128.5 -271t-246.5 -87q-27 0 -51 2.5t-42 6.5q-21 4 -38 9zM631 1395q0 -38 -15 -68.5t-40 -51.5t-56.5 -32.5t-64.5 -11.5q-56 0 -88.5 27.5t-32.5 76.5 q0 38 15 68.5t40 51.5t57 32.5t66 11.5q54 0 86.5 -28t32.5 -76z" />
<glyph unicode="k" horiz-adv-x="1098" d="M733 0l-172 457l-180 -144l-66 -313h-249l317 1495h250l-193 -905l447 475h309l-461 -453l275 -612h-277z" />
<glyph unicode="l" horiz-adv-x="649" d="M520 -10q-19 -6 -41 -10q-19 -4 -43.5 -6.5t-52.5 -2.5q-81 0 -138.5 24t-90 69t-40.5 108.5t9 142.5l252 1180h250l-248 -1167q-9 -39 -9.5 -67t9.5 -46t32 -26.5t60 -8.5q35 0 61 7t35 10z" />
<glyph unicode="m" horiz-adv-x="1843" d="M1333 0l140 657q9 49 8.5 91t-14.5 73t-42.5 48.5t-76.5 17.5q-35 0 -70.5 -14t-68 -35.5t-59 -47t-44.5 -47.5q-2 -8 -4 -24.5t-4 -24.5l-148 -694h-250l138 657q9 49 8.5 91t-14.5 73t-42.5 48.5t-76.5 17.5q-36 0 -72.5 -14t-68 -34t-56.5 -42t-39 -37l-162 -760h-249 l167 795q12 59 20.5 108.5t13.5 85.5q6 42 9 76h230v-40q-1 -20 -2 -46.5t-4 -58.5q22 24 55.5 54t76.5 56.5t95 45t111 18.5q57 0 101 -14.5t76.5 -40t53.5 -61.5t31 -79q34 37 76 72t89 62.5t99 44t106 16.5q88 0 146.5 -32.5t89.5 -87.5t36.5 -127.5t-11.5 -152.5 l-148 -694h-250z" />
<glyph unicode="n" horiz-adv-x="1245" d="M735 0l139 657q11 52 8.5 94.5t-20 72.5t-50.5 46.5t-83 16.5q-39 0 -77 -14t-71.5 -33.5t-60.5 -41.5t-43 -38l-162 -760h-249l167 795q12 59 20.5 108.5t13.5 85.5q6 42 9 76h230v-40q-1 -19 -2 -45.5t-4 -59.5q22 23 56 53t78.5 57t99 45.5t116.5 18.5q97 0 159 -34.5 t95 -91t39 -128t-10 -146.5l-148 -694h-250z" />
<glyph unicode="o" horiz-adv-x="1243" d="M555 170q79 0 143.5 41t110.5 108t71 151t25 171q0 121 -55.5 186.5t-149.5 65.5q-79 0 -144 -41t-111 -107.5t-71.5 -150.5t-25.5 -170q0 -122 56.5 -188t150.5 -66zM535 -29q-103 0 -185.5 33.5t-140 93.5t-88.5 143t-31 183q0 86 21 169.5t60.5 158t95.5 137.5 t126.5 108.5t153 71t174.5 25.5q103 0 185 -33.5t139.5 -94t88.5 -143.5t31 -182q0 -87 -21 -170.5t-60.5 -158t-95.5 -137t-126 -108t-152.5 -71t-174.5 -25.5z" />
<glyph unicode="p" horiz-adv-x="1290" d="M205 -512h-250l278 1307q13 59 21.5 108.5t13.5 85.5q5 42 8 76h203q1 -14 2 -32q2 -31 0 -79q29 27 66 52t80 44.5t91.5 31.5t100.5 12q94 0 167 -33t123 -92t76.5 -140t26.5 -178q0 -133 -47 -255.5t-135.5 -217t-215 -151t-284.5 -56.5q-35 0 -68.5 4t-61.5 9.5 t-49.5 11.5t-33.5 10zM358 205q31 -14 79 -25.5t108 -11.5q86 0 160.5 37.5t129 102.5t86 152t31.5 187q0 119 -58.5 180.5t-160.5 61.5q-42 0 -81 -11t-72 -27.5t-58.5 -35.5t-40.5 -35z" />
<glyph unicode="q" horiz-adv-x="1280" d="M653 -512l121 575q-24 -18 -55 -34.5t-67 -29t-76 -20.5t-82 -8q-96 0 -171 32.5t-127 91t-79 139.5t-27 178q0 89 22.5 174t64.5 161t102.5 139.5t137.5 109.5t169 72t196 26q72 0 138.5 -11.5t123.5 -29t101.5 -37t71.5 -35.5l-316 -1493h-248zM942 848 q-26 14 -76.5 26.5t-109.5 12.5q-93 0 -168 -40.5t-128 -107t-81.5 -151t-28.5 -172.5q0 -59 16 -105t45 -77.5t70 -47.5t92 -16q40 0 77 10t69 24t57 30.5t41 29.5z" />
<glyph unicode="r" horiz-adv-x="811" d="M66 0l167 795q12 59 20.5 108.5t13.5 85.5q6 42 9 76h230q0 -24 -1 -51q-1 -23 -2.5 -53t-6.5 -62h4q28 37 63 72t75.5 62.5t85.5 44t93 16.5q23 0 40 -3.5t30 -8.5q14 -5 26 -11l-49 -233q-15 6 -35 11q-17 4 -42.5 7.5t-57.5 3.5q-57 0 -103 -16.5t-80 -36.5 q-40 -24 -71 -53l-160 -754h-249z" />
<glyph unicode="s" horiz-adv-x="918" d="M61 262q22 -17 54 -33.5t69 -30t77.5 -22t80.5 -8.5q36 0 70 8t61 24t43 40.5t16 58.5q0 41 -26.5 72t-66.5 59.5t-87 58t-87 68t-66.5 89t-26.5 120.5q0 77 32 138t87.5 103t129.5 64.5t157 22.5q54 0 101.5 -7t86.5 -17.5t69 -23t48 -24.5l-45 -207q-20 15 -47.5 29.5 t-59.5 26t-66.5 19t-68.5 7.5q-82 0 -124 -33.5t-42 -83.5q0 -38 26.5 -68t66.5 -58.5t86 -59.5t86 -70t66.5 -89.5t26.5 -119.5q0 -81 -34 -144.5t-91.5 -108t-134 -68t-161.5 -23.5q-58 0 -112.5 8t-101 20.5t-82.5 27.5t-55 30z" />
<glyph unicode="t" horiz-adv-x="750" d="M586 -6q-24 -7 -51 -12q-23 -5 -52.5 -8t-60.5 -3q-84 0 -140 27t-85.5 75t-34 115t13.5 148l113 530h-164l43 199h162l51 240l262 51l-63 -291h225l-41 -199h-225l-115 -534q-17 -82 8 -116t82 -34q22 0 43 2.5t37 6.5q18 4 35 10z" />
<glyph unicode="u" horiz-adv-x="1247" d="M762 0q-1 17 0 39q0 39 6 104q-22 -22 -56 -51.5t-78.5 -56.5t-99 -45.5t-116.5 -18.5q-97 0 -159 34.5t-95 91t-39 128t10 146.5l148 694h249l-139 -659q-11 -52 -8 -94.5t20.5 -72.5t50.5 -46.5t83 -16.5q39 0 77 14t71.5 34t60.5 42t43 39l161 760h250l-168 -795 q-13 -60 -21 -109t-13 -85q-6 -42 -9 -76h-229z" />
<glyph unicode="v" horiz-adv-x="1042" d="M326 -8l-213 1073h237l117 -690l399 690h275l-670 -1073h-145z" />
<glyph unicode="w" horiz-adv-x="1640" d="M971 -8l-123 721l-426 -721h-152l-157 1073h229l88 -666l395 674h166l113 -674l366 666h263l-613 -1073h-149z" />
<glyph unicode="x" horiz-adv-x="1026" d="M639 0l-154 367l-295 -367h-301l494 555l-238 510h256l136 -330l260 330h303l-459 -518l256 -547h-258z" />
<glyph unicode="y" horiz-adv-x="1008" d="M-178 -270q11 -4 25 -8q12 -3 29 -5t38 -2q40 0 83 12.5t88.5 44.5t93.5 88.5t97 143.5l23 41l-176 1020h250l96 -709l365 709h280l-582 -1059q-75 -135 -151 -233t-155 -161t-160.5 -93.5t-167.5 -30.5q-28 0 -50.5 3t-38.5 8q-19 5 -34 12z" />
<glyph unicode="z" horiz-adv-x="934" d="M-47 0l24 117l617 755h-434l41 193h774l-25 -117l-618 -755h477l-39 -193h-817z" />
<glyph unicode="{" horiz-adv-x="817" d="M518 -297q-106 0 -179.5 13.5t-119.5 40t-67 65.5t-21 90q0 42 11.5 85t29 86.5t38.5 87t40 87t33 86.5t18 86q9 71 -30 105t-142 34l39 183q66 1 112 16t76 46.5t44.5 80t17.5 117.5q2 40 0 85.5t-2 96.5q0 98 23.5 176t81.5 132.5t156 84t247 31.5l-39 -184 q-53 0 -89.5 -9.5t-61 -31t-37.5 -55.5t-17 -83q-5 -30 -5 -65.5v-73t-0.5 -74.5t-4.5 -71q-6 -62 -28.5 -114t-58.5 -91.5t-85 -64.5t-109 -33l-4 -15q84 -12 130 -59t46 -125q0 -56 -21.5 -118t-49 -124.5t-52 -122t-30.5 -110.5q-7 -62 28.5 -84.5t120.5 -22.5z" />
<glyph unicode="|" horiz-adv-x="733" d="M274 -348v2007h263v-2007h-263z" />
<glyph unicode="}" horiz-adv-x="817" d="M6 -113q51 0 87.5 9t61 30t38 55.5t18.5 84.5q4 30 4 65.5t-0.5 73t0.5 74.5t6 71q11 125 81 204t198 99l4 15q-81 11 -128.5 55.5t-47.5 126.5q0 56 21.5 118t49 125t52 123.5t30.5 112.5q6 59 -29 82t-118 23l39 184q105 0 178.5 -13.5t119 -40t66.5 -65.5t21 -90 q0 -42 -11.5 -85t-29 -87t-38.5 -88t-40 -87.5t-33 -86.5t-18 -84q-10 -71 29.5 -105t142.5 -34l-39 -183q-68 -1 -115 -16t-76 -48t-43 -85.5t-16 -128.5q0 -38 1 -79.5t1 -86.5q0 -98 -24 -175.5t-82 -132t-155.5 -84t-244.5 -30.5z" />
<glyph unicode="~" horiz-adv-x="1419" d="M1300 827q0 -87 -22.5 -160t-65 -125.5t-104.5 -82t-141 -29.5q-48 0 -91 12.5t-82 31t-75 40.5t-70.5 40.5t-68 31t-68.5 12.5q-69 0 -105 -47.5t-36 -122.5h-203q0 87 22 159.5t64.5 125.5t104.5 82.5t141 29.5q50 0 93.5 -12.5t82.5 -31.5t74.5 -41t69.5 -41 t67.5 -31.5t68.5 -12.5q70 0 107 47.5t37 124.5h200z" />
<glyph unicode="&#xa1;" horiz-adv-x="571" d="M-39 -369l223 936h230l-174 -936h-279zM553 958q0 -44 -17.5 -82.5t-47.5 -67.5t-69 -46t-81 -17q-32 0 -57.5 10t-44.5 28t-29 42.5t-10 53.5q0 45 18 84t48 68.5t68.5 46t80.5 16.5q63 0 102 -38t39 -98z" />
<glyph unicode="&#xa2;" horiz-adv-x="1026" d="M201 -225l100 252q-99 52 -155 149.5t-56 231.5t44.5 256t127.5 216t201.5 151t265.5 61l90 227h191l-101 -246q70 -18 113 -43l-43 -205q-18 10 -42 21t-54 20t-65.5 15t-74.5 6q-86 0 -158.5 -35.5t-125 -97t-82 -144.5t-29.5 -178q0 -124 67 -188t189 -64 q76 0 141 22.5t111 47.5l-47 -221q-51 -23 -122.5 -40.5t-149.5 -17.5q-17 0 -34 1t-34 3l-80 -200h-188z" />
<glyph unicode="&#xa3;" horiz-adv-x="1112" d="M918 47q-23 -21 -53 -38q-26 -14 -62.5 -26t-81.5 -12q-46 0 -81.5 6t-65 15t-56 20t-53.5 20t-56.5 15t-66.5 6q-43 0 -85 -12.5t-76 -27.5q-40 -18 -77 -40l-53 133q64 30 117.5 73t91.5 98t59 121.5t21 144.5v42.5t-2 43.5h-180l35 164h133q0 32 2 67.5t10 77.5 q11 130 54 228t111 164t157 99t192 33q62 0 112 -10.5t86 -23.5q42 -15 76 -33l-43 -213q-29 19 -64 35q-30 14 -70.5 25t-88.5 11q-117 0 -184 -84t-78 -245q-8 -41 -10 -72.5t-2 -58.5h313l-35 -164h-274q-2 -81 -18.5 -147t-43 -117t-60 -86.5t-69.5 -55.5l4 -8 q11 3 25 6q12 2 29.5 4t38.5 2q34 0 64 -4.5t59.5 -10.5t60 -10.5t65.5 -4.5q50 0 89.5 10.5t68.5 23.5q33 15 60 35z" />
<glyph unicode="&#xa4;" horiz-adv-x="1309" d="M694 215q-71 0 -134.5 19t-117.5 51l-147 -148l-141 142l147 149q-34 54 -53 117.5t-19 134.5q0 140 72 250l-147 149l141 142l147 -150q54 35 117.5 54.5t134.5 19.5q69 0 132.5 -19.5t117.5 -54.5l152 150l141 -142l-150 -149q35 -54 53.5 -117.5t18.5 -132.5 q0 -71 -18.5 -134.5t-53.5 -117.5l150 -149l-141 -142l-150 150q-113 -72 -252 -72zM694 401q56 0 103 21t81 58.5t53 88.5t19 111t-19 111t-53 88t-81 58t-103 21t-102.5 -21t-80.5 -58t-52.5 -88t-18.5 -111t18.5 -111t52.5 -88.5t80.5 -58.5t102.5 -21z" />
<glyph unicode="&#xa5;" horiz-adv-x="1135" d="M649 250l-53 -250h-264l53 250h-322l35 158h320l28 135h-319l33 157h246l-220 734h277l160 -609l405 609h320l-531 -734h250l-33 -157h-323l-29 -135h324l-35 -158h-322z" />
<glyph unicode="&#xa6;" horiz-adv-x="731" d="M274 -348v891h261v-891h-261zM274 768v891h261v-891h-261z" />
<glyph unicode="&#xa7;" horiz-adv-x="1192" d="M12 -135q31 -17 70 -33t83.5 -29t95 -20.5t106.5 -7.5q49 0 97 11t86 33.5t61.5 56.5t23.5 79q0 51 -34 90t-85.5 74t-111 70t-111 79t-85.5 100.5t-34 135.5q0 122 68.5 206.5t189.5 129.5q-57 46 -94 104t-37 139q0 89 40.5 159.5t111.5 119t168 74.5t210 26 q57 0 110.5 -7t100 -17.5t83.5 -23.5t61 -25l-49 -213q-25 13 -58.5 27t-74 26t-87.5 20t-98 8q-49 0 -91 -10.5t-72.5 -30t-48 -48t-17.5 -64.5q0 -49 34 -87.5t85.5 -74t111 -72t111 -82.5t85.5 -105t34 -140q0 -118 -66 -204t-178 -134q51 -47 84 -105t33 -137 q0 -92 -43.5 -165.5t-119.5 -124.5t-177.5 -78t-218.5 -27q-72 0 -136 9t-116 22t-91 28t-61 27zM645 702q-43 -4 -79 -18t-62 -37t-40.5 -53t-14.5 -66q0 -29 12.5 -53.5t33.5 -47t49 -43.5t60 -42q34 10 65.5 27t55 40.5t37.5 53.5t14 67q0 27 -10 50.5t-27.5 44.5 t-41.5 40t-52 37z" />
<glyph unicode="&#xa8;" horiz-adv-x="920" d="M567 1389q-3 -31 -17.5 -57.5t-36 -46t-49 -31t-56.5 -11.5t-51.5 10.5t-36.5 28.5t-19 42.5t0 51.5q6 28 21 52.5t36.5 42.5t48.5 28t56 10q54 0 83 -34t21 -86zM997 1389q-4 -31 -18.5 -57.5t-36.5 -46t-49.5 -31t-56.5 -11.5t-51.5 10.5t-36.5 28.5t-18.5 42.5 t1.5 51.5q5 28 20 52.5t37 42.5t49 28t56 10q53 0 82 -34t22 -86z" />
<glyph unicode="&#xa9;" horiz-adv-x="1737" d="M920 -29q-155 0 -290.5 58.5t-237 160t-160 237t-58.5 290.5q0 103 26.5 198t75 178t117 151t151 116.5t178 75t198.5 26.5t198 -26.5t178 -75t151 -116.5t116.5 -151t75 -178t26.5 -198t-26.5 -198.5t-75 -178t-116.5 -151t-151 -117t-178 -75t-198 -26.5zM920 129 q118 0 221 44.5t179.5 123.5t120.5 186.5t44 233.5t-44 233.5t-120.5 186.5t-179.5 123.5t-221 44.5q-119 0 -222.5 -44.5t-180 -123.5t-121 -186.5t-44.5 -233.5t44.5 -233.5t121 -186.5t180 -123.5t222.5 -44.5zM1167 358q-38 -23 -96.5 -39t-126.5 -16q-87 0 -159.5 30 t-125 84.5t-81.5 131t-29 168.5q0 91 29 167t81.5 131t125 85t159.5 30q68 0 126.5 -16.5t96.5 -38.5v-174q-21 16 -44.5 31.5t-50 27.5t-56 19.5t-60.5 7.5q-55 0 -99 -19t-74.5 -54.5t-47 -85.5t-16.5 -111q0 -62 16.5 -112t47 -85t74.5 -54.5t99 -19.5q63 0 116 26t95 60 v-174z" />
<glyph unicode="&#xaa;" horiz-adv-x="887" d="M836 752q-3 -2 -12 -5t-23.5 -7t-33.5 -6.5t-40 -2.5q-56 0 -84 26t-33 64q-18 -18 -39.5 -36t-48 -32.5t-58 -23t-67.5 -8.5q-86 0 -136 48.5t-50 131.5q0 57 26 107t71.5 87.5t108.5 59t138 21.5q34 0 61.5 -3.5t47.5 -9.5q2 14 6 29.5t4 28.5v8v8q0 40 -27 62t-90 22 q-40 0 -77 -8t-66.5 -18.5t-50 -20t-27.5 -12.5l35 153q5 2 24.5 9.5t50.5 16t71 15t87 6.5q116 0 181 -49.5t65 -142.5q0 -31 -6 -62l-60 -276q-2 -8 -2 -14v-11q0 -21 10 -33t31 -12q16 0 25 3q5 1 10 3zM639 1049q-14 5 -33.5 8.5t-44.5 3.5q-38 0 -69.5 -11t-55 -29 t-36.5 -42t-13 -51q0 -31 20.5 -52.5t65.5 -21.5q43 0 80.5 23.5t60.5 54.5zM111 446q8 32 14 64.5t12 67.5h674q-6 -35 -12.5 -67.5t-14.5 -64.5h-673z" />
<glyph unicode="&#xab;" horiz-adv-x="1225" d="M70 430l47 219l563 410l-51 -242l-340 -297l215 -295l-43 -205zM541 430l47 219l563 410l-51 -242l-340 -297l215 -295l-43 -205z" />
<glyph unicode="&#xac;" horiz-adv-x="1393" d="M1071 281v391h-926v221h1149v-612h-223z" />
<glyph unicode="&#xae;" horiz-adv-x="1737" d="M920 -29q-155 0 -290.5 58.5t-237 160t-160 237t-58.5 290.5q0 103 26.5 198t75 178t117 151t151 116.5t178 75t198.5 26.5t198 -26.5t178 -75t151 -116.5t116.5 -151t75 -178t26.5 -198t-26.5 -198.5t-75 -178t-116.5 -151t-151 -117t-178 -75t-198 -26.5zM920 129 q117 0 220 45t179.5 124t121 186.5t44.5 232.5q0 124 -44.5 231.5t-121 187t-179.5 124.5t-220 45q-79 0 -151.5 -20.5t-135.5 -58t-115 -91t-88.5 -118.5t-57 -141t-20.5 -159q0 -125 44.5 -232.5t121.5 -186.5t180.5 -124t221.5 -45zM1104 315l-180 285h-105v-285h-162 v793h256q70 0 125 -19.5t92.5 -53.5t57.5 -80.5t20 -100.5q0 -71 -34.5 -128t-96.5 -89l223 -322h-196zM897 735q66 0 103.5 29.5t37.5 89.5q0 62 -37.5 90.5t-103.5 28.5h-78v-238h78z" />
<glyph unicode="&#xaf;" horiz-adv-x="809" d="M283 1307l39 186h591l-39 -186h-591z" />
<glyph unicode="&#xb0;" horiz-adv-x="819" d="M891 1192q0 -79 -33.5 -153.5t-91 -132.5t-134 -93t-161.5 -35q-62 0 -112.5 20.5t-86.5 56.5t-55.5 85t-19.5 107q0 78 33.5 152.5t91 133t133.5 94t161 35.5q61 0 112 -20.5t87 -56.5t56 -85.5t20 -107.5zM700 1141q7 63 -24 103t-96 40q-35 0 -68 -15t-59.5 -40.5 t-43.5 -59.5t-20 -71q-4 -31 2 -57t21.5 -45.5t39.5 -30.5t56 -11q34 0 67 15.5t59.5 41t44 59.5t21.5 71z" />
<glyph unicode="&#xb1;" horiz-adv-x="1419" d="M842 657v-327h-207v327h-420v207h420v316h207v-316h424v-207h-424zM215 0v207h1051v-207h-1051z" />
<glyph unicode="&#xb2;" horiz-adv-x="741" d="M154 680l18 84l250 237q77 75 117 126.5t43 95.5q3 31 -18.5 48t-59.5 17q-26 0 -55.5 -8.5t-58.5 -22t-57 -30t-52 -31.5l38 184q56 32 116.5 50t119.5 18q54 0 96 -15t69.5 -42.5t40 -65.5t7.5 -84q-8 -71 -55 -140.5t-138 -154.5l-118 -110h250l-35 -156h-518z" />
<glyph unicode="&#xb3;" horiz-adv-x="717" d="M190 868q44 -18 95.5 -30.5t93.5 -12.5q26 0 50 7.5t43 21.5t30.5 33.5t13.5 42.5q3 43 -44 67.5t-146 24.5l16 74l174 182h-235l32 156h478l-17 -84l-194 -203q63 -23 96.5 -75t23.5 -126q-5 -57 -33 -108t-73.5 -89.5t-107.5 -60.5t-136 -22q-54 0 -107 11.5t-87 27.5z " />
<glyph unicode="&#xb4;" horiz-adv-x="805" d="M516 1255h-227l286 301h343z" />
<glyph unicode="&#xb5;" horiz-adv-x="1325" d="M1171 4q-7 -2 -21.5 -6t-34.5 -8t-44.5 -7t-50.5 -3q-100 0 -156 46t-59 128h-4q-24 -27 -60 -59t-83 -59.5t-104 -46t-124 -18.5q-37 0 -67.5 6t-53.5 17q-18 -91 -38 -180.5t-40 -180.5h-243q75 361 150 716.5t153 715.5h248l-140 -659q-5 -19 -6.5 -36t-1.5 -34 q0 -35 9 -64t29 -50.5t51.5 -33.5t76.5 -12q42 0 82 13t74 32t61 40.5t45 37.5l162 766h248l-160 -754q-6 -24 -6 -45q0 -38 20.5 -60t65.5 -22q12 0 24 2t21 5q11 4 20 8z" />
<glyph unicode="&#xb6;" horiz-adv-x="1489" d="M858 -512l371 1741h-207l-371 -1741h-233l209 985h-11q-106 0 -186.5 25t-134.5 71.5t-81.5 112.5t-27.5 147q0 125 47 235.5t131 192.5t200.5 129.5t256.5 47.5h682l-411 -1946h-234z" />
<glyph unicode="&#xb7;" horiz-adv-x="653" d="M336 524q-35 0 -63 11.5t-46.5 32.5t-26.5 50t-3 64q4 39 23 73t47.5 59.5t65 40.5t75.5 15q35 0 63 -11.5t46.5 -31.5t26 -49t3.5 -63q-5 -41 -23.5 -76t-47.5 -60.5t-65 -40t-75 -14.5z" />
<glyph unicode="&#xb8;" horiz-adv-x="649" d="M-70 -367q18 -10 38 -17q17 -7 40 -12t49 -5q47 0 77.5 22.5t39.5 61.5q9 48 -36 77t-138 29l164 211h180l-106 -127q35 -9 63.5 -25t47 -40t25 -55.5t-0.5 -69.5q-12 -53 -44.5 -93t-78 -66.5t-99 -40t-106.5 -13.5q-30 0 -56 3.5t-46 8.5q-23 5 -41 12z" />
<glyph unicode="&#xb9;" horiz-adv-x="528" d="M279 680l127 598h-127l32 156h305l-159 -754h-178z" />
<glyph unicode="&#xba;" horiz-adv-x="977" d="M541 723q-69 0 -124 21t-93.5 59.5t-59 91t-20.5 115.5q0 88 33 169.5t91.5 144.5t138 100.5t171.5 37.5q67 0 122 -21t94 -59t60 -90.5t21 -115.5q0 -91 -33.5 -172t-92 -142.5t-137.5 -98.5t-171 -40zM561 862q53 0 96 26.5t74 69.5t47.5 98.5t16.5 112.5q0 78 -37 116 t-103 38q-53 0 -95.5 -26.5t-72.5 -69.5t-46.5 -98.5t-16.5 -112.5q0 -78 36 -116t101 -38zM121 442l26 136h717l-28 -136h-715z" />
<glyph unicode="&#xbb;" horiz-adv-x="1225" d="M565 20l51 242l342 295l-217 297l45 205l392 -410l-48 -219zM94 20l51 242l342 295l-217 297l45 205l392 -410l-48 -219z" />
<glyph unicode="&#xbc;" horiz-adv-x="1546" d="M279 680l127 598h-127l32 156h305l-159 -754h-178zM174 -29l1020 1491h199l-1020 -1491h-199zM1059 0l28 141h-323l20 95l512 524h101l-101 -469h97l-33 -150h-96l-29 -141h-176zM1161 485l-190 -194h149z" />
<glyph unicode="&#xbd;" horiz-adv-x="1626" d="M281 680l127 598h-129l32 156h307l-159 -754h-178zM174 -29l1020 1491h199l-1020 -1491h-199zM895 0l16 84l250 238q78 74 117.5 125.5t42.5 95.5q3 31 -17.5 48t-58.5 17q-27 0 -56 -8.5t-58.5 -22t-58 -30t-52.5 -31.5l39 184q57 32 117 50t118 18q54 0 96 -15.5 t70 -43t40.5 -66t6.5 -84.5q-6 -69 -52.5 -138.5t-137.5 -154.5l-119 -110h248l-33 -156h-518z" />
<glyph unicode="&#xbe;" horiz-adv-x="1675" d="M580 1147q63 -23 96.5 -75t23.5 -126q-5 -57 -33 -108t-73.5 -89.5t-107.5 -60.5t-136 -22q-54 0 -107 11.5t-87 27.5l34 163q44 -18 95.5 -30.5t93.5 -12.5q26 0 50 7.5t43 21.5t30.5 33.5t13.5 42.5q3 43 -44 67.5t-146 24.5l16 74l174 182h-235l32 156h478l-17 -84z M303 -29l1020 1491h201l-1020 -1491h-201zM1190 0l29 141h-326l20 95l512 524h103l-101 -469h97l-33 -150h-96l-29 -141h-176zM1292 485l-192 -194h151z" />
<glyph unicode="&#xbf;" horiz-adv-x="915" d="M629 -340q-68 -29 -147.5 -43t-151.5 -14q-76 0 -138.5 19.5t-106.5 54.5t-68.5 84.5t-24.5 109.5q0 65 18.5 117t49 94.5t70 79t81.5 70.5t83.5 69t76 74.5t58.5 86t32 105.5h217q-6 -92 -39 -161.5t-78.5 -125t-97 -99.5t-95 -84.5t-72 -82t-28.5 -90.5q0 -54 39 -81 t113 -27q65 0 130.5 17.5t125.5 43.5zM823 958q0 -44 -17.5 -82.5t-47.5 -67.5t-69 -46t-81 -17q-65 0 -103 37.5t-38 96.5q0 45 18 84t47.5 68.5t68 46t79.5 16.5q32 0 58.5 -10t45 -28t29 -43t10.5 -55z" />
<glyph unicode="&#xc0;" horiz-adv-x="1284" d="M0 0zM938 0l-41 270h-557l-156 -270h-301l871 1442h188l260 -1442h-264zM780 1042l-329 -573h417zM878 1617l-299 301h332l184 -301h-217z" />
<glyph unicode="&#xc1;" horiz-adv-x="1284" d="M0 0zM938 0l-41 270h-557l-156 -270h-301l871 1442h188l260 -1442h-264zM780 1042l-329 -573h417zM885 1617h-227l286 301h343z" />
<glyph unicode="&#xc2;" horiz-adv-x="1284" d="M0 0zM938 0l-41 270h-557l-156 -270h-301l871 1442h188l260 -1442h-264zM780 1042l-329 -573h417zM1008 1617l-102 177l-174 -177h-226l299 312h258l170 -312h-225z" />
<glyph unicode="&#xc3;" horiz-adv-x="1284" d="M0 0zM938 0l-41 270h-557l-156 -270h-301l871 1442h188l260 -1442h-264zM780 1042l-329 -573h417zM1327 1956q-13 -61 -37.5 -119.5t-62 -104.5t-89 -74t-118.5 -28q-41 0 -70 11t-51 27t-39 35.5t-33.5 35.5t-35 27t-43.5 11q-24 0 -42.5 -11.5t-32.5 -31.5t-24 -46.5 t-16 -55.5h-160q12 58 36 116.5t61.5 105t89 75.5t117.5 29q39 0 67.5 -11t50.5 -27.5t39.5 -35.5t34.5 -35.5t35 -27.5t41 -11q26 0 46 13t35 34t25.5 47t16.5 52h159z" />
<glyph unicode="&#xc4;" horiz-adv-x="1284" d="M0 0zM938 0l-41 270h-557l-156 -270h-301l871 1442h188l260 -1442h-264zM780 1042l-329 -573h417zM821 1760q-3 -31 -17.5 -57.5t-36 -46t-49 -31t-56.5 -11.5t-51.5 10.5t-36.5 28.5t-19 42.5t0 51.5q6 28 21 52.5t36.5 42.5t48.5 28t56 10q54 0 83 -34t21 -86z M1251 1760q-4 -31 -18.5 -57.5t-36.5 -46t-49.5 -31t-56.5 -11.5t-51.5 10.5t-36.5 28.5t-18.5 42.5t1.5 51.5q5 28 20 52.5t37 42.5t49 28t56 10q53 0 82 -34t22 -86z" />
<glyph unicode="&#xc5;" horiz-adv-x="1284" d="M0 0zM938 0l-41 270h-557l-156 -270h-301l871 1442h188l260 -1442h-264zM780 1042l-329 -573h417zM975 1630q6 48 -15 76t-63 28q-24 0 -46.5 -10t-40.5 -28t-29.5 -44t-14.5 -57q-6 -50 15 -78t63 -28q24 0 46.5 10t40.5 28.5t29.5 44.5t14.5 58zM1137 1677 q0 -68 -26 -128t-70.5 -105t-103 -71t-122.5 -26q-48 0 -86.5 14.5t-65.5 40.5t-42 63.5t-15 82.5q0 67 26 126.5t70 104.5t102.5 71t123.5 26q48 0 86.5 -14t65.5 -40t42 -63t15 -82z" />
<glyph unicode="&#xc6;" horiz-adv-x="1896" d="M831 0l56 270h-484l-215 -270h-305l1159 1434h922l-45 -215h-569l-76 -359h487l-47 -215h-487l-90 -430h569l-45 -215h-830zM1065 1106l-504 -637h369z" />
<glyph unicode="&#xc7;" horiz-adv-x="1268" d="M125 0zM1073 63q-33 -19 -76.5 -36t-94 -29.5t-107.5 -19.5t-117 -7q-126 0 -228 44t-174.5 121t-111.5 182t-39 227q0 115 28 227.5t80.5 214.5t128.5 189t172.5 150.5t211.5 99.5t247 36q58 0 110.5 -8.5t98.5 -22t83.5 -30.5t64.5 -35l-56 -238q-25 19 -58.5 37.5 t-75 33t-90 23.5t-103.5 9q-114 0 -215.5 -51.5t-178.5 -141t-122 -210.5t-45 -259q0 -87 21 -155t63 -115.5t104.5 -72.5t146.5 -25q58 0 112.5 11t103.5 28.5t91.5 39.5t75.5 44zM333 -367q18 -10 38 -17q17 -7 40 -12t49 -5q47 0 77.5 22.5t39.5 61.5q9 48 -36 77 t-138 29l164 211h180l-106 -127q35 -9 63.5 -25t47 -40t25 -55.5t-0.5 -69.5q-12 -53 -44.5 -93t-78 -66.5t-99 -40t-106.5 -13.5q-30 0 -56 3.5t-46 8.5q-23 5 -41 12z" />
<glyph unicode="&#xc8;" horiz-adv-x="1139" d="M113 0zM113 0l303 1434h821l-45 -215h-557l-76 -359h476l-45 -215h-476l-92 -430h557l-45 -215h-821zM784 1609l-299 301h332l184 -301h-217z" />
<glyph unicode="&#xc9;" horiz-adv-x="1139" d="M86 0zM86 0l303 1434h821l-45 -215h-557l-76 -359h476l-45 -215h-476l-92 -430h557l-45 -215h-821zM817 1609h-227l286 301h343z" />
<glyph unicode="&#xca;" horiz-adv-x="1139" d="M113 0zM113 0l303 1434h821l-45 -215h-557l-76 -359h476l-45 -215h-476l-92 -430h557l-45 -215h-821zM950 1609l-102 177l-174 -177h-226l299 312h258l170 -312h-225z" />
<glyph unicode="&#xcb;" horiz-adv-x="1139" d="M113 0zM113 0l303 1434h821l-45 -215h-557l-76 -359h476l-45 -215h-476l-92 -430h557l-45 -215h-821zM778 1751q-3 -31 -17.5 -57.5t-36 -46t-49 -31t-56.5 -11.5t-51.5 10.5t-36.5 28.5t-19 42.5t0 51.5q6 28 21 52.5t36.5 42.5t48.5 28t56 10q54 0 83 -34t21 -86z M1208 1751q-4 -31 -18.5 -57.5t-36.5 -46t-49.5 -31t-56.5 -11.5t-51.5 10.5t-36.5 28.5t-18.5 42.5t1.5 51.5q5 28 20 52.5t37 42.5t49 28t56 10q53 0 82 -34t22 -86z" />
<glyph unicode="&#xcc;" horiz-adv-x="643" d="M86 0zM86 0l303 1434h264l-303 -1434h-264zM543 1609l-299 301h332l184 -301h-217z" />
<glyph unicode="&#xcd;" horiz-adv-x="643" d="M86 0zM86 0l303 1434h264l-303 -1434h-264zM567 1609h-227l286 301h343z" />
<glyph unicode="&#xce;" horiz-adv-x="643" d="M86 0zM86 0l303 1434h264l-303 -1434h-264zM693 1609l-102 177l-174 -177h-226l299 312h258l170 -312h-225z" />
<glyph unicode="&#xcf;" horiz-adv-x="643" d="M86 0zM86 0l303 1434h264l-303 -1434h-264zM505 1751q-3 -31 -17.5 -57.5t-36 -46t-49 -31t-56.5 -11.5t-51.5 10.5t-36.5 28.5t-19 42.5t0 51.5q6 28 21 52.5t36.5 42.5t48.5 28t56 10q54 0 83 -34t21 -86zM935 1751q-4 -31 -18.5 -57.5t-36.5 -46t-49.5 -31 t-56.5 -11.5t-51.5 10.5t-36.5 28.5t-18.5 42.5t1.5 51.5q5 28 20 52.5t37 42.5t49 28t56 10q53 0 82 -34t22 -86z" />
<glyph unicode="&#xd0;" horiz-adv-x="1432" d="M88 0l119 561h-170l37 174h170l147 699h338q174 0 300.5 -38.5t209 -108t122.5 -167.5t40 -217q0 -199 -71 -365t-199.5 -285.5t-308 -186t-396.5 -66.5h-338zM471 215q138 0 256.5 45.5t205.5 130.5t136 207.5t49 275.5q0 166 -106.5 255.5t-327.5 89.5h-74l-102 -484 h242l-37 -174h-242l-74 -346h74z" />
<glyph unicode="&#xd1;" horiz-adv-x="1595" d="M86 0zM1124 -8l-569 975l-205 -967h-264l305 1442h176l570 -977l204 969h265l-306 -1442h-176zM1452 1944q-13 -61 -37.5 -119.5t-62 -104.5t-89 -74t-118.5 -28q-41 0 -70 11t-51 27t-39 35.5t-33.5 35.5t-35 27t-43.5 11q-24 0 -42.5 -11.5t-32.5 -31.5t-24 -46.5 t-16 -55.5h-160q12 58 36 116.5t61.5 105t89 75.5t117.5 29q39 0 67.5 -11t50.5 -27.5t39.5 -35.5t34.5 -35.5t35 -27.5t41 -11q26 0 46 13t35 34t25.5 47t16.5 52h159z" />
<glyph unicode="&#xd2;" horiz-adv-x="1618" d="M133 0zM764 199q80 0 150 25.5t129 70t105.5 105.5t79 132.5t49.5 150t17 159.5q0 84 -21 156t-64.5 124.5t-109.5 82.5t-155 30q-79 0 -149.5 -25.5t-129.5 -70.5t-106 -106t-79.5 -133t-50 -151t-17.5 -159q0 -84 21.5 -155.5t65 -124t110 -82t155.5 -29.5zM745 -29 q-137 0 -250 45t-193.5 126t-124.5 194t-44 248q0 111 26 219t75.5 206t121.5 180.5t164 143.5t203.5 95t239.5 34q137 0 250 -45t193.5 -126t124.5 -194t44 -249q0 -110 -26 -218t-75.5 -205.5t-121.5 -180.5t-164 -143.5t-203.5 -95t-239.5 -34.5zM995 1624l-299 301h332 l184 -301h-217z" />
<glyph unicode="&#xd3;" horiz-adv-x="1618" d="M133 0zM764 199q80 0 150 25.5t129 70t105.5 105.5t79 132.5t49.5 150t17 159.5q0 84 -21 156t-64.5 124.5t-109.5 82.5t-155 30q-79 0 -149.5 -25.5t-129.5 -70.5t-106 -106t-79.5 -133t-50 -151t-17.5 -159q0 -84 21.5 -155.5t65 -124t110 -82t155.5 -29.5zM745 -29 q-137 0 -250 45t-193.5 126t-124.5 194t-44 248q0 111 26 219t75.5 206t121.5 180.5t164 143.5t203.5 95t239.5 34q137 0 250 -45t193.5 -126t124.5 -194t44 -249q0 -110 -26 -218t-75.5 -205.5t-121.5 -180.5t-164 -143.5t-203.5 -95t-239.5 -34.5zM1044 1624h-227l286 301 h343z" />
<glyph unicode="&#xd4;" horiz-adv-x="1618" d="M133 0zM764 199q80 0 150 25.5t129 70t105.5 105.5t79 132.5t49.5 150t17 159.5q0 84 -21 156t-64.5 124.5t-109.5 82.5t-155 30q-79 0 -149.5 -25.5t-129.5 -70.5t-106 -106t-79.5 -133t-50 -151t-17.5 -159q0 -84 21.5 -155.5t65 -124t110 -82t155.5 -29.5zM745 -29 q-137 0 -250 45t-193.5 126t-124.5 194t-44 248q0 111 26 219t75.5 206t121.5 180.5t164 143.5t203.5 95t239.5 34q137 0 250 -45t193.5 -126t124.5 -194t44 -249q0 -110 -26 -218t-75.5 -205.5t-121.5 -180.5t-164 -143.5t-203.5 -95t-239.5 -34.5zM1161 1624l-102 177 l-174 -177h-226l299 312h258l170 -312h-225z" />
<glyph unicode="&#xd5;" horiz-adv-x="1618" d="M133 0zM764 199q80 0 150 25.5t129 70t105.5 105.5t79 132.5t49.5 150t17 159.5q0 84 -21 156t-64.5 124.5t-109.5 82.5t-155 30q-79 0 -149.5 -25.5t-129.5 -70.5t-106 -106t-79.5 -133t-50 -151t-17.5 -159q0 -84 21.5 -155.5t65 -124t110 -82t155.5 -29.5zM745 -29 q-137 0 -250 45t-193.5 126t-124.5 194t-44 248q0 111 26 219t75.5 206t121.5 180.5t164 143.5t203.5 95t239.5 34q137 0 250 -45t193.5 -126t124.5 -194t44 -249q0 -110 -26 -218t-75.5 -205.5t-121.5 -180.5t-164 -143.5t-203.5 -95t-239.5 -34.5zM1474 1962 q-13 -61 -37.5 -119.5t-62 -104.5t-89 -74t-118.5 -28q-41 0 -70 11t-51 27t-39 35.5t-33.5 35.5t-35 27t-43.5 11q-24 0 -42.5 -11.5t-32.5 -31.5t-24 -46.5t-16 -55.5h-160q12 58 36 116.5t61.5 105t89 75.5t117.5 29q39 0 67.5 -11t50.5 -27.5t39.5 -35.5t34.5 -35.5 t35 -27.5t41 -11q26 0 46 13t35 34t25.5 47t16.5 52h159z" />
<glyph unicode="&#xd6;" horiz-adv-x="1626" d="M141 0zM772 199q80 0 150 25.5t129 70t105.5 105.5t79 132.5t49.5 150t17 159.5q0 84 -21 156t-64.5 124.5t-109.5 82.5t-155 30q-79 0 -149.5 -25.5t-129.5 -70.5t-106 -106t-79.5 -133t-50 -151t-17.5 -159q0 -84 21.5 -155.5t65 -124t110 -82t155.5 -29.5zM753 -29 q-137 0 -250 45t-193.5 126t-124.5 194t-44 248q0 111 26 219t75.5 206t121.5 180.5t164 143.5t203.5 95t239.5 34q137 0 250 -45t193.5 -126t124.5 -194t44 -249q0 -110 -26 -218t-75.5 -205.5t-121.5 -180.5t-164 -143.5t-203.5 -95t-239.5 -34.5zM985 1766 q-3 -31 -17.5 -57.5t-36 -46t-49 -31t-56.5 -11.5t-51.5 10.5t-36.5 28.5t-19 42.5t0 51.5q6 28 21 52.5t36.5 42.5t48.5 28t56 10q54 0 83 -34t21 -86zM1415 1766q-4 -31 -18.5 -57.5t-36.5 -46t-49.5 -31t-56.5 -11.5t-51.5 10.5t-36.5 28.5t-18.5 42.5t1.5 51.5 q5 28 20 52.5t37 42.5t49 28t56 10q53 0 82 -34t22 -86z" />
<glyph unicode="&#xd7;" horiz-adv-x="1354" d="M713 436l-412 -409l-154 153l412 410l-412 411l154 154l412 -412l409 412l154 -154l-410 -411l410 -410l-154 -153z" />
<glyph unicode="&#xd8;" horiz-adv-x="1618" d="M1470 1212q51 -74 78 -166t27 -198q0 -110 -26 -218t-75.5 -205.5t-121.5 -180.5t-164 -143.5t-203.5 -95t-239.5 -34.5q-121 0 -223 34t-180 99l-137 -133h-225l256 250q-50 74 -76.5 165t-26.5 198q0 111 26 219t75.5 206t121.5 180.5t164 143.5t203.5 95t239.5 34 q120 0 221.5 -35t179.5 -98l135 133h225zM1182 1151q-44 38 -102 61t-136 23q-79 0 -149.5 -25.5t-129.5 -70.5t-106 -106t-79.5 -133t-50 -151t-17.5 -159q0 -47 6 -89.5t20 -80.5zM524 283q42 -41 102.5 -62.5t137.5 -21.5q80 0 150 25.5t129 70t105.5 105.5t79 132.5 t49.5 150t17 159.5q0 46 -6 89.5t-20 80.5z" />
<glyph unicode="&#xd9;" horiz-adv-x="1479" d="M173 0zM1237 1434h264l-190 -893q-31 -149 -93 -256.5t-149 -177t-197 -103t-237 -33.5q-129 0 -226 42t-156.5 117t-79 180t6.5 231l191 893h264l-191 -895q-34 -167 21 -255.5t203 -88.5q144 0 243.5 87t135.5 257zM919 1609l-299 301h332l184 -301h-217z" />
<glyph unicode="&#xda;" horiz-adv-x="1479" d="M173 0zM1237 1434h264l-190 -893q-31 -149 -93 -256.5t-149 -177t-197 -103t-237 -33.5q-129 0 -226 42t-156.5 117t-79 180t6.5 231l191 893h264l-191 -895q-34 -167 21 -255.5t203 -88.5q144 0 243.5 87t135.5 257zM989 1609h-227l286 301h343z" />
<glyph unicode="&#xdb;" horiz-adv-x="1479" d="M173 0zM1237 1434h264l-190 -893q-31 -149 -93 -256.5t-149 -177t-197 -103t-237 -33.5q-129 0 -226 42t-156.5 117t-79 180t6.5 231l191 893h264l-191 -895q-34 -167 21 -255.5t203 -88.5q144 0 243.5 87t135.5 257zM1096 1609l-102 177l-174 -177h-226l299 312h258 l170 -312h-225z" />
<glyph unicode="&#xdc;" horiz-adv-x="1479" d="M173 0zM1237 1434h264l-190 -893q-31 -149 -93 -256.5t-149 -177t-197 -103t-237 -33.5q-129 0 -226 42t-156.5 117t-79 180t6.5 231l191 893h264l-191 -895q-34 -167 21 -255.5t203 -88.5q144 0 243.5 87t135.5 257zM903 1760q-3 -31 -17.5 -57.5t-36 -46t-49 -31 t-56.5 -11.5t-51.5 10.5t-36.5 28.5t-19 42.5t0 51.5q6 28 21 52.5t36.5 42.5t48.5 28t56 10q54 0 83 -34t21 -86zM1333 1760q-4 -31 -18.5 -57.5t-36.5 -46t-49.5 -31t-56.5 -11.5t-51.5 10.5t-36.5 28.5t-18.5 42.5t1.5 51.5q5 28 20 52.5t37 42.5t49 28t56 10 q53 0 82 -34t22 -86z" />
<glyph unicode="&#xdd;" horiz-adv-x="1135" d="M186 0zM332 0l119 557l-265 877h277l160 -609l405 609h320l-633 -877l-119 -557h-264zM883 1609h-227l286 301h343z" />
<glyph unicode="&#xde;" horiz-adv-x="1233" d="M86 0l303 1434h262l-47 -230h168q109 0 191 -26t136.5 -72.5t81.5 -110.5t27 -141q0 -120 -48 -222.5t-132.5 -177.5t-200 -118t-249.5 -43h-168l-62 -293h-262zM604 508q67 0 126.5 20.5t104 59.5t70 96t25.5 131q0 90 -58.5 132t-164.5 42h-150l-102 -481h149z" />
<glyph unicode="&#xdf;" horiz-adv-x="1325" d="M502 254q21 -16 54.5 -32.5t72.5 -29.5t80 -21.5t79 -8.5q45 0 80 12t60 32.5t38 46t13 52.5q0 42 -27.5 73.5t-68.5 58.5t-88.5 54t-88.5 60t-68.5 76t-27.5 104q0 65 25.5 110t64 77.5t83.5 59t83.5 55t64 64.5t25.5 89q0 31 -12.5 54.5t-34 38.5t-49.5 22.5t-59 7.5 q-36 0 -76 -13t-75.5 -39.5t-63 -67t-39.5 -95.5l-232 -1094h-243l231 1092q19 92 65.5 166.5t115.5 127t159.5 81t198.5 28.5q87 0 157.5 -22t120.5 -60.5t77.5 -91t27.5 -113.5q0 -71 -26 -121.5t-65.5 -88.5t-85 -66t-85 -53t-65.5 -50.5t-26 -58.5q0 -34 26.5 -61.5 t67 -54.5t87 -56t87 -66.5t67 -86.5t26.5 -115q0 -81 -37 -147t-100.5 -113t-147.5 -73t-178 -26q-55 0 -104 8t-89.5 20t-70.5 26t-47 26z" />
<glyph unicode="&#xe0;" d="M39 0zM989 184q-8 -42 -16.5 -84t-18.5 -84q-2 -2 -13.5 -6.5t-29.5 -9t-42 -7.5t-52 -3q-92 0 -139.5 38.5t-56.5 100.5q-27 -32 -58 -61t-68 -50.5t-80.5 -34t-95.5 -12.5q-60 0 -111.5 18.5t-89 53t-58.5 83.5t-21 110q0 90 38 165t104.5 129t158 84.5t199.5 30.5 q51 0 92 -8t67 -14q7 27 14 59t7 53v13v14q0 131 -174 131q-58 0 -109.5 -8t-92.5 -18.5t-68 -21t-35 -14.5q11 53 21.5 106t23.5 107q7 3 35 11.5t71.5 17t100.5 15t122 6.5q76 0 142 -19.5t114.5 -57.5t76.5 -94.5t28 -129.5q0 -22 -2.5 -45t-7.5 -48l-88 -411 q-7 -27 -7 -49q0 -31 16 -48.5t56 -17.5q18 0 33 5q8 2 14 5zM666 463q-19 6 -50 14t-71 8q-51 0 -96.5 -15.5t-79 -42.5t-53 -65t-19.5 -83q0 -48 30.5 -81.5t90.5 -33.5q32 0 62.5 10t57.5 27.5t50 40t41 47.5zM661 1255l-299 301h332l184 -301h-217z" />
<glyph unicode="&#xe1;" d="M39 0zM989 184q-8 -42 -16.5 -84t-18.5 -84q-2 -2 -13.5 -6.5t-29.5 -9t-42 -7.5t-52 -3q-92 0 -139.5 38.5t-56.5 100.5q-27 -32 -58 -61t-68 -50.5t-80.5 -34t-95.5 -12.5q-60 0 -111.5 18.5t-89 53t-58.5 83.5t-21 110q0 90 38 165t104.5 129t158 84.5t199.5 30.5 q51 0 92 -8t67 -14q7 27 14 59t7 53v13v14q0 131 -174 131q-58 0 -109.5 -8t-92.5 -18.5t-68 -21t-35 -14.5q11 53 21.5 106t23.5 107q7 3 35 11.5t71.5 17t100.5 15t122 6.5q76 0 142 -19.5t114.5 -57.5t76.5 -94.5t28 -129.5q0 -22 -2.5 -45t-7.5 -48l-88 -411 q-7 -27 -7 -49q0 -31 16 -48.5t56 -17.5q18 0 33 5q8 2 14 5zM666 463q-19 6 -50 14t-71 8q-51 0 -96.5 -15.5t-79 -42.5t-53 -65t-19.5 -83q0 -48 30.5 -81.5t90.5 -33.5q32 0 62.5 10t57.5 27.5t50 40t41 47.5zM659 1255h-227l286 301h343z" />
<glyph unicode="&#xe2;" d="M39 0zM989 184q-8 -42 -16.5 -84t-18.5 -84q-2 -2 -13.5 -6.5t-29.5 -9t-42 -7.5t-52 -3q-92 0 -139.5 38.5t-56.5 100.5q-27 -32 -58 -61t-68 -50.5t-80.5 -34t-95.5 -12.5q-60 0 -111.5 18.5t-89 53t-58.5 83.5t-21 110q0 90 38 165t104.5 129t158 84.5t199.5 30.5 q51 0 92 -8t67 -14q7 27 14 59t7 53v13v14q0 131 -174 131q-58 0 -109.5 -8t-92.5 -18.5t-68 -21t-35 -14.5q11 53 21.5 106t23.5 107q7 3 35 11.5t71.5 17t100.5 15t122 6.5q76 0 142 -19.5t114.5 -57.5t76.5 -94.5t28 -129.5q0 -22 -2.5 -45t-7.5 -48l-88 -411 q-7 -27 -7 -49q0 -31 16 -48.5t56 -17.5q18 0 33 5q8 2 14 5zM666 463q-19 6 -50 14t-71 8q-51 0 -96.5 -15.5t-79 -42.5t-53 -65t-19.5 -83q0 -48 30.5 -81.5t90.5 -33.5q32 0 62.5 10t57.5 27.5t50 40t41 47.5zM801 1255l-102 177l-174 -177h-226l299 312h258l170 -312 h-225z" />
<glyph unicode="&#xe3;" d="M39 0zM989 184q-8 -42 -16.5 -84t-18.5 -84q-2 -2 -13.5 -6.5t-29.5 -9t-42 -7.5t-52 -3q-92 0 -139.5 38.5t-56.5 100.5q-27 -32 -58 -61t-68 -50.5t-80.5 -34t-95.5 -12.5q-60 0 -111.5 18.5t-89 53t-58.5 83.5t-21 110q0 90 38 165t104.5 129t158 84.5t199.5 30.5 q51 0 92 -8t67 -14q7 27 14 59t7 53v13v14q0 131 -174 131q-58 0 -109.5 -8t-92.5 -18.5t-68 -21t-35 -14.5q11 53 21.5 106t23.5 107q7 3 35 11.5t71.5 17t100.5 15t122 6.5q76 0 142 -19.5t114.5 -57.5t76.5 -94.5t28 -129.5q0 -22 -2.5 -45t-7.5 -48l-88 -411 q-7 -27 -7 -49q0 -31 16 -48.5t56 -17.5q18 0 33 5q8 2 14 5zM666 463q-19 6 -50 14t-71 8q-51 0 -96.5 -15.5t-79 -42.5t-53 -65t-19.5 -83q0 -48 30.5 -81.5t90.5 -33.5q32 0 62.5 10t57.5 27.5t50 40t41 47.5zM1100 1606q-13 -61 -37.5 -119.5t-62 -104.5t-89 -74 t-118.5 -28q-41 0 -70 11t-51 27t-39 35.5t-33.5 35.5t-35 27t-43.5 11q-24 0 -42.5 -11.5t-32.5 -31.5t-24 -46.5t-16 -55.5h-160q12 58 36 116.5t61.5 105t89 75.5t117.5 29q39 0 67.5 -11t50.5 -27.5t39.5 -35.5t34.5 -35.5t35 -27.5t41 -11q26 0 46 13t35 34t25.5 47 t16.5 52h159z" />
<glyph unicode="&#xe4;" d="M39 0zM989 184q-8 -42 -16.5 -84t-18.5 -84q-2 -2 -13.5 -6.5t-29.5 -9t-42 -7.5t-52 -3q-92 0 -139.5 38.5t-56.5 100.5q-27 -32 -58 -61t-68 -50.5t-80.5 -34t-95.5 -12.5q-60 0 -111.5 18.5t-89 53t-58.5 83.5t-21 110q0 90 38 165t104.5 129t158 84.5t199.5 30.5 q51 0 92 -8t67 -14q7 27 14 59t7 53v13v14q0 131 -174 131q-58 0 -109.5 -8t-92.5 -18.5t-68 -21t-35 -14.5q11 53 21.5 106t23.5 107q7 3 35 11.5t71.5 17t100.5 15t122 6.5q76 0 142 -19.5t114.5 -57.5t76.5 -94.5t28 -129.5q0 -22 -2.5 -45t-7.5 -48l-88 -411 q-7 -27 -7 -49q0 -31 16 -48.5t56 -17.5q18 0 33 5q8 2 14 5zM666 463q-19 6 -50 14t-71 8q-51 0 -96.5 -15.5t-79 -42.5t-53 -65t-19.5 -83q0 -48 30.5 -81.5t90.5 -33.5q32 0 62.5 10t57.5 27.5t50 40t41 47.5zM604 1399q-3 -31 -17.5 -57.5t-36 -46t-49 -31t-56.5 -11.5 t-51.5 10.5t-36.5 28.5t-19 42.5t0 51.5q6 28 21 52.5t36.5 42.5t48.5 28t56 10q54 0 83 -34t21 -86zM1034 1399q-4 -31 -18.5 -57.5t-36.5 -46t-49.5 -31t-56.5 -11.5t-51.5 10.5t-36.5 28.5t-18.5 42.5t1.5 51.5q5 28 20 52.5t37 42.5t49 28t56 10q53 0 82 -34t22 -86z " />
<glyph unicode="&#xe5;" d="M39 0zM989 184q-8 -42 -16.5 -84t-18.5 -84q-2 -2 -13.5 -6.5t-29.5 -9t-42 -7.5t-52 -3q-92 0 -139.5 38.5t-56.5 100.5q-27 -32 -58 -61t-68 -50.5t-80.5 -34t-95.5 -12.5q-60 0 -111.5 18.5t-89 53t-58.5 83.5t-21 110q0 90 38 165t104.5 129t158 84.5t199.5 30.5 q51 0 92 -8t67 -14q7 27 14 59t7 53v13v14q0 131 -174 131q-58 0 -109.5 -8t-92.5 -18.5t-68 -21t-35 -14.5q11 53 21.5 106t23.5 107q7 3 35 11.5t71.5 17t100.5 15t122 6.5q76 0 142 -19.5t114.5 -57.5t76.5 -94.5t28 -129.5q0 -22 -2.5 -45t-7.5 -48l-88 -411 q-7 -27 -7 -49q0 -31 16 -48.5t56 -17.5q18 0 33 5q8 2 14 5zM666 463q-19 6 -50 14t-71 8q-51 0 -96.5 -15.5t-79 -42.5t-53 -65t-19.5 -83q0 -48 30.5 -81.5t90.5 -33.5q32 0 62.5 10t57.5 27.5t50 40t41 47.5zM807 1487q6 48 -15 76t-63 28q-24 0 -46.5 -10t-40.5 -28 t-29.5 -44t-14.5 -57q-6 -50 15 -78t63 -28q24 0 46.5 10t40.5 28.5t29.5 44.5t14.5 58zM969 1534q0 -68 -26 -128t-70.5 -105t-103 -71t-122.5 -26q-48 0 -86.5 14.5t-65.5 40.5t-42 63.5t-15 82.5q0 67 26 126.5t70 104.5t102.5 71t123.5 26q48 0 86.5 -14t65.5 -40 t42 -63t15 -82z" />
<glyph unicode="&#xe6;" horiz-adv-x="1739" d="M1495 66q-35 -21 -77 -38.5t-89 -30t-98.5 -19.5t-104.5 -7q-143 0 -243 52.5t-156 148.5q-96 -100 -196 -150.5t-212 -50.5q-60 0 -111.5 18.5t-89 53t-58.5 83.5t-21 110q0 90 38 165t104.5 129t158 84.5t199.5 30.5q51 0 92 -8t67 -14q8 34 15.5 70t7.5 65 q0 135 -176 135q-58 0 -109.5 -8t-92.5 -18.5t-68 -21t-35 -14.5q11 53 21.5 106t23.5 107q7 3 35 11.5t71.5 17t100.5 15t122 6.5q46 0 91 -9.5t85 -26.5t73.5 -42t56.5 -55q75 63 168 98t198 35q86 0 157.5 -25.5t123 -73t80 -114t28.5 -148.5q0 -39 -5 -78t-12 -73 t-15.5 -61t-14.5 -42h-696q-2 -11 -3 -28t-1 -35q0 -116 61.5 -181t196.5 -65q43 0 89 8.5t92.5 23.5t90.5 34.5t82 42.5zM666 463q-19 6 -50 14t-71 8q-51 0 -96.5 -15.5t-79 -42.5t-53 -65t-19.5 -83q0 -48 30.5 -81.5t90.5 -33.5q32 0 62.5 10t57.5 27.5t50 40t41 47.5z M1419 651q3 10 5.5 32t2.5 48q0 82 -43 126t-120 44q-51 0 -97 -19t-84 -52.5t-68 -79.5t-48 -99h452z" />
<glyph unicode="&#xe7;" horiz-adv-x="1026" d="M90 0zM809 29q-51 -23 -122.5 -40.5t-149.5 -17.5q-100 0 -182.5 30.5t-141 87t-91 137.5t-32.5 182q0 91 20.5 177t60 162.5t96.5 140t130 109.5t160.5 71.5t187.5 25.5q88 0 159.5 -19t117.5 -45l-43 -205q-18 10 -42 21t-54 20t-65.5 15t-74.5 6q-86 0 -158.5 -35.5 t-125 -97t-82 -144.5t-29.5 -178q0 -124 67 -188t189 -64q76 0 141 22.5t111 47.5zM174 -367q18 -10 38 -17q17 -7 40 -12t49 -5q47 0 77.5 22.5t39.5 61.5q9 48 -36 77t-138 29l164 211h180l-106 -127q35 -9 63.5 -25t47 -40t25 -55.5t-0.5 -69.5q-12 -53 -44.5 -93 t-78 -66.5t-99 -40t-106.5 -13.5q-30 0 -56 3.5t-46 8.5q-23 5 -41 12z" />
<glyph unicode="&#xe8;" horiz-adv-x="1163" d="M90 0zM920 66q-70 -42 -166.5 -68.5t-202.5 -26.5q-109 0 -194.5 31.5t-145 89.5t-90.5 141t-31 185q0 139 47.5 262t131 215t197 145.5t245.5 53.5q86 0 157.5 -25.5t123 -73t80 -114t28.5 -148.5q0 -39 -5 -78t-12.5 -73t-15.5 -61t-14 -42h-697q-2 -5 -4 -23t-2 -38 q0 -117 61 -182.5t199 -65.5q43 0 89.5 8.5t92.5 23.5t90 34.5t83 42.5zM844 651q3 10 5.5 32t2.5 48q0 82 -43 126t-121 44q-51 0 -96.5 -19t-84 -52.5t-68.5 -79.5t-48 -99h453zM737 1255l-299 301h332l184 -301h-217z" />
<glyph unicode="&#xe9;" horiz-adv-x="1163" d="M90 0zM920 66q-70 -42 -166.5 -68.5t-202.5 -26.5q-109 0 -194.5 31.5t-145 89.5t-90.5 141t-31 185q0 139 47.5 262t131 215t197 145.5t245.5 53.5q86 0 157.5 -25.5t123 -73t80 -114t28.5 -148.5q0 -39 -5 -78t-12.5 -73t-15.5 -61t-14 -42h-697q-2 -5 -4 -23t-2 -38 q0 -117 61 -182.5t199 -65.5q43 0 89.5 8.5t92.5 23.5t90 34.5t83 42.5zM844 651q3 10 5.5 32t2.5 48q0 82 -43 126t-121 44q-51 0 -96.5 -19t-84 -52.5t-68.5 -79.5t-48 -99h453zM733 1255h-227l286 301h343z" />
<glyph unicode="&#xea;" horiz-adv-x="1163" d="M90 0zM920 66q-70 -42 -166.5 -68.5t-202.5 -26.5q-109 0 -194.5 31.5t-145 89.5t-90.5 141t-31 185q0 139 47.5 262t131 215t197 145.5t245.5 53.5q86 0 157.5 -25.5t123 -73t80 -114t28.5 -148.5q0 -39 -5 -78t-12.5 -73t-15.5 -61t-14 -42h-697q-2 -5 -4 -23t-2 -38 q0 -117 61 -182.5t199 -65.5q43 0 89.5 8.5t92.5 23.5t90 34.5t83 42.5zM844 651q3 10 5.5 32t2.5 48q0 82 -43 126t-121 44q-51 0 -96.5 -19t-84 -52.5t-68.5 -79.5t-48 -99h453zM870 1255l-102 177l-174 -177h-226l299 312h258l170 -312h-225z" />
<glyph unicode="&#xeb;" horiz-adv-x="1163" d="M90 0zM920 66q-70 -42 -166.5 -68.5t-202.5 -26.5q-109 0 -194.5 31.5t-145 89.5t-90.5 141t-31 185q0 139 47.5 262t131 215t197 145.5t245.5 53.5q86 0 157.5 -25.5t123 -73t80 -114t28.5 -148.5q0 -39 -5 -78t-12.5 -73t-15.5 -61t-14 -42h-697q-2 -5 -4 -23t-2 -38 q0 -117 61 -182.5t199 -65.5q43 0 89.5 8.5t92.5 23.5t90 34.5t83 42.5zM844 651q3 10 5.5 32t2.5 48q0 82 -43 126t-121 44q-51 0 -96.5 -19t-84 -52.5t-68.5 -79.5t-48 -99h453zM684 1399q-3 -31 -17.5 -57.5t-36 -46t-49 -31t-56.5 -11.5t-51.5 10.5t-36.5 28.5t-19 42.5 t0 51.5q6 28 21 52.5t36.5 42.5t48.5 28t56 10q54 0 83 -34t21 -86zM1114 1399q-4 -31 -18.5 -57.5t-36.5 -46t-49.5 -31t-56.5 -11.5t-51.5 10.5t-36.5 28.5t-18.5 42.5t1.5 51.5q5 28 20 52.5t37 42.5t49 28t56 10q53 0 82 -34t22 -86z" />
<glyph unicode="&#xec;" horiz-adv-x="584" d="M63 0zM470 1255l-299 301h332l184 -301h-217zM63 0l226 1065h246l-226 -1065h-246z" />
<glyph unicode="&#xed;" horiz-adv-x="584" d="M63 0zM466 1255h-227l286 301h343zM63 0l226 1065h246l-226 -1065h-246z" />
<glyph unicode="&#xee;" horiz-adv-x="584" d="M63 0zM63 0l226 1065h246l-226 -1065h-246zM593 1255l-102 177l-174 -177h-226l299 312h258l170 -312h-225z" />
<glyph unicode="&#xef;" horiz-adv-x="584" d="M63 0zM402 1399q-3 -31 -17.5 -57.5t-36 -46t-49 -31t-56.5 -11.5t-51.5 10.5t-36.5 28.5t-19 42.5t0 51.5q6 28 21 52.5t36.5 42.5t48.5 28t56 10q54 0 83 -34t21 -86zM832 1399q-4 -31 -18.5 -57.5t-36.5 -46t-49.5 -31t-56.5 -11.5t-51.5 10.5t-36.5 28.5t-18.5 42.5 t1.5 51.5q5 28 20 52.5t37 42.5t49 28t56 10q53 0 82 -34t22 -86zM63 0l226 1065h246l-226 -1065h-246z" />
<glyph unicode="&#xf0;" horiz-adv-x="1233" d="M1030 1257q68 -112 103.5 -240t35.5 -265q0 -166 -47 -309t-133 -248t-206 -164.5t-267 -59.5q-98 0 -175.5 30t-132 84t-83.5 128.5t-29 163.5q0 83 20 162.5t57.5 149t89.5 128t116.5 100.5t139.5 65.5t157 23.5q54 0 96.5 -12t74.5 -28t53 -32t30 -25q-8 63 -31.5 133 t-60.5 136l-254 -107l-25 98l225 93q-23 31 -48.5 57.5t-51.5 48.5l131 127q43 -34 82.5 -73t73.5 -83l241 103l25 -96zM561 172q69 0 129 35t105 92.5t70.5 132.5t25.5 156q0 106 -58 164.5t-155 58.5q-76 0 -136 -37t-102 -97t-64 -135t-22 -151q0 -100 53.5 -159.5 t153.5 -59.5z" />
<glyph unicode="&#xf1;" horiz-adv-x="1245" d="M66 0zM735 0l139 657q11 52 8.5 94.5t-20 72.5t-50.5 46.5t-83 16.5q-39 0 -77 -14t-71.5 -33.5t-60.5 -41.5t-43 -38l-162 -760h-249l167 795q12 59 20.5 108.5t13.5 85.5q6 42 9 76h230v-40q-1 -19 -2 -45.5t-4 -59.5q22 23 56 53t78.5 57t99 45.5t116.5 18.5 q97 0 159 -34.5t95 -91t39 -128t-10 -146.5l-148 -694h-250zM1230 1606q-13 -61 -37.5 -119.5t-62 -104.5t-89 -74t-118.5 -28q-41 0 -70 11t-51 27t-39 35.5t-33.5 35.5t-35 27t-43.5 11q-24 0 -42.5 -11.5t-32.5 -31.5t-24 -46.5t-16 -55.5h-160q12 58 36 116.5t61.5 105 t89 75.5t117.5 29q39 0 67.5 -11t50.5 -27.5t39.5 -35.5t34.5 -35.5t35 -27.5t41 -11q26 0 46 13t35 34t25.5 47t16.5 52h159z" />
<glyph unicode="&#xf2;" horiz-adv-x="1243" d="M90 0zM555 170q79 0 143.5 41t110.5 108t71 151t25 171q0 121 -55.5 186.5t-149.5 65.5q-79 0 -144 -41t-111 -107.5t-71.5 -150.5t-25.5 -170q0 -122 56.5 -188t150.5 -66zM535 -29q-103 0 -185.5 33.5t-140 93.5t-88.5 143t-31 183q0 86 21 169.5t60.5 158t95.5 137.5 t126.5 108.5t153 71t174.5 25.5q103 0 185 -33.5t139.5 -94t88.5 -143.5t31 -182q0 -87 -21 -170.5t-60.5 -158t-95.5 -137t-126 -108t-152.5 -71t-174.5 -25.5zM751 1255l-299 301h332l184 -301h-217z" />
<glyph unicode="&#xf3;" horiz-adv-x="1243" d="M90 0zM555 170q79 0 143.5 41t110.5 108t71 151t25 171q0 121 -55.5 186.5t-149.5 65.5q-79 0 -144 -41t-111 -107.5t-71.5 -150.5t-25.5 -170q0 -122 56.5 -188t150.5 -66zM535 -29q-103 0 -185.5 33.5t-140 93.5t-88.5 143t-31 183q0 86 21 169.5t60.5 158t95.5 137.5 t126.5 108.5t153 71t174.5 25.5q103 0 185 -33.5t139.5 -94t88.5 -143.5t31 -182q0 -87 -21 -170.5t-60.5 -158t-95.5 -137t-126 -108t-152.5 -71t-174.5 -25.5zM760 1255h-227l286 301h343z" />
<glyph unicode="&#xf4;" horiz-adv-x="1243" d="M90 0zM555 170q79 0 143.5 41t110.5 108t71 151t25 171q0 121 -55.5 186.5t-149.5 65.5q-79 0 -144 -41t-111 -107.5t-71.5 -150.5t-25.5 -170q0 -122 56.5 -188t150.5 -66zM535 -29q-103 0 -185.5 33.5t-140 93.5t-88.5 143t-31 183q0 86 21 169.5t60.5 158t95.5 137.5 t126.5 108.5t153 71t174.5 25.5q103 0 185 -33.5t139.5 -94t88.5 -143.5t31 -182q0 -87 -21 -170.5t-60.5 -158t-95.5 -137t-126 -108t-152.5 -71t-174.5 -25.5zM895 1255l-102 177l-174 -177h-226l299 312h258l170 -312h-225z" />
<glyph unicode="&#xf5;" horiz-adv-x="1243" d="M90 0zM555 170q79 0 143.5 41t110.5 108t71 151t25 171q0 121 -55.5 186.5t-149.5 65.5q-79 0 -144 -41t-111 -107.5t-71.5 -150.5t-25.5 -170q0 -122 56.5 -188t150.5 -66zM535 -29q-103 0 -185.5 33.5t-140 93.5t-88.5 143t-31 183q0 86 21 169.5t60.5 158t95.5 137.5 t126.5 108.5t153 71t174.5 25.5q103 0 185 -33.5t139.5 -94t88.5 -143.5t31 -182q0 -87 -21 -170.5t-60.5 -158t-95.5 -137t-126 -108t-152.5 -71t-174.5 -25.5zM1224 1606q-13 -61 -37.5 -119.5t-62 -104.5t-89 -74t-118.5 -28q-41 0 -70 11t-51 27t-39 35.5t-33.5 35.5 t-35 27t-43.5 11q-24 0 -42.5 -11.5t-32.5 -31.5t-24 -46.5t-16 -55.5h-160q12 58 36 116.5t61.5 105t89 75.5t117.5 29q39 0 67.5 -11t50.5 -27.5t39.5 -35.5t34.5 -35.5t35 -27.5t41 -11q26 0 46 13t35 34t25.5 47t16.5 52h159z" />
<glyph unicode="&#xf6;" horiz-adv-x="1243" d="M90 0zM555 170q79 0 143.5 41t110.5 108t71 151t25 171q0 121 -55.5 186.5t-149.5 65.5q-79 0 -144 -41t-111 -107.5t-71.5 -150.5t-25.5 -170q0 -122 56.5 -188t150.5 -66zM535 -29q-103 0 -185.5 33.5t-140 93.5t-88.5 143t-31 183q0 86 21 169.5t60.5 158t95.5 137.5 t126.5 108.5t153 71t174.5 25.5q103 0 185 -33.5t139.5 -94t88.5 -143.5t31 -182q0 -87 -21 -170.5t-60.5 -158t-95.5 -137t-126 -108t-152.5 -71t-174.5 -25.5zM712 1399q-3 -31 -17.5 -57.5t-36 -46t-49 -31t-56.5 -11.5t-51.5 10.5t-36.5 28.5t-19 42.5t0 51.5 q6 28 21 52.5t36.5 42.5t48.5 28t56 10q54 0 83 -34t21 -86zM1142 1399q-4 -31 -18.5 -57.5t-36.5 -46t-49.5 -31t-56.5 -11.5t-51.5 10.5t-36.5 28.5t-18.5 42.5t1.5 51.5q5 28 20 52.5t37 42.5t49 28t56 10q53 0 82 -34t22 -86z" />
<glyph unicode="&#xf7;" horiz-adv-x="1231" d="M645 829q-37 0 -68.5 12.5t-55 34.5t-37 52t-13.5 65t13.5 65t37 52t55 34.5t68.5 12.5t69 -12.5t55.5 -34.5t36.5 -52t13 -65t-13 -65t-36.5 -52t-55.5 -34.5t-69 -12.5zM133 485v211h1026v-211h-1026zM645 27q-37 0 -68.5 12t-55 34t-37 52t-13.5 65q0 36 13.5 65.5 t37 51t55 33.5t68.5 12t69 -12t55.5 -33.5t36.5 -51t13 -65.5q0 -35 -13 -65t-36.5 -52t-55.5 -34t-69 -12z" />
<glyph unicode="&#xf8;" horiz-adv-x="1241" d="M1096 901q34 -54 51.5 -120t17.5 -140q0 -87 -21 -170.5t-60 -158t-95 -137t-126 -108t-153 -71t-175 -25.5q-87 0 -159 23.5t-126 66.5l-92 -90h-189l193 189q-70 109 -70 264q0 86 21 169.5t60 158t95 137.5t126.5 108.5t153 71t175.5 25.5q87 0 158 -25t127 -70l94 95 h188zM842 836q-26 27 -62 42t-80 15q-79 0 -143.5 -41t-110.5 -107.5t-71 -150.5t-25 -170q0 -16 1.5 -37.5t4.5 -34.5zM416 225q52 -55 141 -55q79 0 143.5 41t110.5 108t71 151t25 171q0 17 -2.5 33.5t-5.5 32.5z" />
<glyph unicode="&#xf9;" horiz-adv-x="1247" d="M125 0zM762 0q-1 17 0 39q0 39 6 104q-22 -22 -56 -51.5t-78.5 -56.5t-99 -45.5t-116.5 -18.5q-97 0 -159 34.5t-95 91t-39 128t10 146.5l148 694h249l-139 -659q-11 -52 -8 -94.5t20.5 -72.5t50.5 -46.5t83 -16.5q39 0 77 14t71.5 34t60.5 42t43 39l161 760h250 l-168 -795q-13 -60 -21 -109t-13 -85q-6 -42 -9 -76h-229zM735 1255l-299 301h332l184 -301h-217z" />
<glyph unicode="&#xfa;" horiz-adv-x="1247" d="M125 0zM762 0q-1 17 0 39q0 39 6 104q-22 -22 -56 -51.5t-78.5 -56.5t-99 -45.5t-116.5 -18.5q-97 0 -159 34.5t-95 91t-39 128t10 146.5l148 694h249l-139 -659q-11 -52 -8 -94.5t20.5 -72.5t50.5 -46.5t83 -16.5q39 0 77 14t71.5 34t60.5 42t43 39l161 760h250 l-168 -795q-13 -60 -21 -109t-13 -85q-6 -42 -9 -76h-229zM792 1255h-227l286 301h343z" />
<glyph unicode="&#xfb;" horiz-adv-x="1247" d="M125 0zM762 0q-1 17 0 39q0 39 6 104q-22 -22 -56 -51.5t-78.5 -56.5t-99 -45.5t-116.5 -18.5q-97 0 -159 34.5t-95 91t-39 128t10 146.5l148 694h249l-139 -659q-11 -52 -8 -94.5t20.5 -72.5t50.5 -46.5t83 -16.5q39 0 77 14t71.5 34t60.5 42t43 39l161 760h250 l-168 -795q-13 -60 -21 -109t-13 -85q-6 -42 -9 -76h-229zM899 1255l-102 177l-174 -177h-226l299 312h258l170 -312h-225z" />
<glyph unicode="&#xfc;" horiz-adv-x="1247" d="M125 0zM762 0q-1 17 0 39q0 39 6 104q-22 -22 -56 -51.5t-78.5 -56.5t-99 -45.5t-116.5 -18.5q-97 0 -159 34.5t-95 91t-39 128t10 146.5l148 694h249l-139 -659q-11 -52 -8 -94.5t20.5 -72.5t50.5 -46.5t83 -16.5q39 0 77 14t71.5 34t60.5 42t43 39l161 760h250 l-168 -795q-13 -60 -21 -109t-13 -85q-6 -42 -9 -76h-229zM708 1399q-3 -31 -17.5 -57.5t-36 -46t-49 -31t-56.5 -11.5t-51.5 10.5t-36.5 28.5t-19 42.5t0 51.5q6 28 21 52.5t36.5 42.5t48.5 28t56 10q54 0 83 -34t21 -86zM1138 1399q-4 -31 -18.5 -57.5t-36.5 -46 t-49.5 -31t-56.5 -11.5t-51.5 10.5t-36.5 28.5t-18.5 42.5t1.5 51.5q5 28 20 52.5t37 42.5t49 28t56 10q53 0 82 -34t22 -86z" />
<glyph unicode="&#xfd;" horiz-adv-x="1008" d="M0 0zM-178 -270q11 -4 25 -8q12 -3 29 -5t38 -2q40 0 83 12.5t88.5 44.5t93.5 88.5t97 143.5l23 41l-176 1020h250l96 -709l365 709h280l-582 -1059q-75 -135 -151 -233t-155 -161t-160.5 -93.5t-167.5 -30.5q-28 0 -50.5 3t-38.5 8q-19 5 -34 12zM723 1255h-227l286 301 h343z" />
<glyph unicode="&#xfe;" horiz-adv-x="1288" d="M-43 -512q101 487 204.5 972.5t207.5 973.5h249l-94 -443q25 18 57 36.5t69.5 33.5t79.5 24t87 9q94 0 167 -33t123 -92t76.5 -140t26.5 -178q0 -133 -47 -255.5t-135.5 -217t-215 -151t-284.5 -56.5q-35 0 -68.5 4t-61.5 9.5t-49.5 11.5t-33.5 10q-27 -130 -55 -258.5 t-57 -259.5h-246zM356 205q31 -14 79 -25.5t108 -11.5q86 0 160.5 37.5t129 102.5t86 152t31.5 187q0 119 -58.5 180.5t-160.5 61.5q-42 0 -81 -11t-72 -27.5t-58.5 -35.5t-40.5 -35z" />
<glyph unicode="&#xff;" horiz-adv-x="1008" d="M0 0zM-178 -270q11 -4 25 -8q12 -3 29 -5t38 -2q40 0 83 12.5t88.5 44.5t93.5 88.5t97 143.5l23 41l-176 1020h250l96 -709l365 709h280l-582 -1059q-75 -135 -151 -233t-155 -161t-160.5 -93.5t-167.5 -30.5q-28 0 -50.5 3t-38.5 8q-19 5 -34 12zM594 1389 q-3 -31 -17.5 -57.5t-36 -46t-49 -31t-56.5 -11.5t-51.5 10.5t-36.5 28.5t-19 42.5t0 51.5q6 28 21 52.5t36.5 42.5t48.5 28t56 10q54 0 83 -34t21 -86zM1024 1389q-4 -31 -18.5 -57.5t-36.5 -46t-49.5 -31t-56.5 -11.5t-51.5 10.5t-36.5 28.5t-18.5 42.5t1.5 51.5 q5 28 20 52.5t37 42.5t49 28t56 10q53 0 82 -34t22 -86z" />
<glyph unicode="&#x100;" horiz-adv-x="1284" d="M0 0zM938 0l-41 270h-557l-156 -270h-301l871 1442h188l260 -1442h-264zM780 1042l-329 -573h417zM594 1669l39 186h591l-39 -186h-591z" />
<glyph unicode="&#x101;" d="M39 0zM989 184q-8 -42 -16.5 -84t-18.5 -84q-2 -2 -13.5 -6.5t-29.5 -9t-42 -7.5t-52 -3q-92 0 -139.5 38.5t-56.5 100.5q-27 -32 -58 -61t-68 -50.5t-80.5 -34t-95.5 -12.5q-60 0 -111.5 18.5t-89 53t-58.5 83.5t-21 110q0 90 38 165t104.5 129t158 84.5t199.5 30.5 q51 0 92 -8t67 -14q7 27 14 59t7 53v13v14q0 131 -174 131q-58 0 -109.5 -8t-92.5 -18.5t-68 -21t-35 -14.5q11 53 21.5 106t23.5 107q7 3 35 11.5t71.5 17t100.5 15t122 6.5q76 0 142 -19.5t114.5 -57.5t76.5 -94.5t28 -129.5q0 -22 -2.5 -45t-7.5 -48l-88 -411 q-7 -27 -7 -49q0 -31 16 -48.5t56 -17.5q18 0 33 5q8 2 14 5zM666 463q-19 6 -50 14t-71 8q-51 0 -96.5 -15.5t-79 -42.5t-53 -65t-19.5 -83q0 -48 30.5 -81.5t90.5 -33.5q32 0 62.5 10t57.5 27.5t50 40t41 47.5zM369 1317l39 186h591l-39 -186h-591z" />
<glyph unicode="&#x102;" horiz-adv-x="1288" d="M0 0zM940 0l-41 270h-557l-156 -270h-301l871 1442h188l260 -1442h-264zM782 1042l-329 -573h417zM1284 1981q-20 -76 -56 -142.5t-88.5 -115.5t-121.5 -77t-154 -28q-72 0 -123.5 21t-84.5 58t-48.5 88t-15.5 112q0 20 1.5 41t6.5 43h180q0 -45 4.5 -80t17 -60t36.5 -38 t63 -13q40 0 70.5 13t54 37.5t42 60t34.5 80.5h182z" />
<glyph unicode="&#x103;" d="M39 0zM989 184q-8 -42 -16.5 -84t-18.5 -84q-2 -2 -13.5 -6.5t-29.5 -9t-42 -7.5t-52 -3q-92 0 -139.5 38.5t-56.5 100.5q-27 -32 -58 -61t-68 -50.5t-80.5 -34t-95.5 -12.5q-60 0 -111.5 18.5t-89 53t-58.5 83.5t-21 110q0 90 38 165t104.5 129t158 84.5t199.5 30.5 q51 0 92 -8t67 -14q7 27 14 59t7 53v13v14q0 131 -174 131q-58 0 -109.5 -8t-92.5 -18.5t-68 -21t-35 -14.5q11 53 21.5 106t23.5 107q7 3 35 11.5t71.5 17t100.5 15t122 6.5q76 0 142 -19.5t114.5 -57.5t76.5 -94.5t28 -129.5q0 -22 -2.5 -45t-7.5 -48l-88 -411 q-7 -27 -7 -49q0 -31 16 -48.5t56 -17.5q18 0 33 5q8 2 14 5zM666 463q-19 6 -50 14t-71 8q-51 0 -96.5 -15.5t-79 -42.5t-53 -65t-19.5 -83q0 -48 30.5 -81.5t90.5 -33.5q32 0 62.5 10t57.5 27.5t50 40t41 47.5zM1081 1626q-20 -76 -56 -142.5t-88.5 -115.5t-121.5 -77 t-154 -28q-72 0 -123.5 21t-84.5 58t-48.5 88t-15.5 112q0 20 1.5 41t6.5 43h180q0 -45 4.5 -80t17 -60t36.5 -38t63 -13q40 0 70.5 13t54 37.5t42 60t34.5 80.5h182z" />
<glyph unicode="&#x104;" horiz-adv-x="1284" d="M0 0zM938 0l-41 270h-557l-156 -270h-301l871 1442h188l260 -1442h-264zM780 1042l-329 -573h417zM1205 -498q-21 -12 -51 -22q-26 -8 -63.5 -14.5t-86.5 -6.5t-89 11.5t-67 35.5t-39.5 61.5t-7.5 88.5q8 63 36.5 118.5t64.5 100.5t72 77t59 48h169q-44 -41 -81 -85 q-16 -19 -31.5 -40t-29 -43.5t-24 -46t-14.5 -45.5q-7 -35 0 -57.5t21.5 -35.5t33 -18.5t35.5 -5.5q24 0 46 4.5t39 10.5q20 7 38 16z" />
<glyph unicode="&#x105;" d="M39 0zM989 184q-8 -42 -16.5 -84t-18.5 -84q-2 -2 -13.5 -6.5t-29.5 -9t-42 -7.5t-52 -3q-92 0 -139.5 38.5t-56.5 100.5q-27 -32 -58 -61t-68 -50.5t-80.5 -34t-95.5 -12.5q-60 0 -111.5 18.5t-89 53t-58.5 83.5t-21 110q0 90 38 165t104.5 129t158 84.5t199.5 30.5 q51 0 92 -8t67 -14q7 27 14 59t7 53v13v14q0 131 -174 131q-58 0 -109.5 -8t-92.5 -18.5t-68 -21t-35 -14.5q11 53 21.5 106t23.5 107q7 3 35 11.5t71.5 17t100.5 15t122 6.5q76 0 142 -19.5t114.5 -57.5t76.5 -94.5t28 -129.5q0 -22 -2.5 -45t-7.5 -48l-88 -411 q-7 -27 -7 -49q0 -31 16 -48.5t56 -17.5q18 0 33 5q8 2 14 5zM666 463q-19 6 -50 14t-71 8q-51 0 -96.5 -15.5t-79 -42.5t-53 -65t-19.5 -83q0 -48 30.5 -81.5t90.5 -33.5q32 0 62.5 10t57.5 27.5t50 40t41 47.5zM957 -482q-21 -12 -51 -22q-26 -8 -63.5 -14.5t-86.5 -6.5 t-89 11.5t-67 35.5t-39.5 61.5t-7.5 88.5q8 63 36.5 118.5t64.5 100.5t72 77t59 48h169q-44 -41 -81 -85q-16 -19 -31.5 -40t-29 -43.5t-24 -46t-14.5 -45.5q-7 -35 0 -57.5t21.5 -35.5t33 -18.5t35.5 -5.5q24 0 46 4.5t39 10.5q20 7 38 16z" />
<glyph unicode="&#x106;" horiz-adv-x="1268" d="M125 0zM1073 63q-33 -19 -76.5 -36t-94 -29.5t-107.5 -19.5t-117 -7q-126 0 -228 44t-174.5 121t-111.5 182t-39 227q0 115 28 227.5t80.5 214.5t128.5 189t172.5 150.5t211.5 99.5t247 36q58 0 110.5 -8.5t98.5 -22t83.5 -30.5t64.5 -35l-56 -238q-25 19 -58.5 37.5 t-75 33t-90 23.5t-103.5 9q-114 0 -215.5 -51.5t-178.5 -141t-122 -210.5t-45 -259q0 -87 21 -155t63 -115.5t104.5 -72.5t146.5 -25q58 0 112.5 11t103.5 28.5t91.5 39.5t75.5 44zM958 1624h-227l286 301h343z" />
<glyph unicode="&#x107;" horiz-adv-x="1026" d="M90 0zM809 29q-51 -23 -122.5 -40.5t-149.5 -17.5q-100 0 -182.5 30.5t-141 87t-91 137.5t-32.5 182q0 91 20.5 177t60 162.5t96.5 140t130 109.5t160.5 71.5t187.5 25.5q88 0 159.5 -19t117.5 -45l-43 -205q-18 10 -42 21t-54 20t-65.5 15t-74.5 6q-86 0 -158.5 -35.5 t-125 -97t-82 -144.5t-29.5 -178q0 -124 67 -188t189 -64q76 0 141 22.5t111 47.5zM733 1255h-227l286 301h343z" />
<glyph unicode="&#x10c;" horiz-adv-x="1268" d="M125 0zM1073 63q-33 -19 -76.5 -36t-94 -29.5t-107.5 -19.5t-117 -7q-126 0 -228 44t-174.5 121t-111.5 182t-39 227q0 115 28 227.5t80.5 214.5t128.5 189t172.5 150.5t211.5 99.5t247 36q58 0 110.5 -8.5t98.5 -22t83.5 -30.5t64.5 -35l-56 -238q-25 19 -58.5 37.5 t-75 33t-90 23.5t-103.5 9q-114 0 -215.5 -51.5t-178.5 -141t-122 -210.5t-45 -259q0 -87 21 -155t63 -115.5t104.5 -72.5t146.5 -25q58 0 112.5 11t103.5 28.5t91.5 39.5t75.5 44zM807 1624l-168 312h225l101 -176l176 176h225l-301 -312h-258z" />
<glyph unicode="&#x10d;" horiz-adv-x="1026" d="M90 0zM809 29q-51 -23 -122.5 -40.5t-149.5 -17.5q-100 0 -182.5 30.5t-141 87t-91 137.5t-32.5 182q0 91 20.5 177t60 162.5t96.5 140t130 109.5t160.5 71.5t187.5 25.5q88 0 159.5 -19t117.5 -45l-43 -205q-18 10 -42 21t-54 20t-65.5 15t-74.5 6q-86 0 -158.5 -35.5 t-125 -97t-82 -144.5t-29.5 -178q0 -124 67 -188t189 -64q76 0 141 22.5t111 47.5zM571 1255l-168 312h225l101 -176l176 176h225l-301 -312h-258z" />
<glyph unicode="&#x10e;" horiz-adv-x="1430" d="M86 0zM86 0l303 1434h340q172 0 298.5 -40.5t209 -113t122.5 -174t40 -223.5q0 -194 -68 -356.5t-194.5 -279.5t-306.5 -182t-404 -65h-340zM469 215q134 0 252 45.5t205.5 130.5t138.5 207.5t51 275.5q0 166 -106.5 255.5t-327.5 89.5h-74l-213 -1004h74zM747 1609 l-168 312h225l101 -176l176 176h225l-301 -312h-258z" />
<glyph unicode="&#x10f;" horiz-adv-x="1657" d="M90 0zM823 0q-1 10 -1 21q-1 10 -1 23v30v35q-29 -26 -66 -51t-80 -44.5t-91.5 -31t-100.5 -11.5q-94 0 -167 32.5t-123.5 91t-76.5 139.5t-26 178q0 89 21 174t62 161t100 139.5t134.5 109.5t167 72t197.5 26q35 0 68.5 -4t61.5 -10t49.5 -12.5t33.5 -10.5 q23 109 46.5 219t47.5 219h250l-260 -1225q-13 -59 -21.5 -108.5t-13.5 -85.5t-7 -56t-1 -20h-203zM944 860q-31 14 -78.5 25.5t-107.5 11.5q-86 0 -160.5 -37.5t-129.5 -102.5t-86.5 -153t-31.5 -188q0 -119 58.5 -180.5t160.5 -61.5q42 0 81 11t72 27.5t58.5 35.5t40.5 35 zM1401 877q37 27 70.5 57t60.5 61.5t47 62t29 58.5q-33 2 -59 14.5t-43.5 33.5t-24.5 49t-2 61q4 40 23.5 74.5t48.5 60t65.5 39.5t75.5 14q63 0 102 -38.5t39 -110.5q0 -74 -31 -147t-83 -140.5t-118.5 -127t-138.5 -107.5z" />
<glyph unicode="&#x110;" horiz-adv-x="1432" d="M88 0l119 561h-170l37 174h170l147 699h338q190 0 323 -45.5t213.5 -128.5t110.5 -198.5t13 -256.5q-17 -180 -93 -328.5t-201.5 -254.5t-295 -164t-373.5 -58h-338zM471 215q137 0 248.5 39t194 112t132.5 178t64 238q13 105 -5.5 186t-71 137t-139.5 85t-210 29h-76 l-102 -484h244l-37 -174h-244l-74 -346h76z" />
<glyph unicode="&#x111;" horiz-adv-x="1298" d="M838 0q-1 18 -2 37q-2 35 0 80q-30 -26 -70 -52t-88 -47t-102.5 -34t-112.5 -13q-96 0 -169.5 36.5t-121 102t-67 155.5t-7.5 198q9 80 34.5 158t65 148t93 129.5t117.5 103t138 68t156 24.5q52 0 95 -10t78.5 -26t62.5 -36t47 -41l41 197h-297l37 170h297l31 147h245 l-30 -147h141l-37 -170h-141l-193 -908q-12 -60 -20.5 -109t-13.5 -85q-6 -42 -9 -76h-198zM944 793q-11 13 -29 30t-44.5 32.5t-61.5 26.5t-80 11q-76 0 -140.5 -31.5t-113.5 -87t-80.5 -130t-40.5 -159.5q-9 -73 2.5 -129.5t40 -95.5t73.5 -59.5t103 -20.5q42 0 81.5 10.5 t73.5 25.5t61.5 32t46.5 31z" />
<glyph unicode="&#x112;" horiz-adv-x="1139" d="M113 0zM113 0l303 1434h821l-45 -215h-557l-76 -359h476l-45 -215h-476l-92 -430h557l-45 -215h-821zM545 1682l39 186h591l-39 -186h-591z" />
<glyph unicode="&#x113;" horiz-adv-x="1163" d="M90 0zM920 66q-70 -42 -166.5 -68.5t-202.5 -26.5q-109 0 -194.5 31.5t-145 89.5t-90.5 141t-31 185q0 139 47.5 262t131 215t197 145.5t245.5 53.5q86 0 157.5 -25.5t123 -73t80 -114t28.5 -148.5q0 -39 -5 -78t-12.5 -73t-15.5 -61t-14 -42h-697q-2 -5 -4 -23t-2 -38 q0 -117 61 -182.5t199 -65.5q43 0 89.5 8.5t92.5 23.5t90 34.5t83 42.5zM844 651q3 10 5.5 32t2.5 48q0 82 -43 126t-121 44q-51 0 -96.5 -19t-84 -52.5t-68.5 -79.5t-48 -99h453zM449 1317l39 186h591l-39 -186h-591z" />
<glyph unicode="&#x116;" horiz-adv-x="1139" d="M113 0zM113 0l303 1434h821l-45 -215h-557l-76 -359h476l-45 -215h-476l-92 -430h557l-45 -215h-821zM829 1618q-32 0 -57.5 10.5t-43 30t-25 45.5t-3.5 58q4 37 21.5 69t44.5 56t61 37.5t72 13.5q31 0 57 -10t43.5 -29t25 -45t3.5 -57q-4 -38 -22 -70.5t-45.5 -56.5 t-61.5 -38t-70 -14z" />
<glyph unicode="&#x117;" horiz-adv-x="1163" d="M90 0zM920 66q-70 -42 -166.5 -68.5t-202.5 -26.5q-109 0 -194.5 31.5t-145 89.5t-90.5 141t-31 185q0 139 47.5 262t131 215t197 145.5t245.5 53.5q86 0 157.5 -25.5t123 -73t80 -114t28.5 -148.5q0 -39 -5 -78t-12.5 -73t-15.5 -61t-14 -42h-697q-2 -5 -4 -23t-2 -38 q0 -117 61 -182.5t199 -65.5q43 0 89.5 8.5t92.5 23.5t90 34.5t83 42.5zM844 651q3 10 5.5 32t2.5 48q0 82 -43 126t-121 44q-51 0 -96.5 -19t-84 -52.5t-68.5 -79.5t-48 -99h453zM739 1253q-32 0 -57.5 10.5t-43 30t-25 45.5t-3.5 58q4 37 21.5 69t44.5 56t61 37.5t72 13.5 q31 0 57 -10t43.5 -29t25 -45t3.5 -57q-4 -38 -22 -70.5t-45.5 -56.5t-61.5 -38t-70 -14z" />
<glyph unicode="&#x118;" horiz-adv-x="1139" d="M113 0zM113 0l303 1434h821l-45 -215h-557l-76 -359h476l-45 -215h-476l-92 -430h557l-45 -215h-821zM910 -498q-21 -12 -51 -22q-26 -8 -63.5 -14.5t-86.5 -6.5t-89 11.5t-67 35.5t-39.5 61.5t-7.5 88.5q8 63 36.5 118.5t64.5 100.5t72 77t59 48h169q-44 -41 -81 -85 q-16 -19 -31.5 -40t-29 -43.5t-24 -46t-14.5 -45.5q-7 -35 0 -57.5t21.5 -35.5t33 -18.5t35.5 -5.5q24 0 46 4.5t39 10.5q20 7 38 16z" />
<glyph unicode="&#x119;" horiz-adv-x="1163" d="M90 0zM920 66q-70 -42 -166.5 -68.5t-202.5 -26.5q-109 0 -194.5 31.5t-145 89.5t-90.5 141t-31 185q0 139 47.5 262t131 215t197 145.5t245.5 53.5q86 0 157.5 -25.5t123 -73t80 -114t28.5 -148.5q0 -39 -5 -78t-12.5 -73t-15.5 -61t-14 -42h-697q-2 -5 -4 -23t-2 -38 q0 -117 61 -182.5t199 -65.5q43 0 89.5 8.5t92.5 23.5t90 34.5t83 42.5zM844 651q3 10 5.5 32t2.5 48q0 82 -43 126t-121 44q-51 0 -96.5 -19t-84 -52.5t-68.5 -79.5t-48 -99h453zM734 -498q-21 -12 -51 -22q-26 -8 -63.5 -14.5t-86.5 -6.5t-89 11.5t-67 35.5t-39.5 61.5 t-7.5 88.5q8 63 36.5 118.5t64.5 100.5t72 77t59 48h169q-44 -41 -81 -85q-16 -19 -31.5 -40t-29 -43.5t-24 -46t-14.5 -45.5q-7 -35 0 -57.5t21.5 -35.5t33 -18.5t35.5 -5.5q24 0 46 4.5t39 10.5q20 7 38 16z" />
<glyph unicode="&#x11a;" horiz-adv-x="1139" d="M113 0zM113 0l303 1434h821l-45 -215h-557l-76 -359h476l-45 -215h-476l-92 -430h557l-45 -215h-821zM686 1609l-168 312h225l101 -176l176 176h225l-301 -312h-258z" />
<glyph unicode="&#x11b;" horiz-adv-x="1163" d="M90 0zM920 66q-70 -42 -166.5 -68.5t-202.5 -26.5q-109 0 -194.5 31.5t-145 89.5t-90.5 141t-31 185q0 139 47.5 262t131 215t197 145.5t245.5 53.5q86 0 157.5 -25.5t123 -73t80 -114t28.5 -148.5q0 -39 -5 -78t-12.5 -73t-15.5 -61t-14 -42h-697q-2 -5 -4 -23t-2 -38 q0 -117 61 -182.5t199 -65.5q43 0 89.5 8.5t92.5 23.5t90 34.5t83 42.5zM844 651q3 10 5.5 32t2.5 48q0 82 -43 126t-121 44q-51 0 -96.5 -19t-84 -52.5t-68.5 -79.5t-48 -99h453zM588 1255l-168 312h225l101 -176l176 176h225l-301 -312h-258z" />
<glyph unicode="&#x11e;" horiz-adv-x="1405" d="M125 0zM1004 520h-199l43 201h463l-140 -655q-74 -38 -185.5 -66.5t-254.5 -28.5q-142 0 -254.5 42t-190.5 117.5t-119.5 180.5t-41.5 232q0 119 28.5 233t82.5 216t132 188.5t177 149t217 97.5t252 35q67 0 125.5 -8.5t109 -22t91 -30t71.5 -33.5l-51 -229 q-27 15 -65.5 31.5t-86.5 30.5t-104 23t-117 9q-81 0 -156 -23.5t-139.5 -66.5t-117 -103t-90 -133t-58 -157t-20.5 -175q0 -179 89.5 -277.5t274.5 -98.5q45 0 88.5 7t81.5 19zM1390 1997q-20 -76 -56 -142.5t-88.5 -115.5t-121.5 -77t-154 -28q-72 0 -123.5 21t-84.5 58 t-48.5 88t-15.5 112q0 20 1.5 41t6.5 43h180q0 -45 4.5 -80t17 -60t36.5 -38t63 -13q40 0 70.5 13t54 37.5t42 60t34.5 80.5h182z" />
<glyph unicode="&#x11f;" horiz-adv-x="1276" d="M0 0zM774 88q-25 -16 -56 -31.5t-67 -27.5t-75.5 -19.5t-81.5 -7.5q-96 0 -171 32t-127 89.5t-79 137.5t-27 177q0 87 22 170t63.5 156t101.5 133.5t136.5 104t168 68t196.5 24.5q72 0 138.5 -11.5t123.5 -29t101 -37t71 -35.5l-204 -971q-28 -131 -85.5 -229t-141 -163 t-190 -97.5t-231.5 -32.5q-74 0 -136 13t-109.5 32t-80.5 40t-50 36l47 219q17 -16 49 -40t77 -46t102.5 -37.5t125.5 -15.5q70 0 131.5 20.5t109.5 60t81.5 97.5t48.5 133zM938 848q-13 7 -33 14t-44.5 12.5t-52 9t-56.5 3.5q-93 0 -167.5 -37t-126.5 -99t-80 -142.5 t-28 -166.5q0 -59 16 -104.5t45 -77t70 -47.5t92 -16q40 0 77 9.5t69 23.5t57 30t41 29zM1212 1626q-20 -76 -56 -142.5t-88.5 -115.5t-121.5 -77t-154 -28q-72 0 -123.5 21t-84.5 58t-48.5 88t-15.5 112q0 20 1.5 41t6.5 43h180q0 -45 4.5 -80t17 -60t36.5 -38t63 -13 q40 0 70.5 13t54 37.5t42 60t34.5 80.5h182z" />
<glyph unicode="&#x122;" horiz-adv-x="1405" d="M125 0zM1004 520h-199l43 201h463l-140 -655q-74 -38 -185.5 -66.5t-254.5 -28.5q-142 0 -254.5 42t-190.5 117.5t-119.5 180.5t-41.5 232q0 119 28.5 233t82.5 216t132 188.5t177 149t217 97.5t252 35q67 0 125.5 -8.5t109 -22t91 -30t71.5 -33.5l-51 -229 q-27 15 -65.5 31.5t-86.5 30.5t-104 23t-117 9q-81 0 -156 -23.5t-139.5 -66.5t-117 -103t-90 -133t-58 -157t-20.5 -175q0 -179 89.5 -277.5t274.5 -98.5q45 0 88.5 7t81.5 19zM424 -782q37 27 70.5 57.5t60.5 62t46.5 62t27.5 58.5q-31 1 -56 13t-42 32t-25 46.5t-4 58.5 q3 40 20.5 75.5t45.5 62.5t64.5 42.5t78.5 15.5q34 0 63.5 -12t49.5 -35t29 -56.5t3 -76.5q-5 -72 -37.5 -140.5t-83.5 -131.5t-115 -119t-132 -101z" />
<glyph unicode="&#x123;" horiz-adv-x="1276" d="M0 0zM774 88q-25 -16 -56 -31.5t-67 -27.5t-75.5 -19.5t-81.5 -7.5q-96 0 -171 32t-127 89.5t-79 137.5t-27 177q0 87 22 170t63.5 156t101.5 133.5t136.5 104t168 68t196.5 24.5q72 0 138.5 -11.5t123.5 -29t101 -37t71 -35.5l-204 -971q-28 -131 -85.5 -229t-141 -163 t-190 -97.5t-231.5 -32.5q-74 0 -136 13t-109.5 32t-80.5 40t-50 36l47 219q17 -16 49 -40t77 -46t102.5 -37.5t125.5 -15.5q70 0 131.5 20.5t109.5 60t81.5 97.5t48.5 133zM938 848q-13 7 -33 14t-44.5 12.5t-52 9t-56.5 3.5q-93 0 -167.5 -37t-126.5 -99t-80 -142.5 t-28 -166.5q0 -59 16 -104.5t45 -77t70 -47.5t92 -16q40 0 77 9.5t69 23.5t57 30t41 29zM1083 1855q-38 -27 -71.5 -57t-60.5 -61t-46.5 -61.5t-27.5 -57.5q32 -3 57.5 -16t42.5 -34t24 -49t3 -61q-5 -39 -24 -73t-47.5 -59t-65 -39.5t-76.5 -14.5q-63 0 -102.5 37.5 t-39.5 109.5q0 74 31 147t83 140.5t118.5 128t138.5 108.5z" />
<glyph unicode="&#x12a;" horiz-adv-x="643" d="M86 0zM86 0l303 1434h264l-303 -1434h-264zM268 1682l39 186h591l-39 -186h-591z" />
<glyph unicode="&#x12b;" horiz-adv-x="586" d="M63 0zM163 1317l39 186h591l-39 -186h-591zM63 0l226 1065h246l-226 -1065h-246z" />
<glyph unicode="&#x12e;" horiz-adv-x="643" d="M0 0zM86 0l303 1434h264l-303 -1434h-264zM351 -498q-21 -12 -51 -22q-26 -8 -63.5 -14.5t-86.5 -6.5t-89 11.5t-67 35.5t-39.5 61.5t-7.5 88.5q8 63 36.5 118.5t64.5 100.5t72 77t59 48h169q-44 -41 -81 -85q-16 -19 -31.5 -40t-29 -43.5t-24 -46t-14.5 -45.5 q-7 -35 0 -57.5t21.5 -35.5t33 -18.5t35.5 -5.5q24 0 46 4.5t39 10.5q20 7 38 16z" />
<glyph unicode="&#x12f;" horiz-adv-x="588" d="M0 0zM63 0l226 1065h250l-226 -1065h-250zM627 1395q0 -38 -15 -68.5t-40 -51.5t-57 -32.5t-66 -11.5q-54 0 -86.5 27.5t-32.5 76.5q0 38 15 68.5t40 51.5t56.5 32.5t64.5 11.5q56 0 88.5 -28t32.5 -76zM317 -498q-21 -12 -51 -22q-26 -8 -63.5 -14.5t-86.5 -6.5 t-89 11.5t-67 35.5t-39.5 61.5t-7.5 88.5q8 63 36.5 118.5t64.5 100.5t72 77t59 48h169q-44 -41 -81 -85q-16 -19 -31.5 -40t-29 -43.5t-24 -46t-14.5 -45.5q-7 -35 0 -57.5t21.5 -35.5t33 -18.5t35.5 -5.5q24 0 46 4.5t39 10.5q20 7 38 16z" />
<glyph unicode="&#x130;" horiz-adv-x="641" d="M58 0zM58 0l303 1434h264l-303 -1434h-264zM532 1628q-32 0 -57.5 10.5t-43 30t-25 45.5t-3.5 58q4 37 21.5 69t44.5 56t61 37.5t72 13.5q31 0 57 -10t43.5 -29t25 -45t3.5 -57q-4 -38 -22 -70.5t-45.5 -56.5t-61.5 -38t-70 -14z" />
<glyph unicode="&#x131;" horiz-adv-x="584" d="M63 0l226 1065h246l-226 -1065h-246z" />
<glyph unicode="&#x136;" horiz-adv-x="1319" d="M86 0zM928 0l-273 616l-213 -182l-92 -434h-264l303 1434h264l-143 -678l661 678h332l-653 -662l364 -772h-286zM321 -730q37 27 70.5 57.5t60.5 62t46.5 62t27.5 58.5q-31 1 -56 13t-42 32t-25 46.5t-4 58.5q3 40 20.5 75.5t45.5 62.5t64.5 42.5t78.5 15.5 q34 0 63.5 -12t49.5 -35t29 -56.5t3 -76.5q-5 -72 -37.5 -140.5t-83.5 -131.5t-115 -119t-132 -101z" />
<glyph unicode="&#x137;" horiz-adv-x="1098" d="M66 0zM733 0l-172 457l-180 -144l-66 -313h-249l317 1495h250l-193 -905l447 475h309l-461 -453l275 -612h-277zM223 -740q37 27 70.5 57.5t60.5 62t46.5 62t27.5 58.5q-31 1 -56 13t-42 32t-25 46.5t-4 58.5q3 40 20.5 75.5t45.5 62.5t64.5 42.5t78.5 15.5 q34 0 63.5 -12t49.5 -35t29 -56.5t3 -76.5q-5 -72 -37.5 -140.5t-83.5 -131.5t-115 -119t-132 -101z" />
<glyph unicode="&#x139;" horiz-adv-x="1018" d="M86 0zM86 0l303 1434h264l-258 -1219h557l-45 -215h-821zM694 1609h-227l286 301h343z" />
<glyph unicode="&#x13a;" horiz-adv-x="649" d="M114 0zM520 -10q-19 -6 -41 -10q-19 -4 -43.5 -6.5t-52.5 -2.5q-81 0 -138.5 24t-90 69t-40.5 108.5t9 142.5l252 1180h250l-248 -1167q-9 -39 -9.5 -67t9.5 -46t32 -26.5t60 -8.5q35 0 61 7t35 10zM618 1661h-227l286 301h343z" />
<glyph unicode="&#x13b;" horiz-adv-x="1018" d="M86 0zM86 0l303 1434h264l-258 -1219h557l-45 -215h-821zM209 -790q37 27 70.5 57.5t60.5 62t46.5 62t27.5 58.5q-31 1 -56 13t-42 32t-25 46.5t-4 58.5q3 40 20.5 75.5t45.5 62.5t64.5 42.5t78.5 15.5q34 0 63.5 -12t49.5 -35t29 -56.5t3 -76.5q-5 -72 -37.5 -140.5 t-83.5 -131.5t-115 -119t-132 -101z" />
<glyph unicode="&#x13c;" horiz-adv-x="649" d="M2 0zM520 -10q-19 -6 -41 -10q-19 -4 -43.5 -6.5t-52.5 -2.5q-81 0 -138.5 24t-90 69t-40.5 108.5t9 142.5l252 1180h250l-248 -1167q-9 -39 -9.5 -67t9.5 -46t32 -26.5t60 -8.5q35 0 61 7t35 10zM2 -784q37 27 70.5 57.5t60.5 62t46.5 62t27.5 58.5q-31 1 -56 13t-42 32 t-25 46.5t-4 58.5q3 40 20.5 75.5t45.5 62.5t64.5 42.5t78.5 15.5q34 0 63.5 -12t49.5 -35t29 -56.5t3 -76.5q-5 -72 -37.5 -140.5t-83.5 -131.5t-115 -119t-132 -101z" />
<glyph unicode="&#x13d;" horiz-adv-x="1051" d="M86 0zM86 0l303 1434h264l-258 -1219h557l-45 -215h-821zM715 877q37 27 70.5 57t60.5 61.5t47 62t29 58.5q-33 2 -59 14.5t-43.5 33.5t-24.5 49t-2 61q4 40 23.5 74.5t48.5 60t65.5 39.5t75.5 14q63 0 102 -38.5t39 -110.5q0 -74 -31 -147t-83 -140.5t-118.5 -127 t-138.5 -107.5z" />
<glyph unicode="&#x13e;" horiz-adv-x="995" d="M114 0zM520 -10q-19 -6 -41 -10q-19 -4 -43.5 -6.5t-52.5 -2.5q-81 0 -138.5 24t-90 69t-40.5 108.5t9 142.5l252 1180h250l-248 -1167q-9 -39 -9.5 -67t9.5 -46t32 -26.5t60 -8.5q35 0 61 7t35 10zM699 877q37 27 70.5 57t60.5 61.5t47 62t29 58.5q-33 2 -59 14.5 t-43.5 33.5t-24.5 49t-2 61q4 40 23.5 74.5t48.5 60t65.5 39.5t75.5 14q63 0 102 -38.5t39 -110.5q0 -74 -31 -147t-83 -140.5t-118.5 -127t-138.5 -107.5z" />
<glyph unicode="&#x141;" horiz-adv-x="1022" d="M90 0l107 510l-189 -82l43 201l189 82l153 723h264l-127 -600l299 131l-41 -201l-301 -131l-88 -418h557l-45 -215h-821z" />
<glyph unicode="&#x142;" horiz-adv-x="670" d="M532 -8q-22 -7 -48 -11q-22 -4 -50 -7t-59 -3q-86 0 -142 25.5t-85 72.5t-33 115t14 152l37 176l-176 -80l43 201l176 78l168 784h250l-142 -661l258 116l-41 -200l-260 -117l-65 -305q-17 -79 5 -113.5t91 -34.5q21 0 39.5 2.5t32.5 6.5q16 4 30 10z" />
<glyph unicode="&#x143;" horiz-adv-x="1595" d="M86 0zM1124 -8l-569 975l-205 -967h-264l305 1442h176l570 -977l204 969h265l-306 -1442h-176zM1069 1597h-227l286 301h343z" />
<glyph unicode="&#x144;" horiz-adv-x="1245" d="M66 0zM735 0l139 657q11 52 8.5 94.5t-20 72.5t-50.5 46.5t-83 16.5q-39 0 -77 -14t-71.5 -33.5t-60.5 -41.5t-43 -38l-162 -760h-249l167 795q12 59 20.5 108.5t13.5 85.5q6 42 9 76h230v-40q-1 -19 -2 -45.5t-4 -59.5q22 23 56 53t78.5 57t99 45.5t116.5 18.5 q97 0 159 -34.5t95 -91t39 -128t-10 -146.5l-148 -694h-250zM795 1255h-227l286 301h343z" />
<glyph unicode="&#x145;" horiz-adv-x="1595" d="M86 0zM1124 -8l-569 975l-205 -967h-264l305 1442h176l570 -977l204 969h265l-306 -1442h-176zM424 -759q37 27 70.5 57.5t60.5 62t46.5 62t27.5 58.5q-31 1 -56 13t-42 32t-25 46.5t-4 58.5q3 40 20.5 75.5t45.5 62.5t64.5 42.5t78.5 15.5q34 0 63.5 -12t49.5 -35 t29 -56.5t3 -76.5q-5 -72 -37.5 -140.5t-83.5 -131.5t-115 -119t-132 -101z" />
<glyph unicode="&#x146;" horiz-adv-x="1245" d="M66 0zM735 0l139 657q11 52 8.5 94.5t-20 72.5t-50.5 46.5t-83 16.5q-39 0 -77 -14t-71.5 -33.5t-60.5 -41.5t-43 -38l-162 -760h-249l167 795q12 59 20.5 108.5t13.5 85.5q6 42 9 76h230v-40q-1 -19 -2 -45.5t-4 -59.5q22 23 56 53t78.5 57t99 45.5t116.5 18.5 q97 0 159 -34.5t95 -91t39 -128t-10 -146.5l-148 -694h-250zM227 -759q37 27 70.5 57.5t60.5 62t46.5 62t27.5 58.5q-31 1 -56 13t-42 32t-25 46.5t-4 58.5q3 40 20.5 75.5t45.5 62.5t64.5 42.5t78.5 15.5q34 0 63.5 -12t49.5 -35t29 -56.5t3 -76.5q-5 -72 -37.5 -140.5 t-83.5 -131.5t-115 -119t-132 -101z" />
<glyph unicode="&#x147;" horiz-adv-x="1595" d="M86 0zM1124 -8l-569 975l-205 -967h-264l305 1442h176l570 -977l204 969h265l-306 -1442h-176zM891 1609l-168 312h225l101 -176l176 176h225l-301 -312h-258z" />
<glyph unicode="&#x148;" horiz-adv-x="1245" d="M66 0zM735 0l139 657q11 52 8.5 94.5t-20 72.5t-50.5 46.5t-83 16.5q-39 0 -77 -14t-71.5 -33.5t-60.5 -41.5t-43 -38l-162 -760h-249l167 795q12 59 20.5 108.5t13.5 85.5q6 42 9 76h230v-40q-1 -19 -2 -45.5t-4 -59.5q22 23 56 53t78.5 57t99 45.5t116.5 18.5 q97 0 159 -34.5t95 -91t39 -128t-10 -146.5l-148 -694h-250zM643 1255l-168 312h225l101 -176l176 176h225l-301 -312h-258z" />
<glyph unicode="&#x14c;" horiz-adv-x="1618" d="M133 0zM764 199q80 0 150 25.5t129 70t105.5 105.5t79 132.5t49.5 150t17 159.5q0 84 -21 156t-64.5 124.5t-109.5 82.5t-155 30q-79 0 -149.5 -25.5t-129.5 -70.5t-106 -106t-79.5 -133t-50 -151t-17.5 -159q0 -84 21.5 -155.5t65 -124t110 -82t155.5 -29.5zM745 -29 q-137 0 -250 45t-193.5 126t-124.5 194t-44 248q0 111 26 219t75.5 206t121.5 180.5t164 143.5t203.5 95t239.5 34q137 0 250 -45t193.5 -126t124.5 -194t44 -249q0 -110 -26 -218t-75.5 -205.5t-121.5 -180.5t-164 -143.5t-203.5 -95t-239.5 -34.5zM740 1686l39 186h591 l-39 -186h-591z" />
<glyph unicode="&#x14d;" horiz-adv-x="1243" d="M90 0zM555 170q79 0 143.5 41t110.5 108t71 151t25 171q0 121 -55.5 186.5t-149.5 65.5q-79 0 -144 -41t-111 -107.5t-71.5 -150.5t-25.5 -170q0 -122 56.5 -188t150.5 -66zM535 -29q-103 0 -185.5 33.5t-140 93.5t-88.5 143t-31 183q0 86 21 169.5t60.5 158t95.5 137.5 t126.5 108.5t153 71t174.5 25.5q103 0 185 -33.5t139.5 -94t88.5 -143.5t31 -182q0 -87 -21 -170.5t-60.5 -158t-95.5 -137t-126 -108t-152.5 -71t-174.5 -25.5zM476 1317l39 186h591l-39 -186h-591z" />
<glyph unicode="&#x150;" horiz-adv-x="1618" d="M133 0zM764 199q80 0 150 25.5t129 70t105.5 105.5t79 132.5t49.5 150t17 159.5q0 84 -21 156t-64.5 124.5t-109.5 82.5t-155 30q-79 0 -149.5 -25.5t-129.5 -70.5t-106 -106t-79.5 -133t-50 -151t-17.5 -159q0 -84 21.5 -155.5t65 -124t110 -82t155.5 -29.5zM745 -29 q-137 0 -250 45t-193.5 126t-124.5 194t-44 248q0 111 26 219t75.5 206t121.5 180.5t164 143.5t203.5 95t239.5 34q137 0 250 -45t193.5 -126t124.5 -194t44 -249q0 -110 -26 -218t-75.5 -205.5t-121.5 -180.5t-164 -143.5t-203.5 -95t-239.5 -34.5zM801 1624h-224l287 301 h336zM1237 1624h-223l286 301h336z" />
<glyph unicode="&#x151;" horiz-adv-x="1243" d="M90 0zM555 170q79 0 143.5 41t110.5 108t71 151t25 171q0 121 -55.5 186.5t-149.5 65.5q-79 0 -144 -41t-111 -107.5t-71.5 -150.5t-25.5 -170q0 -122 56.5 -188t150.5 -66zM535 -29q-103 0 -185.5 33.5t-140 93.5t-88.5 143t-31 183q0 86 21 169.5t60.5 158t95.5 137.5 t126.5 108.5t153 71t174.5 25.5q103 0 185 -33.5t139.5 -94t88.5 -143.5t31 -182q0 -87 -21 -170.5t-60.5 -158t-95.5 -137t-126 -108t-152.5 -71t-174.5 -25.5zM555 1255h-224l287 301h336zM991 1255h-223l286 301h336z" />
<glyph unicode="&#x152;" horiz-adv-x="1915" d="M965 0q-51 -14 -106 -21.5t-114 -7.5q-137 0 -250 45t-193.5 126t-124.5 194t-44 248q0 111 26 219t75.5 206t121.5 180.5t164 143.5t203.5 95t239.5 34q54 0 105 -7t97 -21h824l-45 -215h-558l-75 -359h475l-47 -215h-475l-90 -430h557l-45 -215h-721zM1114 1196 q-35 19 -77.5 29t-92.5 10q-79 0 -149.5 -25.5t-129.5 -70.5t-106 -106t-79.5 -133t-50 -151t-17.5 -159q0 -84 21.5 -155.5t65 -124t110 -82t155.5 -29.5q77 0 145 24z" />
<glyph unicode="&#x153;" horiz-adv-x="1962" d="M1718 66q-69 -42 -165.5 -68.5t-202.5 -26.5q-137 0 -233.5 47.5t-153.5 135.5q-82 -85 -190 -134t-238 -49q-103 0 -185.5 33.5t-140 93.5t-88.5 143t-31 183q0 86 21 169.5t60.5 158t95.5 137.5t126.5 108.5t153 71t174.5 25.5q124 0 216.5 -49t147.5 -134 q82 85 190.5 134t233.5 49q86 0 157.5 -25.5t123 -73t80 -114t28.5 -148.5q0 -39 -5 -78t-12 -73t-15.5 -61t-14.5 -42h-630q-12 0 -24.5 -6t-23 -15.5t-17.5 -22.5t-7 -27q0 -113 63 -175.5t197 -62.5q43 0 89.5 8.5t92.5 23.5t90 34.5t82 42.5zM555 170q79 0 143.5 41 t110.5 108t71 151t25 171q0 121 -55.5 186.5t-149.5 65.5q-79 0 -144 -41t-111 -107.5t-71.5 -150.5t-25.5 -170q0 -122 56.5 -188t150.5 -66zM1642 651q4 10 6.5 32t2.5 48q0 82 -43.5 126t-120.5 44q-51 0 -96.5 -19t-84 -52.5t-68.5 -79.5t-48 -99h452z" />
<glyph unicode="&#x154;" horiz-adv-x="1298" d="M86 0zM905 0l-227 526h-217l-111 -526h-264l303 1434h428q106 0 187 -27t135.5 -75t82 -114.5t27.5 -146.5t-24.5 -153t-68 -135.5t-104 -112t-132.5 -82.5l274 -588h-289zM647 741q65 0 123.5 19.5t102.5 57.5t70 94t26 130q0 90 -58 133.5t-163 43.5h-140l-100 -478 h139zM850 1609h-227l286 301h343z" />
<glyph unicode="&#x155;" horiz-adv-x="811" d="M66 0zM66 0l167 795q12 59 20.5 108.5t13.5 85.5q6 42 9 76h230q0 -24 -1 -51q-1 -23 -2.5 -53t-6.5 -62h4q28 37 63 72t75.5 62.5t85.5 44t93 16.5q23 0 40 -3.5t30 -8.5q14 -5 26 -11l-49 -233q-15 6 -35 11q-17 4 -42.5 7.5t-57.5 3.5q-57 0 -103 -16.5t-80 -36.5 q-40 -24 -71 -53l-160 -754h-249zM643 1255h-227l286 301h343z" />
<glyph unicode="&#x156;" horiz-adv-x="1298" d="M86 0zM905 0l-227 526h-217l-111 -526h-264l303 1434h428q106 0 187 -27t135.5 -75t82 -114.5t27.5 -146.5t-24.5 -153t-68 -135.5t-104 -112t-132.5 -82.5l274 -588h-289zM647 741q65 0 123.5 19.5t102.5 57.5t70 94t26 130q0 90 -58 133.5t-163 43.5h-140l-100 -478 h139zM280 -759q37 27 70.5 57.5t60.5 62t46.5 62t27.5 58.5q-31 1 -56 13t-42 32t-25 46.5t-4 58.5q3 40 20.5 75.5t45.5 62.5t64.5 42.5t78.5 15.5q34 0 63.5 -12t49.5 -35t29 -56.5t3 -76.5q-5 -72 -37.5 -140.5t-83.5 -131.5t-115 -119t-132 -101z" />
<glyph unicode="&#x157;" horiz-adv-x="811" d="M28 0zM66 0l167 795q12 59 20.5 108.5t13.5 85.5q6 42 9 76h230q0 -24 -1 -51q-1 -23 -2.5 -53t-6.5 -62h4q28 37 63 72t75.5 62.5t85.5 44t93 16.5q23 0 40 -3.5t30 -8.5q14 -5 26 -11l-49 -233q-15 6 -35 11q-17 4 -42.5 7.5t-57.5 3.5q-57 0 -103 -16.5t-80 -36.5 q-40 -24 -71 -53l-160 -754h-249zM28 -769q37 27 70.5 57.5t60.5 62t46.5 62t27.5 58.5q-31 1 -56 13t-42 32t-25 46.5t-4 58.5q3 40 20.5 75.5t45.5 62.5t64.5 42.5t78.5 15.5q34 0 63.5 -12t49.5 -35t29 -56.5t3 -76.5q-5 -72 -37.5 -140.5t-83.5 -131.5t-115 -119 t-132 -101z" />
<glyph unicode="&#x158;" horiz-adv-x="1298" d="M86 0zM905 0l-227 526h-217l-111 -526h-264l303 1434h428q106 0 187 -27t135.5 -75t82 -114.5t27.5 -146.5t-24.5 -153t-68 -135.5t-104 -112t-132.5 -82.5l274 -588h-289zM647 741q65 0 123.5 19.5t102.5 57.5t70 94t26 130q0 90 -58 133.5t-163 43.5h-140l-100 -478 h139zM688 1609l-168 312h225l101 -176l176 176h225l-301 -312h-258z" />
<glyph unicode="&#x159;" horiz-adv-x="811" d="M66 0zM66 0l167 795q12 59 20.5 108.5t13.5 85.5q6 42 9 76h230q0 -24 -1 -51q-1 -23 -2.5 -53t-6.5 -62h4q28 37 63 72t75.5 62.5t85.5 44t93 16.5q23 0 40 -3.5t30 -8.5q14 -5 26 -11l-49 -233q-15 6 -35 11q-17 4 -42.5 7.5t-57.5 3.5q-57 0 -103 -16.5t-80 -36.5 q-40 -24 -71 -53l-160 -754h-249zM454 1255l-168 312h225l101 -176l176 176h225l-301 -312h-258z" />
<glyph unicode="&#x15a;" horiz-adv-x="1069" d="M6 0zM57 301q30 -18 67 -36.5t80 -33t91 -23.5t100 -9q48 0 95 12.5t83.5 37.5t59 63.5t22.5 90.5q0 59 -31.5 104t-79 85.5t-102.5 81.5t-102.5 91.5t-79 115t-31.5 153.5q0 101 38 180.5t105 134.5t159 84t200 29q57 0 110 -7.5t98.5 -19t81.5 -26t60 -29.5l-49 -235 q-23 15 -55 31.5t-71 30.5t-84.5 23t-96.5 9q-48 0 -88 -13t-69 -36.5t-45.5 -56t-16.5 -72.5q0 -42 18 -77t48 -66.5t68 -61.5t78 -62.5t78 -69t68 -81.5t48 -99.5t18 -123.5q0 -105 -41.5 -188.5t-114 -141.5t-170.5 -88.5t-211 -30.5q-69 0 -130 10t-111 24.5t-87.5 31.5 t-58.5 31zM788 1624h-227l286 301h343z" />
<glyph unicode="&#x15b;" horiz-adv-x="918" d="M16 0zM61 262q22 -17 54 -33.5t69 -30t77.5 -22t80.5 -8.5q36 0 70 8t61 24t43 40.5t16 58.5q0 41 -26.5 72t-66.5 59.5t-87 58t-87 68t-66.5 89t-26.5 120.5q0 77 32 138t87.5 103t129.5 64.5t157 22.5q54 0 101.5 -7t86.5 -17.5t69 -23t48 -24.5l-45 -207 q-20 15 -47.5 29.5t-59.5 26t-66.5 19t-68.5 7.5q-82 0 -124 -33.5t-42 -83.5q0 -38 26.5 -68t66.5 -58.5t86 -59.5t86 -70t66.5 -89.5t26.5 -119.5q0 -81 -34 -144.5t-91.5 -108t-134 -68t-161.5 -23.5q-58 0 -112.5 8t-101 20.5t-82.5 27.5t-55 30zM653 1255h-227l286 301 h343z" />
<glyph unicode="&#x15e;" horiz-adv-x="1069" d="M6 0zM57 301q30 -18 67 -36.5t80 -33t91 -23.5t100 -9q48 0 95 12.5t83.5 37.5t59 63.5t22.5 90.5q0 59 -31.5 104t-79 85.5t-102.5 81.5t-102.5 91.5t-79 115t-31.5 153.5q0 101 38 180.5t105 134.5t159 84t200 29q57 0 110 -7.5t98.5 -19t81.5 -26t60 -29.5l-49 -235 q-23 15 -55 31.5t-71 30.5t-84.5 23t-96.5 9q-48 0 -88 -13t-69 -36.5t-45.5 -56t-16.5 -72.5q0 -42 18 -77t48 -66.5t68 -61.5t78 -62.5t78 -69t68 -81.5t48 -99.5t18 -123.5q0 -105 -41.5 -188.5t-114 -141.5t-170.5 -88.5t-211 -30.5q-69 0 -130 10t-111 24.5t-87.5 31.5 t-58.5 31zM133 -367q18 -10 38 -17q17 -7 40 -12t49 -5q47 0 77.5 22.5t39.5 61.5q9 48 -36 77t-138 29l164 211h180l-106 -127q35 -9 63.5 -25t47 -40t25 -55.5t-0.5 -69.5q-12 -53 -44.5 -93t-78 -66.5t-99 -40t-106.5 -13.5q-30 0 -56 3.5t-46 8.5q-23 5 -41 12z" />
<glyph unicode="&#x15f;" horiz-adv-x="918" d="M16 0zM61 262q22 -17 54 -33.5t69 -30t77.5 -22t80.5 -8.5q36 0 70 8t61 24t43 40.5t16 58.5q0 41 -26.5 72t-66.5 59.5t-87 58t-87 68t-66.5 89t-26.5 120.5q0 77 32 138t87.5 103t129.5 64.5t157 22.5q54 0 101.5 -7t86.5 -17.5t69 -23t48 -24.5l-45 -207 q-20 15 -47.5 29.5t-59.5 26t-66.5 19t-68.5 7.5q-82 0 -124 -33.5t-42 -83.5q0 -38 26.5 -68t66.5 -58.5t86 -59.5t86 -70t66.5 -89.5t26.5 -119.5q0 -81 -34 -144.5t-91.5 -108t-134 -68t-161.5 -23.5q-58 0 -112.5 8t-101 20.5t-82.5 27.5t-55 30zM86 -367q18 -10 38 -17 q17 -7 40 -12t49 -5q47 0 77.5 22.5t39.5 61.5q9 48 -36 77t-138 29l164 211h180l-106 -127q35 -9 63.5 -25t47 -40t25 -55.5t-0.5 -69.5q-12 -53 -44.5 -93t-78 -66.5t-99 -40t-106.5 -13.5q-30 0 -56 3.5t-46 8.5q-23 5 -41 12z" />
<glyph unicode="&#x160;" horiz-adv-x="1069" d="M6 0zM57 301q30 -18 67 -36.5t80 -33t91 -23.5t100 -9q48 0 95 12.5t83.5 37.5t59 63.5t22.5 90.5q0 59 -31.5 104t-79 85.5t-102.5 81.5t-102.5 91.5t-79 115t-31.5 153.5q0 101 38 180.5t105 134.5t159 84t200 29q57 0 110 -7.5t98.5 -19t81.5 -26t60 -29.5l-49 -235 q-23 15 -55 31.5t-71 30.5t-84.5 23t-96.5 9q-48 0 -88 -13t-69 -36.5t-45.5 -56t-16.5 -72.5q0 -42 18 -77t48 -66.5t68 -61.5t78 -62.5t78 -69t68 -81.5t48 -99.5t18 -123.5q0 -105 -41.5 -188.5t-114 -141.5t-170.5 -88.5t-211 -30.5q-69 0 -130 10t-111 24.5t-87.5 31.5 t-58.5 31zM606 1624l-168 312h225l101 -176l176 176h225l-301 -312h-258z" />
<glyph unicode="&#x161;" horiz-adv-x="918" d="M16 0zM61 262q22 -17 54 -33.5t69 -30t77.5 -22t80.5 -8.5q36 0 70 8t61 24t43 40.5t16 58.5q0 41 -26.5 72t-66.5 59.5t-87 58t-87 68t-66.5 89t-26.5 120.5q0 77 32 138t87.5 103t129.5 64.5t157 22.5q54 0 101.5 -7t86.5 -17.5t69 -23t48 -24.5l-45 -207 q-20 15 -47.5 29.5t-59.5 26t-66.5 19t-68.5 7.5q-82 0 -124 -33.5t-42 -83.5q0 -38 26.5 -68t66.5 -58.5t86 -59.5t86 -70t66.5 -89.5t26.5 -119.5q0 -81 -34 -144.5t-91.5 -108t-134 -68t-161.5 -23.5q-58 0 -112.5 8t-101 20.5t-82.5 27.5t-55 30zM474 1255l-168 312h225 l101 -176l176 176h225l-301 -312h-258z" />
<glyph unicode="&#x162;" horiz-adv-x="1112" d="M148 0zM326 0l258 1219h-410l45 215h1086l-45 -215h-412l-258 -1219h-264zM176 -367q18 -10 38 -17q17 -7 40 -12t49 -5q47 0 77.5 22.5t39.5 61.5q9 48 -36 77t-138 29l164 211h180l-106 -127q35 -9 63.5 -25t47 -40t25 -55.5t-0.5 -69.5q-12 -53 -44.5 -93t-78 -66.5 t-99 -40t-106.5 -13.5q-30 0 -56 3.5t-46 8.5q-23 5 -41 12z" />
<glyph unicode="&#x163;" horiz-adv-x="750" d="M125 0zM586 -6q-24 -7 -51 -12q-23 -5 -52.5 -8t-60.5 -3q-84 0 -140 27t-85.5 75t-34 115t13.5 148l113 530h-164l43 199h162l51 240l262 51l-63 -291h225l-41 -199h-225l-115 -534q-17 -82 8 -116t82 -34q22 0 43 2.5t37 6.5q18 4 35 10zM172 -372q18 -10 38 -17 q17 -7 40 -12t49 -5q47 0 77.5 22.5t39.5 61.5q9 48 -36 77t-138 29l164 211h180l-106 -127q35 -9 63.5 -25t47 -40t25 -55.5t-0.5 -69.5q-12 -53 -44.5 -93t-78 -66.5t-99 -40t-106.5 -13.5q-30 0 -56 3.5t-46 8.5q-23 5 -41 12z" />
<glyph unicode="&#x164;" horiz-adv-x="1112" d="M174 0zM326 0l258 1219h-410l45 215h1086l-45 -215h-412l-258 -1219h-264zM649 1609l-168 312h225l101 -176l176 176h225l-301 -312h-258z" />
<glyph unicode="&#x165;" horiz-adv-x="817" d="M125 0zM586 -6q-24 -7 -51 -12q-23 -5 -52.5 -8t-60.5 -3q-84 0 -140 27t-85.5 75t-34 115t13.5 148l113 530h-164l43 199h162l51 240l262 51l-63 -291h225l-41 -199h-225l-115 -534q-17 -82 8 -116t82 -34q22 0 43 2.5t37 6.5q18 4 35 10zM791 1326q37 27 70.5 57 t60.5 61.5t47 62t29 58.5q-33 2 -59 14.5t-43.5 33.5t-24.5 49t-2 61q4 40 23.5 74.5t48.5 60t65.5 39.5t75.5 14q63 0 102 -38.5t39 -110.5q0 -74 -31 -147t-83 -140.5t-118.5 -127t-138.5 -107.5z" />
<glyph unicode="&#x16a;" horiz-adv-x="1479" d="M173 0zM1237 1434h264l-190 -893q-31 -149 -93 -256.5t-149 -177t-197 -103t-237 -33.5q-129 0 -226 42t-156.5 117t-79 180t6.5 231l191 893h264l-191 -895q-34 -167 21 -255.5t203 -88.5q144 0 243.5 87t135.5 257zM670 1682l39 186h591l-39 -186h-591z" />
<glyph unicode="&#x16b;" horiz-adv-x="1247" d="M125 0zM762 0q-1 17 0 39q0 39 6 104q-22 -22 -56 -51.5t-78.5 -56.5t-99 -45.5t-116.5 -18.5q-97 0 -159 34.5t-95 91t-39 128t10 146.5l148 694h249l-139 -659q-11 -52 -8 -94.5t20.5 -72.5t50.5 -46.5t83 -16.5q39 0 77 14t71.5 34t60.5 42t43 39l161 760h250 l-168 -795q-13 -60 -21 -109t-13 -85q-6 -42 -9 -76h-229zM478 1317l39 186h591l-39 -186h-591z" />
<glyph unicode="&#x16e;" horiz-adv-x="1479" d="M173 0zM1237 1434h264l-190 -893q-31 -149 -93 -256.5t-149 -177t-197 -103t-237 -33.5q-129 0 -226 42t-156.5 117t-79 180t6.5 231l191 893h264l-191 -895q-34 -167 21 -255.5t203 -88.5q144 0 243.5 87t135.5 257zM1100 1852q6 48 -15 76t-63 28q-24 0 -46.5 -10 t-40.5 -28t-29.5 -44t-14.5 -57q-6 -50 15 -78t63 -28q24 0 46.5 10t40.5 28.5t29.5 44.5t14.5 58zM1262 1899q0 -68 -26 -128t-70.5 -105t-103 -71t-122.5 -26q-48 0 -86.5 14.5t-65.5 40.5t-42 63.5t-15 82.5q0 67 26 126.5t70 104.5t102.5 71t123.5 26q48 0 86.5 -14 t65.5 -40t42 -63t15 -82z" />
<glyph unicode="&#x16f;" horiz-adv-x="1247" d="M125 0zM762 0q-1 17 0 39q0 39 6 104q-22 -22 -56 -51.5t-78.5 -56.5t-99 -45.5t-116.5 -18.5q-97 0 -159 34.5t-95 91t-39 128t10 146.5l148 694h249l-139 -659q-11 -52 -8 -94.5t20.5 -72.5t50.5 -46.5t83 -16.5q39 0 77 14t71.5 34t60.5 42t43 39l161 760h250 l-168 -795q-13 -60 -21 -109t-13 -85q-6 -42 -9 -76h-229zM911 1487q6 48 -15 76t-63 28q-24 0 -46.5 -10t-40.5 -28t-29.5 -44t-14.5 -57q-6 -50 15 -78t63 -28q24 0 46.5 10t40.5 28.5t29.5 44.5t14.5 58zM1073 1534q0 -68 -26 -128t-70.5 -105t-103 -71t-122.5 -26 q-48 0 -86.5 14.5t-65.5 40.5t-42 63.5t-15 82.5q0 67 26 126.5t70 104.5t102.5 71t123.5 26q48 0 86.5 -14t65.5 -40t42 -63t15 -82z" />
<glyph unicode="&#x170;" horiz-adv-x="1479" d="M173 0zM1237 1434h264l-190 -893q-31 -149 -93 -256.5t-149 -177t-197 -103t-237 -33.5q-129 0 -226 42t-156.5 117t-79 180t6.5 231l191 893h264l-191 -895q-34 -167 21 -255.5t203 -88.5q144 0 243.5 87t135.5 257zM744 1609h-224l287 301h336zM1180 1609h-223l286 301 h336z" />
<glyph unicode="&#x171;" horiz-adv-x="1247" d="M125 0zM762 0q-1 17 0 39q0 39 6 104q-22 -22 -56 -51.5t-78.5 -56.5t-99 -45.5t-116.5 -18.5q-97 0 -159 34.5t-95 91t-39 128t10 146.5l148 694h249l-139 -659q-11 -52 -8 -94.5t20.5 -72.5t50.5 -46.5t83 -16.5q39 0 77 14t71.5 34t60.5 42t43 39l161 760h250 l-168 -795q-13 -60 -21 -109t-13 -85q-6 -42 -9 -76h-229zM570 1255h-224l287 301h336zM1006 1255h-223l286 301h336z" />
<glyph unicode="&#x172;" horiz-adv-x="1479" d="M173 0zM1237 1434h264l-190 -893q-31 -149 -93 -256.5t-149 -177t-197 -103t-237 -33.5q-129 0 -226 42t-156.5 117t-79 180t6.5 231l191 893h264l-191 -895q-34 -167 21 -255.5t203 -88.5q144 0 243.5 87t135.5 257zM824 -498q-21 -12 -51 -22q-26 -8 -63.5 -14.5 t-86.5 -6.5t-89 11.5t-67 35.5t-39.5 61.5t-7.5 88.5q8 63 36.5 118.5t64.5 100.5t72 77t59 48h169q-44 -41 -81 -85q-16 -19 -31.5 -40t-29 -43.5t-24 -46t-14.5 -45.5q-7 -35 0 -57.5t21.5 -35.5t33 -18.5t35.5 -5.5q24 0 46 4.5t39 10.5q20 7 38 16z" />
<glyph unicode="&#x173;" horiz-adv-x="1247" d="M125 0zM762 0q-1 17 0 39q0 39 6 104q-22 -22 -56 -51.5t-78.5 -56.5t-99 -45.5t-116.5 -18.5q-97 0 -159 34.5t-95 91t-39 128t10 146.5l148 694h249l-139 -659q-11 -52 -8 -94.5t20.5 -72.5t50.5 -46.5t83 -16.5q39 0 77 14t71.5 34t60.5 42t43 39l161 760h250 l-168 -795q-13 -60 -21 -109t-13 -85q-6 -42 -9 -76h-229zM994 -498q-21 -12 -51 -22q-26 -8 -63.5 -14.5t-86.5 -6.5t-89 11.5t-67 35.5t-39.5 61.5t-7.5 88.5q8 63 36.5 118.5t64.5 100.5t72 77t59 48h169q-44 -41 -81 -85q-16 -19 -31.5 -40t-29 -43.5t-24 -46 t-14.5 -45.5q-7 -35 0 -57.5t21.5 -35.5t33 -18.5t35.5 -5.5q24 0 46 4.5t39 10.5q20 7 38 16z" />
<glyph unicode="&#x178;" horiz-adv-x="1135" d="M186 0zM332 0l119 557l-265 877h277l160 -609l405 609h320l-633 -877l-119 -557h-264zM733 1751q-3 -31 -17.5 -57.5t-36 -46t-49 -31t-56.5 -11.5t-51.5 10.5t-36.5 28.5t-19 42.5t0 51.5q6 28 21 52.5t36.5 42.5t48.5 28t56 10q54 0 83 -34t21 -86zM1163 1751 q-4 -31 -18.5 -57.5t-36.5 -46t-49.5 -31t-56.5 -11.5t-51.5 10.5t-36.5 28.5t-18.5 42.5t1.5 51.5q5 28 20 52.5t37 42.5t49 28t56 10q53 0 82 -34t22 -86z" />
<glyph unicode="&#x179;" horiz-adv-x="1124" d="M0 0zM-29 0l31 143l823 1076h-575l45 215h924l-29 -144l-825 -1075h626l-45 -215h-975zM842 1609h-227l286 301h343z" />
<glyph unicode="&#x17a;" horiz-adv-x="934" d="M0 0zM-47 0l24 117l617 755h-434l41 193h774l-25 -117l-618 -755h477l-39 -193h-817zM682 1255h-227l286 301h343z" />
<glyph unicode="&#x17b;" horiz-adv-x="1124" d="M0 0zM-29 0l31 143l823 1076h-575l45 215h924l-29 -144l-825 -1075h626l-45 -215h-975zM798 1618q-32 0 -57.5 10.5t-43 30t-25 45.5t-3.5 58q4 37 21.5 69t44.5 56t61 37.5t72 13.5q31 0 57 -10t43.5 -29t25 -45t3.5 -57q-4 -38 -22 -70.5t-45.5 -56.5t-61.5 -38 t-70 -14z" />
<glyph unicode="&#x17c;" horiz-adv-x="934" d="M0 0zM-47 0l24 117l617 755h-434l41 193h774l-25 -117l-618 -755h477l-39 -193h-817zM639 1253q-32 0 -57.5 10.5t-43 30t-25 45.5t-3.5 58q4 37 21.5 69t44.5 56t61 37.5t72 13.5q31 0 57 -10t43.5 -29t25 -45t3.5 -57q-4 -38 -22 -70.5t-45.5 -56.5t-61.5 -38t-70 -14z " />
<glyph unicode="&#x17d;" horiz-adv-x="1124" d="M0 0zM-29 0l31 143l823 1076h-575l45 215h924l-29 -144l-825 -1075h626l-45 -215h-975zM641 1613l-168 312h225l101 -176l176 176h225l-301 -312h-258z" />
<glyph unicode="&#x17e;" horiz-adv-x="934" d="M0 0zM-47 0l24 117l617 755h-434l41 193h774l-25 -117l-618 -755h477l-39 -193h-817zM486 1255l-168 312h225l101 -176l176 176h225l-301 -312h-258z" />
<glyph unicode="&#x192;" horiz-adv-x="997" d="M434 743h-196l67 199h199l67 191q62 174 168.5 267t264.5 95q30 0 58.5 -3t51.5 -7t38.5 -9t21.5 -8l-72 -200q-17 7 -35 13q-17 5 -38 9t-46 4q-53 0 -91 -29t-58 -83l-86 -240h215l-68 -199h-215l-318 -890q-62 -177 -167 -271t-263 -94q-29 0 -56.5 3t-50 7t-38 9 t-20.5 8l71 200q16 -8 34 -13q16 -5 37.5 -9t45.5 -4q48 0 87.5 27.5t59.5 84.5z" />
<glyph unicode="&#x218;" horiz-adv-x="1069" d="M6 0zM57 301q30 -18 67 -36.5t80 -33t91 -23.5t100 -9q48 0 95 12.5t83.5 37.5t59 63.5t22.5 90.5q0 59 -31.5 104t-79 85.5t-102.5 81.5t-102.5 91.5t-79 115t-31.5 153.5q0 101 38 180.5t105 134.5t159 84t200 29q57 0 110 -7.5t98.5 -19t81.5 -26t60 -29.5l-49 -235 q-23 15 -55 31.5t-71 30.5t-84.5 23t-96.5 9q-48 0 -88 -13t-69 -36.5t-45.5 -56t-16.5 -72.5q0 -42 18 -77t48 -66.5t68 -61.5t78 -62.5t78 -69t68 -81.5t48 -99.5t18 -123.5q0 -105 -41.5 -188.5t-114 -141.5t-170.5 -88.5t-211 -30.5q-69 0 -130 10t-111 24.5t-87.5 31.5 t-58.5 31zM73 -798q37 27 70.5 57.5t60.5 62t46.5 62t27.5 58.5q-31 1 -56 13t-42 32t-25 46.5t-4 58.5q3 40 20.5 75.5t45.5 62.5t64.5 42.5t78.5 15.5q34 0 63.5 -12t49.5 -35t29 -56.5t3 -76.5q-5 -72 -37.5 -140.5t-83.5 -131.5t-115 -119t-132 -101z" />
<glyph unicode="&#x219;" horiz-adv-x="918" d="M16 0zM61 262q22 -17 54 -33.5t69 -30t77.5 -22t80.5 -8.5q36 0 70 8t61 24t43 40.5t16 58.5q0 41 -26.5 72t-66.5 59.5t-87 58t-87 68t-66.5 89t-26.5 120.5q0 77 32 138t87.5 103t129.5 64.5t157 22.5q54 0 101.5 -7t86.5 -17.5t69 -23t48 -24.5l-45 -207 q-20 15 -47.5 29.5t-59.5 26t-66.5 19t-68.5 7.5q-82 0 -124 -33.5t-42 -83.5q0 -38 26.5 -68t66.5 -58.5t86 -59.5t86 -70t66.5 -89.5t26.5 -119.5q0 -81 -34 -144.5t-91.5 -108t-134 -68t-161.5 -23.5q-58 0 -112.5 8t-101 20.5t-82.5 27.5t-55 30zM41 -784 q37 27 70.5 57.5t60.5 62t46.5 62t27.5 58.5q-31 1 -56 13t-42 32t-25 46.5t-4 58.5q3 40 20.5 75.5t45.5 62.5t64.5 42.5t78.5 15.5q34 0 63.5 -12t49.5 -35t29 -56.5t3 -76.5q-5 -72 -37.5 -140.5t-83.5 -131.5t-115 -119t-132 -101z" />
<glyph unicode="&#x21a;" horiz-adv-x="1112" d="M117 0zM326 0l258 1219h-410l45 215h1086l-45 -215h-412l-258 -1219h-264zM117 -784q37 27 70.5 57.5t60.5 62t46.5 62t27.5 58.5q-31 1 -56 13t-42 32t-25 46.5t-4 58.5q3 40 20.5 75.5t45.5 62.5t64.5 42.5t78.5 15.5q34 0 63.5 -12t49.5 -35t29 -56.5t3 -76.5 q-5 -72 -37.5 -140.5t-83.5 -131.5t-115 -119t-132 -101z" />
<glyph unicode="&#x21b;" horiz-adv-x="750" d="M45 0zM586 -6q-24 -7 -51 -12q-23 -5 -52.5 -8t-60.5 -3q-84 0 -140 27t-85.5 75t-34 115t13.5 148l113 530h-164l43 199h162l51 240l262 51l-63 -291h225l-41 -199h-225l-115 -534q-17 -82 8 -116t82 -34q22 0 43 2.5t37 6.5q18 4 35 10zM45 -784q37 27 70.5 57.5 t60.5 62t46.5 62t27.5 58.5q-31 1 -56 13t-42 32t-25 46.5t-4 58.5q3 40 20.5 75.5t45.5 62.5t64.5 42.5t78.5 15.5q34 0 63.5 -12t49.5 -35t29 -56.5t3 -76.5q-5 -72 -37.5 -140.5t-83.5 -131.5t-115 -119t-132 -101z" />
<glyph unicode="&#x2c6;" horiz-adv-x="940" d="M772 1255l-102 177l-174 -177h-226l299 312h258l170 -312h-225z" />
<glyph unicode="&#x2c7;" horiz-adv-x="961" d="M514 1255l-168 312h225l101 -176l176 176h225l-301 -312h-258z" />
<glyph unicode="&#x2d8;" horiz-adv-x="897" d="M1028 1606q-20 -76 -56 -142.5t-88.5 -115.5t-121.5 -77t-154 -28q-72 0 -123.5 21t-84.5 58t-48.5 88t-15.5 112q0 20 1.5 41t6.5 43h180q0 -45 4.5 -80t17 -60t36.5 -38t63 -13q40 0 70.5 13t54 37.5t42 60t34.5 80.5h182z" />
<glyph unicode="&#x2d9;" horiz-adv-x="547" d="M436 1253q-32 0 -57.5 10.5t-43 30t-25 45.5t-3.5 58q4 37 21.5 69t44.5 56t61 37.5t72 13.5q31 0 57 -10t43.5 -29t25 -45t3.5 -57q-4 -38 -22 -70.5t-45.5 -56.5t-61.5 -38t-70 -14z" />
<glyph unicode="&#x2da;" horiz-adv-x="739" d="M682 1487q6 48 -15 76t-63 28q-24 0 -46.5 -10t-40.5 -28t-29.5 -44t-14.5 -57q-6 -50 15 -78t63 -28q24 0 46.5 10t40.5 28.5t29.5 44.5t14.5 58zM844 1534q0 -68 -26 -128t-70.5 -105t-103 -71t-122.5 -26q-48 0 -86.5 14.5t-65.5 40.5t-42 63.5t-15 82.5 q0 67 26 126.5t70 104.5t102.5 71t123.5 26q48 0 86.5 -14t65.5 -40t42 -63t15 -82z" />
<glyph unicode="&#x2db;" horiz-adv-x="623" d="M322 -498q-21 -12 -51 -22q-26 -8 -63.5 -14.5t-86.5 -6.5t-89 11.5t-67 35.5t-39.5 61.5t-7.5 88.5q8 63 36.5 118.5t64.5 100.5t72 77t59 48h169q-44 -41 -81 -85q-16 -19 -31.5 -40t-29 -43.5t-24 -46t-14.5 -45.5q-7 -35 0 -57.5t21.5 -35.5t33 -18.5t35.5 -5.5 q24 0 46 4.5t39 10.5q20 7 38 16z" />
<glyph unicode="&#x2dc;" horiz-adv-x="1194" d="M1130 1606q-13 -61 -37.5 -119.5t-62 -104.5t-89 -74t-118.5 -28q-41 0 -70 11t-51 27t-39 35.5t-33.5 35.5t-35 27t-43.5 11q-24 0 -42.5 -11.5t-32.5 -31.5t-24 -46.5t-16 -55.5h-160q12 58 36 116.5t61.5 105t89 75.5t117.5 29q39 0 67.5 -11t50.5 -27.5t39.5 -35.5 t34.5 -35.5t35 -27.5t41 -11q26 0 46 13t35 34t25.5 47t16.5 52h159z" />
<glyph unicode="&#x2dd;" horiz-adv-x="1241" d="M500 1255h-224l287 301h336zM936 1255h-223l286 301h336z" />
<glyph unicode="&#x3c0;" horiz-adv-x="1520" d="M1264 8q-7 -2 -23 -6t-37.5 -7.5t-47 -6t-50.5 -2.5q-125 0 -184.5 53t-59.5 154q0 42 7 89.5t18 100.5l104 483h-301l-184 -866h-246l184 866h-211l43 199h1213l-43 -199h-209q-29 -133 -57 -264.5t-56 -265.5q-6 -32 -6 -53q0 -44 24 -64t75 -20q20 0 36.5 2t28.5 5 q14 3 25 7z" />
<glyph unicode="&#x2013;" horiz-adv-x="1266" d="M117 508l45 211h1040l-45 -211h-1040z" />
<glyph unicode="&#x2014;" horiz-adv-x="2243" d="M117 508l45 211h2017l-45 -211h-2017z" />
<glyph unicode="&#x2018;" horiz-adv-x="502" d="M571 1374q-38 -27 -71.5 -57t-60.5 -61t-46.5 -61.5t-27.5 -57.5q32 -3 57.5 -16t42.5 -34t24 -49t3 -61q-5 -39 -24 -73t-47.5 -59t-65 -39.5t-76.5 -14.5q-63 0 -102.5 37.5t-39.5 109.5q0 74 31 147t83 140.5t118.5 128t138.5 108.5z" />
<glyph unicode="&#x2019;" horiz-adv-x="545" d="M203 877q37 27 70.5 57t60.5 61.5t47 62t29 58.5q-33 2 -59 14.5t-43.5 33.5t-24.5 49t-2 61q4 40 23.5 74.5t48.5 60t65.5 39.5t75.5 14q63 0 102 -38.5t39 -110.5q0 -74 -31 -147t-83 -140.5t-118.5 -127t-138.5 -107.5z" />
<glyph unicode="&#x201a;" horiz-adv-x="512" d="M-72 -266q36 27 69.5 57t60.5 61.5t46.5 62.5t28.5 58q-59 5 -94 39.5t-35 91.5q0 46 17.5 85t47 67.5t68 44.5t80.5 16q65 0 104 -37.5t39 -111.5q0 -59 -25.5 -126.5t-73.5 -136t-117 -134.5t-156 -123z" />
<glyph unicode="&#x201c;" horiz-adv-x="973" d="M1042 1374q-38 -27 -71.5 -57t-60.5 -61t-46.5 -61.5t-27.5 -57.5q32 -3 57.5 -16t42.5 -34t24 -49t3 -61q-5 -39 -24 -73t-47.5 -59t-65 -39.5t-76.5 -14.5q-63 0 -102.5 37.5t-39.5 109.5q0 74 31 147t83 140.5t118.5 128t138.5 108.5zM614 1374q-37 -27 -70.5 -57 t-60.5 -61t-46.5 -61.5t-28.5 -57.5q33 -3 58.5 -16t42.5 -34t24.5 -49t3.5 -61q-5 -39 -24 -73t-48 -59t-65.5 -39.5t-75.5 -14.5q-63 0 -102.5 37.5t-39.5 109.5q0 74 31 147t83 140.5t118.5 128t138.5 108.5z" />
<glyph unicode="&#x201d;" horiz-adv-x="973" d="M203 877q37 27 70.5 57t60.5 61.5t47 62t29 58.5q-33 2 -59 14.5t-43.5 33.5t-24.5 49t-2 61q4 40 23.5 74.5t48.5 60t65.5 39.5t75.5 14q63 0 102 -38.5t39 -110.5q0 -74 -31 -147t-83 -140.5t-118.5 -127t-138.5 -107.5zM629 877q37 27 71 57t61.5 61.5t46.5 62 t28 58.5q-32 2 -58 14.5t-43 33.5t-24 49t-2 61q4 40 23.5 74.5t48 60t64.5 39.5t75 14q63 0 103 -38.5t40 -110.5q0 -74 -31.5 -147t-83.5 -140.5t-119 -127t-139 -107.5z" />
<glyph unicode="&#x201e;" horiz-adv-x="940" d="M-74 -266q37 27 70.5 57t61 61t47 61.5t28.5 57.5q-32 2 -57.5 14.5t-42.5 33.5t-24.5 49t-2.5 61q4 42 23.5 76.5t48.5 59t65 38.5t74 14q65 0 104 -37.5t39 -111.5t-31.5 -146.5t-83.5 -140t-119 -127.5t-138 -108zM354 -266q37 27 70.5 57t61 61t47 61.5t28.5 57.5 q-33 2 -59 14.5t-43 33.5t-24.5 49t-2.5 61q4 42 23.5 76.5t48.5 59t65.5 38.5t75.5 14q63 0 102 -37.5t39 -111.5t-31 -146.5t-83 -140t-119 -127.5t-139 -108z" />
<glyph unicode="&#x2020;" horiz-adv-x="1153" d="M279 -309l256 1134l-353 -12l43 205l346 -19l84 463h256l-112 -463l354 19l-43 -205l-348 12l-227 -1134h-256z" />
<glyph unicode="&#x2021;" horiz-adv-x="1233" d="M319 -309l113 463l-354 -19l45 205l346 -12l47 254l59 243l-352 -12l43 205l346 -19l84 463h254l-112 -463l354 19l-43 -205l-348 12l-43 -243l-64 -254l355 12l-45 -205l-347 19l-84 -463h-254z" />
<glyph unicode="&#x2022;" horiz-adv-x="825" d="M717 672q0 -55 -20 -102t-55.5 -81.5t-83 -54.5t-101.5 -20q-56 0 -103.5 20t-82 54.5t-54.5 81.5t-20 102q0 54 20 101.5t54.5 83t82 55.5t103.5 20q54 0 101.5 -20t83 -55.5t55.5 -83t20 -101.5z" />
<glyph unicode="&#x2026;" horiz-adv-x="1571" d="M137 -29q-35 0 -62.5 11.5t-46 32.5t-27 50t-3.5 64q4 39 23 73t48 59.5t65.5 40.5t76.5 15q34 0 61.5 -11.5t46 -31.5t26 -49t3.5 -63q-5 -41 -23.5 -76t-47 -60.5t-65 -40t-75.5 -14.5zM676 -29q-35 0 -63.5 11.5t-47 32.5t-27 50t-3.5 64q4 39 23 73t48 59.5 t65.5 40.5t76.5 15q35 0 63 -11.5t46.5 -31.5t26 -49t3.5 -63q-5 -41 -24 -76t-48 -60.5t-65 -40t-74 -14.5zM1212 -29q-35 0 -62.5 11.5t-46 32.5t-27 50t-3.5 64q4 39 23 73t48 59.5t65.5 40.5t76.5 15q34 0 62 -11.5t46 -31.5t26 -49t3 -63q-5 -41 -23.5 -76t-47 -60.5 t-65 -40t-75.5 -14.5z" />
<glyph unicode="&#x2030;" horiz-adv-x="2742" d="M496 618q-67 0 -121 21t-91.5 59t-58 92.5t-20.5 122.5q0 105 36.5 199.5t99.5 166t147.5 113.5t179.5 42q67 0 120.5 -21t91 -59.5t58 -93.5t20.5 -123q0 -104 -36.5 -198t-99.5 -165.5t-147 -113.5t-179 -42zM532 791q48 0 88.5 27t70 71.5t46.5 101.5t17 117 q0 72 -31 113t-90 41q-48 0 -89 -27.5t-71 -72.5t-46.5 -102.5t-16.5 -117.5q0 -71 32 -111t90 -40zM375 -29l1050 1491h215l-1050 -1491h-215zM1348 0q-67 0 -121 21t-91.5 59t-58 92.5t-20.5 122.5q0 104 36.5 198.5t99.5 166t147.5 113.5t179.5 42q67 0 121 -21t91.5 -60 t57.5 -94t20 -122q0 -105 -37 -199t-100 -165t-147 -112.5t-178 -41.5zM1384 172q48 0 88.5 27t70 71t46.5 101.5t17 117.5q0 72 -31 113t-90 41q-48 0 -89 -27t-71 -72t-46.5 -102.5t-16.5 -117.5q0 -72 32 -112t90 -40zM2175 0q-67 0 -121 21t-92.5 59t-59 92.5 t-20.5 122.5q0 104 37 198.5t100.5 166t148 113.5t179.5 42q67 0 120.5 -21t91.5 -60t58.5 -94t20.5 -122q0 -105 -37 -199t-100 -165t-147.5 -112.5t-178.5 -41.5zM2210 172q48 0 88.5 27t70.5 71t47 101.5t17 117.5q0 72 -32 113t-91 41q-48 0 -89 -27t-70 -72 t-45.5 -102.5t-16.5 -117.5q0 -72 31 -112t90 -40z" />
<glyph unicode="&#x2039;" horiz-adv-x="754" d="M70 430l47 219l563 410l-51 -242l-340 -297l215 -295l-43 -205z" />
<glyph unicode="&#x203a;" horiz-adv-x="754" d="M94 20l51 242l342 295l-217 297l45 205l392 -410l-48 -219z" />
<glyph unicode="&#x2044;" horiz-adv-x="942" d="M-78 -29l1000 1491h196l-999 -1491h-197z" />
<glyph unicode="&#x20ac;" horiz-adv-x="1491" d="M1290 78q-36 -19 -82.5 -38t-101 -34.5t-117 -25t-129.5 -9.5q-121 0 -221 37.5t-173 105t-116.5 161t-50.5 206.5h-188l34 164h162q5 35 12.5 72.5t18.5 73.5h-162l35 163h188q56 118 138 212t183 160t216.5 101t239.5 35q67 0 125 -9.5t106.5 -24.5t87.5 -34.5 t68 -39.5l-148 -201q-49 35 -115 58.5t-151 23.5q-72 0 -139.5 -20.5t-127 -57t-109.5 -88.5t-87 -115h594l-121 -163h-545q-12 -32 -18.5 -72t-11.5 -74h469l-121 -164h-346q20 -134 108.5 -208t235.5 -74q83 0 158.5 22t140.5 58z" />
<glyph unicode="&#x2113;" horiz-adv-x="948" d="M801 129q-31 -26 -72.5 -54t-92 -51t-110 -38t-125.5 -15q-80 0 -131.5 31t-81.5 82t-41.5 116.5t-11.5 133.5q0 122 25 255.5t69 262.5t104 245.5t130 205t146.5 140.5t154.5 52q48 0 85 -13.5t63 -37t39.5 -56t13.5 -69.5q0 -72 -24.5 -146.5t-66.5 -147.5 t-96.5 -142.5t-115 -131t-122 -112.5t-116.5 -88q-12 -50 -22.5 -109t-10.5 -116q0 -48 7 -94t25.5 -81.5t50 -57t79.5 -21.5q43 0 83 15t70 33q35 21 66 48zM440 643q42 32 88.5 77t91 98.5t85.5 112t71.5 118.5t49 118.5t18.5 110.5q0 29 -12 49.5t-35 20.5 q-35 0 -71.5 -35.5t-71.5 -93.5t-68 -132.5t-61 -153t-50 -154.5t-35 -136z" />
<glyph unicode="&#x2117;" horiz-adv-x="1737" d="M920 -29q-155 0 -290.5 58.5t-237 160t-160 237t-58.5 290.5q0 103 26.5 198t75 178t117 151t151 116.5t178 75t198.5 26.5t198 -26.5t178 -75t151 -116.5t116.5 -151t75 -178t26.5 -198t-26.5 -198.5t-75 -178t-116.5 -151t-151 -117t-178 -75t-198 -26.5zM920 129 q117 0 220 45t179.5 124t121 186.5t44.5 232.5q0 124 -44.5 231.5t-121 187t-179.5 124.5t-220 45q-79 0 -151.5 -20.5t-135.5 -58t-115 -91t-88.5 -118.5t-57 -141t-20.5 -159q0 -125 44.5 -232.5t121.5 -186.5t180.5 -124t221.5 -45zM938 735q66 0 103.5 29.5t37.5 89.5 q0 62 -37.5 90.5t-103.5 28.5h-78v-238h78zM860 315h-162v793h256q70 0 125 -19.5t92.5 -53.5t57.5 -80.5t20 -100.5t-20 -100.5t-57.5 -80.5t-92.5 -53.5t-125 -19.5h-94v-285z" />
<glyph unicode="&#x2120;" horiz-adv-x="1819" d="M205 838q21 -17 45.5 -32t51.5 -26t55 -17.5t55 -6.5q58 0 91.5 26t33.5 66q0 31 -24.5 54t-60.5 43.5t-79 42.5t-79 51.5t-60.5 70.5t-24.5 100q0 55 20.5 98.5t57 73.5t86.5 46t110 16q63 0 114.5 -15.5t80.5 -33.5v-174q-17 13 -38.5 26t-46 24t-50.5 18t-51 7 q-51 0 -79 -21.5t-28 -55.5q0 -31 24.5 -53t61 -42t79.5 -42t79.5 -52.5t61 -72.5t24.5 -103q0 -59 -23 -105t-63 -77.5t-93 -48.5t-114 -17q-34 0 -66 5.5t-60 14t-51.5 19t-39.5 19.5v174zM1583 618v496l-256 -344h-51l-256 344v-496h-176v822h117l342 -457l339 457h115 v-822h-174z" />
<glyph unicode="&#x2122;" horiz-adv-x="1948" d="M457 618v672h-258v144h694v-144h-260v-672h-176zM1722 618v496l-245 -344h-52l-245 344v-496h-176v822h114l332 -457l332 457h114v-822h-174z" />
<glyph unicode="&#x2126;" horiz-adv-x="1774" d="M887 0l45 219q100 27 191.5 86.5t161 143.5t110.5 188t41 219q0 88 -28.5 159.5t-79.5 122.5t-122.5 79t-158.5 28q-79 0 -155 -23t-143 -64.5t-123.5 -100t-97.5 -128.5t-63.5 -150.5t-22.5 -166.5q0 -76 21 -140t59 -114.5t90.5 -85.5t114.5 -53l-45 -219h-641l43 207 h266q-85 68 -132.5 164t-47.5 221q0 119 35.5 229.5t99 207t150.5 176.5t189.5 137t217 88.5t232.5 31.5q138 0 251.5 -41.5t194.5 -117t125.5 -180.5t44.5 -232q0 -110 -30.5 -209.5t-85 -186t-129 -159t-162.5 -129.5h268l-43 -207h-641z" />
<glyph unicode="&#x212e;" horiz-adv-x="1389" d="M1217 233q-39 -63 -92.5 -111.5t-118 -82t-138 -51t-153.5 -17.5q-126 0 -232.5 42t-184.5 117t-121.5 178t-43.5 224t43.5 224t121.5 178t184.5 117.5t232.5 42.5t232.5 -42.5t184 -117.5t121 -178t43.5 -224v-20h-878v-338q59 -48 134 -73t163 -25q108 0 198.5 41.5 t153.5 115.5h150zM1012 889q-60 46 -135.5 72t-161.5 26q-88 0 -163 -26t-134 -72v-264h594v264z" />
<glyph unicode="&#x2202;" horiz-adv-x="1352" d="M365 1075q62 91 132.5 162.5t148.5 121.5t162.5 76.5t174.5 26.5q177 0 268.5 -100t91.5 -289q0 -126 -34 -256.5t-94.5 -253t-144.5 -230.5t-183.5 -188.5t-212 -127t-230.5 -46.5q-86 0 -153 25.5t-113.5 70t-71 104.5t-24.5 130q0 79 26 154t72 141.5t108 122 t134.5 95.5t151.5 62.5t159 22.5q62 0 109.5 -14.5t82.5 -38.5t59 -56t40 -67q13 37 24 77.5t19.5 81.5t13 81.5t4.5 76.5q0 113 -43.5 172.5t-123.5 59.5q-75 0 -151.5 -50.5t-145.5 -146.5h-256zM930 516q-15 35 -37 67.5t-53 57t-70.5 39t-89.5 14.5q-51 0 -108.5 -21 t-107 -61.5t-84.5 -100.5t-42 -138q-5 -45 4 -81.5t30.5 -62t53.5 -39.5t72 -14q54 0 111 24t113 68.5t109.5 107t98.5 140.5z" />
<glyph unicode="&#x2206;" horiz-adv-x="1460" d="M-90 0l991 1450h45l377 -1450h-1413zM836 989l-504 -774h678z" />
<glyph unicode="&#x220f;" horiz-adv-x="1620" d="M940 0l260 1225h-469l-260 -1225h-254l260 1225h-207l43 209h1395l-43 -209h-211l-260 -1225h-254z" />
<glyph unicode="&#x2211;" horiz-adv-x="1380" d="M51 0l35 168l625 559l-387 559l30 148h1073l-43 -209h-725l338 -494l-14 -63l-508 -461h692l-43 -207h-1073z" />
<glyph unicode="&#x2212;" horiz-adv-x="1235" d="M133 483v217h1012v-217h-1012z" />
<glyph unicode="&#x221a;" horiz-adv-x="1462" d="M676 -16l-275 663h-206v207h370l170 -438l467 1216h250l-657 -1648h-119z" />
<glyph unicode="&#x221e;" horiz-adv-x="1647" d="M858 514q-47 -45 -92 -82.5t-91 -64.5t-94.5 -42.5t-101.5 -15.5q-70 0 -131.5 26.5t-108 73t-73.5 108t-27 132.5t26.5 132.5t72.5 107.5t108 72t133 26q96 0 190.5 -52.5t188.5 -148.5q44 43 89.5 80t93.5 64t97.5 42t100.5 15q72 0 134 -26t108.5 -71.5t73 -107 t26.5 -133.5q0 -71 -27 -132.5t-73.5 -108t-109 -73t-132.5 -26.5q-97 0 -189 54.5t-192 150.5zM719 651q-31 29 -61 54.5t-60 44.5t-59.5 30t-59.5 11q-31 0 -57.5 -10.5t-46 -29.5t-30.5 -45t-11 -57q0 -30 11 -56t30.5 -45.5t46 -30.5t57.5 -11q30 0 59.5 11.5t59.5 31 t60 46t61 56.5zM999 651q31 -30 61 -56.5t60 -46t59.5 -31t59.5 -11.5q31 0 58 11t47 30.5t31 45.5t11 56q0 31 -11 57t-31 45t-47 29.5t-58 10.5q-30 0 -60 -11t-60 -30.5t-60 -45t-60 -53.5z" />
<glyph unicode="&#x222b;" horiz-adv-x="997" d="M133 -199q116 330 230 655t233 654q33 93 75 165t95 120.5t119.5 74t148.5 25.5q31 0 59.5 -3t51 -7t38.5 -9t21 -8l-71 -200q-16 7 -35 13q-17 5 -38.5 9t-45.5 4q-54 0 -91 -26t-59 -86l-463 -1309q-34 -92 -76.5 -164t-96 -121t-119 -74.5t-146.5 -25.5q-29 0 -56.5 3 t-50 7t-38 9t-21.5 8l72 200q16 -8 34 -13q16 -5 37.5 -9t45.5 -4q52 0 88.5 26t58.5 86z" />
<glyph unicode="&#x2248;" horiz-adv-x="1440" d="M1303 999q0 -81 -23.5 -148.5t-66 -117t-103 -77t-135.5 -27.5q-46 0 -86.5 13.5t-77.5 33.5t-71.5 44t-68 44t-67 33.5t-69.5 13.5q-72 0 -114 -43.5t-42 -118.5h-168q0 81 22.5 149.5t64.5 117.5t102 76.5t135 27.5q49 0 90.5 -13.5t78.5 -33.5t70.5 -44t66.5 -44 t66.5 -33.5t71.5 -13.5q71 0 113.5 43.5t42.5 117.5h168zM1303 545q0 -81 -23.5 -149t-66 -117.5t-103 -77t-135.5 -27.5q-46 0 -86.5 13.5t-77.5 33.5t-71.5 44t-68 44t-67 33.5t-69.5 13.5q-72 0 -114 -43.5t-42 -117.5h-168q0 81 22.5 149t64.5 117t102 76.5t135 27.5 q49 0 90.5 -13.5t78.5 -33.5t70.5 -44t66.5 -44t66.5 -33.5t71.5 -13.5q71 0 113.5 43.5t42.5 118.5h168z" />
<glyph unicode="&#x2260;" horiz-adv-x="1522" d="M616 238l-184 -238h-217l184 238h-184v217h350l213 272h-563v217h729l186 238h218l-187 -238h187v-217h-353l-213 -272h566v-217h-732z" />
<glyph unicode="&#x2264;" horiz-adv-x="1368" d="M215 618v220l999 344v-215l-731 -240l731 -238v-215zM215 0v207h997v-207h-997z" />
<glyph unicode="&#x2265;" horiz-adv-x="1368" d="M215 274v215l731 238l-731 240v215l999 -344v-220zM217 0v207h997v-207h-997z" />
<glyph unicode="&#x250c;" horiz-adv-x="1450" d="M811 -625h-233v1395h897v-233h-664v-1162z" />
<glyph unicode="&#x2510;" horiz-adv-x="1450" d="M872 -625h-233v1162h-662v233h895v-1395z" />
<glyph unicode="&#x2514;" horiz-adv-x="1450" d="M1475 473h-897v1395h233v-1161h664v-234z" />
<glyph unicode="&#x2518;" horiz-adv-x="1450" d="M872 473h-895v234h662v1161h233v-1395z" />
<glyph unicode="&#x2588;" horiz-adv-x="1450" d="M1473 -621h-1496v2485h1496v-2485z" />
<glyph unicode="&#x25ca;" horiz-adv-x="1327" d="M508 -16l-346 733l657 733h99l346 -733l-658 -733h-98zM1001 717l-198 426l-379 -426l197 -428z" />
<glyph unicode="&#x266a;" horiz-adv-x="1087" d="M508 1434h104q91 0 170 -26.5t136.5 -73.5t90.5 -111.5t33 -139.5v-176h-120v56q0 51 -20.5 93.5t-57.5 73t-89 47.5t-114 17h-12v-954q0 -60 -23.5 -109.5t-64.5 -85t-96 -55t-119 -19.5q-59 0 -110.5 19t-89.5 52t-59.5 77.5t-21.5 95.5q0 52 21.5 97.5t59.5 79.5 t89.5 53.5t110.5 19.5q51 0 97.5 -12t84.5 -35v1016z" />
<glyph unicode="&#x266b;" horiz-adv-x="1538" d="M1212 1217l-583 -185v-891q0 -60 -23.5 -109t-64.5 -84.5t-96 -55t-119 -19.5q-59 0 -110.5 19t-89.5 52t-59.5 77.5t-21.5 95.5q0 52 21.5 97.5t59.5 79.5t89.5 53.5t110.5 19.5q51 0 97.5 -12.5t84.5 -35.5v951l825 256v-1184q0 -60 -23.5 -109.5t-64.5 -84.5 t-96 -54.5t-119 -19.5q-59 0 -110.5 19t-89 52t-59 77t-21.5 95q0 52 21.5 98t59 80.5t89 54t110.5 19.5q51 0 97.5 -13t84.5 -36v697z" />
<glyph unicode="&#xe000;" horiz-adv-x="1065" d="M0 1065h1065v-1065h-1065v1065z" />
<glyph unicode="&#xf6c3;" horiz-adv-x="578" d="M-33 -750q37 27 70.5 57.5t60.5 62t46.5 62t27.5 58.5q-31 1 -56 13t-42 32t-25 46.5t-4 58.5q3 40 20.5 75.5t45.5 62.5t64.5 42.5t78.5 15.5q34 0 63.5 -12t49.5 -35t29 -56.5t3 -76.5q-5 -72 -37.5 -140.5t-83.5 -131.5t-115 -119t-132 -101z" />
<glyph unicode="&#xfb01;" horiz-adv-x="1300" d="M96 0zM96 0l185 866h-158q9 51 20.5 99.5t20.5 99.5h158q6 25 11 50.5t11 49.5q35 168 129.5 249t239.5 81q31 0 61.5 -3t55 -7t41.5 -9t22 -8l-41 -196q-16 5 -48 13.5t-75 8.5q-53 0 -87.5 -29.5t-49.5 -97.5l-23 -102h228l-43 -199h-226l-184 -866h-248zM774 0 l226 1065h250l-226 -1065h-250zM1338 1395q0 -38 -15 -68.5t-40 -51.5t-57 -32.5t-66 -11.5q-54 0 -86.5 27.5t-32.5 76.5q0 38 15 68.5t40 51.5t56.5 32.5t64.5 11.5q56 0 88.5 -28t32.5 -76z" />
<glyph unicode="&#xfb02;" horiz-adv-x="1360" d="M96 0zM96 0l185 866h-158q9 51 20.5 99.5t20.5 99.5h158q6 25 11 50.5t11 49.5q35 168 129.5 249t239.5 81q31 0 61.5 -3t55 -7t41.5 -9t22 -8l-41 -196q-16 5 -48 13.5t-75 8.5q-53 0 -87.5 -29.5t-49.5 -97.5l-23 -102h228l-43 -199h-226l-184 -866h-248zM1231 -10 q-19 -6 -41 -10q-19 -4 -43.5 -6.5t-52.5 -2.5q-81 0 -138.5 24t-90 69t-40.5 108.5t9 142.5l252 1180h250l-248 -1167q-9 -39 -9.5 -67t9.5 -46t32 -26.5t60 -8.5q35 0 61 7t35 10z" />
<glyph horiz-adv-x="1360" d="M0 0z" />
</font>
</defs>
</svg>
