<?xml version="1.0" standalone="no"?>
<!DOCTYPE svg PUBLIC "-//W3C//DTD SVG 1.1//EN" "http://www.w3.org/Graphics/SVG/1.1/DTD/svg11.dtd" >
<svg xmlns="http://www.w3.org/2000/svg">
<metadata></metadata>
<defs>
<font id="MatterhornSemiBold" horiz-adv-x="1286" >
<font-face units-per-em="2048" ascent="1536" descent="-512" />
<missing-glyph horiz-adv-x="553" />
<glyph horiz-adv-x="0" />
<glyph horiz-adv-x="0" />
<glyph unicode="&#xd;" horiz-adv-x="553" />
<glyph unicode=" "  horiz-adv-x="553" />
<glyph unicode="&#x09;" horiz-adv-x="553" />
<glyph unicode="&#xa0;" horiz-adv-x="553" />
<glyph unicode="!" horiz-adv-x="571" d="M147 1434h277l-25 -936h-227zM113 145q0 38 13 69.5t36 54.5t55 35.5t70 12.5q37 0 68.5 -12.5t54.5 -35.5t36 -54.5t13 -69.5t-13 -69.5t-36 -55t-54.5 -36.5t-68.5 -13q-38 0 -70 13t-55 36.5t-36 55t-13 69.5z" />
<glyph unicode="&#x22;" horiz-adv-x="891" d="M113 1462h254l-33 -588h-213zM545 1462h254l-33 -588h-213z" />
<glyph unicode="#" horiz-adv-x="1397" d="M178 1059h228l49 375h200l-49 -375h273l49 375h200l-49 -375h205v-180h-227l-43 -324h205v-180h-228l-49 -375h-203l49 375h-270l-49 -375h-203l49 375h-202v180h225l43 324h-203v180zM541 555h270l43 324h-270z" />
<glyph unicode="$" horiz-adv-x="1100" d="M459 -29q-57 2 -109.5 12t-97 23.5t-80 29t-59.5 30.5v256q31 -25 71 -47t85.5 -39t96 -27t103.5 -10q60 0 107.5 14t80.5 39.5t50.5 60.5t17.5 76q0 49 -26 86t-68.5 68t-96.5 58t-111 56.5t-111 65t-96.5 83t-68.5 109t-26 144.5q0 81 25 146.5t71 115t110.5 82 t143.5 47.5v186h207v-178q85 -9 151.5 -31t106.5 -47v-254q-26 19 -60.5 39t-76 36t-88.5 26t-97 10q-52 0 -93 -12t-69.5 -34t-43.5 -52t-15 -66q0 -47 26 -82.5t68.5 -65.5t96.5 -57.5t111 -58t111 -67t96.5 -84.5t68.5 -111t26 -146q0 -79 -24.5 -145.5t-68.5 -118 t-104.5 -88t-133.5 -55.5v-236h-207v213z" />
<glyph unicode="%" horiz-adv-x="1974" d="M475 618q-80 0 -146.5 29.5t-114.5 83t-74.5 128.5t-26.5 167q0 91 26.5 166.5t74.5 129t114.5 83t146.5 29.5t146.5 -29.5t114.5 -83t75 -129t27 -166.5q0 -92 -27 -167t-75 -128.5t-114.5 -83t-146.5 -29.5zM475 791q74 0 118 63t44 172q0 54 -11.5 97.5t-32.5 74 t-51 47.5t-67 17t-67 -17t-51.5 -47.5t-33.5 -74t-12 -97.5t12 -97.5t33.5 -74t51.5 -47t67 -16.5zM1241 1462h197l-705 -1491h-196zM1499 815q80 0 146.5 -29.5t114.5 -83t75 -128.5t27 -166q0 -92 -27 -167.5t-75 -129t-114.5 -82.5t-146.5 -29t-146.5 29t-114.5 82.5 t-74.5 129t-26.5 167.5q0 91 26.5 166t74.5 128.5t114.5 83t146.5 29.5zM1499 643q-37 0 -67 -16.5t-51 -47.5t-32.5 -74t-11.5 -97q0 -110 44 -173t118 -63t119 63t45 173q0 54 -12 97t-33.5 74t-51.5 47.5t-67 16.5z" />
<glyph unicode="&#x26;" horiz-adv-x="1391" d="M1102 0l-127 145q-81 -81 -187 -127.5t-239 -46.5q-101 0 -181.5 27t-137 76.5t-87 118.5t-30.5 153q0 79 26 143.5t69 118.5t99 99t117 84q-77 99 -109 182t-32 155q0 64 24.5 124.5t72.5 107t119.5 74.5t166.5 28q76 0 141.5 -19.5t113.5 -58t75.5 -94.5t27.5 -129 q0 -71 -26 -128.5t-68.5 -105.5t-98 -88t-114.5 -77l248 -279q20 47 35 100t26 113h203q-16 -102 -45 -195.5t-74 -176.5l289 -324h-297zM590 180q71 0 135.5 29t120.5 88l-303 352q-39 -28 -72 -57t-58 -61.5t-39 -69.5t-14 -80q0 -48 17.5 -85t48.5 -63t73 -39.5t91 -13.5 zM508 1122q0 -46 19 -100.5t69 -120.5q43 28 81 57t66 59.5t44 64t16 71.5q0 31 -11 56.5t-30.5 44t-45.5 28.5t-57 10q-32 0 -60 -11.5t-48 -33.5t-31.5 -53.5t-11.5 -71.5z" />
<glyph unicode="'" horiz-adv-x="459" d="M113 1462h254l-33 -588h-213z" />
<glyph unicode="(" horiz-adv-x="842" d="M154 659q0 157 28.5 295t76.5 257.5t111.5 221t133.5 185.5h266q-66 -72 -130.5 -169t-115.5 -217.5t-82.5 -264t-31.5 -308.5q0 -164 31.5 -306.5t82.5 -263t115.5 -217.5t130.5 -169h-264q-71 83 -135 184.5t-112 221t-76.5 257t-28.5 293.5z" />
<glyph unicode=")" horiz-adv-x="842" d="M688 659q0 -156 -28.5 -293.5t-77 -257t-112.5 -221t-134 -184.5h-264q66 72 130.5 169t115.5 217.5t82.5 263t31.5 306.5q0 165 -31.5 308.5t-82.5 264t-115.5 217.5t-130.5 169h266q70 -84 133.5 -185.5t111.5 -221t76.5 -257.5t28.5 -295z" />
<glyph unicode="*" horiz-adv-x="1126" d="M426 1010l-313 80l61 200l303 -119l-20 324h209l-21 -324l305 119l64 -200l-316 -80l209 -250l-172 -125l-172 274l-172 -274l-172 125z" />
<glyph unicode="+" horiz-adv-x="1317" d="M766 1167v-467h438v-217h-438v-469h-217v469h-436v217h436v467h217z" />
<glyph unicode="," horiz-adv-x="512" d="M86 -266q31 27 58.5 57t48 61t33.5 61.5t16 57.5q-35 2 -64.5 16t-51 37t-34 54t-12.5 67q0 39 13 70.5t36.5 54t55 35t69.5 12.5q37 0 69.5 -13.5t56.5 -40t38 -66t14 -91.5q0 -57 -17 -117t-50 -119t-83 -116t-116 -108l-80 88v0z" />
<glyph unicode="-" horiz-adv-x="764" d="M113 719h538v-211h-538v211z" />
<glyph unicode="." horiz-adv-x="506" d="M80 145q0 38 13 69.5t36.5 54.5t55 35.5t69.5 12.5q37 0 68.5 -12.5t54.5 -35.5t36 -54.5t13 -69.5t-13 -69.5t-36 -55t-54.5 -36.5t-68.5 -13q-38 0 -69.5 13t-55 36.5t-36.5 55t-13 69.5z" />
<glyph unicode="/" horiz-adv-x="776" d="M260 -152h-229l485 1737h229z" />
<glyph unicode="0" horiz-adv-x="1337" d="M668 -29q-125 0 -226 53.5t-172 151.5t-109 235.5t-38 305.5q0 167 38 304.5t109 235.5t172 151.5t226 53.5t226 -53.5t172 -151.5t109.5 -235.5t38.5 -304.5q0 -168 -38.5 -305.5t-109.5 -235.5t-172 -151.5t-226 -53.5zM668 188q64 0 115 37.5t87 107t55 167t19 217.5 t-19 217.5t-55 166.5t-87 106.5t-115 37.5t-115 -37.5t-87 -106.5t-55.5 -166.5t-19.5 -217.5t19.5 -217.5t55.5 -167t87 -107t115 -37.5z" />
<glyph unicode="1" horiz-adv-x="758" d="M553 1434v-1434h-254v1225h-258v209h512z" />
<glyph unicode="2" horiz-adv-x="1133" d="M102 1348q81 54 180 84t207 30t196.5 -31t151 -87t96.5 -134t34 -172q0 -60 -16.5 -119t-49 -121t-81.5 -129t-113 -143l-269 -315h572v-211h-949v96l396 475q63 75 109.5 137.5t77.5 117.5t46 105t15 99t-17 89t-49.5 68t-78.5 43t-103 15q-58 0 -109.5 -14t-96 -35 t-82 -46.5t-67.5 -49.5v248z" />
<glyph unicode="3" horiz-adv-x="1120" d="M737 440q0 55 -22 103t-67 83.5t-114 55.5t-163 20q-11 0 -22 -0.5t-20 -1.5q-11 -1 -20 -2v117l303 410h-506v209h859v-99l-351 -469q81 -15 151 -51t121.5 -90.5t81 -126.5t29.5 -158q0 -97 -35.5 -182.5t-104.5 -149t-171 -100.5t-235 -37q-50 0 -100 6t-95.5 16 t-85 22.5t-68.5 25.5v225q31 -17 69.5 -31.5t80.5 -25.5t86 -17t86 -6q73 0 131 19.5t98.5 54t62 80.5t21.5 100z" />
<glyph unicode="4" horiz-adv-x="1212" d="M20 412l791 1036h123v-961h196v-202h-196v-285h-250v285h-664v127zM684 487v504l-385 -504h385z" />
<glyph unicode="5" horiz-adv-x="1163" d="M215 1434h768v-209h-553q-6 -84 -11.5 -167.5t-10.5 -166.5q14 2 44.5 6t65.5 4q111 0 205.5 -32.5t163.5 -92.5t108 -144.5t39 -189.5q0 -98 -37.5 -183.5t-108.5 -149.5t-174.5 -101t-236.5 -37q-52 0 -102.5 6t-96 16t-85 23t-70.5 27v223q34 -17 73 -32t81.5 -26.5 t87.5 -18.5t90 -7q70 0 128.5 17.5t101.5 51t67 82t24 109.5q0 60 -24.5 108t-67 81t-101.5 51t-128 18q-52 0 -97 -6.5t-81.5 -16t-64 -19t-44.5 -15.5z" />
<glyph unicode="6" horiz-adv-x="1210" d="M82 449q0 89 28.5 166t82.5 155l462 664h306l-375 -510q7 1 16 2q8 1 17 1.5t20 0.5q100 0 187.5 -36t152.5 -99.5t102 -151.5t37 -192q0 -106 -38.5 -194t-107 -151t-163.5 -98t-209 -35t-209 35t-163.5 98t-107 151t-38.5 194zM342 451q0 -61 20 -111t54.5 -86t82 -56 t101.5 -20t101 20t81.5 56t54 86t19.5 111q0 60 -19.5 110t-54 86t-81.5 56t-101 20t-101.5 -20t-82 -56t-54.5 -86t-20 -110z" />
<glyph unicode="7" horiz-adv-x="1061" d="M45 1434h975v-99l-614 -1335h-273l567 1225h-655v209z" />
<glyph unicode="8" horiz-adv-x="1253" d="M623 -29q-114 0 -208 30t-161 83.5t-104 127.5t-37 163q0 86 31.5 149t78 108t99.5 73t96 43q-51 24 -96.5 54.5t-79.5 70t-54 91t-20 119.5q0 94 39.5 165.5t104.5 118.5t150 71t177 24q97 0 180 -25.5t144 -72t96 -112t35 -146.5q0 -74 -26.5 -131t-65.5 -100 t-84 -71.5t-82 -45.5q54 -26 108.5 -59t98 -78t71 -105t27.5 -139q0 -92 -39 -167t-108.5 -128t-164.5 -82t-206 -29zM881 375q0 60 -25.5 103t-66.5 75.5t-94 58t-107 50.5q-24 -11 -60.5 -32.5t-71 -55.5t-59 -82.5t-24.5 -112.5q0 -46 18.5 -85.5t51.5 -68t80 -45 t104 -16.5q55 0 101.5 15.5t80.5 43.5t53 67t19 85zM428 1094q0 -48 19.5 -85t52.5 -66.5t76.5 -53t91.5 -45.5q24 14 54 35t56.5 51t44 70t17.5 92q0 38 -14.5 70.5t-40.5 56.5t-62.5 37.5t-81.5 13.5q-43 0 -81.5 -12.5t-68 -35.5t-46.5 -55.5t-17 -72.5z" />
<glyph unicode="9" horiz-adv-x="1210" d="M1128 983q0 -89 -28.5 -165t-83.5 -154l-463 -664h-305l375 508q-6 -1 -15 -1q-8 -1 -18 -1h-21q-100 0 -187 35.5t-151.5 99.5t-101.5 152t-37 192q0 105 38.5 193t107 151t163.5 98t209 35t209 -35t163.5 -98.5t107 -151.5t38.5 -194zM866 983q0 61 -19.5 110.5t-54 85 t-81 55t-101.5 19.5q-54 0 -101.5 -19.5t-82 -55t-54.5 -85t-20 -110.5t20 -111t54.5 -86t82 -55.5t101.5 -19.5q55 0 101.5 19.5t81 55.5t54 86t19.5 111z" />
<glyph unicode=":" horiz-adv-x="571" d="M113 145q0 38 13 69.5t36 54.5t55 35.5t70 12.5q37 0 68.5 -12.5t54.5 -35.5t36 -54.5t13 -69.5t-13 -69.5t-36 -55t-54.5 -36.5t-68.5 -13q-38 0 -70 13t-55 36.5t-36 55t-13 69.5zM113 854q0 37 13 69t36 55.5t55 36.5t70 13q37 0 68.5 -13t54.5 -36.5t36 -55.5t13 -69 q0 -38 -13 -69.5t-36 -55t-54.5 -36.5t-68.5 -13q-38 0 -70 13t-55 36.5t-36 55t-13 69.5z" />
<glyph unicode=";" horiz-adv-x="578" d="M113 854q0 37 13 69t36 55.5t55 36.5t70 13q37 0 68.5 -13t54.5 -36.5t36 -55.5t13 -69q0 -38 -13 -69.5t-36 -55t-54.5 -36.5t-68.5 -13q-38 0 -70 13t-55 36.5t-36 55t-13 69.5zM113 145q0 39 13 70.5t36 54t55 35t70 12.5q37 0 69.5 -13.5t56.5 -40t38 -66t14 -91.5 q0 -57 -17 -117t-50 -119t-83 -116t-116 -108l-80 88q31 27 58.5 57t47.5 61t33 61.5t16 57.5q-35 2 -64 16t-51 37t-34 54t-12 67z" />
<glyph unicode="&#x3c;" horiz-adv-x="1266" d="M1112 246v-246l-1040 481v219l1040 482v-246l-782 -346z" />
<glyph unicode="=" horiz-adv-x="1522" d="M1327 727h-1132v217h1132v-217zM1327 238h-1132v217h1132v-217z" />
<glyph unicode="&#x3e;" horiz-adv-x="1266" d="M154 936v246l1040 -482v-219l-1040 -481v246l780 344z" />
<glyph unicode="?" horiz-adv-x="879" d="M244 498q-6 42 -6 77q0 70 21.5 124.5t54 99.5t70.5 83t70.5 74t54 72.5t21.5 79.5q0 66 -48 102.5t-136 36.5q-66 0 -129.5 -18t-120.5 -47v217q79 34 151 48.5t138 14.5q92 0 168.5 -23.5t131 -67t84.5 -105t30 -138.5q0 -75 -26 -130t-64.5 -99t-83.5 -82.5 t-83.5 -79.5t-64.5 -90t-26 -115v-17t2 -17h-209zM174 145q0 38 13 69.5t36.5 54.5t55 35.5t69.5 12.5q37 0 68.5 -12.5t54.5 -35.5t36 -54.5t13 -69.5t-13 -69.5t-36 -55t-54.5 -36.5t-68.5 -13q-38 0 -69.5 13t-55 36.5t-36.5 55t-13 69.5z" />
<glyph unicode="@" horiz-adv-x="1876" d="M1763 737q0 -128 -33 -230.5t-90 -174.5t-135 -111t-168 -39q-65 0 -109 19t-72 42q-33 27 -52 62q-18 -14 -41.5 -31t-55 -32t-71.5 -25t-90 -10q-75 0 -133 25t-97 72t-59 113.5t-20 149.5q0 102 28 190t78 153.5t118.5 103t149.5 37.5q65 0 112 -23t87 -65l8 79h191 l-54 -567q-6 -60 21.5 -92.5t77.5 -32.5q43 0 81.5 24.5t66.5 73t44.5 119.5t16.5 164q0 127 -41.5 230.5t-116.5 176.5t-179.5 112.5t-230.5 39.5q-153 0 -278.5 -57t-215 -157t-139 -236t-49.5 -293q0 -141 44 -248.5t122.5 -181t187 -111t238.5 -37.5q109 0 202 25.5 t171 75.5l90 -150q-102 -60 -221 -93.5t-258 -33.5q-169 0 -311.5 50.5t-245.5 146.5t-161 234t-58 313q0 195 64 364t181 293.5t280 196t361 71.5q165 0 305 -53t242 -149t159.5 -229.5t57.5 -293.5zM950 866q-53 0 -91 -24t-63 -62t-36.5 -86.5t-11.5 -97.5q0 -38 7 -74 t24.5 -65t46.5 -46.5t73 -17.5q27 0 52 6t46 15t37 18.5t25 16.5l37 360q-8 7 -21.5 17t-32.5 19t-42 15t-50 6z" />
<glyph unicode="A" horiz-adv-x="1356" d="M1354 0h-277l-104 270h-592l-105 -270h-274l586 1442h180zM455 469h442l-219 578z" />
<glyph unicode="B" horiz-adv-x="1327" d="M920 770q73 -15 131 -49t99 -82t63 -107.5t22 -123.5q0 -89 -36.5 -164t-106.5 -129t-173.5 -84.5t-236.5 -30.5h-494v1434h480q122 0 213.5 -27t153 -74.5t92 -112.5t30.5 -141q0 -51 -14.5 -99t-43.5 -88.5t-74 -71t-105 -46.5v-4zM670 209q76 0 132 17t92 47.5 t53.5 72t17.5 90.5t-17.5 91t-54 73t-92 48.5t-131.5 17.5h-221v-457h221zM449 1225v-355h208q63 0 106.5 15t70.5 40t39 57t12 65q0 35 -12 67.5t-39 57t-70.5 39t-106.5 14.5h-208z" />
<glyph unicode="C" horiz-adv-x="1317" d="M102 717q0 164 52.5 301t146.5 235.5t223.5 153.5t284.5 55q61 0 118.5 -8t107.5 -21.5t93 -30t76 -34.5v-266q-33 25 -73 49t-86.5 42.5t-100 30t-113.5 11.5q-105 0 -189 -37t-143 -105t-90.5 -163.5t-31.5 -212.5q0 -118 31.5 -213.5t90.5 -163t143 -104.5t189 -37 q60 0 113.5 11t100 29t86.5 41.5t73 49.5v-264q-33 -19 -76 -36t-93 -30t-107.5 -21t-118.5 -8q-155 0 -284.5 54.5t-223.5 153t-146.5 236t-52.5 302.5z" />
<glyph unicode="D" horiz-adv-x="1466" d="M188 1434h357q212 0 366.5 -53t255 -148t149 -227t48.5 -289q0 -158 -48.5 -289.5t-149 -226.5t-255 -148t-366.5 -53h-357v1434zM1090 717q0 120 -33.5 213t-101 157.5t-170 98t-240.5 33.5h-96v-1004h96q138 0 240.5 33.5t170 97.5t101 157.5t33.5 213.5z" />
<glyph unicode="E" horiz-adv-x="1182" d="M449 215h600v-215h-861v1434h861v-215h-600v-359h518v-215h-518v-430z" />
<glyph unicode="F" horiz-adv-x="1110" d="M449 0h-261v1434h830v-215h-569v-398h507v-215h-507v-606z" />
<glyph unicode="G" horiz-adv-x="1456" d="M102 717q0 164 54 301t151 235.5t230 153.5t292 55q69 0 131.5 -8t118 -21.5t103 -30t84.5 -34.5v-256q-36 24 -80.5 46t-96 39.5t-111 27.5t-126.5 10q-111 0 -199 -37t-149.5 -105t-94 -163.5t-32.5 -212.5q0 -118 33 -213.5t95 -163t150 -104.5t199 -37q102 0 188 24 v297h-221v201h482v-655q-39 -19 -90 -36t-110.5 -30t-127.5 -21t-141 -8q-160 0 -294 54.5t-231.5 153t-152 236t-54.5 302.5z" />
<glyph unicode="H" horiz-adv-x="1538" d="M1087 649h-638v-649h-261v1434h261v-570h638v570h261v-1434h-261v649z" />
<glyph unicode="I" horiz-adv-x="639" d="M188 1434h261v-1434h-261v1434z" />
<glyph unicode="J" horiz-adv-x="889" d="M10 248q26 -13 55.5 -22.5t59.5 -16t58.5 -9.5t54.5 -3q55 0 95 17t66.5 46t39 69t12.5 85v1020h260v-1018q0 -113 -33.5 -196.5t-92.5 -139t-139 -82.5t-174 -27q-35 0 -73.5 3.5t-74.5 9.5t-66 13t-48 15v236z" />
<glyph unicode="K" horiz-adv-x="1343" d="M188 1434h261v-686l538 686h330l-524 -641l559 -793h-322l-397 596l-184 -164v-432h-261v1434z" />
<glyph unicode="L" horiz-adv-x="1059" d="M188 1434h261v-1219h600v-215h-861v1434z" />
<glyph unicode="M" horiz-adv-x="1874" d="M895 326l-446 608v-934h-261v1442h174l574 -787l573 787h174v-1442h-260v934l-446 -608h-82z" />
<glyph unicode="N" horiz-adv-x="1632" d="M1268 -8l-819 971v-963h-261v1442h174l820 -973v965h260v-1442h-174z" />
<glyph unicode="O" horiz-adv-x="1655" d="M377 717q0 -119 32.5 -215t92 -163.5t142 -104.5t183.5 -37t184 37t142.5 104.5t92 163.5t32.5 215q0 118 -32.5 214t-92 163.5t-142.5 104t-184 36.5t-183.5 -36.5t-142 -104t-92 -163.5t-32.5 -214zM102 717q0 164 53 301t149 235.5t229 153.5t294 55q160 0 293.5 -55 t229.5 -153.5t149 -235.5t53 -301t-53 -301t-149 -236t-229.5 -154t-293.5 -55q-161 0 -294 55t-229 154t-149 236t-53 301z" />
<glyph unicode="P" horiz-adv-x="1247" d="M188 1434h449q133 0 234.5 -36.5t170 -101t103.5 -151.5t35 -189q0 -101 -35 -187.5t-103.5 -150.5t-170 -100.5t-234.5 -36.5h-188v-481h-261v1434zM905 956q0 134 -75.5 198.5t-211.5 64.5h-169v-523h169q138 0 212.5 63.5t74.5 196.5z" />
<glyph unicode="Q" horiz-adv-x="1655" d="M102 717q0 164 53 301t149 235.5t229 153.5t294 55q160 0 293.5 -55t229.5 -153.5t149 -235.5t53 -301q0 -158 -48 -288.5t-136 -229.5l254 -285h-281l-135 154q-164 -97 -379 -97q-161 0 -294 55t-229 154t-149 236t-53 301zM997 621l197 -224q40 63 62 143.5t22 176.5 q0 118 -32.5 214t-92 163.5t-142.5 104t-184 36.5t-183.5 -36.5t-142 -104t-92 -163.5t-32.5 -214q0 -119 32.5 -215t92 -163.5t142 -104.5t183.5 -37q62 0 117 14.5t103 40.5l-211 240z" />
<glyph unicode="R" horiz-adv-x="1315" d="M188 1434h453q127 0 225 -35t165.5 -96t102.5 -144t35 -180q0 -66 -16.5 -125.5t-48.5 -110.5t-79 -91.5t-107 -67.5l405 -584h-309l-348 526h-217v-526h-261v1434zM895 979q0 62 -19.5 107.5t-56.5 75t-89.5 43.5t-119.5 14h-161v-478h161q67 0 119.5 14t89.5 43.5 t56.5 74t19.5 106.5z" />
<glyph unicode="S" horiz-adv-x="1100" d="M725 389q0 49 -26 86.5t-68.5 68.5t-96.5 58t-111 57t-111 66t-96.5 82.5t-68.5 108t-26 143.5q0 96 35 171t98.5 126.5t151.5 78.5t194 27q55 0 105.5 -7.5t93.5 -19t77.5 -26t59.5 -29.5v-252q-26 19 -60.5 38.5t-76 35.5t-88.5 26.5t-97 10.5q-52 0 -93.5 -12.5 t-70 -34.5t-44 -52.5t-15.5 -66.5q0 -47 26 -83t68.5 -66.5t97 -58.5t111.5 -58.5t111.5 -67t97 -84.5t68.5 -110t26 -144q0 -102 -39.5 -182t-108.5 -135t-162.5 -84t-201.5 -29q-61 0 -117.5 9t-104.5 23t-86.5 31t-63.5 32v256q31 -26 71 -48t85.5 -39t96 -26.5 t103.5 -9.5q60 0 107.5 14t80.5 39.5t50.5 60.5t17.5 76z" />
<glyph unicode="T" horiz-adv-x="1135" d="M696 0h-260v1219h-432v215h1124v-215h-432v-1219z" />
<glyph unicode="U" horiz-adv-x="1526" d="M178 1434h260v-895q0 -95 22.5 -160.5t64.5 -106t102 -59t135 -18.5t134.5 18.5t101.5 59t64.5 106t22.5 160.5v895h261v-893q0 -146 -42.5 -253t-119.5 -177.5t-184.5 -105t-237.5 -34.5t-237.5 33.5t-184.5 103t-119.5 177t-42.5 256.5v893z" />
<glyph unicode="V" horiz-adv-x="1315" d="M748 -8h-181l-565 1442h274l381 -1047l379 1047h277z" />
<glyph unicode="W" horiz-adv-x="1956" d="M10 1434h264l281 -969l336 977h174l336 -977l280 969h263l-435 -1442h-180l-352 1026l-352 -1026h-181z" />
<glyph unicode="X" horiz-adv-x="1317" d="M803 741l479 -741h-307l-318 532l-317 -532h-305l477 741l-446 693h305l286 -486l287 486h307z" />
<glyph unicode="Y" horiz-adv-x="1190" d="M725 557v-557h-260v557l-469 877h287l311 -625l311 625h289z" />
<glyph unicode="Z" horiz-adv-x="1174" d="M1063 1434v-144l-645 -1075h676v-215h-1014v143l643 1076h-623v215h963z" />
<glyph unicode="[" horiz-adv-x="905" d="M494 -84h278v-213h-536v1915h536v-213h-278v-1489z" />
<glyph unicode="\" horiz-adv-x="776" d="M31 1585h229l485 -1737h-229z" />
<glyph unicode="]" horiz-adv-x="905" d="M412 1405h-279v213h537v-1915h-537v213h279v1489z" />
<glyph unicode="^" horiz-adv-x="1124" d="M770 756l-209 499l-207 -499h-241l325 706h248l326 -706h-242z" />
<glyph unicode="_" horiz-adv-x="1200" d="M-31 -328h1262v-184h-1262v184z" />
<glyph unicode="`" horiz-adv-x="784" d="M428 1556l244 -301h-223l-357 301h336z" />
<glyph unicode="a" horiz-adv-x="1124" d="M160 1024q19 7 52 19t79 23.5t103.5 19.5t125.5 8q206 0 316 -92t110 -267v-446q0 -63 23.5 -89t68.5 -26q18 0 31 5q7 2 14 5v-168q-12 -6 -51 -16t-102 -10q-46 0 -81.5 12t-61 31.5t-41.5 45t-23 52.5q-19 -26 -46.5 -54.5t-65.5 -52t-87 -38.5t-110 -15 q-73 0 -134 22t-105 64t-68.5 104t-24.5 142q0 72 28.5 134t84 108.5t135.5 73t184 26.5q59 0 107 -8t79 -14v75q0 45 -11.5 81t-38 61.5t-69.5 39t-106 13.5q-57 0 -108 -10.5t-92 -24.5t-70.5 -28.5t-44.5 -22.5v217zM496 170q71 0 123 32.5t81 82.5v178q-21 6 -57.5 13 t-83.5 7q-52 0 -94 -12.5t-71.5 -34.5t-45.5 -53t-16 -68q0 -63 41 -104t123 -41z" />
<glyph unicode="b" horiz-adv-x="1315" d="M731 -29q-60 0 -113.5 13t-98.5 34t-81 47t-61 52q-3 -22 -7 -42.5t-8 -37.5q-4 -19 -8 -37h-200q3 34 7 76q2 36 4.5 85t2.5 109v1225h246v-514q25 21 57.5 41t72.5 36t86.5 26t100.5 10q108 0 197.5 -42.5t154 -117.5t100.5 -178t36 -224t-36 -224t-100.5 -178 t-154 -117t-197.5 -42zM965 532q0 88 -23 155t-64 113t-97 69.5t-122 23.5q-45 0 -83.5 -10.5t-69.5 -26t-54 -33t-38 -30.5v-514q15 -13 39.5 -30t57 -32.5t71.5 -26t84 -10.5q66 0 121 23t94.5 68t61.5 110.5t22 150.5z" />
<glyph unicode="c" horiz-adv-x="1049" d="M96 532q0 128 41.5 232t115.5 177.5t176 113t224 39.5q88 0 165 -19t128 -45v-221q-21 15 -49 30t-61.5 27t-72.5 19.5t-83 7.5q-77 0 -138 -25t-104 -71.5t-65.5 -113.5t-22.5 -151t22.5 -151t65.5 -113.5t104 -71t138 -24.5q44 0 83 7.5t72.5 19.5t61.5 26.5t49 28.5 v-221q-51 -25 -128 -43.5t-165 -18.5q-122 0 -224 39.5t-176 112.5t-115.5 177t-41.5 232z" />
<glyph unicode="d" horiz-adv-x="1315" d="M961 0q-5 18 -9 37q-4 17 -8 37.5t-8 42.5q-26 -26 -62 -52t-81 -47t-97.5 -34t-111.5 -13q-108 0 -197.5 42t-154 117t-100.5 178t-36 224t36 224t100.5 178t154 117.5t197.5 42.5q54 0 100.5 -10t86.5 -26t72.5 -36t57.5 -41v514h246v-1225q0 -60 2 -109t5 -85 q3 -42 7 -76h-200zM655 893q-65 0 -121 -23.5t-97 -69.5t-64 -113t-23 -155q0 -85 22 -150.5t61.5 -110.5t94.5 -68t121 -23q44 0 82.5 10.5t71 25.5t57.5 32t41 31v514q-14 13 -37 30t-54 32.5t-70 26.5t-85 11z" />
<glyph unicode="e" horiz-adv-x="1196" d="M621 1094q105 0 192.5 -34.5t151 -98.5t98.5 -154.5t35 -202.5q0 -23 -1 -45t-2 -40q-2 -21 -3 -40h-736q10 -147 94 -228t244 -81q94 0 186 29.5t167 79.5v-205q-35 -23 -79 -41.5t-94.5 -32.5t-106 -21.5t-112.5 -7.5q-127 0 -230 40.5t-176 114.5t-113 177t-40 229 q0 124 39 227t108.5 177.5t166 116t211.5 41.5zM618 903q-55 0 -99.5 -19t-77 -52.5t-53 -79.5t-28.5 -101h486q1 61 -16 108t-47 79t-72.5 48.5t-92.5 16.5z" />
<glyph unicode="f" horiz-adv-x="748" d="M45 1065h174v100q0 81 21.5 142.5t62 103t98.5 63t131 21.5q32 0 63.5 -3t57.5 -7t44.5 -9t25.5 -8v-200q-21 7 -44 13q-20 5 -45.5 9t-51.5 4q-59 0 -89 -29t-30 -94v-106h248v-199h-248v-866h-244v866h-174v199z" />
<glyph unicode="g" horiz-adv-x="1317" d="M578 -311q152 0 237.5 79t85.5 232v88q-25 -18 -56 -35.5t-68.5 -31t-81.5 -21.5t-95 -8q-114 0 -207 40.5t-159 113.5t-102 175t-36 224q0 120 35 221t98 174t151 113.5t195 40.5q67 0 123 -14t101.5 -36t80 -48t58.5 -50q3 23 7 44.5t8 38.5q4 19 10 36h198 q-4 -34 -7 -76q-3 -36 -5 -85.5t-2 -108.5v-785q0 -123 -40.5 -220t-113 -164t-174 -102.5t-223.5 -35.5q-78 0 -146 13t-122.5 32t-93.5 40t-60 36v225q21 -18 60 -42.5t91 -47.5t116.5 -39t136.5 -16zM350 541q0 -81 20.5 -145.5t58.5 -109.5t92 -69t122 -24q49 0 91 11.5 t75 27.5t56.5 33.5t35.5 29.5v483q-14 12 -38 30t-57 34.5t-75 28.5t-92 12q-64 0 -117 -22t-91.5 -65.5t-59.5 -107t-21 -147.5z" />
<glyph unicode="h" d="M879 0v657q0 58 -15.5 101.5t-43.5 72t-68 42.5t-88 14q-42 0 -81 -13t-71.5 -32t-57.5 -40.5t-40 -37.5v-764h-246v1495h246v-571q19 23 49 52.5t72.5 55.5t97 44t123.5 18q106 0 176.5 -36t113 -93.5t60.5 -129t18 -141.5v-694h-245z" />
<glyph unicode="i" horiz-adv-x="584" d="M168 1065h246v-1065h-246v1065zM147 1364q0 31 11 56.5t30.5 42.5t45.5 26.5t57 9.5q63 0 103 -36t40 -99q0 -62 -40 -97.5t-103 -35.5q-31 0 -57 9t-45.5 26.5t-30.5 42t-11 55.5z" />
<glyph unicode="j" horiz-adv-x="584" d="M414 -156q0 -184 -75.5 -271t-244.5 -87q-29 0 -55 2.5t-46 6.5q-23 4 -42 9v197q11 -3 25 -6q12 -2 28.5 -4t36.5 -2q31 0 54.5 7t39.5 24.5t24.5 45.5t8.5 70v1229h246v-1221zM147 1364q0 31 11 56.5t30.5 42.5t45.5 26.5t57 9.5q63 0 103 -36t40 -99q0 -62 -40 -97.5 t-103 -35.5q-31 0 -57 9t-45.5 26.5t-30.5 42t-11 55.5z" />
<glyph unicode="k" horiz-adv-x="1149" d="M168 1495h246v-926l401 496h295l-385 -451l424 -614h-285l-286 451l-164 -142v-309h-246v1495z" />
<glyph unicode="l" horiz-adv-x="694" d="M168 1495h246v-1163q0 -42 9.5 -70.5t27 -46t43.5 -24.5t59 -7q24 0 44.5 2.5t35.5 6.5q18 4 31 10v-207q-25 -8 -53 -13q-24 -5 -56.5 -8.5t-67.5 -3.5q-84 0 -144 22t-99 67.5t-57.5 115t-18.5 164.5v1155z" />
<glyph unicode="m" horiz-adv-x="1907" d="M414 0h-246v795q0 59 -2.5 108.5t-4.5 85.5q-4 42 -7 76h225q4 -19 8 -42q4 -20 8 -47.5t8 -60.5q19 24 48.5 55t70 58.5t93 46.5t118.5 19q64 0 114.5 -16t88.5 -43t64.5 -63.5t43.5 -78.5q19 24 50 58t75.5 66t101.5 54.5t128 22.5q100 0 166.5 -36t106.5 -93.5 t56.5 -129t16.5 -141.5v-694h-246v657q0 117 -52.5 173.5t-139.5 56.5q-40 0 -76.5 -14t-67 -34t-53.5 -42t-35 -37q2 -17 3 -33.5t1 -32.5v-694h-245v657q0 117 -52.5 173.5t-140.5 56.5q-39 0 -74.5 -13t-65 -32t-52 -40.5t-35.5 -37.5v-764z" />
<glyph unicode="n" d="M414 0h-246v795q0 59 -2.5 108.5t-4.5 85.5q-4 42 -7 76h225q4 -18 8 -42q4 -20 8 -48t8 -62q20 24 51.5 55.5t75 59t100 47t126.5 19.5q106 0 176.5 -36t113 -93.5t60.5 -129t18 -141.5v-694h-245v657q0 58 -15.5 101.5t-43.5 72t-68 42.5t-88 14q-43 0 -82 -13 t-71.5 -32t-57 -40.5t-39.5 -37.5v-764z" />
<glyph unicode="o" horiz-adv-x="1278" d="M352 532q0 -85 20.5 -152t58.5 -113t90.5 -70.5t117.5 -24.5q64 0 117 24.5t90 70.5t57.5 113t20.5 152t-20.5 152t-57.5 113.5t-90 71t-117 24.5q-65 0 -117.5 -24.5t-90.5 -71t-58.5 -113.5t-20.5 -152zM96 532q0 124 40 227t111.5 177.5t171.5 116t220 41.5 t219.5 -41.5t171 -116t111 -177.5t39.5 -227q0 -123 -39.5 -226.5t-111 -177.5t-171 -115.5t-219.5 -41.5t-220 41.5t-171.5 115.5t-111.5 177.5t-40 226.5z" />
<glyph unicode="p" horiz-adv-x="1315" d="M731 1094q108 0 197.5 -42.5t154 -117.5t100.5 -178t36 -224t-36 -224t-100.5 -178t-154 -117t-197.5 -42q-54 0 -100.5 10t-86.5 25.5t-72.5 35.5t-57.5 40v-594h-246v1307q0 59 -2.5 108.5t-4.5 85.5q-4 42 -7 76h200q4 -18 8 -37q4 -17 8 -38t7 -44q25 26 61 52.5 t81 47.5t98.5 34.5t113.5 13.5zM965 532q0 85 -22 151t-61.5 110t-94.5 67t-121 23q-44 0 -83 -10.5t-71.5 -25.5t-57.5 -32t-40 -31v-514q14 -13 37 -30t54 -32.5t69.5 -26.5t84.5 -11q66 0 122 23.5t97 69.5t64 113.5t23 155.5z" />
<glyph unicode="q" horiz-adv-x="1315" d="M584 1094q59 0 111.5 -13.5t97.5 -34.5t81 -47.5t62 -52.5q4 23 8 44t8 38q4 19 9 37h200q-4 -34 -7 -76q-3 -36 -5 -85.5t-2 -108.5v-1307h-246v594q-25 -20 -57.5 -40t-72.5 -35.5t-86.5 -25.5t-100.5 -10q-108 0 -197.5 42t-154 117t-100.5 178t-36 224t36 224 t100.5 178t154 117.5t197.5 42.5zM655 170q45 0 84 10.5t70 25.5t54 32.5t38 31.5v514q-15 13 -40 30t-57 32.5t-71 26t-84 10.5q-66 0 -121 -23t-94.5 -67t-61.5 -110t-22 -151q0 -88 23 -155.5t64 -113.5t97 -69.5t121 -23.5z" />
<glyph unicode="r" horiz-adv-x="842" d="M168 795q0 59 -2.5 108.5t-4.5 85.5q-4 42 -7 76h225q6 -24 10 -51q4 -23 8 -53t6 -62h5q22 37 52 72t68 62.5t83 44t98 16.5q26 0 47.5 -3.5t37.5 -8.5q18 -5 33 -11v-233q-18 6 -42 11q-20 4 -49 7.5t-64 3.5q-62 0 -110 -16.5t-81 -36.5q-39 -24 -67 -53v-754h-246 v795z" />
<glyph unicode="s" horiz-adv-x="967" d="M621 291q0 35 -21.5 60.5t-56.5 46t-79.5 38.5t-91.5 38.5t-91.5 45.5t-79.5 60.5t-56.5 83t-21.5 112.5q0 74 29 133t80.5 100t123.5 63t158 22q50 0 95 -6.5t83.5 -17t68.5 -23.5t50 -25v-219q-27 20 -61.5 36.5t-72.5 28.5t-77.5 19t-75.5 8q-39 0 -68.5 -8.5t-49 -23 t-29.5 -33t-10 -39.5q0 -32 21.5 -56t56.5 -44t79.5 -38t91 -39.5t91 -48t79.5 -63.5t56.5 -86.5t21.5 -116.5q0 -75 -30.5 -136t-85.5 -103.5t-132 -65.5t-170 -23q-54 0 -105.5 8t-95 20.5t-77.5 27.5t-55 30v217q34 -24 74.5 -43t83 -32.5t86 -21t83.5 -7.5 q88 0 134.5 35t46.5 86z" />
<glyph unicode="t" horiz-adv-x="791" d="M219 1065v240l246 51v-291h252v-199h-252v-534q0 -82 35.5 -116t101.5 -34q25 0 47 2.5t39 6.5q19 4 37 10v-207q-26 -7 -55 -12q-25 -5 -57.5 -8t-67.5 -3q-165 0 -245.5 89.5t-80.5 275.5v530h-174v199h174z" />
<glyph unicode="u" d="M870 1065h246v-795q0 -60 2 -109t5 -85q3 -42 7 -76h-225q-4 18 -8 41q-4 20 -8 47t-8 62q-20 -24 -51 -55t-74.5 -58.5t-99.5 -46.5t-126 -19q-107 0 -178 36t-113.5 93.5t-60.5 129t-18 141.5v694h246v-659q0 -58 15.5 -101t44 -71.5t68.5 -43t89 -14.5q42 0 81 13 t71 32t56.5 40.5t38.5 37.5v766z" />
<glyph unicode="v" horiz-adv-x="1087" d="M614 -8h-141l-463 1073h254l279 -703l278 703h254z" />
<glyph unicode="w" horiz-adv-x="1665" d="M831 713q-71 -181 -141.5 -361t-142.5 -360h-141q-100 269 -198 536t-198 537h248l234 -664l268 672h143l271 -672q57 168 115.5 332.5t115.5 331.5h248q-99 -270 -197 -537t-199 -536h-141q-71 180 -141.5 360t-143.5 361z" />
<glyph unicode="x" horiz-adv-x="1102" d="M678 551l405 -551h-288l-244 365l-246 -365h-287l404 551l-377 514h289l217 -328l217 328h287z" />
<glyph unicode="y" horiz-adv-x="1057" d="M6 -266q14 -7 32 -11q15 -4 35.5 -7t43.5 -3q37 0 76.5 13t77.5 46t74 89t65 143l12 39l-414 1022h262l269 -721l239 721h258l-379 -1059q-48 -135 -102 -233t-118 -161t-138 -93.5t-162 -30.5q-29 0 -53 3.5t-41 8.5q-20 5 -37 13v221v0z" />
<glyph unicode="z" horiz-adv-x="967" d="M555 872h-483v193h813v-117l-504 -755h524v-193h-854v117z" />
<glyph unicode="{" horiz-adv-x="836" d="M113 752q58 0 97 10.5t63 31.5t34 52.5t10 73.5q0 46 -11 98t-23.5 105.5t-23.5 108t-11 105.5q0 67 22 119.5t74.5 88.5t139.5 54.5t218 18.5v-184q-101 0 -148.5 -27t-47.5 -100q0 -43 9.5 -92t21 -99.5t21 -101t9.5 -96.5q0 -57 -16.5 -101t-45.5 -75t-70 -49.5 t-89 -24.5v-15q101 -15 161 -78t60 -174q0 -46 -9.5 -96t-21 -100t-21 -99t-9.5 -92q0 -38 12 -62.5t36 -38.5t61 -20t87 -6v-184q-131 0 -218 18.5t-139.5 54.5t-74.5 88.5t-22 119.5q0 51 11 105t23.5 107.5t23.5 105t11 99.5q0 42 -10 73.5t-34 52.5t-63 31.5t-97 10.5 v183z" />
<glyph unicode="|" horiz-adv-x="731" d="M236 1659h260v-2007h-260v2007z" />
<glyph unicode="}" horiz-adv-x="836" d="M723 569q-59 0 -98.5 -10.5t-63 -31.5t-33.5 -52.5t-10 -73.5q0 -48 11 -99.5t24 -105t24 -107.5t11 -105q0 -67 -22 -119.5t-75 -88.5t-140.5 -54.5t-217.5 -18.5v184q50 0 86.5 6t60.5 20t36 38.5t12 62.5q0 43 -9.5 92t-21.5 99t-21.5 100t-9.5 96q0 111 60.5 174 t160.5 78v15q-48 6 -89 24.5t-70 49.5t-45.5 75t-16.5 101q0 46 9.5 96.5t21.5 101t21.5 99.5t9.5 92q0 37 -12 61.5t-36 39t-60.5 20.5t-86.5 6v184q130 0 217.5 -18.5t140.5 -54.5t75 -88.5t22 -119.5q0 -51 -11 -105.5t-24 -108t-24 -105.5t-11 -98q0 -42 10 -73.5 t33.5 -52.5t63 -31.5t98.5 -10.5v-183z" />
<glyph unicode="~" horiz-adv-x="1456" d="M969 430q-50 0 -95 12.5t-85.5 31t-78 40.5t-73 40.5t-70.5 31t-71 12.5q-70 0 -107 -47.5t-37 -122.5h-198q0 87 21.5 159.5t63 125.5t103 82.5t141.5 29.5q52 0 97 -12.5t86 -31.5t78 -41t73 -41t71.5 -31.5t72.5 -12.5q69 0 105 47.5t36 124.5h201q0 -87 -22.5 -160 t-65.5 -125.5t-105 -82t-141 -29.5z" />
<glyph unicode="&#xa1;" horiz-adv-x="571" d="M424 -369h-277l25 936h227zM459 920q0 -38 -13 -70t-36.5 -55.5t-55.5 -36.5t-69 -13t-68.5 13t-54.5 36.5t-36 55.5t-13 70q0 37 13 69t36 55.5t54.5 36.5t68.5 13t69 -13t55.5 -36.5t36.5 -55.5t13 -69z" />
<glyph unicode="&#xa2;" horiz-adv-x="1055" d="M102 532q0 123 38 223.5t106 173t163.5 115t211.5 48.5l43 227h190l-47 -242q85 -18 145 -47v-221q-21 15 -49 30t-62 27t-73 19.5t-84 7.5q-77 0 -138 -25t-103 -71.5t-64.5 -113.5t-22.5 -151t22.5 -151t64.5 -113.5t103 -71t138 -24.5q45 0 84 7.5t73 19.5t62 26.5 t49 28.5v-221q-52 -25 -129 -43.5t-164 -18.5q-18 0 -34 1t-27 3l-37 -200h-188l45 241q-72 31 -130.5 80.5t-100 115t-63.5 146.5t-22 174z" />
<glyph unicode="&#xa3;" horiz-adv-x="1147" d="M117 793h139q-14 54 -22.5 115t-8.5 139q0 102 36 179.5t98.5 130t147 79t181.5 26.5q60 0 109.5 -10.5t85.5 -23.5q41 -15 75 -33v-217q-35 20 -77 36q-36 14 -85.5 25.5t-109.5 11.5q-43 0 -79.5 -13.5t-63 -40.5t-41.5 -67.5t-15 -93.5q0 -75 7.5 -133.5t19.5 -109.5 h344v-164h-305q6 -35 10 -74t4 -84q0 -68 -18 -115.5t-40 -76.5q-26 -35 -58 -56l4 -8q10 3 23 6q11 2 28 4t39 2q35 0 67.5 -4.5t65 -10.5t66 -10.5t71.5 -4.5q53 0 93.5 10.5t68.5 23.5q33 15 57 35v-213q-20 -22 -48 -39q-24 -15 -61 -27t-87 -12q-72 0 -123.5 13t-96 28 t-89 28t-101.5 13q-46 0 -86 -13t-71 -29q-36 -18 -66 -42l-82 133q59 34 106 81q20 20 39 44.5t34 53.5t24.5 63t9.5 72q0 57 -10.5 107.5t-24.5 101.5h-184v164z" />
<glyph unicode="&#xa4;" horiz-adv-x="1309" d="M188 680q0 140 72 250l-147 149l141 142l147 -150q54 35 117.5 54.5t134.5 19.5q69 0 132.5 -19.5t117.5 -54.5l152 150l141 -142l-149 -149q34 -54 52.5 -117.5t18.5 -132.5q0 -71 -18.5 -134.5t-52.5 -117.5l149 -149l-141 -142l-150 150q-56 -35 -118 -53.5 t-134 -18.5q-71 0 -134.5 19t-117.5 51l-147 -148l-141 142l147 149q-34 54 -53 117.5t-19 134.5zM399 680q0 -60 18.5 -111t52.5 -88.5t80.5 -58.5t102.5 -21t103 21t81 58.5t53 88.5t19 111t-19 111t-53 88t-81 58t-103 21t-102.5 -21t-80.5 -58t-52.5 -88t-18.5 -111z " />
<glyph unicode="&#xa5;" horiz-adv-x="1202" d="M807 700h258v-157h-334v-135h334v-158h-334v-250h-260v250h-332v158h332v135h-332v157h254l-391 734h287l311 -627l311 627h289z" />
<glyph unicode="&#xa6;" horiz-adv-x="731" d="M236 543h260v-891h-260v891zM236 1659h260v-891h-260v891z" />
<glyph unicode="&#xa7;" horiz-adv-x="1192" d="M1038 498q0 -85 -37.5 -153t-103.5 -116q62 -48 101.5 -111.5t39.5 -154.5q0 -93 -40 -166t-109 -123.5t-162.5 -77t-200.5 -26.5q-62 0 -118 8t-104 21t-86.5 28t-63.5 29v235q31 -22 70.5 -42t84 -35t94 -24t101.5 -9q119 0 187.5 46.5t68.5 127.5q0 44 -25.5 76.5 t-67.5 59t-96 49.5t-110 49t-110 57.5t-96 74.5t-67.5 100t-25.5 134q0 88 38 155t107 113q-65 47 -105 111t-40 158q0 87 35.5 156t98.5 116.5t150.5 72.5t192.5 25q115 0 201.5 -24t136.5 -52v-233q-26 17 -60 35t-75 33t-88 24.5t-97 9.5q-105 0 -163 -42t-58 -111 q0 -42 26 -73t68 -57t96.5 -50t110.5 -51t110.5 -59.5t96.5 -76.5t68 -102t26 -135zM780 489q0 42 -23 73.5t-61 57.5t-87 48.5t-101 46.5q-45 -23 -68.5 -62t-23.5 -86q0 -41 24 -71.5t63 -57t89.5 -50t103.5 -48.5q41 26 62.5 65t21.5 84z" />
<glyph unicode="&#xa8;" horiz-adv-x="920" d="M113 1376q0 28 10 52.5t27.5 42.5t42 28t53.5 10q28 0 52.5 -10t41.5 -28t27 -42.5t10 -52.5q0 -29 -10 -53t-27 -42t-41.5 -28t-52.5 -10q-29 0 -53.5 10t-42 28t-27.5 42t-10 53zM541 1376q0 28 10 52.5t28 42.5t43 28t54 10q28 0 52 -10t41.5 -28t27.5 -42.5t10 -52.5 q0 -29 -10 -53t-27.5 -42t-41.5 -28t-52 -10q-29 0 -54 10t-43 28t-28 42t-10 53z" />
<glyph unicode="&#xa9;" horiz-adv-x="1757" d="M133 717q0 103 26.5 198t75 178t117 151t151 116.5t178 75t198.5 26.5t198 -26.5t178 -75t151 -116.5t116.5 -151t75 -178t26.5 -198t-26.5 -198.5t-75 -178t-116.5 -151t-151 -117t-178 -75t-198 -26.5q-155 0 -290.5 58.5t-237 160t-160 237t-58.5 290.5zM311 717 q0 -126 44.5 -233.5t121 -186.5t180 -123.5t222.5 -44.5q118 0 221 44.5t179.5 123.5t120.5 186.5t44 233.5t-44 233.5t-120.5 186.5t-179.5 123.5t-221 44.5q-119 0 -222.5 -44.5t-180 -123.5t-121 -186.5t-44.5 -233.5zM508 717q0 91 29 167t81.5 131t125 85t159.5 30 q68 0 126.5 -16.5t96.5 -38.5v-174q-21 16 -44.5 31.5t-50 27.5t-56 19.5t-60.5 7.5q-55 0 -99 -19t-74.5 -54.5t-47 -85.5t-16.5 -111q0 -62 16.5 -112t47 -85t74.5 -54.5t99 -19.5q63 0 116 26t95 60v-174q-38 -23 -96.5 -39t-126.5 -16q-87 0 -159.5 30t-125 84.5 t-81.5 131t-29 168.5z" />
<glyph unicode="&#xaa;" horiz-adv-x="940" d="M805 758q-13 -6 -40.5 -14.5t-68.5 -8.5q-55 0 -88 24.5t-47 53.5q-14 -16 -33 -32t-43.5 -28.5t-55 -20t-67.5 -7.5q-50 0 -92 14.5t-72.5 42.5t-47.5 69t-17 93q0 49 20 92t58 75t92.5 50.5t124.5 18.5q32 0 61 -3t52 -10v33q0 55 -30.5 86t-107.5 31q-38 0 -73 -8 t-63.5 -19t-49.5 -22t-33 -17v156q14 6 37 15.5t54 18t70.5 15t86.5 6.5q137 0 211 -61t74 -176v-289q0 -38 13 -53t38 -15q7 0 13.5 1t11.5 3q6 2 12 5v-119zM418 864q43 0 73.5 19.5t49.5 48.5v119q-16 5 -36.5 7.5t-45.5 2.5q-69 0 -108.5 -31t-39.5 -78q0 -38 27 -63 t80 -25zM133 446v132h674v-132h-674z" />
<glyph unicode="&#xab;" horiz-adv-x="1225" d="M559 244v-224l-477 410v219l477 410v-223l-278 -297zM1030 244v-224l-477 410v219l477 410v-223l-278 -297z" />
<glyph unicode="&#xac;" horiz-adv-x="1434" d="M1280 281h-221v391h-946v221h1167v-612z" />
<glyph unicode="&#xae;" horiz-adv-x="1757" d="M133 717q0 103 26.5 198t75 178t117 151t151 116.5t178 75t198.5 26.5t198 -26.5t178 -75t151 -116.5t116.5 -151t75 -178t26.5 -198t-26.5 -198.5t-75 -178t-116.5 -151t-151 -117t-178 -75t-198 -26.5q-155 0 -290.5 58.5t-237 160t-160 237t-58.5 290.5zM311 717 q0 -125 44.5 -232.5t121.5 -186.5t180.5 -124t221.5 -45q117 0 220 45t179.5 124t121 186.5t44.5 232.5q0 124 -44.5 231.5t-121 187t-179.5 124.5t-220 45q-78 0 -151 -20.5t-136 -58t-115 -91t-88.5 -118.5t-57 -141t-20.5 -159zM616 315v793h256q70 0 125 -19.5 t92.5 -53.5t57.5 -80.5t20 -100.5q0 -71 -34.5 -128t-96.5 -89l224 -322h-197l-180 285h-105v-285h-162zM997 854q0 62 -37.5 90.5t-103.5 28.5h-78v-238h78q66 0 103.5 29.5t37.5 89.5z" />
<glyph unicode="&#xaf;" horiz-adv-x="848" d="M735 1307h-622v186h622v-186z" />
<glyph unicode="&#xb0;" horiz-adv-x="827" d="M72 1118q0 72 26.5 134.5t72 109t107.5 73.5t134 27q71 0 134 -27t109.5 -73.5t73.5 -109t27 -134.5q0 -71 -27 -133t-73.5 -108t-109.5 -72.5t-134 -26.5q-72 0 -134 26.5t-107.5 72.5t-72 108t-26.5 133zM256 1118q0 -34 11.5 -63.5t32.5 -51.5t49.5 -34.5t62.5 -12.5 q35 0 64.5 12.5t50.5 34.5t32.5 51.5t11.5 63.5q0 35 -11.5 65.5t-32.5 53t-50.5 35t-64.5 12.5q-34 0 -62.5 -12.5t-49.5 -35t-32.5 -53t-11.5 -65.5z" />
<glyph unicode="&#xb1;" horiz-adv-x="1481" d="M842 1180v-316h444v-207h-444v-327h-207v327h-440v207h440v316h207zM1286 0h-1091v207h1091v-207z" />
<glyph unicode="&#xb2;" horiz-adv-x="741" d="M131 1380q50 32 105 50t114 18q58 0 105.5 -17t81.5 -48t52.5 -74t18.5 -95q0 -63 -33.5 -127.5t-99.5 -140.5l-94 -110h248v-156h-516v84l198 237q59 70 87 118.5t28 90.5q0 38 -25 58t-67 20q-26 0 -53.5 -8.5t-53.5 -22t-50.5 -30t-45.5 -31.5v184z" />
<glyph unicode="&#xb3;" horiz-adv-x="717" d="M422 920q0 48 -53 75t-156 27v74l135 182h-233v156h473v-84l-152 -203q75 -25 121.5 -83.5t46.5 -143.5q0 -53 -19 -99.5t-56.5 -81t-92 -54t-125.5 -19.5q-52 0 -106.5 11.5t-91.5 27.5v163q46 -18 98 -30.5t94 -12.5q56 0 86.5 28t30.5 67z" />
<glyph unicode="&#xb4;" horiz-adv-x="805" d="M692 1556l-356 -301h-223l243 301h336z" />
<glyph unicode="&#xb5;" horiz-adv-x="1354" d="M1124 1065v-754q0 -69 28.5 -98t82.5 -29q14 0 26.5 2t21.5 5q11 4 20 8v-195q-6 -2 -20 -6t-33.5 -8t-43.5 -7t-51 -3q-106 0 -171.5 44.5t-88.5 129.5h-4q-18 -27 -49.5 -59t-76 -59.5t-101 -46t-125.5 -18.5q-38 0 -68.5 6t-56.5 17v-361h-246v1432h246v-659 q0 -58 15.5 -101t44 -71.5t68.5 -43t89 -14.5q42 0 81 13t71.5 32t57 40.5t38.5 37.5v766h245z" />
<glyph unicode="&#xb6;" horiz-adv-x="1526" d="M1331 -512h-231v1741h-217v-1741h-232v985h-10q-128 0 -226 34.5t-165.5 97.5t-102 151.5t-34.5 195.5q0 108 34.5 196.5t102 152t165.5 98.5t226 35h690v-1946z" />
<glyph unicode="&#xb7;" horiz-adv-x="653" d="M154 698q0 38 13 69.5t36 54.5t55 35.5t70 12.5q37 0 68.5 -12.5t54.5 -35.5t36 -54.5t13 -69.5t-13 -69.5t-36 -55t-54.5 -36.5t-68.5 -13q-38 0 -70 13t-55 36.5t-36 55t-13 69.5z" />
<glyph unicode="&#xb8;" horiz-adv-x="659" d="M113 -367q20 -10 43 -17q20 -7 45.5 -12t54.5 -5q46 0 72 22.5t26 61.5q0 48 -55 77t-152 29l119 211h180l-79 -127q40 -9 74 -25t59 -40t39 -55.5t14 -69.5q0 -53 -24 -93t-63.5 -66.5t-90 -40t-103.5 -13.5q-32 0 -61 3.5t-51 8.5q-26 5 -47 12v139z" />
<glyph unicode="&#xb9;" horiz-adv-x="528" d="M416 1434v-754h-176v598h-127v156h303z" />
<glyph unicode="&#xba;" horiz-adv-x="981" d="M133 1094q0 81 26.5 148.5t74 116t113.5 76t145 27.5t144.5 -27.5t112.5 -76t73 -116t26 -148.5t-26 -149t-73 -117t-112.5 -76t-144.5 -27t-145 27t-113.5 76t-74 117t-26.5 149zM315 1094q0 -109 48 -167.5t129 -58.5q80 0 128 58.5t48 167.5q0 106 -48 165.5 t-128 59.5q-81 0 -129 -59.5t-48 -165.5zM133 442v136h715v-136h-715z" />
<glyph unicode="&#xbb;" horiz-adv-x="1225" d="M195 836v223l477 -410v-219l-477 -410v224l278 295zM666 836v223l477 -410v-219l-477 -410v224l278 295z" />
<glyph unicode="&#xbc;" horiz-adv-x="1546" d="M416 1434v-754h-176v598h-127v156h303zM987 1462h199l-705 -1491h-198zM838 236l401 524h98v-469h97v-150h-97v-141h-176v141h-323v95zM1161 291v194l-149 -194h149z" />
<glyph unicode="&#xbd;" horiz-adv-x="1626" d="M416 1434v-754h-176v598h-127v156h303zM987 1462h199l-705 -1491h-198zM1016 700q49 32 104.5 50t114.5 18q58 0 105.5 -17t81.5 -48.5t52.5 -75t18.5 -95.5q0 -61 -33.5 -124.5t-99.5 -141.5l-94 -110h247v-156h-516v84l199 238q59 69 87 117.5t28 90.5q0 38 -24.5 58 t-67.5 20q-26 0 -53.5 -8.5t-53.5 -22t-50.5 -30t-45.5 -31.5v184z" />
<glyph unicode="&#xbe;" horiz-adv-x="1675" d="M422 920q0 48 -53 75t-156 27v74l135 182h-233v156h473v-84l-152 -203q75 -25 121.5 -83.5t46.5 -143.5q0 -53 -19 -99.5t-56.5 -81t-92 -54t-125.5 -19.5q-52 0 -106.5 11.5t-91.5 27.5v163q46 -18 98 -30.5t94 -12.5q56 0 86.5 28t30.5 67zM1118 1462h197l-705 -1491 h-196zM969 236l399 524h98v-469h97v-150h-97v-141h-174v141h-323v95zM1292 291v194l-151 -194h151z" />
<glyph unicode="&#xbf;" horiz-adv-x="926" d="M668 567q6 -42 6 -78q0 -70 -21.5 -125t-54.5 -100t-70.5 -83t-70.5 -74t-54.5 -73t-21.5 -79q0 -65 48 -102t136 -37q65 0 128 18.5t120 46.5v-215q-77 -35 -150 -49t-139 -14q-92 0 -167.5 23.5t-129.5 66.5t-84 104t-30 137q0 57 15 102t39.5 82t55.5 68.5t64 61.5 t64 59.5t55.5 63t39.5 73t15 88.5v18t-2 17h209zM737 920q0 -38 -13.5 -70t-36.5 -55.5t-55 -36.5t-69 -13q-38 0 -69.5 13t-55 36.5t-36.5 55.5t-13 70q0 37 13 69t36.5 55.5t55 36.5t69.5 13q37 0 69 -13t55 -36.5t36.5 -55.5t13.5 -69z" />
<glyph unicode="&#xc0;" horiz-adv-x="1356" d="M2 0zM1354 0h-277l-104 270h-592l-105 -270h-274l586 1442h180zM455 469h442l-219 578zM661 1918l244 -301h-223l-357 301h336z" />
<glyph unicode="&#xc1;" horiz-adv-x="1356" d="M2 0zM1354 0h-277l-104 270h-592l-105 -270h-274l586 1442h180zM455 469h442l-219 578zM1028 1918l-356 -301h-223l243 301h336z" />
<glyph unicode="&#xc2;" horiz-adv-x="1356" d="M2 0zM1354 0h-277l-104 270h-592l-105 -270h-274l586 1442h180zM455 469h442l-219 578zM804 1929l250 -312h-223l-154 177l-153 -177h-223l249 312h254z" />
<glyph unicode="&#xc3;" horiz-adv-x="1356" d="M2 0zM1354 0h-277l-104 270h-592l-105 -270h-274l586 1442h180zM455 469h442l-219 578zM1084 1956q0 -61 -14 -119.5t-44 -104.5t-78 -74t-116 -28q-43 0 -75.5 11t-58.5 27t-47.5 35.5t-42 35.5t-42 27t-48.5 11q-25 0 -42 -11.5t-27.5 -31.5t-15 -46.5t-5.5 -55.5h-157 q0 58 13.5 116.5t43 105t76.5 75.5t114 29q41 0 73 -11t58.5 -27.5t48.5 -35.5t43 -35.5t42.5 -27.5t46.5 -11q27 0 45 13t29 34t16 47t6 52h158z" />
<glyph unicode="&#xc4;" horiz-adv-x="1356" d="M2 0zM1354 0h-277l-104 270h-592l-105 -270h-274l586 1442h180zM455 469h442l-219 578zM330 1747q0 28 10 52.5t27.5 42.5t42 28t53.5 10q28 0 52.5 -10t41.5 -28t27 -42.5t10 -52.5q0 -29 -10 -53t-27 -42t-41.5 -28t-52.5 -10q-29 0 -53.5 10t-42 28t-27.5 42t-10 53z M758 1747q0 28 10 52.5t28 42.5t43 28t54 10q28 0 52 -10t41.5 -28t27.5 -42.5t10 -52.5q0 -29 -10 -53t-27.5 -42t-41.5 -28t-52 -10q-29 0 -54 10t-43 28t-28 42t-10 53z" />
<glyph unicode="&#xc5;" horiz-adv-x="1356" d="M2 0zM1354 0h-277l-104 270h-592l-105 -270h-274l586 1442h180zM455 469h442l-219 578zM565 1613q0 -57 31 -90.5t82 -33.5t82 33.5t31 90.5q0 54 -31 87.5t-82 33.5t-82 -33.5t-31 -87.5zM412 1613q0 58 19.5 106.5t55 83.5t84 54t107.5 19q58 0 107 -19t84.5 -54 t55 -83.5t19.5 -106.5q0 -59 -19.5 -108t-55 -84t-84.5 -54.5t-107 -19.5q-59 0 -107.5 19.5t-84 54.5t-55 84t-19.5 108z" />
<glyph unicode="&#xc6;" horiz-adv-x="1942" d="M1223 215h600v-215h-860v270h-502l-162 -270h-297l875 1434h946v-215h-600v-359h518v-215h-518v-430zM963 469v637l-383 -637h383z" />
<glyph unicode="&#xc7;" horiz-adv-x="1317" d="M102 0zM102 717q0 164 52.5 301t146.5 235.5t223.5 153.5t284.5 55q61 0 118.5 -8t107.5 -21.5t93 -30t76 -34.5v-266q-33 25 -73 49t-86.5 42.5t-100 30t-113.5 11.5q-105 0 -189 -37t-143 -105t-90.5 -163.5t-31.5 -212.5q0 -118 31.5 -213.5t90.5 -163t143 -104.5 t189 -37q60 0 113.5 11t100 29t86.5 41.5t73 49.5v-264q-33 -19 -76 -36t-93 -30t-107.5 -21t-118.5 -8q-155 0 -284.5 54.5t-223.5 153t-146.5 236t-52.5 302.5zM541 -367q20 -10 43 -17q20 -7 45.5 -12t54.5 -5q46 0 72 22.5t26 61.5q0 48 -55 77t-152 29l119 211h180 l-79 -127q40 -9 74 -25t59 -40t39 -55.5t14 -69.5q0 -53 -24 -93t-63.5 -66.5t-90 -40t-103.5 -13.5q-32 0 -61 3.5t-51 8.5q-26 5 -47 12v139z" />
<glyph unicode="&#xc8;" horiz-adv-x="1182" d="M188 0zM449 215h600v-215h-861v1434h861v-215h-600v-359h518v-215h-518v-430zM571 1910l244 -301h-223l-357 301h336z" />
<glyph unicode="&#xc9;" horiz-adv-x="1182" d="M188 0zM449 215h600v-215h-861v1434h861v-215h-600v-359h518v-215h-518v-430zM968 1910l-356 -301h-223l243 301h336z" />
<glyph unicode="&#xca;" horiz-adv-x="1182" d="M188 0zM449 215h600v-215h-861v1434h861v-215h-600v-359h518v-215h-518v-430zM735 1921l250 -312h-223l-154 177l-153 -177h-223l249 312h254z" />
<glyph unicode="&#xcb;" horiz-adv-x="1182" d="M188 0zM449 215h600v-215h-861v1434h861v-215h-600v-359h518v-215h-518v-430zM273 1738q0 28 10 52.5t27.5 42.5t42 28t53.5 10q28 0 52.5 -10t41.5 -28t27 -42.5t10 -52.5q0 -29 -10 -53t-27 -42t-41.5 -28t-52.5 -10q-29 0 -53.5 10t-42 28t-27.5 42t-10 53zM701 1738 q0 28 10 52.5t28 42.5t43 28t54 10q28 0 52 -10t41.5 -28t27.5 -42.5t10 -52.5q0 -29 -10 -53t-27.5 -42t-41.5 -28t-52 -10q-29 0 -54 10t-43 28t-28 42t-10 53z" />
<glyph unicode="&#xcc;" horiz-adv-x="639" d="M0 0zM188 1434h261v-1434h-261v1434zM296 1910l244 -301h-223l-357 301h336z" />
<glyph unicode="&#xcd;" horiz-adv-x="639" d="M94 0zM188 1434h261v-1434h-261v1434zM673 1910l-356 -301h-223l243 301h336z" />
<glyph unicode="&#xce;" horiz-adv-x="639" d="M0 0zM188 1434h261v-1434h-261v1434zM447 1921l250 -312h-223l-154 177l-153 -177h-223l249 312h254z" />
<glyph unicode="&#xcf;" horiz-adv-x="639" d="M0 0zM188 1434h261v-1434h-261v1434zM-25 1738q0 28 10 52.5t27.5 42.5t42 28t53.5 10q28 0 52.5 -10t41.5 -28t27 -42.5t10 -52.5q0 -29 -10 -53t-27 -42t-41.5 -28t-52.5 -10q-29 0 -53.5 10t-42 28t-27.5 42t-10 53zM403 1738q0 28 10 52.5t28 42.5t43 28t54 10 q28 0 52 -10t41.5 -28t27.5 -42.5t10 -52.5q0 -29 -10 -53t-27.5 -42t-41.5 -28t-52 -10q-29 0 -54 10t-43 28t-28 42t-10 53z" />
<glyph unicode="&#xd0;" horiz-adv-x="1479" d="M201 561h-170v174h170v699h356q212 0 366.5 -53t255 -148t149 -227t48.5 -289q0 -158 -48.5 -289.5t-149 -226.5t-255 -148t-366.5 -53h-356v561zM557 215q138 0 240.5 33.5t170 97.5t101 157.5t33.5 213.5t-33.5 213t-101 157.5t-170 98t-240.5 33.5h-96v-484h264v-174 h-264v-346h96z" />
<glyph unicode="&#xd1;" horiz-adv-x="1632" d="M188 0zM1268 -8l-819 971v-963h-261v1442h174l820 -973v965h260v-1442h-174zM1213 1944q0 -61 -14 -119.5t-44 -104.5t-78 -74t-116 -28q-43 0 -75.5 11t-58.5 27t-47.5 35.5t-42 35.5t-42 27t-48.5 11q-25 0 -42 -11.5t-27.5 -31.5t-15 -46.5t-5.5 -55.5h-157 q0 58 13.5 116.5t43 105t76.5 75.5t114 29q41 0 73 -11t58.5 -27.5t48.5 -35.5t43 -35.5t42.5 -27.5t46.5 -11q27 0 45 13t29 34t16 47t6 52h158z" />
<glyph unicode="&#xd2;" horiz-adv-x="1655" d="M102 0zM377 717q0 -119 32.5 -215t92 -163.5t142 -104.5t183.5 -37t184 37t142.5 104.5t92 163.5t32.5 215q0 118 -32.5 214t-92 163.5t-142.5 104t-184 36.5t-183.5 -36.5t-142 -104t-92 -163.5t-32.5 -214zM102 717q0 164 53 301t149 235.5t229 153.5t294 55 q160 0 293.5 -55t229.5 -153.5t149 -235.5t53 -301t-53 -301t-149 -236t-229.5 -154t-293.5 -55q-161 0 -294 55t-229 154t-149 236t-53 301zM780 1925l244 -301h-223l-357 301h336z" />
<glyph unicode="&#xd3;" horiz-adv-x="1655" d="M102 0zM377 717q0 -119 32.5 -215t92 -163.5t142 -104.5t183.5 -37t184 37t142.5 104.5t92 163.5t32.5 215q0 118 -32.5 214t-92 163.5t-142.5 104t-184 36.5t-183.5 -36.5t-142 -104t-92 -163.5t-32.5 -214zM102 717q0 164 53 301t149 235.5t229 153.5t294 55 q160 0 293.5 -55t229.5 -153.5t149 -235.5t53 -301t-53 -301t-149 -236t-229.5 -154t-293.5 -55q-161 0 -294 55t-229 154t-149 236t-53 301zM1188 1925l-356 -301h-223l243 301h336z" />
<glyph unicode="&#xd4;" horiz-adv-x="1655" d="M102 0zM377 717q0 -119 32.5 -215t92 -163.5t142 -104.5t183.5 -37t184 37t142.5 104.5t92 163.5t32.5 215q0 118 -32.5 214t-92 163.5t-142.5 104t-184 36.5t-183.5 -36.5t-142 -104t-92 -163.5t-32.5 -214zM102 717q0 164 53 301t149 235.5t229 153.5t294 55 q160 0 293.5 -55t229.5 -153.5t149 -235.5t53 -301t-53 -301t-149 -236t-229.5 -154t-293.5 -55q-161 0 -294 55t-229 154t-149 236t-53 301zM952 1936l250 -312h-223l-154 177l-153 -177h-223l249 312h254z" />
<glyph unicode="&#xd5;" horiz-adv-x="1655" d="M102 0zM377 717q0 -119 32.5 -215t92 -163.5t142 -104.5t183.5 -37t184 37t142.5 104.5t92 163.5t32.5 215q0 118 -32.5 214t-92 163.5t-142.5 104t-184 36.5t-183.5 -36.5t-142 -104t-92 -163.5t-32.5 -214zM102 717q0 164 53 301t149 235.5t229 153.5t294 55 q160 0 293.5 -55t229.5 -153.5t149 -235.5t53 -301t-53 -301t-149 -236t-229.5 -154t-293.5 -55q-161 0 -294 55t-229 154t-149 236t-53 301zM1231 1962q0 -61 -14 -119.5t-44 -104.5t-78 -74t-116 -28q-43 0 -75.5 11t-58.5 27t-47.5 35.5t-42 35.5t-42 27t-48.5 11 q-25 0 -42 -11.5t-27.5 -31.5t-15 -46.5t-5.5 -55.5h-157q0 58 13.5 116.5t43 105t76.5 75.5t114 29q41 0 73 -11t58.5 -27.5t48.5 -35.5t43 -35.5t42.5 -27.5t46.5 -11q27 0 45 13t29 34t16 47t6 52h158z" />
<glyph unicode="&#xd6;" horiz-adv-x="1655" d="M102 0zM377 717q0 -119 32.5 -215t92 -163.5t142 -104.5t183.5 -37t184 37t142.5 104.5t92 163.5t32.5 215q0 118 -32.5 214t-92 163.5t-142.5 104t-184 36.5t-183.5 -36.5t-142 -104t-92 -163.5t-32.5 -214zM102 717q0 164 53 301t149 235.5t229 153.5t294 55 q160 0 293.5 -55t229.5 -153.5t149 -235.5t53 -301t-53 -301t-149 -236t-229.5 -154t-293.5 -55q-161 0 -294 55t-229 154t-149 236t-53 301zM490 1753q0 28 10 52.5t27.5 42.5t42 28t53.5 10q28 0 52.5 -10t41.5 -28t27 -42.5t10 -52.5q0 -29 -10 -53t-27 -42t-41.5 -28 t-52.5 -10q-29 0 -53.5 10t-42 28t-27.5 42t-10 53zM918 1753q0 28 10 52.5t28 42.5t43 28t54 10q28 0 52 -10t41.5 -28t27.5 -42.5t10 -52.5q0 -29 -10 -53t-27.5 -42t-41.5 -28t-52 -10q-29 0 -54 10t-43 28t-28 42t-10 53z" />
<glyph unicode="&#xd7;" horiz-adv-x="1354" d="M266 1155l410 -412l411 412l154 -154l-412 -411l412 -410l-154 -153l-411 409l-410 -409l-153 153l409 410l-409 411z" />
<glyph unicode="&#xd8;" horiz-adv-x="1645" d="M96 717q0 164 53 301t149 235.5t229 153.5t294 55q118 0 219.5 -30t186.5 -84l94 114h225l-184 -227q88 -97 136 -228.5t48 -289.5q0 -164 -53 -301t-149 -236t-229.5 -154t-293.5 -55q-117 0 -218.5 28.5t-186.5 84.5l-94 -113h-226l187 226q-90 99 -138.5 230 t-48.5 290zM371 717q0 -94 20.5 -173.5t59.5 -142.5l622 758q-52 37 -115.5 56.5t-136.5 19.5q-101 0 -183.5 -36.5t-142 -104t-92 -163.5t-32.5 -214zM1272 717q0 93 -21 171.5t-59 141.5l-623 -758q107 -75 252 -75q101 0 184 37t142.5 104.5t92 163.5t32.5 215z" />
<glyph unicode="&#xd9;" horiz-adv-x="1526" d="M178 0zM178 1434h260v-895q0 -95 22.5 -160.5t64.5 -106t102 -59t135 -18.5t134.5 18.5t101.5 59t64.5 106t22.5 160.5v895h261v-893q0 -146 -42.5 -253t-119.5 -177.5t-184.5 -105t-237.5 -34.5t-237.5 33.5t-184.5 103t-119.5 177t-42.5 256.5v893zM707 1910l244 -301 h-223l-357 301h336z" />
<glyph unicode="&#xda;" horiz-adv-x="1526" d="M178 0zM178 1434h260v-895q0 -95 22.5 -160.5t64.5 -106t102 -59t135 -18.5t134.5 18.5t101.5 59t64.5 106t22.5 160.5v895h261v-893q0 -146 -42.5 -253t-119.5 -177.5t-184.5 -105t-237.5 -34.5t-237.5 33.5t-184.5 103t-119.5 177t-42.5 256.5v893zM1134 1910 l-356 -301h-223l243 301h336z" />
<glyph unicode="&#xdb;" horiz-adv-x="1526" d="M178 0zM178 1434h260v-895q0 -95 22.5 -160.5t64.5 -106t102 -59t135 -18.5t134.5 18.5t101.5 59t64.5 106t22.5 160.5v895h261v-893q0 -146 -42.5 -253t-119.5 -177.5t-184.5 -105t-237.5 -34.5t-237.5 33.5t-184.5 103t-119.5 177t-42.5 256.5v893zM888 1921l250 -312 h-223l-154 177l-153 -177h-223l249 312h254z" />
<glyph unicode="&#xdc;" horiz-adv-x="1536" d="M182 0zM182 1434h260v-895q0 -95 22.5 -160.5t64.5 -106t102 -59t135 -18.5t134.5 18.5t101.5 59t64.5 106t22.5 160.5v895h261v-893q0 -146 -42.5 -253t-119.5 -177.5t-184.5 -105t-237.5 -34.5t-237.5 33.5t-184.5 103t-119.5 177t-42.5 256.5v893zM420 1747 q0 28 10 52.5t27.5 42.5t42 28t53.5 10q28 0 52.5 -10t41.5 -28t27 -42.5t10 -52.5q0 -29 -10 -53t-27 -42t-41.5 -28t-52.5 -10q-29 0 -53.5 10t-42 28t-27.5 42t-10 53zM848 1747q0 28 10 52.5t28 42.5t43 28t54 10q28 0 52 -10t41.5 -28t27.5 -42.5t10 -52.5 q0 -29 -10 -53t-27.5 -42t-41.5 -28t-52 -10q-29 0 -54 10t-43 28t-28 42t-10 53z" />
<glyph unicode="&#xdd;" horiz-adv-x="1190" d="M0 0zM725 557v-557h-260v557l-469 877h287l311 -625l311 625h289zM1018 1910l-356 -301h-223l243 301h336z" />
<glyph unicode="&#xde;" horiz-adv-x="1264" d="M195 1434h260v-230h188q133 0 234 -34.5t169 -95.5t103 -144t35 -180t-35 -180.5t-103 -145t-169 -96.5t-234 -35h-188v-293h-260v1434zM909 750q0 122 -75.5 180.5t-210.5 58.5h-168v-481h168q139 0 212.5 59t73.5 183z" />
<glyph unicode="&#xdf;" horiz-adv-x="1341" d="M825 788q0 -40 33.5 -68t84.5 -53.5t109.5 -53t109.5 -67.5t84.5 -97t33.5 -140q0 -78 -30.5 -140.5t-85.5 -106.5t-131 -67.5t-167 -23.5q-51 0 -98.5 8t-87.5 20t-71 26t-50 26v203q25 -17 62 -33.5t78.5 -30t84 -22t80.5 -8.5q43 0 75 12t53 32t31.5 45.5t10.5 53.5 q0 51 -34 84t-85 59.5t-110.5 51t-110.5 59t-85 83.5t-34 124q0 57 18.5 96t46.5 67t61 50t61 46t46.5 54t18.5 74q0 40 -17 69.5t-44.5 49t-62 29.5t-68.5 10q-38 0 -76.5 -13t-70.5 -39.5t-52 -67t-20 -95.5v-1094h-242v1092q0 90 32.5 164.5t93 127.5t147 82t194.5 29 q105 0 187.5 -24t140 -66t88 -99t30.5 -122q0 -64 -19.5 -109.5t-48.5 -79.5t-63 -59t-63 -47.5t-48.5 -46t-19.5 -54.5z" />
<glyph unicode="&#xe0;" horiz-adv-x="1124" d="M82 0zM160 1024q19 7 52 19t79 23.5t103.5 19.5t125.5 8q206 0 316 -92t110 -267v-446q0 -63 23.5 -89t68.5 -26q18 0 31 5q7 2 14 5v-168q-12 -6 -51 -16t-102 -10q-46 0 -81.5 12t-61 31.5t-41.5 45t-23 52.5q-19 -26 -46.5 -54.5t-65.5 -52t-87 -38.5t-110 -15 q-73 0 -134 22t-105 64t-68.5 104t-24.5 142q0 72 28.5 134t84 108.5t135.5 73t184 26.5q59 0 107 -8t79 -14v75q0 45 -11.5 81t-38 61.5t-69.5 39t-106 13.5q-57 0 -108 -10.5t-92 -24.5t-70.5 -28.5t-44.5 -22.5v217zM496 170q71 0 123 32.5t81 82.5v178q-21 6 -57.5 13 t-83.5 7q-52 0 -94 -12.5t-71.5 -34.5t-45.5 -53t-16 -68q0 -63 41 -104t123 -41zM524 1556l244 -301h-223l-357 301h336z" />
<glyph unicode="&#xe1;" horiz-adv-x="1124" d="M82 0zM160 1024q19 7 52 19t79 23.5t103.5 19.5t125.5 8q206 0 316 -92t110 -267v-446q0 -63 23.5 -89t68.5 -26q18 0 31 5q7 2 14 5v-168q-12 -6 -51 -16t-102 -10q-46 0 -81.5 12t-61 31.5t-41.5 45t-23 52.5q-19 -26 -46.5 -54.5t-65.5 -52t-87 -38.5t-110 -15 q-73 0 -134 22t-105 64t-68.5 104t-24.5 142q0 72 28.5 134t84 108.5t135.5 73t184 26.5q59 0 107 -8t79 -14v75q0 45 -11.5 81t-38 61.5t-69.5 39t-106 13.5q-57 0 -108 -10.5t-92 -24.5t-70.5 -28.5t-44.5 -22.5v217zM496 170q71 0 123 32.5t81 82.5v178q-21 6 -57.5 13 t-83.5 7q-52 0 -94 -12.5t-71.5 -34.5t-45.5 -53t-16 -68q0 -63 41 -104t123 -41zM880 1556l-356 -301h-223l243 301h336z" />
<glyph unicode="&#xe2;" horiz-adv-x="1124" d="M82 0zM160 1024q19 7 52 19t79 23.5t103.5 19.5t125.5 8q206 0 316 -92t110 -267v-446q0 -63 23.5 -89t68.5 -26q18 0 31 5q7 2 14 5v-168q-12 -6 -51 -16t-102 -10q-46 0 -81.5 12t-61 31.5t-41.5 45t-23 52.5q-19 -26 -46.5 -54.5t-65.5 -52t-87 -38.5t-110 -15 q-73 0 -134 22t-105 64t-68.5 104t-24.5 142q0 72 28.5 134t84 108.5t135.5 73t184 26.5q59 0 107 -8t79 -14v75q0 45 -11.5 81t-38 61.5t-69.5 39t-106 13.5q-57 0 -108 -10.5t-92 -24.5t-70.5 -28.5t-44.5 -22.5v217zM496 170q71 0 123 32.5t81 82.5v178q-21 6 -57.5 13 t-83.5 7q-52 0 -94 -12.5t-71.5 -34.5t-45.5 -53t-16 -68q0 -63 41 -104t123 -41zM671 1567l250 -312h-223l-154 177l-153 -177h-223l249 312h254z" />
<glyph unicode="&#xe3;" horiz-adv-x="1124" d="M82 0zM160 1024q19 7 52 19t79 23.5t103.5 19.5t125.5 8q206 0 316 -92t110 -267v-446q0 -63 23.5 -89t68.5 -26q18 0 31 5q7 2 14 5v-168q-12 -6 -51 -16t-102 -10q-46 0 -81.5 12t-61 31.5t-41.5 45t-23 52.5q-19 -26 -46.5 -54.5t-65.5 -52t-87 -38.5t-110 -15 q-73 0 -134 22t-105 64t-68.5 104t-24.5 142q0 72 28.5 134t84 108.5t135.5 73t184 26.5q59 0 107 -8t79 -14v75q0 45 -11.5 81t-38 61.5t-69.5 39t-106 13.5q-57 0 -108 -10.5t-92 -24.5t-70.5 -28.5t-44.5 -22.5v217zM496 170q71 0 123 32.5t81 82.5v178q-21 6 -57.5 13 t-83.5 7q-52 0 -94 -12.5t-71.5 -34.5t-45.5 -53t-16 -68q0 -63 41 -104t123 -41zM932 1606q0 -61 -14 -119.5t-44 -104.5t-78 -74t-116 -28q-43 0 -75.5 11t-58.5 27t-47.5 35.5t-42 35.5t-42 27t-48.5 11q-25 0 -42 -11.5t-27.5 -31.5t-15 -46.5t-5.5 -55.5h-157 q0 58 13.5 116.5t43 105t76.5 75.5t114 29q41 0 73 -11t58.5 -27.5t48.5 -35.5t43 -35.5t42.5 -27.5t46.5 -11q27 0 45 13t29 34t16 47t6 52h158z" />
<glyph unicode="&#xe4;" horiz-adv-x="1124" d="M82 0zM160 1024q19 7 52 19t79 23.5t103.5 19.5t125.5 8q206 0 316 -92t110 -267v-446q0 -63 23.5 -89t68.5 -26q18 0 31 5q7 2 14 5v-168q-12 -6 -51 -16t-102 -10q-46 0 -81.5 12t-61 31.5t-41.5 45t-23 52.5q-19 -26 -46.5 -54.5t-65.5 -52t-87 -38.5t-110 -15 q-73 0 -134 22t-105 64t-68.5 104t-24.5 142q0 72 28.5 134t84 108.5t135.5 73t184 26.5q59 0 107 -8t79 -14v75q0 45 -11.5 81t-38 61.5t-69.5 39t-106 13.5q-57 0 -108 -10.5t-92 -24.5t-70.5 -28.5t-44.5 -22.5v217zM496 170q71 0 123 32.5t81 82.5v178q-21 6 -57.5 13 t-83.5 7q-52 0 -94 -12.5t-71.5 -34.5t-45.5 -53t-16 -68q0 -63 41 -104t123 -41zM195 1386q0 28 10 52.5t27.5 42.5t42 28t53.5 10q28 0 52.5 -10t41.5 -28t27 -42.5t10 -52.5q0 -29 -10 -53t-27 -42t-41.5 -28t-52.5 -10q-29 0 -53.5 10t-42 28t-27.5 42t-10 53zM623 1386 q0 28 10 52.5t28 42.5t43 28t54 10q28 0 52 -10t41.5 -28t27.5 -42.5t10 -52.5q0 -29 -10 -53t-27.5 -42t-41.5 -28t-52 -10q-29 0 -54 10t-43 28t-28 42t-10 53z" />
<glyph unicode="&#xe5;" horiz-adv-x="1124" d="M82 0zM160 1024q19 7 52 19t79 23.5t103.5 19.5t125.5 8q206 0 316 -92t110 -267v-446q0 -63 23.5 -89t68.5 -26q18 0 31 5q7 2 14 5v-168q-12 -6 -51 -16t-102 -10q-46 0 -81.5 12t-61 31.5t-41.5 45t-23 52.5q-19 -26 -46.5 -54.5t-65.5 -52t-87 -38.5t-110 -15 q-73 0 -134 22t-105 64t-68.5 104t-24.5 142q0 72 28.5 134t84 108.5t135.5 73t184 26.5q59 0 107 -8t79 -14v75q0 45 -11.5 81t-38 61.5t-69.5 39t-106 13.5q-57 0 -108 -10.5t-92 -24.5t-70.5 -28.5t-44.5 -22.5v217zM496 170q71 0 123 32.5t81 82.5v178q-21 6 -57.5 13 t-83.5 7q-52 0 -94 -12.5t-71.5 -34.5t-45.5 -53t-16 -68q0 -63 41 -104t123 -41zM418 1470q0 -57 31 -90.5t82 -33.5t82 33.5t31 90.5q0 54 -31 87.5t-82 33.5t-82 -33.5t-31 -87.5zM265 1470q0 58 19.5 106.5t55 83.5t84 54t107.5 19q58 0 107 -19t84.5 -54t55 -83.5 t19.5 -106.5q0 -59 -19.5 -108t-55 -84t-84.5 -54.5t-107 -19.5q-59 0 -107.5 19.5t-84 54.5t-55 84t-19.5 108z" />
<glyph unicode="&#xe6;" horiz-adv-x="1825" d="M1249 1094q105 0 193.5 -34.5t152 -98.5t99 -154.5t35.5 -202.5q0 -23 -1 -45t-3 -40q-2 -21 -3 -40h-737q10 -147 94 -228t244 -81q94 0 186.5 29.5t167.5 79.5v-205q-35 -23 -79 -41.5t-94 -32.5t-105.5 -21.5t-112.5 -7.5q-137 0 -245.5 45.5t-180.5 128.5 q-47 -47 -93.5 -80t-96 -54t-104 -30.5t-117.5 -9.5q-80 0 -145 22t-111.5 64.5t-71.5 104.5t-25 141q0 74 29.5 138t86 111.5t139.5 75t190 27.5q57 0 106 -8t80 -14v63q0 45 -11.5 81t-38 61.5t-70 39t-107.5 13.5q-60 0 -113 -12t-95.5 -28t-72.5 -32l-45 -24v219 q19 7 53 20.5t81 27t106.5 23t130.5 9.5q125 0 213 -36t139 -102q68 65 157 101.5t195 36.5zM522 166q71 0 123.5 33.5t81.5 83.5v186q-23 6 -59.5 14.5t-81.5 8.5q-56 0 -100 -13t-75.5 -37t-48 -57t-16.5 -72q0 -63 45 -105t131 -42zM1249 903q-55 0 -99.5 -19 t-77.5 -52.5t-53.5 -79.5t-27.5 -101h484q0 61 -16.5 108t-46.5 79t-71.5 48.5t-91.5 16.5z" />
<glyph unicode="&#xe7;" horiz-adv-x="1049" d="M96 0zM96 532q0 128 41.5 232t115.5 177.5t176 113t224 39.5q88 0 165 -19t128 -45v-221q-21 15 -49 30t-61.5 27t-72.5 19.5t-83 7.5q-77 0 -138 -25t-104 -71.5t-65.5 -113.5t-22.5 -151t22.5 -151t65.5 -113.5t104 -71t138 -24.5q44 0 83 7.5t72.5 19.5t61.5 26.5 t49 28.5v-221q-51 -25 -128 -43.5t-165 -18.5q-122 0 -224 39.5t-176 112.5t-115.5 177t-41.5 232zM371 -367q20 -10 43 -17q20 -7 45.5 -12t54.5 -5q46 0 72 22.5t26 61.5q0 48 -55 77t-152 29l119 211h180l-79 -127q40 -9 74 -25t59 -40t39 -55.5t14 -69.5q0 -53 -24 -93 t-63.5 -66.5t-90 -40t-103.5 -13.5q-32 0 -61 3.5t-51 8.5q-26 5 -47 12v139z" />
<glyph unicode="&#xe8;" horiz-adv-x="1196" d="M96 0zM621 1094q105 0 192.5 -34.5t151 -98.5t98.5 -154.5t35 -202.5q0 -23 -1 -45t-2 -40q-2 -21 -3 -40h-736q10 -147 94 -228t244 -81q94 0 186 29.5t167 79.5v-205q-35 -23 -79 -41.5t-94.5 -32.5t-106 -21.5t-112.5 -7.5q-127 0 -230 40.5t-176 114.5t-113 177 t-40 229q0 124 39 227t108.5 177.5t166 116t211.5 41.5zM618 903q-55 0 -99.5 -19t-77 -52.5t-53 -79.5t-28.5 -101h486q1 61 -16 108t-47 79t-72.5 48.5t-92.5 16.5zM592 1556l244 -301h-223l-357 301h336z" />
<glyph unicode="&#xe9;" horiz-adv-x="1196" d="M96 0zM621 1094q105 0 192.5 -34.5t151 -98.5t98.5 -154.5t35 -202.5q0 -23 -1 -45t-2 -40q-2 -21 -3 -40h-736q10 -147 94 -228t244 -81q94 0 186 29.5t167 79.5v-205q-35 -23 -79 -41.5t-94.5 -32.5t-106 -21.5t-112.5 -7.5q-127 0 -230 40.5t-176 114.5t-113 177 t-40 229q0 124 39 227t108.5 177.5t166 116t211.5 41.5zM618 903q-55 0 -99.5 -19t-77 -52.5t-53 -79.5t-28.5 -101h486q1 61 -16 108t-47 79t-72.5 48.5t-92.5 16.5zM948 1556l-356 -301h-223l243 301h336z" />
<glyph unicode="&#xea;" horiz-adv-x="1196" d="M96 0zM621 1094q105 0 192.5 -34.5t151 -98.5t98.5 -154.5t35 -202.5q0 -23 -1 -45t-2 -40q-2 -21 -3 -40h-736q10 -147 94 -228t244 -81q94 0 186 29.5t167 79.5v-205q-35 -23 -79 -41.5t-94.5 -32.5t-106 -21.5t-112.5 -7.5q-127 0 -230 40.5t-176 114.5t-113 177 t-40 229q0 124 39 227t108.5 177.5t166 116t211.5 41.5zM618 903q-55 0 -99.5 -19t-77 -52.5t-53 -79.5t-28.5 -101h486q1 61 -16 108t-47 79t-72.5 48.5t-92.5 16.5zM743 1567l250 -312h-223l-154 177l-153 -177h-223l249 312h254z" />
<glyph unicode="&#xeb;" horiz-adv-x="1196" d="M96 0zM621 1094q105 0 192.5 -34.5t151 -98.5t98.5 -154.5t35 -202.5q0 -23 -1 -45t-2 -40q-2 -21 -3 -40h-736q10 -147 94 -228t244 -81q94 0 186 29.5t167 79.5v-205q-35 -23 -79 -41.5t-94.5 -32.5t-106 -21.5t-112.5 -7.5q-127 0 -230 40.5t-176 114.5t-113 177 t-40 229q0 124 39 227t108.5 177.5t166 116t211.5 41.5zM618 903q-55 0 -99.5 -19t-77 -52.5t-53 -79.5t-28.5 -101h486q1 61 -16 108t-47 79t-72.5 48.5t-92.5 16.5zM271 1386q0 28 10 52.5t27.5 42.5t42 28t53.5 10q28 0 52.5 -10t41.5 -28t27 -42.5t10 -52.5 q0 -29 -10 -53t-27 -42t-41.5 -28t-52.5 -10q-29 0 -53.5 10t-42 28t-27.5 42t-10 53zM699 1386q0 28 10 52.5t28 42.5t43 28t54 10q28 0 52 -10t41.5 -28t27.5 -42.5t10 -52.5q0 -29 -10 -53t-27.5 -42t-41.5 -28t-52 -10q-29 0 -54 10t-43 28t-28 42t-10 53z" />
<glyph unicode="&#xec;" horiz-adv-x="584" d="M0 0zM288 1556l244 -301h-223l-357 301h336zM168 1065h246v-1065h-246v1065z" />
<glyph unicode="&#xed;" horiz-adv-x="584" d="M65 0zM644 1556l-356 -301h-223l243 301h336zM168 1065h246v-1065h-246v1065z" />
<glyph unicode="&#xee;" horiz-adv-x="584" d="M0 0zM168 1065h246v-1065h-246v1065zM420 1567l250 -312h-223l-154 177l-153 -177h-223l249 312h254z" />
<glyph unicode="&#xef;" horiz-adv-x="584" d="M0 0zM-52 1386q0 28 10 52.5t27.5 42.5t42 28t53.5 10q28 0 52.5 -10t41.5 -28t27 -42.5t10 -52.5q0 -29 -10 -53t-27 -42t-41.5 -28t-52.5 -10q-29 0 -53.5 10t-42 28t-27.5 42t-10 53zM376 1386q0 28 10 52.5t28 42.5t43 28t54 10q28 0 52 -10t41.5 -28t27.5 -42.5 t10 -52.5q0 -29 -10 -53t-27.5 -42t-41.5 -28t-52 -10q-29 0 -54 10t-43 28t-28 42t-10 53zM168 1065h246v-1065h-246v1065z" />
<glyph unicode="&#xf0;" horiz-adv-x="1257" d="M1067 1343l-186 -86q65 -77 116.5 -162.5t87.5 -176.5t55 -186t19 -189q0 -133 -38.5 -239t-109 -180t-168.5 -113.5t-218 -39.5q-116 0 -213 38.5t-167 107t-109.5 163.5t-39.5 209q0 111 37 206t102.5 164t155.5 108t195 39q54 0 98.5 -12t78.5 -28t57 -32t34 -25 q-20 63 -58 133t-89 136l-234 -107l-45 98l207 93q-29 31 -60.5 57.5t-62.5 48.5l102 127q53 -34 100.5 -73t90.5 -83l217 101zM352 492q0 -75 20 -134.5t56.5 -101t87.5 -63t113 -21.5t112.5 21.5t86.5 63t55.5 101t19.5 134.5t-19.5 134t-55.5 100.5t-86.5 63t-112.5 21.5 t-113 -21.5t-87.5 -63t-56.5 -100.5t-20 -134z" />
<glyph unicode="&#xf1;" d="M154 0zM414 0h-246v795q0 59 -2.5 108.5t-4.5 85.5q-4 42 -7 76h225q4 -18 8 -42q4 -20 8 -48t8 -62q20 24 51.5 55.5t75 59t100 47t126.5 19.5q106 0 176.5 -36t113 -93.5t60.5 -129t18 -141.5v-694h-245v657q0 58 -15.5 101.5t-43.5 72t-68 42.5t-88 14q-43 0 -82 -13 t-71.5 -32t-57 -40.5t-39.5 -37.5v-764zM1051 1606q0 -61 -14 -119.5t-44 -104.5t-78 -74t-116 -28q-43 0 -75.5 11t-58.5 27t-47.5 35.5t-42 35.5t-42 27t-48.5 11q-25 0 -42 -11.5t-27.5 -31.5t-15 -46.5t-5.5 -55.5h-157q0 58 13.5 116.5t43 105t76.5 75.5t114 29 q41 0 73 -11t58.5 -27.5t48.5 -35.5t43 -35.5t42.5 -27.5t46.5 -11q27 0 45 13t29 34t16 47t6 52h158z" />
<glyph unicode="&#xf2;" horiz-adv-x="1278" d="M96 0zM352 532q0 -85 20.5 -152t58.5 -113t90.5 -70.5t117.5 -24.5q64 0 117 24.5t90 70.5t57.5 113t20.5 152t-20.5 152t-57.5 113.5t-90 71t-117 24.5q-65 0 -117.5 -24.5t-90.5 -71t-58.5 -113.5t-20.5 -152zM96 532q0 124 40 227t111.5 177.5t171.5 116t220 41.5 t219.5 -41.5t171 -116t111 -177.5t39.5 -227q0 -123 -39.5 -226.5t-111 -177.5t-171 -115.5t-219.5 -41.5t-220 41.5t-171.5 115.5t-111.5 177.5t-40 226.5zM602 1556l244 -301h-223l-357 301h336z" />
<glyph unicode="&#xf3;" horiz-adv-x="1278" d="M96 0zM352 532q0 -85 20.5 -152t58.5 -113t90.5 -70.5t117.5 -24.5q64 0 117 24.5t90 70.5t57.5 113t20.5 152t-20.5 152t-57.5 113.5t-90 71t-117 24.5q-65 0 -117.5 -24.5t-90.5 -71t-58.5 -113.5t-20.5 -152zM96 532q0 124 40 227t111.5 177.5t171.5 116t220 41.5 t219.5 -41.5t171 -116t111 -177.5t39.5 -227q0 -123 -39.5 -226.5t-111 -177.5t-171 -115.5t-219.5 -41.5t-220 41.5t-171.5 115.5t-111.5 177.5t-40 226.5zM968 1556l-356 -301h-223l243 301h336z" />
<glyph unicode="&#xf4;" horiz-adv-x="1278" d="M96 0zM352 532q0 -85 20.5 -152t58.5 -113t90.5 -70.5t117.5 -24.5q64 0 117 24.5t90 70.5t57.5 113t20.5 152t-20.5 152t-57.5 113.5t-90 71t-117 24.5q-65 0 -117.5 -24.5t-90.5 -71t-58.5 -113.5t-20.5 -152zM96 532q0 124 40 227t111.5 177.5t171.5 116t220 41.5 t219.5 -41.5t171 -116t111 -177.5t39.5 -227q0 -123 -39.5 -226.5t-111 -177.5t-171 -115.5t-219.5 -41.5t-220 41.5t-171.5 115.5t-111.5 177.5t-40 226.5zM763 1567l250 -312h-223l-154 177l-153 -177h-223l249 312h254z" />
<glyph unicode="&#xf5;" horiz-adv-x="1278" d="M96 0zM352 532q0 -85 20.5 -152t58.5 -113t90.5 -70.5t117.5 -24.5q64 0 117 24.5t90 70.5t57.5 113t20.5 152t-20.5 152t-57.5 113.5t-90 71t-117 24.5q-65 0 -117.5 -24.5t-90.5 -71t-58.5 -113.5t-20.5 -152zM96 532q0 124 40 227t111.5 177.5t171.5 116t220 41.5 t219.5 -41.5t171 -116t111 -177.5t39.5 -227q0 -123 -39.5 -226.5t-111 -177.5t-171 -115.5t-219.5 -41.5t-220 41.5t-171.5 115.5t-111.5 177.5t-40 226.5zM1045 1606q0 -61 -14 -119.5t-44 -104.5t-78 -74t-116 -28q-43 0 -75.5 11t-58.5 27t-47.5 35.5t-42 35.5t-42 27 t-48.5 11q-25 0 -42 -11.5t-27.5 -31.5t-15 -46.5t-5.5 -55.5h-157q0 58 13.5 116.5t43 105t76.5 75.5t114 29q41 0 73 -11t58.5 -27.5t48.5 -35.5t43 -35.5t42.5 -27.5t46.5 -11q27 0 45 13t29 34t16 47t6 52h158z" />
<glyph unicode="&#xf6;" horiz-adv-x="1278" d="M96 0zM352 532q0 -85 20.5 -152t58.5 -113t90.5 -70.5t117.5 -24.5q64 0 117 24.5t90 70.5t57.5 113t20.5 152t-20.5 152t-57.5 113.5t-90 71t-117 24.5q-65 0 -117.5 -24.5t-90.5 -71t-58.5 -113.5t-20.5 -152zM96 532q0 124 40 227t111.5 177.5t171.5 116t220 41.5 t219.5 -41.5t171 -116t111 -177.5t39.5 -227q0 -123 -39.5 -226.5t-111 -177.5t-171 -115.5t-219.5 -41.5t-220 41.5t-171.5 115.5t-111.5 177.5t-40 226.5zM291 1386q0 28 10 52.5t27.5 42.5t42 28t53.5 10q28 0 52.5 -10t41.5 -28t27 -42.5t10 -52.5q0 -29 -10 -53 t-27 -42t-41.5 -28t-52.5 -10q-29 0 -53.5 10t-42 28t-27.5 42t-10 53zM719 1386q0 28 10 52.5t28 42.5t43 28t54 10q28 0 52 -10t41.5 -28t27.5 -42.5t10 -52.5q0 -29 -10 -53t-27.5 -42t-41.5 -28t-52 -10q-29 0 -54 10t-43 28t-28 42t-10 53z" />
<glyph unicode="&#xf7;" horiz-adv-x="1251" d="M451 993q0 35 13.5 65t36.5 52t55 34.5t69 12.5t69 -12.5t55.5 -34.5t36.5 -52t13 -65t-13 -65t-36.5 -52t-55.5 -34.5t-69 -12.5t-69 12.5t-55 34.5t-36.5 52t-13.5 65zM1139 696v-211h-1026v211h1026zM451 190q0 36 13.5 65.5t36.5 51t55 33.5t69 12t69 -12t55.5 -33.5 t36.5 -51t13 -65.5q0 -35 -13 -65t-36.5 -52t-55.5 -34t-69 -12t-69 12t-55 34t-36.5 52t-13.5 65z" />
<glyph unicode="&#xf8;" horiz-adv-x="1278" d="M96 532q0 124 40 227t111.5 177.5t171.5 116t220 41.5q84 0 156 -20.5t135 -57.5l61 78h189l-138 -172q66 -75 102 -173.5t36 -216.5q0 -123 -39.5 -226.5t-111 -177.5t-171 -115.5t-219.5 -41.5q-168 0 -293 78l-61 -78h-189l137 170q-66 75 -101.5 174t-35.5 217z M352 532q0 -112 37 -194l404 508q-31 23 -70 35t-84 12q-65 0 -117.5 -24.5t-90.5 -71t-58.5 -113.5t-20.5 -152zM924 532q0 57 -9.5 105t-27.5 90l-406 -510q34 -23 73.5 -34t84.5 -11q64 0 117 24.5t90 70.5t57.5 113t20.5 152z" />
<glyph unicode="&#xf9;" d="M160 0zM870 1065h246v-795q0 -60 2 -109t5 -85q3 -42 7 -76h-225q-4 18 -8 41q-4 20 -8 47t-8 62q-20 -24 -51 -55t-74.5 -58.5t-99.5 -46.5t-126 -19q-107 0 -178 36t-113.5 93.5t-60.5 129t-18 141.5v694h246v-659q0 -58 15.5 -101t44 -71.5t68.5 -43t89 -14.5 q42 0 81 13t71 32t56.5 40.5t38.5 37.5v766zM575 1556l244 -301h-223l-357 301h336z" />
<glyph unicode="&#xfa;" d="M160 0zM870 1065h246v-795q0 -60 2 -109t5 -85q3 -42 7 -76h-225q-4 18 -8 41q-4 20 -8 47t-8 62q-20 -24 -51 -55t-74.5 -58.5t-99.5 -46.5t-126 -19q-107 0 -178 36t-113.5 93.5t-60.5 129t-18 141.5v694h246v-659q0 -58 15.5 -101t44 -71.5t68.5 -43t89 -14.5 q42 0 81 13t71 32t56.5 40.5t38.5 37.5v766zM993 1556l-356 -301h-223l243 301h336z" />
<glyph unicode="&#xfb;" d="M160 0zM870 1065h246v-795q0 -60 2 -109t5 -85q3 -42 7 -76h-225q-4 18 -8 41q-4 20 -8 47t-8 62q-20 -24 -51 -55t-74.5 -58.5t-99.5 -46.5t-126 -19q-107 0 -178 36t-113.5 93.5t-60.5 129t-18 141.5v694h246v-659q0 -58 15.5 -101t44 -71.5t68.5 -43t89 -14.5 q42 0 81 13t71 32t56.5 40.5t38.5 37.5v766zM768 1567l250 -312h-223l-154 177l-153 -177h-223l249 312h254z" />
<glyph unicode="&#xfc;" d="M160 0zM870 1065h246v-795q0 -60 2 -109t5 -85q3 -42 7 -76h-225q-4 18 -8 41q-4 20 -8 47t-8 62q-20 -24 -51 -55t-74.5 -58.5t-99.5 -46.5t-126 -19q-107 0 -178 36t-113.5 93.5t-60.5 129t-18 141.5v694h246v-659q0 -58 15.5 -101t44 -71.5t68.5 -43t89 -14.5 q42 0 81 13t71 32t56.5 40.5t38.5 37.5v766zM295 1386q0 28 10 52.5t27.5 42.5t42 28t53.5 10q28 0 52.5 -10t41.5 -28t27 -42.5t10 -52.5q0 -29 -10 -53t-27 -42t-41.5 -28t-52.5 -10q-29 0 -53.5 10t-42 28t-27.5 42t-10 53zM723 1386q0 28 10 52.5t28 42.5t43 28t54 10 q28 0 52 -10t41.5 -28t27.5 -42.5t10 -52.5q0 -29 -10 -53t-27.5 -42t-41.5 -28t-52 -10q-29 0 -54 10t-43 28t-28 42t-10 53z" />
<glyph unicode="&#xfd;" horiz-adv-x="1057" d="M6 0zM6 -266q14 -7 32 -11q15 -4 35.5 -7t43.5 -3q37 0 76.5 13t77.5 46t74 89t65 143l12 39l-414 1022h262l269 -721l239 721h258l-379 -1059q-48 -135 -102 -233t-118 -161t-138 -93.5t-162 -30.5q-29 0 -53 3.5t-41 8.5q-20 5 -37 13v221v0zM917 1556l-356 -301h-223 l243 301h336z" />
<glyph unicode="&#xfe;" horiz-adv-x="1325" d="M1223 532q0 -121 -35.5 -224t-100 -178t-154.5 -117t-198 -42q-53 0 -99.5 10t-86.5 25.5t-72.5 35t-56.5 38.5v-592h-246v1946h246v-465q23 21 54.5 43.5t71 40.5t87 29.5t102.5 11.5q108 0 198 -42.5t154.5 -117.5t100 -178t35.5 -224zM666 170q65 0 120.5 23.5 t96 69.5t63.5 113.5t23 155.5q0 85 -21.5 151t-61 110t-94.5 67t-122 23q-44 0 -82.5 -10.5t-71 -25.5t-57 -32t-39.5 -31v-514q14 -13 36.5 -30t53.5 -32.5t70 -26.5t86 -11z" />
<glyph unicode="&#xff;" horiz-adv-x="1057" d="M6 0zM6 -266q14 -7 32 -11q15 -4 35.5 -7t43.5 -3q37 0 76.5 13t77.5 46t74 89t65 143l12 39l-414 1022h262l269 -721l239 721h258l-379 -1059q-48 -135 -102 -233t-118 -161t-138 -93.5t-162 -30.5q-29 0 -53 3.5t-41 8.5q-20 5 -37 13v221v0zM195 1376q0 28 10 52.5 t27.5 42.5t42 28t53.5 10q28 0 52.5 -10t41.5 -28t27 -42.5t10 -52.5q0 -29 -10 -53t-27 -42t-41.5 -28t-52.5 -10q-29 0 -53.5 10t-42 28t-27.5 42t-10 53zM623 1376q0 28 10 52.5t28 42.5t43 28t54 10q28 0 52 -10t41.5 -28t27.5 -42.5t10 -52.5q0 -29 -10 -53t-27.5 -42 t-41.5 -28t-52 -10q-29 0 -54 10t-43 28t-28 42t-10 53z" />
<glyph unicode="&#x100;" horiz-adv-x="1356" d="M2 0zM1354 0h-277l-104 270h-592l-105 -270h-274l586 1442h180zM455 469h442l-219 578zM989 1669h-622v186h622v-186z" />
<glyph unicode="&#x101;" horiz-adv-x="1124" d="M82 0zM160 1024q19 7 52 19t79 23.5t103.5 19.5t125.5 8q206 0 316 -92t110 -267v-446q0 -63 23.5 -89t68.5 -26q18 0 31 5q7 2 14 5v-168q-12 -6 -51 -16t-102 -10q-46 0 -81.5 12t-61 31.5t-41.5 45t-23 52.5q-19 -26 -46.5 -54.5t-65.5 -52t-87 -38.5t-110 -15 q-73 0 -134 22t-105 64t-68.5 104t-24.5 142q0 72 28.5 134t84 108.5t135.5 73t184 26.5q59 0 107 -8t79 -14v75q0 45 -11.5 81t-38 61.5t-69.5 39t-106 13.5q-57 0 -108 -10.5t-92 -24.5t-70.5 -28.5t-44.5 -22.5v217zM496 170q71 0 123 32.5t81 82.5v178q-21 6 -57.5 13 t-83.5 7q-52 0 -94 -12.5t-71.5 -34.5t-45.5 -53t-16 -68q0 -63 41 -104t123 -41zM841 1317h-622v186h622v-186z" />
<glyph unicode="&#x102;" horiz-adv-x="1356" d="M2 0zM1354 0h-277l-104 270h-592l-105 -270h-274l586 1442h180zM455 469h442l-219 578zM676 1790q81 0 121.5 50t54.5 141h180q-4 -76 -28 -142.5t-68 -115.5t-109 -77t-151 -28q-85 0 -149.5 28t-109 77t-68 115.5t-27.5 142.5h178q14 -91 54 -141t122 -50z" />
<glyph unicode="&#x103;" horiz-adv-x="1124" d="M82 0zM160 1024q19 7 52 19t79 23.5t103.5 19.5t125.5 8q206 0 316 -92t110 -267v-446q0 -63 23.5 -89t68.5 -26q18 0 31 5q7 2 14 5v-168q-12 -6 -51 -16t-102 -10q-46 0 -81.5 12t-61 31.5t-41.5 45t-23 52.5q-19 -26 -46.5 -54.5t-65.5 -52t-87 -38.5t-110 -15 q-73 0 -134 22t-105 64t-68.5 104t-24.5 142q0 72 28.5 134t84 108.5t135.5 73t184 26.5q59 0 107 -8t79 -14v75q0 45 -11.5 81t-38 61.5t-69.5 39t-106 13.5q-57 0 -108 -10.5t-92 -24.5t-70.5 -28.5t-44.5 -22.5v217zM496 170q71 0 123 32.5t81 82.5v178q-21 6 -57.5 13 t-83.5 7q-52 0 -94 -12.5t-71.5 -34.5t-45.5 -53t-16 -68q0 -63 41 -104t123 -41zM533 1435q81 0 121.5 50t54.5 141h180q-4 -76 -28 -142.5t-68 -115.5t-109 -77t-151 -28q-85 0 -149.5 28t-109 77t-68 115.5t-27.5 142.5h178q14 -91 54 -141t122 -50z" />
<glyph unicode="&#x104;" horiz-adv-x="1356" d="M2 0zM1354 0h-277l-104 270h-592l-105 -270h-274l586 1442h180zM455 469h442l-219 578zM1354 0q-36 -41 -63 -85q-23 -38 -42.5 -84t-19.5 -91q0 -35 13 -57.5t32.5 -35.5t42.5 -18.5t43 -5.5q25 0 47 4.5t39 10.5q19 7 37 16v-152q-20 -12 -48 -22q-24 -8 -60.5 -14.5 t-86.5 -6.5q-57 0 -105 13t-83.5 41t-55.5 71t-20 103q0 69 25 126t55 99q35 48 80 88h170z" />
<glyph unicode="&#x105;" horiz-adv-x="1124" d="M82 0zM160 1024q19 7 52 19t79 23.5t103.5 19.5t125.5 8q206 0 316 -92t110 -267v-446q0 -63 23.5 -89t68.5 -26q18 0 31 5q7 2 14 5v-168q-12 -6 -51 -16t-102 -10q-46 0 -81.5 12t-61 31.5t-41.5 45t-23 52.5q-19 -26 -46.5 -54.5t-65.5 -52t-87 -38.5t-110 -15 q-73 0 -134 22t-105 64t-68.5 104t-24.5 142q0 72 28.5 134t84 108.5t135.5 73t184 26.5q59 0 107 -8t79 -14v75q0 45 -11.5 81t-38 61.5t-69.5 39t-106 13.5q-57 0 -108 -10.5t-92 -24.5t-70.5 -28.5t-44.5 -22.5v217zM496 170q71 0 123 32.5t81 82.5v178q-21 6 -57.5 13 t-83.5 7q-52 0 -94 -12.5t-71.5 -34.5t-45.5 -53t-16 -68q0 -63 41 -104t123 -41zM1084 16q-36 -41 -63 -85q-23 -38 -42.5 -84t-19.5 -91q0 -35 13 -57.5t32.5 -35.5t42.5 -18.5t43 -5.5q25 0 47 4.5t39 10.5q19 7 37 16v-152q-20 -12 -48 -22q-24 -8 -60.5 -14.5 t-86.5 -6.5q-57 0 -105 13t-83.5 41t-55.5 71t-20 103q0 69 25 126t55 99q35 48 80 88h170z" />
<glyph unicode="&#x106;" horiz-adv-x="1317" d="M102 0zM102 717q0 164 52.5 301t146.5 235.5t223.5 153.5t284.5 55q61 0 118.5 -8t107.5 -21.5t93 -30t76 -34.5v-266q-33 25 -73 49t-86.5 42.5t-100 30t-113.5 11.5q-105 0 -189 -37t-143 -105t-90.5 -163.5t-31.5 -212.5q0 -118 31.5 -213.5t90.5 -163t143 -104.5 t189 -37q60 0 113.5 11t100 29t86.5 41.5t73 49.5v-264q-33 -19 -76 -36t-93 -30t-107.5 -21t-118.5 -8q-155 0 -284.5 54.5t-223.5 153t-146.5 236t-52.5 302.5zM1091 1925l-356 -301h-223l243 301h336z" />
<glyph unicode="&#x107;" horiz-adv-x="1055" d="M96 0zM96 532q0 128 41.5 232t115.5 177.5t176 113t224 39.5q88 0 165 -19t128 -45v-221q-21 15 -49 30t-61.5 27t-72.5 19.5t-83 7.5q-77 0 -138 -25t-104 -71.5t-65.5 -113.5t-22.5 -151t22.5 -151t65.5 -113.5t104 -71t138 -24.5q44 0 83 7.5t72.5 19.5t61.5 26.5 t49 28.5v-221q-51 -25 -128 -43.5t-165 -18.5q-122 0 -224 39.5t-176 112.5t-115.5 177t-41.5 232zM936 1556l-356 -301h-223l243 301h336z" />
<glyph unicode="&#x10c;" horiz-adv-x="1317" d="M102 0zM102 717q0 164 52.5 301t146.5 235.5t223.5 153.5t284.5 55q61 0 118.5 -8t107.5 -21.5t93 -30t76 -34.5v-266q-33 25 -73 49t-86.5 42.5t-100 30t-113.5 11.5q-105 0 -189 -37t-143 -105t-90.5 -163.5t-31.5 -212.5q0 -118 31.5 -213.5t90.5 -163t143 -104.5 t189 -37q60 0 113.5 11t100 29t86.5 41.5t73 49.5v-264q-33 -19 -76 -36t-93 -30t-107.5 -21t-118.5 -8q-155 0 -284.5 54.5t-223.5 153t-146.5 236t-52.5 302.5zM612 1624l-249 312h223l153 -176l154 176h223l-250 -312h-254z" />
<glyph unicode="&#x10d;" horiz-adv-x="1055" d="M96 0zM96 532q0 128 41.5 232t115.5 177.5t176 113t224 39.5q88 0 165 -19t128 -45v-221q-21 15 -49 30t-61.5 27t-72.5 19.5t-83 7.5q-77 0 -138 -25t-104 -71.5t-65.5 -113.5t-22.5 -151t22.5 -151t65.5 -113.5t104 -71t138 -24.5q44 0 83 7.5t72.5 19.5t61.5 26.5 t49 28.5v-221q-51 -25 -128 -43.5t-165 -18.5q-122 0 -224 39.5t-176 112.5t-115.5 177t-41.5 232zM446 1255l-249 312h223l153 -176l154 176h223l-250 -312h-254z" />
<glyph unicode="&#x10e;" horiz-adv-x="1466" d="M188 0zM188 1434h357q212 0 366.5 -53t255 -148t149 -227t48.5 -289q0 -158 -48.5 -289.5t-149 -226.5t-255 -148t-366.5 -53h-357v1434zM1090 717q0 120 -33.5 213t-101 157.5t-170 98t-240.5 33.5h-96v-1004h96q138 0 240.5 33.5t170 97.5t101 157.5t33.5 213.5z M557 1609l-249 312h223l153 -176l154 176h223l-250 -312h-254z" />
<glyph unicode="&#x10f;" horiz-adv-x="1722" d="M96 0zM961 0q-5 18 -9 37q-4 17 -8 37.5t-8 42.5q-26 -26 -62 -52t-81 -47t-97.5 -34t-111.5 -13q-108 0 -197.5 42t-154 117t-100.5 178t-36 224t36 224t100.5 178t154 117.5t197.5 42.5q54 0 100.5 -10t86.5 -26t72.5 -36t57.5 -41v514h246v-1225q0 -60 2 -109t5 -85 q3 -42 7 -76h-200zM655 893q-65 0 -121 -23.5t-97 -69.5t-64 -113t-23 -155q0 -85 22 -150.5t61.5 -110.5t94.5 -68t121 -23q44 0 82.5 10.5t71 25.5t57.5 32t41 31v514q-14 13 -37 30t-54 32.5t-70 26.5t-85 11zM1352 877q31 27 58.5 57t47.5 61.5t33 62t16 58.5 q-35 2 -64 16t-51 37t-34 54t-12 67q0 38 13 69.5t36 54.5t55 35.5t70 12.5q37 0 69.5 -14t56.5 -41t38 -67t14 -91q0 -56 -17 -116t-50 -119t-83 -116t-116 -107l-80 86v0z" />
<glyph unicode="&#x110;" horiz-adv-x="1479" d="M201 561h-170v174h170v699h356q212 0 366.5 -53t255 -148t149 -227t48.5 -289q0 -158 -48.5 -289.5t-149 -226.5t-255 -148t-366.5 -53h-356v561zM725 561h-264v-346h96q138 0 240.5 33.5t170 97.5t101 157.5t33.5 213.5t-33.5 213t-101 157.5t-170 98t-240.5 33.5h-96 v-484h264v-174z" />
<glyph unicode="&#x111;" horiz-adv-x="1321" d="M96 532q0 121 36 224t100.5 178t154 117.5t197.5 42.5q54 0 100.5 -10t86.5 -26t72.5 -36t57.5 -41v197h-307v170h307v147h246v-147h141v-170h-141v-908q0 -60 2 -109t5 -85q3 -42 7 -76h-200q-5 18 -9 37q-4 17 -8 37.5t-8 42.5q-26 -26 -62 -52t-81 -47t-97.5 -34 t-111.5 -13q-108 0 -197.5 42t-154 117t-100.5 178t-36 224zM350 532q0 -85 22 -150.5t61.5 -110.5t94.5 -68t121 -23q44 0 82.5 10.5t71 25.5t57.5 32t41 31v514q-14 13 -37 30t-54 32.5t-70 26.5t-85 11q-65 0 -121 -23.5t-97 -69.5t-64 -113t-23 -155z" />
<glyph unicode="&#x112;" horiz-adv-x="1182" d="M188 0zM449 215h600v-215h-861v1434h861v-215h-600v-359h518v-215h-518v-430zM930 1682h-622v186h622v-186z" />
<glyph unicode="&#x113;" horiz-adv-x="1196" d="M96 0zM621 1094q105 0 192.5 -34.5t151 -98.5t98.5 -154.5t35 -202.5q0 -23 -1 -45t-2 -40q-2 -21 -3 -40h-736q10 -147 94 -228t244 -81q94 0 186 29.5t167 79.5v-205q-35 -23 -79 -41.5t-94.5 -32.5t-106 -21.5t-112.5 -7.5q-127 0 -230 40.5t-176 114.5t-113 177 t-40 229q0 124 39 227t108.5 177.5t166 116t211.5 41.5zM618 903q-55 0 -99.5 -19t-77 -52.5t-53 -79.5t-28.5 -101h486q1 61 -16 108t-47 79t-72.5 48.5t-92.5 16.5zM928 1317h-622v186h622v-186z" />
<glyph unicode="&#x116;" horiz-adv-x="1182" d="M188 0zM449 215h600v-215h-861v1434h861v-215h-600v-359h518v-215h-518v-430zM455 1778q0 35 12 64.5t33 50.5t50 33t64 12t64.5 -12t50.5 -33t33 -50.5t12 -64.5t-12 -64t-33 -50.5t-50.5 -33.5t-64.5 -12t-64 12t-50 33.5t-33 50.5t-12 64z" />
<glyph unicode="&#x117;" horiz-adv-x="1196" d="M96 0zM621 1094q105 0 192.5 -34.5t151 -98.5t98.5 -154.5t35 -202.5q0 -23 -1 -45t-2 -40q-2 -21 -3 -40h-736q10 -147 94 -228t244 -81q94 0 186 29.5t167 79.5v-205q-35 -23 -79 -41.5t-94.5 -32.5t-106 -21.5t-112.5 -7.5q-127 0 -230 40.5t-176 114.5t-113 177 t-40 229q0 124 39 227t108.5 177.5t166 116t211.5 41.5zM618 903q-55 0 -99.5 -19t-77 -52.5t-53 -79.5t-28.5 -101h486q1 61 -16 108t-47 79t-72.5 48.5t-92.5 16.5zM455 1413q0 35 12 64.5t33 50.5t50 33t64 12t64.5 -12t50.5 -33t33 -50.5t12 -64.5t-12 -64t-33 -50.5 t-50.5 -33.5t-64.5 -12t-64 12t-50 33.5t-33 50.5t-12 64z" />
<glyph unicode="&#x118;" horiz-adv-x="1182" d="M188 0zM449 215h600v-215h-861v1434h861v-215h-600v-359h518v-215h-518v-430zM1045 0q-36 -41 -63 -85q-23 -38 -42.5 -84t-19.5 -91q0 -35 13 -57.5t32.5 -35.5t42.5 -18.5t43 -5.5q25 0 47 4.5t39 10.5q19 7 37 16v-152q-20 -12 -48 -22q-24 -8 -60.5 -14.5t-86.5 -6.5 q-57 0 -105 13t-83.5 41t-55.5 71t-20 103q0 69 25 126t55 99q35 48 80 88h170z" />
<glyph unicode="&#x119;" horiz-adv-x="1200" d="M96 0zM621 1094q105 0 192.5 -34.5t151 -98.5t98.5 -154.5t35 -202.5q0 -23 -1 -45t-2 -40q-2 -21 -3 -40h-736q10 -147 94 -228t244 -81q94 0 186 29.5t167 79.5v-205q-35 -23 -79 -41.5t-94.5 -32.5t-106 -21.5t-112.5 -7.5q-127 0 -230 40.5t-176 114.5t-113 177 t-40 229q0 124 39 227t108.5 177.5t166 116t211.5 41.5zM618 903q-55 0 -99.5 -19t-77 -52.5t-53 -79.5t-28.5 -101h486q1 61 -16 108t-47 79t-72.5 48.5t-92.5 16.5zM871 0q-36 -41 -63 -85q-23 -38 -42.5 -84t-19.5 -91q0 -35 13 -57.5t32.5 -35.5t42.5 -18.5t43 -5.5 q25 0 47 4.5t39 10.5q19 7 37 16v-152q-20 -12 -48 -22q-24 -8 -60.5 -14.5t-86.5 -6.5q-57 0 -105 13t-83.5 41t-55.5 71t-20 103q0 69 25 126t55 99q35 48 80 88h170z" />
<glyph unicode="&#x11a;" horiz-adv-x="1182" d="M188 0zM449 215h600v-215h-861v1434h861v-215h-600v-359h518v-215h-518v-430zM485 1609l-249 312h223l153 -176l154 176h223l-250 -312h-254z" />
<glyph unicode="&#x11b;" horiz-adv-x="1196" d="M96 0zM621 1094q105 0 192.5 -34.5t151 -98.5t98.5 -154.5t35 -202.5q0 -23 -1 -45t-2 -40q-2 -21 -3 -40h-736q10 -147 94 -228t244 -81q94 0 186 29.5t167 79.5v-205q-35 -23 -79 -41.5t-94.5 -32.5t-106 -21.5t-112.5 -7.5q-127 0 -230 40.5t-176 114.5t-113 177 t-40 229q0 124 39 227t108.5 177.5t166 116t211.5 41.5zM618 903q-55 0 -99.5 -19t-77 -52.5t-53 -79.5t-28.5 -101h486q1 61 -16 108t-47 79t-72.5 48.5t-92.5 16.5zM475 1255l-249 312h223l153 -176l154 176h223l-250 -312h-254z" />
<glyph unicode="&#x11e;" horiz-adv-x="1456" d="M102 0zM102 717q0 164 54 301t151 235.5t230 153.5t292 55q69 0 131.5 -8t118 -21.5t103 -30t84.5 -34.5v-256q-36 24 -80.5 46t-96 39.5t-111 27.5t-126.5 10q-111 0 -199 -37t-149.5 -105t-94 -163.5t-32.5 -212.5q0 -118 33 -213.5t95 -163t150 -104.5t199 -37 q102 0 188 24v297h-221v201h482v-655q-39 -19 -90 -36t-110.5 -30t-127.5 -21t-141 -8q-160 0 -294 54.5t-231.5 153t-152 236t-54.5 302.5zM770 1806q81 0 121.5 50t54.5 141h180q-4 -76 -28 -142.5t-68 -115.5t-109 -77t-151 -28q-85 0 -149.5 28t-109 77t-68 115.5 t-27.5 142.5h178q14 -91 54 -141t122 -50z" />
<glyph unicode="&#x11f;" horiz-adv-x="1317" d="M96 0zM578 -311q152 0 237.5 79t85.5 232v88q-25 -18 -56 -35.5t-68.5 -31t-81.5 -21.5t-95 -8q-114 0 -207 40.5t-159 113.5t-102 175t-36 224q0 120 35 221t98 174t151 113.5t195 40.5q67 0 123 -14t101.5 -36t80 -48t58.5 -50q3 23 7 44.5t8 38.5q4 19 10 36h198 q-4 -34 -7 -76q-3 -36 -5 -85.5t-2 -108.5v-785q0 -123 -40.5 -220t-113 -164t-174 -102.5t-223.5 -35.5q-78 0 -146 13t-122.5 32t-93.5 40t-60 36v225q21 -18 60 -42.5t91 -47.5t116.5 -39t136.5 -16zM350 541q0 -81 20.5 -145.5t58.5 -109.5t92 -69t122 -24q49 0 91 11.5 t75 27.5t56.5 33.5t35.5 29.5v483q-14 12 -38 30t-57 34.5t-75 28.5t-92 12q-64 0 -117 -22t-91.5 -65.5t-59.5 -107t-21 -147.5zM674 1435q81 0 121.5 50t54.5 141h180q-4 -76 -28 -142.5t-68 -115.5t-109 -77t-151 -28q-85 0 -149.5 28t-109 77t-68 115.5t-27.5 142.5h178 q14 -91 54 -141t122 -50z" />
<glyph unicode="&#x122;" horiz-adv-x="1456" d="M102 0zM102 717q0 164 54 301t151 235.5t230 153.5t292 55q69 0 131.5 -8t118 -21.5t103 -30t84.5 -34.5v-256q-36 24 -80.5 46t-96 39.5t-111 27.5t-126.5 10q-111 0 -199 -37t-149.5 -105t-94 -163.5t-32.5 -212.5q0 -118 33 -213.5t95 -163t150 -104.5t199 -37 q102 0 188 24v297h-221v201h482v-655q-39 -19 -90 -36t-110.5 -30t-127.5 -21t-141 -8q-160 0 -294 54.5t-231.5 153t-152 236t-54.5 302.5zM672 -368q0 37 13 69t36 54.5t55 35.5t70 13q37 0 69.5 -14t56.5 -41t38 -67t14 -91q0 -56 -17 -116t-50 -119.5t-83 -116.5 t-116 -107l-80 86q31 27 58.5 57.5t47.5 62t33 62t16 58.5q-35 2 -64 16t-51 37t-34 54t-12 67z" />
<glyph unicode="&#x123;" horiz-adv-x="1317" d="M96 0zM578 -311q152 0 237.5 79t85.5 232v88q-25 -18 -56 -35.5t-68.5 -31t-81.5 -21.5t-95 -8q-114 0 -207 40.5t-159 113.5t-102 175t-36 224q0 120 35 221t98 174t151 113.5t195 40.5q67 0 123 -14t101.5 -36t80 -48t58.5 -50q3 23 7 44.5t8 38.5q4 19 10 36h198 q-4 -34 -7 -76q-3 -36 -5 -85.5t-2 -108.5v-785q0 -123 -40.5 -220t-113 -164t-174 -102.5t-223.5 -35.5q-78 0 -146 13t-122.5 32t-93.5 40t-60 36v225q21 -18 60 -42.5t91 -47.5t116.5 -39t136.5 -16zM350 541q0 -81 20.5 -145.5t58.5 -109.5t92 -69t122 -24q49 0 91 11.5 t75 27.5t56.5 33.5t35.5 29.5v483q-14 12 -38 30t-57 34.5t-75 28.5t-92 12q-64 0 -117 -22t-91.5 -65.5t-59.5 -107t-21 -147.5zM795 1444q0 -39 -13.5 -70.5t-37 -54t-55 -35t-68.5 -12.5q-38 0 -71 13.5t-57 40t-38 66t-14 90.5q0 57 17 117t50.5 119.5t83.5 116.5 t115 108l80 -88q-32 -27 -59 -57t-47.5 -61t-33.5 -61.5t-16 -57.5q35 -3 65 -17t52 -37t34.5 -53.5t12.5 -66.5z" />
<glyph unicode="&#x12a;" horiz-adv-x="639" d="M10 0zM188 1434h261v-1434h-261v1434zM632 1682h-622v186h622v-186z" />
<glyph unicode="&#x12b;" horiz-adv-x="584" d="M0 0zM605 1317h-622v186h622v-186zM168 1065h246v-1065h-246v1065z" />
<glyph unicode="&#x12e;" horiz-adv-x="639" d="M119 0zM188 1434h261v-1434h-261v1434zM449 0q-36 -41 -63 -85q-23 -38 -42.5 -84t-19.5 -91q0 -35 13 -57.5t32.5 -35.5t42.5 -18.5t43 -5.5q25 0 47 4.5t39 10.5q19 7 37 16v-152q-20 -12 -48 -22q-24 -8 -60.5 -14.5t-86.5 -6.5q-57 0 -105 13t-83.5 41t-55.5 71 t-20 103q0 69 25 126t55 99q35 48 80 88h170z" />
<glyph unicode="&#x12f;" horiz-adv-x="584" d="M87 0zM168 1065h246v-1065h-246v1065zM147 1364q0 31 11 56.5t30.5 42.5t45.5 26.5t57 9.5q63 0 103 -36t40 -99q0 -62 -40 -97.5t-103 -35.5q-31 0 -57 9t-45.5 26.5t-30.5 42t-11 55.5zM417 0q-36 -41 -63 -85q-23 -38 -42.5 -84t-19.5 -91q0 -35 13 -57.5t32.5 -35.5 t42.5 -18.5t43 -5.5q25 0 47 4.5t39 10.5q19 7 37 16v-152q-20 -12 -48 -22q-24 -8 -60.5 -14.5t-86.5 -6.5q-57 0 -105 13t-83.5 41t-55.5 71t-20 103q0 69 25 126t55 99q35 48 80 88h170z" />
<glyph unicode="&#x130;" horiz-adv-x="639" d="M158 0zM188 1434h261v-1434h-261v1434zM158 1788q0 35 12 64.5t33 50.5t50 33t64 12t64.5 -12t50.5 -33t33 -50.5t12 -64.5t-12 -64t-33 -50.5t-50.5 -33.5t-64.5 -12t-64 12t-50 33.5t-33 50.5t-12 64z" />
<glyph unicode="&#x131;" horiz-adv-x="584" d="M168 1065h246v-1065h-246v1065z" />
<glyph unicode="&#x136;" horiz-adv-x="1343" d="M188 0zM188 1434h261v-686l538 686h330l-524 -641l559 -793h-322l-397 596l-184 -164v-432h-261v1434zM525 -316q0 37 13 69t36 54.5t55 35.5t70 13q37 0 69.5 -14t56.5 -41t38 -67t14 -91q0 -56 -17 -116t-50 -119.5t-83 -116.5t-116 -107l-80 86q31 27 58.5 57.5 t47.5 62t33 62t16 58.5q-35 2 -64 16t-51 37t-34 54t-12 67z" />
<glyph unicode="&#x137;" horiz-adv-x="1149" d="M168 0zM168 1495h246v-926l401 496h295l-385 -451l424 -614h-285l-286 451l-164 -142v-309h-246v1495zM441 -326q0 37 13 69t36 54.5t55 35.5t70 13q37 0 69.5 -14t56.5 -41t38 -67t14 -91q0 -56 -17 -116t-50 -119.5t-83 -116.5t-116 -107l-80 86q31 27 58.5 57.5 t47.5 62t33 62t16 58.5q-35 2 -64 16t-51 37t-34 54t-12 67z" />
<glyph unicode="&#x139;" horiz-adv-x="1059" d="M188 0zM188 1434h261v-1219h600v-215h-861v1434zM819 1910l-356 -301h-223l243 301h336z" />
<glyph unicode="&#x13a;" horiz-adv-x="694" d="M156 0zM168 1495h246v-1163q0 -42 9.5 -70.5t27 -46t43.5 -24.5t59 -7q24 0 44.5 2.5t35.5 6.5q18 4 31 10v-207q-25 -8 -53 -13q-24 -5 -56.5 -8.5t-67.5 -3.5q-84 0 -144 22t-99 67.5t-57.5 115t-18.5 164.5v1155zM735 1962l-356 -301h-223l243 301h336z" />
<glyph unicode="&#x13b;" horiz-adv-x="1059" d="M188 0zM188 1434h261v-1219h600v-215h-861v1434zM441 -376q0 37 13 69t36 54.5t55 35.5t70 13q37 0 69.5 -14t56.5 -41t38 -67t14 -91q0 -56 -17 -116t-50 -119.5t-83 -116.5t-116 -107l-80 86q31 27 58.5 57.5t47.5 62t33 62t16 58.5q-35 2 -64 16t-51 37t-34 54t-12 67 z" />
<glyph unicode="&#x13c;" horiz-adv-x="698" d="M172 0zM172 1495h246v-1163q0 -42 9.5 -70.5t27 -46t43.5 -24.5t59 -7q24 0 44.5 2.5t35.5 6.5q18 4 31 10v-207q-25 -8 -53 -13q-24 -5 -56.5 -8.5t-67.5 -3.5q-84 0 -144 22t-99 67.5t-57.5 115t-18.5 164.5v1155zM238 -370q0 37 13 69t36 54.5t55 35.5t70 13 q37 0 69.5 -14t56.5 -41t38 -67t14 -91q0 -56 -17 -116t-50 -119.5t-83 -116.5t-116 -107l-80 86q31 27 58.5 57.5t47.5 62t33 62t16 58.5q-35 2 -64 16t-51 37t-34 54t-12 67z" />
<glyph unicode="&#x13d;" horiz-adv-x="1061" d="M188 0zM188 1434h261v-1219h600v-215h-861v1434zM656 877q31 27 58.5 57t47.5 61.5t33 62t16 58.5q-35 2 -64 16t-51 37t-34 54t-12 67q0 38 13 69.5t36 54.5t55 35.5t70 12.5q37 0 69.5 -14t56.5 -41t38 -67t14 -91q0 -56 -17 -116t-50 -119t-83 -116t-116 -107l-80 86 v0z" />
<glyph unicode="&#x13e;" horiz-adv-x="997" d="M168 0zM168 1495h246v-1163q0 -42 9.5 -70.5t27 -46t43.5 -24.5t59 -7q24 0 44.5 2.5t35.5 6.5q18 4 31 10v-207q-25 -8 -53 -13q-24 -5 -56.5 -8.5t-67.5 -3.5q-84 0 -144 22t-99 67.5t-57.5 115t-18.5 164.5v1155zM639 877q31 27 58.5 57t47.5 61.5t33 62t16 58.5 q-35 2 -64 16t-51 37t-34 54t-12 67q0 38 13 69.5t36 54.5t55 35.5t70 12.5q37 0 69.5 -14t56.5 -41t38 -67t14 -91q0 -56 -17 -116t-50 -119t-83 -116t-116 -107l-80 86v0z" />
<glyph unicode="&#x141;" horiz-adv-x="1071" d="M31 629l170 80v725h260v-603l274 134v-201l-274 -131v-418h600v-215h-860v510l-170 -82v201z" />
<glyph unicode="&#x142;" horiz-adv-x="696" d="M0 629l170 84v782h246v-661l248 120v-200l-248 -121v-301q0 -42 9.5 -70.5t27 -46t43.5 -24.5t59 -7q25 0 45 2.5t35 6.5q17 4 31 10v-207q-25 -8 -53 -13q-24 -5 -56.5 -8.5t-67.5 -3.5q-84 0 -144 22t-99 67.5t-57.5 115t-18.5 164.5v172l-170 -84v201z" />
<glyph unicode="&#x143;" horiz-adv-x="1632" d="M188 0zM1268 -8l-819 971v-963h-261v1442h174l820 -973v965h260v-1442h-174zM1198 1898l-356 -301h-223l243 301h336z" />
<glyph unicode="&#x144;" d="M154 0zM414 0h-246v795q0 59 -2.5 108.5t-4.5 85.5q-4 42 -7 76h225q4 -18 8 -42q4 -20 8 -48t8 -62q20 24 51.5 55.5t75 59t100 47t126.5 19.5q106 0 176.5 -36t113 -93.5t60.5 -129t18 -141.5v-694h-245v657q0 58 -15.5 101.5t-43.5 72t-68 42.5t-88 14q-43 0 -82 -13 t-71.5 -32t-57 -40.5t-39.5 -37.5v-764zM995 1556l-356 -301h-223l243 301h336z" />
<glyph unicode="&#x145;" horiz-adv-x="1632" d="M188 0zM1268 -8l-819 971v-963h-261v1442h174l820 -973v965h260v-1442h-174zM658 -345q0 37 13 69t36 54.5t55 35.5t70 13q37 0 69.5 -14t56.5 -41t38 -67t14 -91q0 -56 -17 -116t-50 -119.5t-83 -116.5t-116 -107l-80 86q31 27 58.5 57.5t47.5 62t33 62t16 58.5 q-35 2 -64 16t-51 37t-34 54t-12 67z" />
<glyph unicode="&#x146;" d="M154 0zM414 0h-246v795q0 59 -2.5 108.5t-4.5 85.5q-4 42 -7 76h225q4 -18 8 -42q4 -20 8 -48t8 -62q20 24 51.5 55.5t75 59t100 47t126.5 19.5q106 0 176.5 -36t113 -93.5t60.5 -129t18 -141.5v-694h-245v657q0 58 -15.5 101.5t-43.5 72t-68 42.5t-88 14q-43 0 -82 -13 t-71.5 -32t-57 -40.5t-39.5 -37.5v-764zM471 -345q0 37 13 69t36 54.5t55 35.5t70 13q37 0 69.5 -14t56.5 -41t38 -67t14 -91q0 -56 -17 -116t-50 -119.5t-83 -116.5t-116 -107l-80 86q31 27 58.5 57.5t47.5 62t33 62t16 58.5q-35 2 -64 16t-51 37t-34 54t-12 67z" />
<glyph unicode="&#x147;" horiz-adv-x="1632" d="M188 0zM1268 -8l-819 971v-963h-261v1442h174l820 -973v965h260v-1442h-174zM688 1609l-249 312h223l153 -176l154 176h223l-250 -312h-254z" />
<glyph unicode="&#x148;" d="M154 0zM414 0h-246v795q0 59 -2.5 108.5t-4.5 85.5q-4 42 -7 76h225q4 -18 8 -42q4 -20 8 -48t8 -62q20 24 51.5 55.5t75 59t100 47t126.5 19.5q106 0 176.5 -36t113 -93.5t60.5 -129t18 -141.5v-694h-245v657q0 58 -15.5 101.5t-43.5 72t-68 42.5t-88 14q-43 0 -82 -13 t-71.5 -32t-57 -40.5t-39.5 -37.5v-764zM516 1255l-249 312h223l153 -176l154 176h223l-250 -312h-254z" />
<glyph unicode="&#x14c;" horiz-adv-x="1655" d="M102 0zM377 717q0 -119 32.5 -215t92 -163.5t142 -104.5t183.5 -37t184 37t142.5 104.5t92 163.5t32.5 215q0 118 -32.5 214t-92 163.5t-142.5 104t-184 36.5t-183.5 -36.5t-142 -104t-92 -163.5t-32.5 -214zM102 717q0 164 53 301t149 235.5t229 153.5t294 55 q160 0 293.5 -55t229.5 -153.5t149 -235.5t53 -301t-53 -301t-149 -236t-229.5 -154t-293.5 -55q-161 0 -294 55t-229 154t-149 236t-53 301zM1138 1686h-622v186h622v-186z" />
<glyph unicode="&#x14d;" horiz-adv-x="1278" d="M96 0zM352 532q0 -85 20.5 -152t58.5 -113t90.5 -70.5t117.5 -24.5q64 0 117 24.5t90 70.5t57.5 113t20.5 152t-20.5 152t-57.5 113.5t-90 71t-117 24.5q-65 0 -117.5 -24.5t-90.5 -71t-58.5 -113.5t-20.5 -152zM96 532q0 124 40 227t111.5 177.5t171.5 116t220 41.5 t219.5 -41.5t171 -116t111 -177.5t39.5 -227q0 -123 -39.5 -226.5t-111 -177.5t-171 -115.5t-219.5 -41.5t-220 41.5t-171.5 115.5t-111.5 177.5t-40 226.5zM950 1317h-622v186h622v-186z" />
<glyph unicode="&#x150;" horiz-adv-x="1655" d="M102 0zM377 717q0 -119 32.5 -215t92 -163.5t142 -104.5t183.5 -37t184 37t142.5 104.5t92 163.5t32.5 215q0 118 -32.5 214t-92 163.5t-142.5 104t-184 36.5t-183.5 -36.5t-142 -104t-92 -163.5t-32.5 -214zM102 717q0 164 53 301t149 235.5t229 153.5t294 55 q160 0 293.5 -55t229.5 -153.5t149 -235.5t53 -301t-53 -301t-149 -236t-229.5 -154t-293.5 -55q-161 0 -294 55t-229 154t-149 236t-53 301zM960 1925l-356 -301h-223l243 301h336zM1417 1925l-356 -301h-224l244 301h336z" />
<glyph unicode="&#x151;" horiz-adv-x="1278" d="M96 0zM352 532q0 -85 20.5 -152t58.5 -113t90.5 -70.5t117.5 -24.5q64 0 117 24.5t90 70.5t57.5 113t20.5 152t-20.5 152t-57.5 113.5t-90 71t-117 24.5q-65 0 -117.5 -24.5t-90.5 -71t-58.5 -113.5t-20.5 -152zM96 532q0 124 40 227t111.5 177.5t171.5 116t220 41.5 t219.5 -41.5t171 -116t111 -177.5t39.5 -227q0 -123 -39.5 -226.5t-111 -177.5t-171 -115.5t-219.5 -41.5t-220 41.5t-171.5 115.5t-111.5 177.5t-40 226.5zM782 1556l-356 -301h-223l243 301h336zM1239 1556l-356 -301h-224l244 301h336z" />
<glyph unicode="&#x152;" horiz-adv-x="2013" d="M1294 215h600v-215h-858q-49 -14 -104 -21.5t-115 -7.5q-155 0 -286.5 54.5t-226.5 153t-148.5 236t-53.5 302.5q0 109 24 207t69 181t109 149t143.5 112t172.5 71t197 25q60 0 114 -8t103 -20h860v-215h-600v-359h518v-215h-518v-430zM838 199q54 0 103.5 10t92.5 29 v956q-87 41 -196 41q-106 0 -191.5 -37.5t-145.5 -105.5t-92 -163.5t-32 -211.5q0 -117 32 -212.5t92 -163.5t145.5 -105t191.5 -37z" />
<glyph unicode="&#x153;" horiz-adv-x="2023" d="M1448 1094q105 0 193 -34.5t151 -98.5t98 -154.5t35 -202.5q0 -23 -1 -45t-2 -40q-2 -21 -3 -40h-735q9 -147 93.5 -228t244.5 -81q94 0 186 29.5t166 79.5v-205q-35 -23 -79 -41.5t-94.5 -32.5t-105.5 -21.5t-112 -7.5q-141 0 -250.5 48.5t-181.5 138.5 q-72 -88 -176.5 -137.5t-235.5 -49.5q-120 0 -220 41.5t-171.5 115.5t-111.5 177.5t-40 226.5q0 124 40 227t111.5 177.5t171.5 116t220 41.5q130 0 235 -50.5t177 -138.5q69 88 170.5 138.5t226.5 50.5zM352 532q0 -85 20.5 -152t58.5 -113t90.5 -70.5t117.5 -24.5 q64 0 117 24.5t90 70.5t57.5 113t20.5 152t-20.5 152t-57.5 113.5t-90 71t-117 24.5q-65 0 -117.5 -24.5t-90.5 -71t-58.5 -113.5t-20.5 -152zM1446 903q-56 0 -100 -19t-77 -52.5t-53.5 -79.5t-27.5 -101h485q1 61 -16 108t-47 79t-72 48.5t-92 16.5z" />
<glyph unicode="&#x154;" horiz-adv-x="1315" d="M188 0zM188 1434h453q127 0 225 -35t165.5 -96t102.5 -144t35 -180q0 -66 -16.5 -125.5t-48.5 -110.5t-79 -91.5t-107 -67.5l405 -584h-309l-348 526h-217v-526h-261v1434zM895 979q0 62 -19.5 107.5t-56.5 75t-89.5 43.5t-119.5 14h-161v-478h161q67 0 119.5 14 t89.5 43.5t56.5 74t19.5 106.5zM975 1910l-356 -301h-223l243 301h336z" />
<glyph unicode="&#x155;" horiz-adv-x="842" d="M154 0zM168 795q0 59 -2.5 108.5t-4.5 85.5q-4 42 -7 76h225q6 -24 10 -51q4 -23 8 -53t6 -62h5q22 37 52 72t68 62.5t83 44t98 16.5q26 0 47.5 -3.5t37.5 -8.5q18 -5 33 -11v-233q-18 6 -42 11q-20 4 -49 7.5t-64 3.5q-62 0 -110 -16.5t-81 -36.5q-39 -24 -67 -53v-754 h-246v795zM844 1556l-356 -301h-223l243 301h336z" />
<glyph unicode="&#x156;" horiz-adv-x="1315" d="M188 0zM188 1434h453q127 0 225 -35t165.5 -96t102.5 -144t35 -180q0 -66 -16.5 -125.5t-48.5 -110.5t-79 -91.5t-107 -67.5l405 -584h-309l-348 526h-217v-526h-261v1434zM895 979q0 62 -19.5 107.5t-56.5 75t-89.5 43.5t-119.5 14h-161v-478h161q67 0 119.5 14 t89.5 43.5t56.5 74t19.5 106.5zM504 -345q0 37 13 69t36 54.5t55 35.5t70 13q37 0 69.5 -14t56.5 -41t38 -67t14 -91q0 -56 -17 -116t-50 -119.5t-83 -116.5t-116 -107l-80 86q31 27 58.5 57.5t47.5 62t33 62t16 58.5q-35 2 -64 16t-51 37t-34 54t-12 67z" />
<glyph unicode="&#x157;" horiz-adv-x="842" d="M154 0zM168 795q0 59 -2.5 108.5t-4.5 85.5q-4 42 -7 76h225q6 -24 10 -51q4 -23 8 -53t6 -62h5q22 37 52 72t68 62.5t83 44t98 16.5q26 0 47.5 -3.5t37.5 -8.5q18 -5 33 -11v-233q-18 6 -42 11q-20 4 -49 7.5t-64 3.5q-62 0 -110 -16.5t-81 -36.5q-39 -24 -67 -53v-754 h-246v795zM267 -355q0 37 13 69t36 54.5t55 35.5t70 13q37 0 69.5 -14t56.5 -41t38 -67t14 -91q0 -56 -17 -116t-50 -119.5t-83 -116.5t-116 -107l-80 86q31 27 58.5 57.5t47.5 62t33 62t16 58.5q-35 2 -64 16t-51 37t-34 54t-12 67z" />
<glyph unicode="&#x158;" horiz-adv-x="1315" d="M188 0zM188 1434h453q127 0 225 -35t165.5 -96t102.5 -144t35 -180q0 -66 -16.5 -125.5t-48.5 -110.5t-79 -91.5t-107 -67.5l405 -584h-309l-348 526h-217v-526h-261v1434zM895 979q0 62 -19.5 107.5t-56.5 75t-89.5 43.5t-119.5 14h-161v-478h161q67 0 119.5 14 t89.5 43.5t56.5 74t19.5 106.5zM495 1609l-249 312h223l153 -176l154 176h223l-250 -312h-254z" />
<glyph unicode="&#x159;" horiz-adv-x="842" d="M79 0zM168 795q0 59 -2.5 108.5t-4.5 85.5q-4 42 -7 76h225q6 -24 10 -51q4 -23 8 -53t6 -62h5q22 37 52 72t68 62.5t83 44t98 16.5q26 0 47.5 -3.5t37.5 -8.5q18 -5 33 -11v-233q-18 6 -42 11q-20 4 -49 7.5t-64 3.5q-62 0 -110 -16.5t-81 -36.5q-39 -24 -67 -53v-754 h-246v795zM328 1255l-249 312h223l153 -176l154 176h223l-250 -312h-254z" />
<glyph unicode="&#x15a;" horiz-adv-x="1100" d="M113 0zM725 389q0 49 -26 86.5t-68.5 68.5t-96.5 58t-111 57t-111 66t-96.5 82.5t-68.5 108t-26 143.5q0 96 35 171t98.5 126.5t151.5 78.5t194 27q55 0 105.5 -7.5t93.5 -19t77.5 -26t59.5 -29.5v-252q-26 19 -60.5 38.5t-76 35.5t-88.5 26.5t-97 10.5 q-52 0 -93.5 -12.5t-70 -34.5t-44 -52.5t-15.5 -66.5q0 -47 26 -83t68.5 -66.5t97 -58.5t111.5 -58.5t111.5 -67t97 -84.5t68.5 -110t26 -144q0 -102 -39.5 -182t-108.5 -135t-162.5 -84t-201.5 -29q-61 0 -117.5 9t-104.5 23t-86.5 31t-63.5 32v256q31 -26 71 -48t85.5 -39 t96 -26.5t103.5 -9.5q60 0 107.5 14t80.5 39.5t50.5 60.5t17.5 76zM921 1925l-356 -301h-223l243 301h336z" />
<glyph unicode="&#x15b;" horiz-adv-x="967" d="M113 0zM621 291q0 35 -21.5 60.5t-56.5 46t-79.5 38.5t-91.5 38.5t-91.5 45.5t-79.5 60.5t-56.5 83t-21.5 112.5q0 74 29 133t80.5 100t123.5 63t158 22q50 0 95 -6.5t83.5 -17t68.5 -23.5t50 -25v-219q-27 20 -61.5 36.5t-72.5 28.5t-77.5 19t-75.5 8q-39 0 -68.5 -8.5 t-49 -23t-29.5 -33t-10 -39.5q0 -32 21.5 -56t56.5 -44t79.5 -38t91 -39.5t91 -48t79.5 -63.5t56.5 -86.5t21.5 -116.5q0 -75 -30.5 -136t-85.5 -103.5t-132 -65.5t-170 -23q-54 0 -105.5 8t-95 20.5t-77.5 27.5t-55 30v217q34 -24 74.5 -43t83 -32.5t86 -21t83.5 -7.5 q88 0 134.5 35t46.5 86zM854 1556l-356 -301h-223l243 301h336z" />
<glyph unicode="&#x15e;" horiz-adv-x="1100" d="M113 0zM725 389q0 49 -26 86.5t-68.5 68.5t-96.5 58t-111 57t-111 66t-96.5 82.5t-68.5 108t-26 143.5q0 96 35 171t98.5 126.5t151.5 78.5t194 27q55 0 105.5 -7.5t93.5 -19t77.5 -26t59.5 -29.5v-252q-26 19 -60.5 38.5t-76 35.5t-88.5 26.5t-97 10.5 q-52 0 -93.5 -12.5t-70 -34.5t-44 -52.5t-15.5 -66.5q0 -47 26 -83t68.5 -66.5t97 -58.5t111.5 -58.5t111.5 -67t97 -84.5t68.5 -110t26 -144q0 -102 -39.5 -182t-108.5 -135t-162.5 -84t-201.5 -29q-61 0 -117.5 9t-104.5 23t-86.5 31t-63.5 32v256q31 -26 71 -48t85.5 -39 t96 -26.5t103.5 -9.5q60 0 107.5 14t80.5 39.5t50.5 60.5t17.5 76zM340 -367q20 -10 43 -17q20 -7 45.5 -12t54.5 -5q46 0 72 22.5t26 61.5q0 48 -55 77t-152 29l119 211h180l-79 -127q40 -9 74 -25t59 -40t39 -55.5t14 -69.5q0 -53 -24 -93t-63.5 -66.5t-90 -40 t-103.5 -13.5q-32 0 -61 3.5t-51 8.5q-26 5 -47 12v139z" />
<glyph unicode="&#x15f;" horiz-adv-x="967" d="M113 0zM621 291q0 35 -21.5 60.5t-56.5 46t-79.5 38.5t-91.5 38.5t-91.5 45.5t-79.5 60.5t-56.5 83t-21.5 112.5q0 74 29 133t80.5 100t123.5 63t158 22q50 0 95 -6.5t83.5 -17t68.5 -23.5t50 -25v-219q-27 20 -61.5 36.5t-72.5 28.5t-77.5 19t-75.5 8q-39 0 -68.5 -8.5 t-49 -23t-29.5 -33t-10 -39.5q0 -32 21.5 -56t56.5 -44t79.5 -38t91 -39.5t91 -48t79.5 -63.5t56.5 -86.5t21.5 -116.5q0 -75 -30.5 -136t-85.5 -103.5t-132 -65.5t-170 -23q-54 0 -105.5 8t-95 20.5t-77.5 27.5t-55 30v217q34 -24 74.5 -43t83 -32.5t86 -21t83.5 -7.5 q88 0 134.5 35t46.5 86zM283 -367q20 -10 43 -17q20 -7 45.5 -12t54.5 -5q46 0 72 22.5t26 61.5q0 48 -55 77t-152 29l119 211h180l-79 -127q40 -9 74 -25t59 -40t39 -55.5t14 -69.5q0 -53 -24 -93t-63.5 -66.5t-90 -40t-103.5 -13.5q-32 0 -61 3.5t-51 8.5q-26 5 -47 12 v139z" />
<glyph unicode="&#x160;" horiz-adv-x="1100" d="M113 0zM725 389q0 49 -26 86.5t-68.5 68.5t-96.5 58t-111 57t-111 66t-96.5 82.5t-68.5 108t-26 143.5q0 96 35 171t98.5 126.5t151.5 78.5t194 27q55 0 105.5 -7.5t93.5 -19t77.5 -26t59.5 -29.5v-252q-26 19 -60.5 38.5t-76 35.5t-88.5 26.5t-97 10.5 q-52 0 -93.5 -12.5t-70 -34.5t-44 -52.5t-15.5 -66.5q0 -47 26 -83t68.5 -66.5t97 -58.5t111.5 -58.5t111.5 -67t97 -84.5t68.5 -110t26 -144q0 -102 -39.5 -182t-108.5 -135t-162.5 -84t-201.5 -29q-61 0 -117.5 9t-104.5 23t-86.5 31t-63.5 32v256q31 -26 71 -48t85.5 -39 t96 -26.5t103.5 -9.5q60 0 107.5 14t80.5 39.5t50.5 60.5t17.5 76zM413 1624l-249 312h223l153 -176l154 176h223l-250 -312h-254z" />
<glyph unicode="&#x161;" horiz-adv-x="969" d="M102 0zM623 291q0 35 -21.5 60.5t-56.5 46t-79.5 38.5t-91.5 38.5t-91.5 45.5t-79.5 60.5t-56.5 83t-21.5 112.5q0 74 29 133t80.5 100t123.5 63t158 22q50 0 95 -6.5t83.5 -17t68.5 -23.5t50 -25v-219q-27 20 -61.5 36.5t-72.5 28.5t-77.5 19t-75.5 8q-39 0 -68.5 -8.5 t-49 -23t-29.5 -33t-10 -39.5q0 -32 21.5 -56t56.5 -44t79.5 -38t91 -39.5t91 -48t79.5 -63.5t56.5 -86.5t21.5 -116.5q0 -75 -30.5 -136t-85.5 -103.5t-132 -65.5t-170 -23q-54 0 -105.5 8t-95 20.5t-77.5 27.5t-55 30v217q34 -24 74.5 -43t83 -32.5t86 -21t83.5 -7.5 q88 0 134.5 35t46.5 86zM351 1255l-249 312h223l153 -176l154 176h223l-250 -312h-254z" />
<glyph unicode="&#x162;" horiz-adv-x="1135" d="M4 0zM696 0h-260v1219h-432v215h1124v-215h-432v-1219zM363 -367q20 -10 43 -17q20 -7 45.5 -12t54.5 -5q46 0 72 22.5t26 61.5q0 48 -55 77t-152 29l119 211h180l-79 -127q40 -9 74 -25t59 -40t39 -55.5t14 -69.5q0 -53 -24 -93t-63.5 -66.5t-90 -40t-103.5 -13.5 q-32 0 -61 3.5t-51 8.5q-26 5 -47 12v139z" />
<glyph unicode="&#x163;" horiz-adv-x="786" d="M45 0zM219 1065v240l246 51v-291h252v-199h-252v-534q0 -82 35.5 -116t101.5 -34q25 0 47 2.5t39 6.5q19 4 37 10v-207q-26 -7 -55 -12q-25 -5 -57.5 -8t-67.5 -3q-165 0 -245.5 89.5t-80.5 275.5v530h-174v199h174zM392 -370q20 -10 43 -17q20 -7 45.5 -12t54.5 -5 q46 0 72 22.5t26 61.5q0 48 -55 77t-152 29l119 211h180l-79 -127q40 -9 74 -25t59 -40t39 -55.5t14 -69.5q0 -53 -24 -93t-63.5 -66.5t-90 -40t-103.5 -13.5q-32 0 -61 3.5t-51 8.5q-26 5 -47 12v139z" />
<glyph unicode="&#x164;" horiz-adv-x="1135" d="M4 0zM696 0h-260v1219h-432v215h1124v-215h-432v-1219zM440 1609l-249 312h223l153 -176l154 176h223l-250 -312h-254z" />
<glyph unicode="&#x165;" horiz-adv-x="864" d="M45 0zM219 1065v240l246 51v-291h252v-199h-252v-534q0 -82 35.5 -116t101.5 -34q25 0 47 2.5t39 6.5q19 4 37 10v-207q-26 -7 -55 -12q-25 -5 -57.5 -8t-67.5 -3q-165 0 -245.5 89.5t-80.5 275.5v530h-174v199h174zM637 1326q31 27 58.5 57t47.5 61.5t33 62t16 58.5 q-35 2 -64 16t-51 37t-34 54t-12 67q0 38 13 69.5t36 54.5t55 35.5t70 12.5q37 0 69.5 -14t56.5 -41t38 -67t14 -91q0 -56 -17 -116t-50 -119t-83 -116t-116 -107l-80 86v0z" />
<glyph unicode="&#x16a;" horiz-adv-x="1526" d="M178 0zM178 1434h260v-895q0 -95 22.5 -160.5t64.5 -106t102 -59t135 -18.5t134.5 18.5t101.5 59t64.5 106t22.5 160.5v895h261v-893q0 -146 -42.5 -253t-119.5 -177.5t-184.5 -105t-237.5 -34.5t-237.5 33.5t-184.5 103t-119.5 177t-42.5 256.5v893zM1073 1682h-622v186 h622v-186z" />
<glyph unicode="&#x16b;" d="M160 0zM870 1065h246v-795q0 -60 2 -109t5 -85q3 -42 7 -76h-225q-4 18 -8 41q-4 20 -8 47t-8 62q-20 -24 -51 -55t-74.5 -58.5t-99.5 -46.5t-126 -19q-107 0 -178 36t-113.5 93.5t-60.5 129t-18 141.5v694h246v-659q0 -58 15.5 -101t44 -71.5t68.5 -43t89 -14.5 q42 0 81 13t71 32t56.5 40.5t38.5 37.5v766zM952 1317h-622v186h622v-186z" />
<glyph unicode="&#x16e;" horiz-adv-x="1526" d="M178 0zM178 1434h260v-895q0 -95 22.5 -160.5t64.5 -106t102 -59t135 -18.5t134.5 18.5t101.5 59t64.5 106t22.5 160.5v895h261v-893q0 -146 -42.5 -253t-119.5 -177.5t-184.5 -105t-237.5 -34.5t-237.5 33.5t-184.5 103t-119.5 177t-42.5 256.5v893zM649 1835 q0 -57 31 -90.5t82 -33.5t82 33.5t31 90.5q0 54 -31 87.5t-82 33.5t-82 -33.5t-31 -87.5zM496 1835q0 58 19.5 106.5t55 83.5t84 54t107.5 19q58 0 107 -19t84.5 -54t55 -83.5t19.5 -106.5q0 -59 -19.5 -108t-55 -84t-84.5 -54.5t-107 -19.5q-59 0 -107.5 19.5t-84 54.5 t-55 84t-19.5 108z" />
<glyph unicode="&#x16f;" d="M160 0zM870 1065h246v-795q0 -60 2 -109t5 -85q3 -42 7 -76h-225q-4 18 -8 41q-4 20 -8 47t-8 62q-20 -24 -51 -55t-74.5 -58.5t-99.5 -46.5t-126 -19q-107 0 -178 36t-113.5 93.5t-60.5 129t-18 141.5v694h246v-659q0 -58 15.5 -101t44 -71.5t68.5 -43t89 -14.5 q42 0 81 13t71 32t56.5 40.5t38.5 37.5v766zM530 1470q0 -57 31 -90.5t82 -33.5t82 33.5t31 90.5q0 54 -31 87.5t-82 33.5t-82 -33.5t-31 -87.5zM377 1470q0 58 19.5 106.5t55 83.5t84 54t107.5 19q58 0 107 -19t84.5 -54t55 -83.5t19.5 -106.5q0 -59 -19.5 -108t-55 -84 t-84.5 -54.5t-107 -19.5q-59 0 -107.5 19.5t-84 54.5t-55 84t-19.5 108z" />
<glyph unicode="&#x170;" horiz-adv-x="1526" d="M178 0zM178 1434h260v-895q0 -95 22.5 -160.5t64.5 -106t102 -59t135 -18.5t134.5 18.5t101.5 59t64.5 106t22.5 160.5v895h261v-893q0 -146 -42.5 -253t-119.5 -177.5t-184.5 -105t-237.5 -34.5t-237.5 33.5t-184.5 103t-119.5 177t-42.5 256.5v893zM905 1910l-356 -301 h-223l243 301h336zM1362 1910l-356 -301h-224l244 301h336z" />
<glyph unicode="&#x171;" d="M160 0zM870 1065h246v-795q0 -60 2 -109t5 -85q3 -42 7 -76h-225q-4 18 -8 41q-4 20 -8 47t-8 62q-20 -24 -51 -55t-74.5 -58.5t-99.5 -46.5t-126 -19q-107 0 -178 36t-113.5 93.5t-60.5 129t-18 141.5v694h246v-659q0 -58 15.5 -101t44 -71.5t68.5 -43t89 -14.5 q42 0 81 13t71 32t56.5 40.5t38.5 37.5v766zM784 1556l-356 -301h-223l243 301h336zM1241 1556l-356 -301h-224l244 301h336z" />
<glyph unicode="&#x172;" horiz-adv-x="1526" d="M178 0zM178 1434h260v-895q0 -95 22.5 -160.5t64.5 -106t102 -59t135 -18.5t134.5 18.5t101.5 59t64.5 106t22.5 160.5v895h261v-893q0 -146 -42.5 -253t-119.5 -177.5t-184.5 -105t-237.5 -34.5t-237.5 33.5t-184.5 103t-119.5 177t-42.5 256.5v893zM969 0 q-36 -41 -63 -85q-23 -38 -42.5 -84t-19.5 -91q0 -35 13 -57.5t32.5 -35.5t42.5 -18.5t43 -5.5q25 0 47 4.5t39 10.5q19 7 37 16v-152q-20 -12 -48 -22q-24 -8 -60.5 -14.5t-86.5 -6.5q-57 0 -105 13t-83.5 41t-55.5 71t-20 103q0 69 25 126t55 99q35 48 80 88h170z" />
<glyph unicode="&#x173;" d="M160 0zM870 1065h246v-795q0 -60 2 -109t5 -85q3 -42 7 -76h-225q-4 18 -8 41q-4 20 -8 47t-8 62q-20 -24 -51 -55t-74.5 -58.5t-99.5 -46.5t-126 -19q-107 0 -178 36t-113.5 93.5t-60.5 129t-18 141.5v694h246v-659q0 -58 15.5 -101t44 -71.5t68.5 -43t89 -14.5 q42 0 81 13t71 32t56.5 40.5t38.5 37.5v766zM1124 0q-36 -41 -63 -85q-23 -38 -42.5 -84t-19.5 -91q0 -35 13 -57.5t32.5 -35.5t42.5 -18.5t43 -5.5q25 0 47 4.5t39 10.5q19 7 37 16v-152q-20 -12 -48 -22q-24 -8 -60.5 -14.5t-86.5 -6.5q-57 0 -105 13t-83.5 41t-55.5 71 t-20 103q0 69 25 126t55 99q35 48 80 88h170z" />
<glyph unicode="&#x178;" horiz-adv-x="1202" d="M2 0zM731 557v-557h-260v557l-469 877h287l311 -625l311 625h289zM254 1738q0 28 10 52.5t27.5 42.5t42 28t53.5 10q28 0 52.5 -10t41.5 -28t27 -42.5t10 -52.5q0 -29 -10 -53t-27 -42t-41.5 -28t-52.5 -10q-29 0 -53.5 10t-42 28t-27.5 42t-10 53zM682 1738 q0 28 10 52.5t28 42.5t43 28t54 10q28 0 52 -10t41.5 -28t27.5 -42.5t10 -52.5q0 -29 -10 -53t-27.5 -42t-41.5 -28t-52 -10q-29 0 -54 10t-43 28t-28 42t-10 53z" />
<glyph unicode="&#x179;" horiz-adv-x="1174" d="M80 0zM1063 1434v-144l-645 -1075h676v-215h-1014v143l643 1076h-623v215h963zM966 1910l-356 -301h-223l243 301h336z" />
<glyph unicode="&#x17a;" horiz-adv-x="967" d="M51 0zM555 872h-483v193h813v-117l-504 -755h524v-193h-854v117zM862 1556l-356 -301h-223l243 301h336z" />
<glyph unicode="&#x17b;" horiz-adv-x="1174" d="M80 0zM1063 1434v-144l-645 -1075h676v-215h-1014v143l643 1076h-623v215h963zM424 1778q0 35 12 64.5t33 50.5t50 33t64 12t64.5 -12t50.5 -33t33 -50.5t12 -64.5t-12 -64t-33 -50.5t-50.5 -33.5t-64.5 -12t-64 12t-50 33.5t-33 50.5t-12 64z" />
<glyph unicode="&#x17c;" horiz-adv-x="967" d="M51 0zM555 872h-483v193h813v-117l-504 -755h524v-193h-854v117zM320 1413q0 35 12 64.5t33 50.5t50 33t64 12t64.5 -12t50.5 -33t33 -50.5t12 -64.5t-12 -64t-33 -50.5t-50.5 -33.5t-64.5 -12t-64 12t-50 33.5t-33 50.5t-12 64z" />
<glyph unicode="&#x17d;" horiz-adv-x="1174" d="M80 0zM1063 1434v-144l-645 -1075h676v-215h-1014v143l643 1076h-623v215h963zM460 1613l-249 312h223l153 -176l154 176h223l-250 -312h-254z" />
<glyph unicode="&#x17e;" horiz-adv-x="967" d="M51 0zM555 872h-483v193h813v-117l-504 -755h524v-193h-854v117zM349 1255l-249 312h223l153 -176l154 176h223l-250 -312h-254z" />
<glyph unicode="&#x192;" horiz-adv-x="997" d="M240 942h198l27 191q16 88 43 155.5t69 113.5t101.5 69.5t140.5 23.5q31 0 60 -3t53 -7t40.5 -9t22.5 -8l-28 -200q-18 7 -38 13q-17 5 -40 9t-47 4q-51 0 -84 -28.5t-41 -83.5l-18 -120t-17 -120h215l-27 -199h-215l-127 -890q-21 -178 -109 -271.5t-243 -93.5 q-30 0 -59 3t-53 7t-41 9t-23 8l29 200q18 -8 38 -13q17 -5 39.5 -9t47.5 -4q49 0 83 28.5t42 83.5l131 942h-197z" />
<glyph unicode="&#x218;" horiz-adv-x="1100" d="M113 0zM725 389q0 49 -26 86.5t-68.5 68.5t-96.5 58t-111 57t-111 66t-96.5 82.5t-68.5 108t-26 143.5q0 96 35 171t98.5 126.5t151.5 78.5t194 27q55 0 105.5 -7.5t93.5 -19t77.5 -26t59.5 -29.5v-252q-26 19 -60.5 38.5t-76 35.5t-88.5 26.5t-97 10.5 q-52 0 -93.5 -12.5t-70 -34.5t-44 -52.5t-15.5 -66.5q0 -47 26 -83t68.5 -66.5t97 -58.5t111.5 -58.5t111.5 -67t97 -84.5t68.5 -110t26 -144q0 -102 -39.5 -182t-108.5 -135t-162.5 -84t-201.5 -29q-61 0 -117.5 9t-104.5 23t-86.5 31t-63.5 32v256q31 -26 71 -48t85.5 -39 t96 -26.5t103.5 -9.5q60 0 107.5 14t80.5 39.5t50.5 60.5t17.5 76zM371 -384q0 37 13 69t36 54.5t55 35.5t70 13q37 0 69.5 -14t56.5 -41t38 -67t14 -91q0 -56 -17 -116t-50 -119.5t-83 -116.5t-116 -107l-80 86q31 27 58.5 57.5t47.5 62t33 62t16 58.5q-35 2 -64 16t-51 37 t-34 54t-12 67z" />
<glyph unicode="&#x219;" horiz-adv-x="967" d="M113 0zM621 291q0 35 -21.5 60.5t-56.5 46t-79.5 38.5t-91.5 38.5t-91.5 45.5t-79.5 60.5t-56.5 83t-21.5 112.5q0 74 29 133t80.5 100t123.5 63t158 22q50 0 95 -6.5t83.5 -17t68.5 -23.5t50 -25v-219q-27 20 -61.5 36.5t-72.5 28.5t-77.5 19t-75.5 8q-39 0 -68.5 -8.5 t-49 -23t-29.5 -33t-10 -39.5q0 -32 21.5 -56t56.5 -44t79.5 -38t91 -39.5t91 -48t79.5 -63.5t56.5 -86.5t21.5 -116.5q0 -75 -30.5 -136t-85.5 -103.5t-132 -65.5t-170 -23q-54 0 -105.5 8t-95 20.5t-77.5 27.5t-55 30v217q34 -24 74.5 -43t83 -32.5t86 -21t83.5 -7.5 q88 0 134.5 35t46.5 86zM312 -370q0 37 13 69t36 54.5t55 35.5t70 13q37 0 69.5 -14t56.5 -41t38 -67t14 -91q0 -56 -17 -116t-50 -119.5t-83 -116.5t-116 -107l-80 86q31 27 58.5 57.5t47.5 62t33 62t16 58.5q-35 2 -64 16t-51 37t-34 54t-12 67z" />
<glyph unicode="&#x21a;" horiz-adv-x="1135" d="M4 0zM696 0h-260v1219h-432v215h1124v-215h-432v-1219zM392 -370q0 37 13 69t36 54.5t55 35.5t70 13q37 0 69.5 -14t56.5 -41t38 -67t14 -91q0 -56 -17 -116t-50 -119.5t-83 -116.5t-116 -107l-80 86q31 27 58.5 57.5t47.5 62t33 62t16 58.5q-35 2 -64 16t-51 37t-34 54 t-12 67z" />
<glyph unicode="&#x21b;" horiz-adv-x="791" d="M45 0zM219 1065v240l246 51v-291h252v-199h-252v-534q0 -82 35.5 -116t101.5 -34q25 0 47 2.5t39 6.5q19 4 37 10v-207q-26 -7 -55 -12q-25 -5 -57.5 -8t-67.5 -3q-165 0 -245.5 89.5t-80.5 275.5v530h-174v199h174zM265 -370q0 37 13 69t36 54.5t55 35.5t70 13 q37 0 69.5 -14t56.5 -41t38 -67t14 -91q0 -56 -17 -116t-50 -119.5t-83 -116.5t-116 -107l-80 86q31 27 58.5 57.5t47.5 62t33 62t16 58.5q-35 2 -64 16t-51 37t-34 54t-12 67z" />
<glyph unicode="&#x2c6;" horiz-adv-x="979" d="M616 1567l250 -312h-223l-154 177l-153 -177h-223l249 312h254z" />
<glyph unicode="&#x2c7;" horiz-adv-x="979" d="M362 1255l-249 312h223l153 -176l154 176h223l-250 -312h-254z" />
<glyph unicode="&#x2d8;" horiz-adv-x="936" d="M467 1415q81 0 121.5 50t54.5 141h180q-4 -76 -28 -142.5t-68 -115.5t-109 -77t-151 -28q-85 0 -149.5 28t-109 77t-68 115.5t-27.5 142.5h178q14 -91 54 -141t122 -50z" />
<glyph unicode="&#x2d9;" horiz-adv-x="545" d="M113 1413q0 35 12 64.5t33 50.5t50 33t64 12t64.5 -12t50.5 -33t33 -50.5t12 -64.5t-12 -64t-33 -50.5t-50.5 -33.5t-64.5 -12t-64 12t-50 33.5t-33 50.5t-12 64z" />
<glyph unicode="&#x2da;" horiz-adv-x="758" d="M266 1470q0 -57 31 -90.5t82 -33.5t82 33.5t31 90.5q0 54 -31 87.5t-82 33.5t-82 -33.5t-31 -87.5zM113 1470q0 58 19.5 106.5t55 83.5t84 54t107.5 19q58 0 107 -19t84.5 -54t55 -83.5t19.5 -106.5q0 -59 -19.5 -108t-55 -84t-84.5 -54.5t-107 -19.5q-59 0 -107.5 19.5 t-84 54.5t-55 84t-19.5 108z" />
<glyph unicode="&#x2db;" horiz-adv-x="643" d="M422 0q-36 -41 -63 -85q-23 -38 -42.5 -84t-19.5 -91q0 -35 13 -57.5t32.5 -35.5t42.5 -18.5t43 -5.5q25 0 47 4.5t39 10.5q19 7 37 16v-152q-20 -12 -48 -22q-24 -8 -60.5 -14.5t-86.5 -6.5q-57 0 -105 13t-83.5 41t-55.5 71t-20 103q0 69 25 126t55 99q35 48 80 88h170 z" />
<glyph unicode="&#x2dc;" horiz-adv-x="1038" d="M926 1606q0 -61 -14 -119.5t-44 -104.5t-78 -74t-116 -28q-43 0 -75.5 11t-58.5 27t-47.5 35.5t-42 35.5t-42 27t-48.5 11q-25 0 -42 -11.5t-27.5 -31.5t-15 -46.5t-5.5 -55.5h-157q0 58 13.5 116.5t43 105t76.5 75.5t114 29q41 0 73 -11t58.5 -27.5t48.5 -35.5t43 -35.5 t42.5 -27.5t46.5 -11q27 0 45 13t29 34t16 47t6 52h158z" />
<glyph unicode="&#x2dd;" horiz-adv-x="1262" d="M692 1556l-356 -301h-223l243 301h336zM1149 1556l-356 -301h-224l244 301h336z" />
<glyph unicode="&#x3c0;" horiz-adv-x="1561" d="M940 866h-322v-866h-245v866h-219v199h1253v-199h-221v-530q0 -75 33.5 -106t93.5 -31q20 0 37.5 2t29.5 5q14 3 25 7v-205q-5 -2 -20.5 -6t-36.5 -7.5t-47 -6t-52 -2.5q-150 0 -229.5 82.5t-79.5 259.5v538z" />
<glyph unicode="&#x2013;" horiz-adv-x="1307" d="M113 719h1081v-211h-1081v211z" />
<glyph unicode="&#x2014;" horiz-adv-x="2284" d="M113 719h2058v-211h-2058v211z" />
<glyph unicode="&#x2018;" horiz-adv-x="502" d="M389 963q0 -39 -13.5 -70.5t-37 -54t-55 -35t-68.5 -12.5q-38 0 -71 13.5t-57 40t-38 66t-14 90.5q0 57 17 117t50.5 119.5t83.5 116.5t115 108l80 -88q-32 -27 -59 -57t-47.5 -61t-33.5 -61.5t-16 -57.5q35 -3 65 -17t52 -37t34.5 -53.5t12.5 -66.5z" />
<glyph unicode="&#x2019;" horiz-adv-x="545" d="M119 877q31 27 58.5 57t47.5 61.5t33 62t16 58.5q-35 2 -64 16t-51 37t-34 54t-12 67q0 38 13 69.5t36 54.5t55 35.5t70 12.5q37 0 69.5 -14t56.5 -41t38 -67t14 -91q0 -56 -17 -116t-50 -119t-83 -116t-116 -107l-80 86v0z" />
<glyph unicode="&#x201a;" horiz-adv-x="512" d="M80 145q0 39 13 70.5t36.5 54t55 35t69.5 12.5q37 0 69.5 -13.5t56.5 -40t38 -66t14 -91.5q0 -57 -17 -117t-50 -119t-83 -116t-116 -108l-80 88q31 27 58.5 57t48 61t33.5 61.5t16 57.5q-35 2 -64.5 16t-51 37t-34 54t-12.5 67z" />
<glyph unicode="&#x201c;" horiz-adv-x="973" d="M860 963q0 -39 -13.5 -70.5t-37 -54t-55 -35t-68.5 -12.5q-38 0 -71 13.5t-57 40t-38 66t-14 90.5q0 57 17 117t50.5 119.5t83.5 116.5t115 108l80 -88q-32 -27 -59 -57t-47.5 -61t-33.5 -61.5t-16 -57.5q36 -3 66 -17t51.5 -37t34 -53.5t12.5 -66.5zM432 963 q0 -39 -13 -70.5t-36.5 -54t-55.5 -35t-69 -12.5q-38 0 -70.5 13.5t-56.5 40t-37.5 66t-13.5 90.5q0 57 17 117t50 119.5t83 116.5t116 108l80 -88q-32 -27 -59 -57t-47.5 -61t-33.5 -61.5t-16 -57.5q34 -3 64 -17t51.5 -37t34 -53.5t12.5 -66.5z" />
<glyph unicode="&#x201d;" horiz-adv-x="973" d="M119 877q31 27 58.5 57t47.5 61.5t33 62t16 58.5q-35 2 -64 16t-51 37t-34 54t-12 67q0 38 13 69.5t36 54.5t55 35.5t70 12.5q37 0 69.5 -14t56.5 -41t38 -67t14 -91q0 -56 -17 -116t-50 -119t-83 -116t-116 -107zM547 877q31 27 58.5 57t47.5 61.5t33 62t16 58.5 q-35 2 -65 16t-52 37t-34 54t-12 67q0 38 13.5 69.5t36.5 54.5t55 35.5t69 12.5q38 0 71 -14t57 -41t38 -67t14 -91q0 -56 -17 -116t-50.5 -119t-83.5 -116t-115 -107z" />
<glyph unicode="&#x201e;" horiz-adv-x="940" d="M86 -266q31 27 58.5 57t48 61t33.5 61.5t16 57.5q-35 2 -64.5 16t-51 37t-34 54t-12.5 67q0 39 13 70.5t36.5 54t55 35t69.5 12.5q37 0 69.5 -13.5t56.5 -40t38 -66t14 -91.5q0 -57 -17 -117t-50 -119t-83 -116t-116 -108zM514 -266q31 27 58.5 57t48 61t33.5 61.5 t16 57.5q-36 2 -66 16t-51.5 37t-34 54t-12.5 67q0 39 13.5 70.5t37 54t55 35t68.5 12.5q38 0 71 -13.5t57 -40t38 -66t14 -91.5q0 -57 -17 -117t-50.5 -119t-83.5 -116t-115 -108z" />
<glyph unicode="&#x2020;" horiz-adv-x="1192" d="M723 -309h-254l14 1134l-370 -12v205l370 -19l-14 463h254l-14 -463l370 19v-205l-370 12z" />
<glyph unicode="&#x2021;" horiz-adv-x="1274" d="M1120 340v-205l-370 19l14 -463h-254l14 463l-370 -19v205l370 -12l-8 254l8 243l-370 -12v205l370 -19l-14 463h254l-14 -463l370 19v-205l-370 12l8 -243l-8 -254z" />
<glyph unicode="&#x2022;" horiz-adv-x="825" d="M154 672q0 54 19.5 101.5t54 83t81.5 55.5t103 20q54 0 101.5 -20t83 -55.5t55.5 -83t20 -101.5q0 -55 -20 -102t-55.5 -81.5t-83 -54.5t-101.5 -20q-56 0 -103 20t-81.5 54.5t-54 81.5t-19.5 102z" />
<glyph unicode="&#x2026;" horiz-adv-x="1581" d="M80 145q0 38 13 69.5t36.5 54.5t55 35.5t69.5 12.5q37 0 68.5 -12.5t54.5 -35.5t36 -54.5t13 -69.5t-13 -69.5t-36 -55t-54.5 -36.5t-68.5 -13q-38 0 -69.5 13t-55 36.5t-36.5 55t-13 69.5zM616 145q0 38 13.5 69.5t37 54.5t55.5 35.5t69 12.5t69 -12.5t55.5 -35.5 t36.5 -54.5t13 -69.5t-13 -69.5t-36.5 -55t-55.5 -36.5t-69 -13t-69 13t-55.5 36.5t-37 55t-13.5 69.5zM1155 145q0 38 13 69.5t36.5 54.5t55 35.5t69.5 12.5q37 0 68.5 -12.5t54.5 -35.5t36 -54.5t13 -69.5t-13 -69.5t-36 -55t-54.5 -36.5t-68.5 -13q-38 0 -69.5 13 t-55 36.5t-36.5 55t-13 69.5z" />
<glyph unicode="&#x2030;" horiz-adv-x="2755" d="M475 1434q80 0 146.5 -29.5t114.5 -83t75 -129t27 -166.5q0 -92 -27 -167t-75 -128.5t-114.5 -83t-146.5 -29.5t-146.5 29.5t-114.5 83t-74.5 128.5t-26.5 167q0 91 26.5 166.5t74.5 129t114.5 83t146.5 29.5zM475 1262q-37 0 -67 -17t-51.5 -47.5t-33.5 -74t-12 -97.5 t12 -97.5t33.5 -74t51.5 -47t67 -16.5q74 0 118 63t44 172q0 54 -11.5 97.5t-32.5 74t-51 47.5t-67 17zM705 -29h-213l735 1491h213zM1458 815q80 0 146.5 -29.5t114.5 -83t75 -128.5t27 -166q0 -92 -27 -167.5t-75 -129t-114.5 -82.5t-146.5 -29t-146.5 29t-114.5 82.5 t-74.5 129t-26.5 167.5q0 91 26.5 166t74.5 128.5t114.5 83t146.5 29.5zM1458 643q-37 0 -67 -16.5t-51.5 -47.5t-33.5 -74t-12 -97q0 -110 45 -173t119 -63t118 63t44 173q0 54 -11.5 97t-32.5 74t-51 47.5t-67 16.5zM2279 815q80 0 146.5 -29.5t114.5 -83t75 -128.5 t27 -166q0 -92 -27 -167.5t-75 -129t-114.5 -82.5t-146.5 -29t-146.5 29t-114.5 82.5t-74.5 129t-26.5 167.5q0 91 26.5 166t74.5 128.5t114.5 83t146.5 29.5zM2279 643q-37 0 -66.5 -16.5t-50.5 -47.5t-32.5 -74t-11.5 -97q0 -110 43.5 -173t117.5 -63q75 0 119.5 63 t44.5 173q0 54 -11.5 97t-33 74t-52 47.5t-67.5 16.5z" />
<glyph unicode="&#x2039;" horiz-adv-x="754" d="M559 244v-224l-477 410v219l477 410v-223l-278 -297z" />
<glyph unicode="&#x203a;" horiz-adv-x="754" d="M195 836v223l477 -410v-219l-477 -410v224l278 295z" />
<glyph unicode="&#x2044;" horiz-adv-x="963" d="M227 -29h-196l704 1491h197z" />
<glyph unicode="&#x20ac;" horiz-adv-x="1509" d="M1290 1153q-59 35 -131 58.5t-160 23.5q-151 0 -256.5 -75t-156.5 -206h602q-22 -42 -42 -82.5t-42 -80.5h-555q-2 -11 -3 -31t-1 -43q0 -25 1 -44t3 -28h477q-22 -42 -42 -82.5t-42 -81.5h-356q51 -134 156.5 -208t256.5 -74q88 0 160 22t131 58l107 -201 q-34 -19 -78 -38t-96.5 -34.5t-114 -25t-129.5 -9.5q-126 0 -235.5 36t-197 102.5t-150.5 160.5t-95 211h-188v164h161q-2 9 -3 29t-1 43t1 43t3 31h-161v163h188q32 115 95 209t151 160.5t197.5 102.5t234.5 36q67 0 128 -9.5t114 -24.5t97 -34.5t79 -39.5z" />
<glyph unicode="&#x2113;" horiz-adv-x="948" d="M616 1495q51 0 91.5 -16t69 -43.5t44 -65t15.5 -80.5q0 -71 -20 -143t-54 -142t-79.5 -136t-96.5 -124.5t-104.5 -107.5t-104.5 -86q-3 -32 -5.5 -68.5t-2.5 -76.5q0 -60 7.5 -119.5t28 -107.5t57 -77.5t95.5 -29.5q43 0 81 15t67 33q33 21 61 48l33 -39 q-29 -26 -67.5 -54t-87 -51t-106 -38t-122.5 -15q-63 0 -109.5 19t-80 52t-55.5 77.5t-35 95.5t-18 106t-5 109q0 121 16.5 247t48 244.5t76 223t100 182.5t122 123t140.5 45zM383 643q61 54 121.5 126t108 154t77 169t29.5 170q0 35 -13.5 60.5t-39.5 25.5 q-35 0 -67.5 -35.5t-61.5 -93.5t-54 -132.5t-45 -153t-34 -154.5t-21 -136z" />
<glyph unicode="&#x2117;" horiz-adv-x="1757" d="M133 717q0 103 26.5 198t75 178t117 151t151 116.5t178 75t198.5 26.5t198 -26.5t178 -75t151 -116.5t116.5 -151t75 -178t26.5 -198t-26.5 -198.5t-75 -178t-116.5 -151t-151 -117t-178 -75t-198 -26.5q-155 0 -290.5 58.5t-237 160t-160 237t-58.5 290.5zM311 717 q0 -125 44.5 -232.5t121.5 -186.5t180.5 -124t221.5 -45q117 0 220 45t179.5 124t121 186.5t44.5 232.5q0 124 -44.5 231.5t-121 187t-179.5 124.5t-220 45q-78 0 -151 -20.5t-136 -58t-115 -91t-88.5 -118.5t-57 -141t-20.5 -159zM1038 854q0 62 -37.5 90.5t-103.5 28.5 h-78v-238h78q66 0 103.5 29.5t37.5 89.5zM819 600v-285h-162v793h256q70 0 125 -19.5t92.5 -53.5t57.5 -80.5t20 -100.5t-20 -100.5t-57.5 -80.5t-92.5 -53.5t-125 -19.5h-94z" />
<glyph unicode="&#x2120;" horiz-adv-x="1845" d="M434 848q0 31 -24.5 54t-60.5 43.5t-79 42.5t-79 51.5t-60.5 70.5t-24.5 100q0 55 20.5 98.5t57 73.5t87 46t110.5 16q63 0 114 -15.5t80 -33.5v-174q-17 13 -38.5 26t-46 24t-50.5 18t-51 7q-51 0 -78.5 -21.5t-27.5 -55.5q0 -31 24.5 -53t61 -42t79 -42t79 -52.5 t61 -72.5t24.5 -103q0 -59 -23 -105t-63 -77.5t-93 -48.5t-114 -17q-34 0 -66 5.5t-60 14t-51.5 19t-39.5 19.5v174q21 -17 46 -32t52 -26t54.5 -17.5t54.5 -6.5q59 0 92 26t33 66zM1174 770l-256 344v-496h-177v822h117l342 -457l340 457h115v-822h-174v496l-256 -344h-51z " />
<glyph unicode="&#x2122;" horiz-adv-x="1999" d="M72 1434h714v-144h-270v-672h-176v672h-268v144zM1327 770l-256 344v-496h-176v822h117l342 -457l340 457h114v-822h-174v496l-256 -344h-51z" />
<glyph unicode="&#x2126;" horiz-adv-x="1815" d="M907 1245q-107 0 -199.5 -37.5t-160 -104.5t-106 -160.5t-38.5 -205.5q0 -101 30.5 -186.5t84 -152t125 -112.5t152.5 -67v-219h-652v207h267q-62 43 -113 98t-87.5 122t-56.5 144.5t-20 165.5q0 157 59.5 289.5t164 229.5t245.5 151.5t305 54.5q109 0 208.5 -24.5 t185.5 -70.5t156.5 -111t120 -145.5t76.5 -175t27 -198.5q0 -88 -20 -165.5t-56.5 -144.5t-88 -122t-113.5 -98h268v-207h-651v219q81 21 152 67t124 112.5t84 152t31 186.5q0 112 -39 205.5t-107.5 160.5t-160.5 104.5t-197 37.5z" />
<glyph unicode="&#x212e;" horiz-adv-x="1389" d="M1276 512h-879v-338q59 -48 134 -73t163 -25q109 0 199.5 41.5t153.5 115.5h149q-39 -63 -92.5 -111.5t-118 -82t-138 -51t-153.5 -17.5q-126 0 -232.5 42t-184 117t-121 178t-43.5 224t43.5 224t121 178t184 117.5t232.5 42.5t232.5 -42.5t184.5 -117.5t121.5 -178 t43.5 -224v-20zM694 987q-88 0 -163 -26t-134 -72v-264h594v264q-60 46 -135 72t-162 26z" />
<glyph unicode="&#x2202;" horiz-adv-x="1362" d="M655 899q62 0 112.5 -14.5t91 -38.5t71 -56t53.5 -67q12 67 12 143q0 98 -16.5 174t-47 127.5t-73.5 78t-96 26.5q-82 0 -148 -50.5t-118 -146.5h-256q44 91 101.5 162.5t126.5 121.5t149 76.5t169 26.5q109 0 195 -39.5t145.5 -115t91 -186t31.5 -251.5q0 -129 -25 -246 t-70.5 -217t-109 -180.5t-139.5 -137.5t-163 -87.5t-179 -30.5q-101 0 -184 33.5t-142 90.5t-91.5 133t-32.5 161q0 106 44.5 199t119.5 162t173 109t205 40zM573 176q54 0 106 24t99 68.5t87 107t69 140.5q-23 35 -52 67.5t-65 57t-78.5 39t-91.5 14.5q-52 0 -103.5 -18 t-93 -54t-67 -89t-25.5 -123q0 -53 16.5 -96.5t45.5 -74t68 -47t85 -16.5z" />
<glyph unicode="&#x2206;" horiz-adv-x="1481" d="M707 1450h65l694 -1450h-1454zM379 215h719l-359 774z" />
<glyph unicode="&#x220f;" horiz-adv-x="1661" d="M1337 0h-254v1225h-510v-1225h-254v1225h-206v209h1435v-209h-211v-1225z" />
<glyph unicode="&#x2211;" horiz-adv-x="1421" d="M973 686l-459 -479h754v-207h-1114v158l536 559l-536 559v158h1114v-209h-754l459 -477v-62z" />
<glyph unicode="&#x2212;" horiz-adv-x="1255" d="M1143 700v-217h-1030v217h1030z" />
<glyph unicode="&#x221a;" horiz-adv-x="1483" d="M102 854h381l170 -438l477 1216h250l-667 -1648h-119l-275 663h-217v207z" />
<glyph unicode="&#x221e;" horiz-adv-x="1688" d="M1233 309q-49 0 -97 14t-96 40.5t-97.5 64.5t-100.5 86q-48 -45 -95 -82.5t-94.5 -64.5t-96.5 -42.5t-103 -15.5q-71 0 -133 26.5t-108 73t-72.5 108t-26.5 132.5t26.5 132.5t72 107.5t107.5 72t134 26q99 0 196 -52.5t193 -148.5q45 43 91.5 80t95.5 64t100 42t104 15 q71 0 133.5 -26t109 -71.5t73 -107t26.5 -133.5q0 -71 -27 -132.5t-73.5 -108t-109 -73t-132.5 -26.5zM307 649q0 -30 11.5 -56t31 -45.5t46 -30.5t57.5 -11t62 11.5t61.5 31t62 46t63.5 56.5q-32 29 -63 54.5t-61.5 44.5t-62 30t-62.5 11t-57.5 -10.5t-46 -29.5t-31 -45 t-11.5 -57zM983 651q31 -30 62.5 -56.5t63 -46t62.5 -31t62 -11.5t58 11t47 30.5t31 45.5t11 56q0 31 -11 57t-31 45t-47 29.5t-58 10.5t-62.5 -11t-63 -30.5t-62.5 -45t-62 -53.5z" />
<glyph unicode="&#x222b;" horiz-adv-x="997" d="M471 1176q11 78 40 137.5t74 100t104 61t130 20.5q31 0 60 -3t53 -7t40.5 -9t22.5 -8l-28 -200q-18 7 -38 13q-17 5 -40 9t-47 4q-56 0 -86.5 -26t-38.5 -86l-195 -1375q-23 -157 -114.5 -238t-231.5 -81q-30 0 -59 3t-53 7t-41 9t-23 8l29 200q18 -8 38 -13 q17 -5 39.5 -9t47.5 -4q51 0 83 26t42 86z" />
<glyph unicode="&#x2248;" horiz-adv-x="1501" d="M979 629q-48 0 -90.5 13.5t-81.5 33.5t-75 44t-71 44t-70.5 33.5t-72.5 13.5q-71 0 -113.5 -43.5t-42.5 -118.5h-167q0 81 22.5 149.5t64.5 117.5t101.5 76.5t134.5 27.5q51 0 94.5 -13.5t82.5 -33.5t74 -44t69.5 -44t70 -33.5t74.5 -13.5q71 0 113.5 43.5t42.5 117.5 h168q0 -81 -23.5 -148.5t-66 -117t-103 -77t-135.5 -27.5zM979 174q-48 0 -90.5 13.5t-81.5 33.5t-75 44t-71 44t-70.5 33.5t-72.5 13.5q-71 0 -113.5 -43.5t-42.5 -117.5h-167q0 81 22.5 149t64.5 117t101.5 76.5t134.5 27.5q51 0 94.5 -13.5t82.5 -33.5t74 -44t69.5 -44 t70 -33.5t74.5 -13.5q71 0 113.5 43.5t42.5 118.5h168q0 -81 -23.5 -149t-66 -117.5t-103 -77t-135.5 -27.5z" />
<glyph unicode="&#x2260;" horiz-adv-x="1522" d="M1141 944h186v-217h-352l-213 -272h565v-217h-731l-184 -238h-217l184 238h-184v217h350l213 272h-563v217h729l186 238h217z" />
<glyph unicode="&#x2264;" horiz-adv-x="1430" d="M1235 489v-215l-1040 344v220l1040 344v-215l-772 -240zM195 207h1038v-207h-1038v207z" />
<glyph unicode="&#x2265;" horiz-adv-x="1430" d="M195 967v215l1040 -344v-220l-1040 -344v215l772 238zM197 207h1038v-207h-1038v207z" />
<glyph unicode="&#x250c;" horiz-adv-x="1450" d="M1475 770v-233h-664v-1162h-233v1395h897z" />
<glyph unicode="&#x2510;" horiz-adv-x="1450" d="M639 537h-662v233h895v-1395h-233v1162z" />
<glyph unicode="&#x2514;" horiz-adv-x="1450" d="M578 473v1395h233v-1161h664v-234h-897z" />
<glyph unicode="&#x2518;" horiz-adv-x="1450" d="M872 473h-895v234h662v1161h233v-1395z" />
<glyph unicode="&#x2588;" horiz-adv-x="1450" d="M-23 -621v2485h1496v-2485h-1496z" />
<glyph unicode="&#x25ca;" horiz-adv-x="1348" d="M1235 717l-512 -733h-98l-512 733l512 733h98zM973 717l-299 426l-299 -426l299 -428z" />
<glyph unicode="&#x266a;" horiz-adv-x="1087" d="M1042 907h-120v56q0 51 -20.5 93.5t-57.5 73t-89 47.5t-114 17h-12v-954q0 -60 -23.5 -109.5t-64.5 -85t-96 -55t-119 -19.5q-59 0 -110.5 19t-89.5 52t-59.5 77.5t-21.5 95.5q0 52 21.5 97.5t59.5 79.5t89.5 53.5t110.5 19.5q51 0 97.5 -12t84.5 -35v1016h104 q91 0 170 -26.5t136.5 -73.5t90.5 -111.5t33 -139.5v-176z" />
<glyph unicode="&#x266b;" horiz-adv-x="1538" d="M629 1032v-891q0 -60 -23.5 -109t-64.5 -84.5t-96 -55t-119 -19.5q-59 0 -110.5 19t-89.5 52t-59.5 77.5t-21.5 95.5q0 52 21.5 97.5t59.5 79.5t89.5 53.5t110.5 19.5q51 0 97.5 -12.5t84.5 -35.5v951l825 256v-1184q0 -60 -23.5 -109.5t-64.5 -84.5t-96 -54.5 t-119 -19.5q-59 0 -110.5 19t-89 52t-59 77t-21.5 95q0 52 21.5 98t59 80.5t89 54t110.5 19.5q51 0 97.5 -13t84.5 -36v697z" />
<glyph unicode="&#xe000;" horiz-adv-x="1065" d="M0 1065h1065v-1065h-1065v1065z" />
<glyph unicode="&#xf6c3;" horiz-adv-x="578" d="M113 -336q0 37 13 69t36 54.5t55 35.5t70 13q37 0 69.5 -14t56.5 -41t38 -67t14 -91q0 -56 -17 -116t-50 -119.5t-83 -116.5t-116 -107l-80 86q31 27 58.5 57.5t47.5 62t33 62t16 58.5q-35 2 -64 16t-51 37t-34 54t-12 67z" />
<glyph unicode="&#xfb01;" horiz-adv-x="1346" d="M42 0zM42 1065h174v100q0 81 21.5 142.5t62 103t98.5 63t131 21.5q32 0 63.5 -3t57.5 -7t44.5 -9t25.5 -8v-200q-21 7 -44 13q-20 5 -45.5 9t-51.5 4q-59 0 -89 -29t-30 -94v-106h248v-199h-248v-866h-244v866h-174v199zM926 1065h246v-1065h-246v1065zM905 1364 q0 31 11 56.5t30.5 42.5t45.5 26.5t57 9.5q63 0 103 -36t40 -99q0 -62 -40 -97.5t-103 -35.5q-31 0 -57 9t-45.5 26.5t-30.5 42t-11 55.5z" />
<glyph unicode="&#xfb02;" horiz-adv-x="1456" d="M42 0zM42 1065h174v100q0 81 21.5 142.5t62 103t98.5 63t131 21.5q32 0 63.5 -3t57.5 -7t44.5 -9t25.5 -8v-200q-21 7 -44 13q-20 5 -45.5 9t-51.5 4q-59 0 -89 -29t-30 -94v-106h248v-199h-248v-866h-244v866h-174v199zM926 1495h246v-1163q0 -42 9.5 -70.5t27 -46 t43.5 -24.5t59 -7q24 0 44.5 2.5t35.5 6.5q18 4 31 10v-207q-25 -8 -53 -13q-24 -5 -56.5 -8.5t-67.5 -3.5q-84 0 -144 22t-99 67.5t-57.5 115t-18.5 164.5v1155z" />
<glyph horiz-adv-x="1456" d="M0 0z" />
</font>
</defs>
</svg>
