<?xml version="1.0" standalone="no"?>
<!DOCTYPE svg PUBLIC "-//W3C//DTD SVG 1.1//EN" "http://www.w3.org/Graphics/SVG/1.1/DTD/svg11.dtd" >
<svg xmlns="http://www.w3.org/2000/svg">
<metadata></metadata>
<defs>
<font id="MatterhornItalic" horiz-adv-x="1055" >
<font-face units-per-em="2048" ascent="1536" descent="-512" />
<missing-glyph horiz-adv-x="573" />
<glyph horiz-adv-x="0" />
<glyph horiz-adv-x="0" />
<glyph unicode="&#xd;" horiz-adv-x="573" />
<glyph unicode=" "  horiz-adv-x="573" />
<glyph unicode="&#x09;" horiz-adv-x="573" />
<glyph unicode="&#xa0;" horiz-adv-x="573" />
<glyph unicode="!" horiz-adv-x="539" d="M184 477l183 957h208l-223 -957h-168zM162 -29q-54 0 -87.5 32t-33.5 83q0 34 14.5 66.5t39.5 57t58 39.5t70 15q54 0 86.5 -30.5t32.5 -79.5q0 -38 -15 -71.5t-40.5 -58t-58 -39t-66.5 -14.5z" />
<glyph unicode="&#x22;" horiz-adv-x="766" d="M225 926l105 536h182l-145 -536h-142zM584 926l104 536h182l-145 -536h-141z" />
<glyph unicode="#" horiz-adv-x="1329" d="M602 0l137 401h-270l-137 -401h-154l137 401h-211l31 148h230l116 336h-207l33 147h228l137 402h153l-137 -402h270l138 402h153l-137 -402h211l-33 -147h-231l-117 -336h209l-31 -148h-227l-137 -401h-154zM905 885h-270l-117 -336h270z" />
<glyph unicode="$" d="M305 -242l47 213q-62 2 -116 14t-96.5 27t-73 30.5t-43.5 25.5l40 180q23 -17 57 -35.5t76 -34t90.5 -25.5t102.5 -10q61 0 115 16.5t94.5 48.5t64 79t23.5 108q0 68 -31.5 119.5t-79 96.5t-102.5 88t-102.5 93t-79 112.5t-31.5 146.5q0 87 29 158.5t81.5 123.5t125.5 84 t161 41l39 178h168l-39 -182q78 -11 136 -32t90 -40l-39 -190q-20 15 -51 32.5t-70 33t-86 26t-100 10.5q-51 0 -95 -15t-76 -42.5t-50.5 -67.5t-18.5 -90q0 -49 18.5 -89.5t48.5 -76t68 -68.5t78 -67.5t78 -72t68 -82.5t48.5 -99t18.5 -121q0 -84 -27.5 -153t-76.5 -122 t-117.5 -89t-149.5 -53l-47 -228h-168z" />
<glyph unicode="%" horiz-adv-x="1860" d="M487 635q-61 0 -108.5 19.5t-80.5 56t-50 88t-17 116.5q0 115 35.5 210.5t94.5 164t136 106.5t160 38q61 0 109 -20t80.5 -56.5t49.5 -89t17 -117.5q0 -113 -35.5 -207.5t-94.5 -163t-136 -107t-160 -38.5zM518 776q46 0 89.5 25.5t77.5 71.5t54.5 109.5t20.5 139.5 q0 79 -32.5 124.5t-98.5 45.5q-47 0 -90.5 -26t-77.5 -72t-54 -109.5t-20 -138.5q0 -78 32.5 -124t98.5 -46zM397 -29l1022 1491h142l-1022 -1491h-142zM1300 0q-61 0 -109 19.5t-81 56.5t-50.5 89.5t-17.5 117.5q0 113 35.5 207.5t94.5 163t136 107t160 38.5q61 0 109 -20 t80.5 -57t49.5 -89.5t17 -116.5q0 -114 -35.5 -209t-94 -163.5t-135.5 -106t-159 -37.5zM1329 141q46 0 89.5 25.5t77.5 71.5t54.5 109.5t20.5 139.5q0 79 -32.5 124.5t-98.5 45.5q-47 0 -90.5 -26t-77.5 -72t-54 -109.5t-20 -138.5q0 -78 32.5 -124t98.5 -46z" />
<glyph unicode="&#x26;" horiz-adv-x="1315" d="M1014 0l-119 182q-105 -103 -221 -157t-256 -54q-78 0 -140 22t-105.5 62t-67 95t-23.5 120q0 100 35.5 179t92 142t128 112.5t143.5 91.5q-40 69 -56.5 136.5t-16.5 129.5q0 69 27 140.5t80 129t132.5 94.5t183.5 37q56 0 105 -16.5t85.5 -47t57.5 -74.5t21 -99 q0 -88 -37 -157t-95.5 -125t-130.5 -101.5t-143 -85.5l209 -310q31 53 63 115.5t60 134.5h162q-37 -105 -85.5 -202t-111.5 -181l213 -313h-190zM559 680q-54 -34 -105 -73t-91 -85t-64.5 -99.5t-24.5 -115.5q0 -80 50 -127t137 -47q40 0 84 12t89 35t88 56.5t81 76.5z M625 866q56 33 112 69t101 76.5t73.5 87.5t28.5 101q0 57 -35.5 90t-89.5 33q-51 0 -96 -23t-78.5 -60.5t-53.5 -85t-20 -97.5q0 -90 58 -191z" />
<glyph unicode="'" horiz-adv-x="408" d="M225 926l105 536h182l-145 -536h-142z" />
<glyph unicode="(" horiz-adv-x="791" d="M330 -297q-35 61 -64.5 131.5t-52 151t-35 171t-12.5 191.5q0 178 40.5 350.5t114.5 333.5t179 309t233 277h215q-65 -57 -135 -132t-136 -166t-125 -198t-103.5 -227t-70.5 -253t-26 -277q0 -109 15.5 -206t41.5 -180t60.5 -152.5t73.5 -123.5h-213z" />
<glyph unicode=")" horiz-adv-x="791" d="M-84 -297q65 57 134.5 132t135.5 166t125 197.5t103 227t70 253t26 275.5q0 110 -15 207t-40.5 180.5t-60 153t-72.5 123.5h215q34 -62 63 -133t50.5 -151.5t33.5 -171.5t12 -191q0 -180 -40 -351.5t-114 -332t-178.5 -307.5t-234.5 -277h-213z" />
<glyph unicode="*" horiz-adv-x="1122" d="M782 659l-123 289l-243 -289l-119 103l272 266l-313 84l88 166l291 -125l53 342h174l-94 -342l346 125l19 -166l-351 -86l164 -264z" />
<glyph unicode="+" horiz-adv-x="1260" d="M569 25v489h-446v156h446v487h156v-487h449v-156h-449v-489h-156z" />
<glyph unicode="," horiz-adv-x="485" d="M-66 -256q79 60 130.5 121.5t68.5 105.5q-56 2 -90.5 33t-34.5 82q0 37 15.5 69.5t41 56.5t58 38t67.5 14q54 0 89.5 -34t35.5 -99q0 -58 -26 -120t-71 -122t-105.5 -116t-128.5 -101z" />
<glyph unicode="-" horiz-adv-x="713" d="M135 543l33 151h467l-33 -151h-467z" />
<glyph unicode="." horiz-adv-x="473" d="M309 154q0 -38 -15 -71.5t-40.5 -58t-58 -39t-66.5 -14.5q-54 0 -87.5 32t-33.5 83q0 34 14.5 66.5t39.5 57t58 39.5t70 15q54 0 86.5 -30.5t32.5 -79.5z" />
<glyph unicode="/" horiz-adv-x="764" d="M-94 -152l864 1737h186l-864 -1737h-186z" />
<glyph unicode="0" horiz-adv-x="1274" d="M530 -29q-93 0 -163.5 34.5t-118 99t-71 156.5t-23.5 206q0 95 18.5 205.5t56 221t94.5 213t133 181.5t171.5 126.5t210.5 47.5q93 0 163.5 -34.5t118 -98.5t71 -156t23.5 -206q0 -95 -18.5 -205.5t-56 -221t-94.5 -213.5t-133 -182t-171.5 -126.5t-210.5 -47.5zM551 137 q56 0 112 32t107.5 89t96.5 136t78 173t52 199.5t19 216.5q0 73 -13 131t-38 98.5t-62.5 62t-85.5 21.5q-56 0 -112 -32t-107.5 -89t-96.5 -136t-78 -172.5t-52 -199.5t-19 -216q0 -73 13 -131.5t38 -99t62.5 -62t85.5 -21.5z" />
<glyph unicode="1" horiz-adv-x="705" d="M197 0l270 1276h-248l33 158h438l-303 -1434h-190z" />
<glyph unicode="2" horiz-adv-x="1092" d="M-31 0l13 61l497 488q85 84 151.5 157.5t111.5 142t68.5 132.5t23.5 129q0 45 -16.5 80t-46.5 58.5t-72 35.5t-93 12q-54 0 -105 -12.5t-97 -31.5t-86.5 -43t-73.5 -46l41 195q89 51 175 77.5t183 26.5q88 0 160 -25t124 -71t80.5 -110.5t28.5 -143.5q0 -69 -21 -138 t-63 -141t-106 -148t-150 -159l-374 -362h579l-35 -164h-897z" />
<glyph unicode="3" horiz-adv-x="1071" d="M55 219q27 -18 60.5 -32t71 -23.5t77 -15t78.5 -5.5q76 0 146.5 23t125 67t87 107t32.5 143q0 52 -19 97t-59 78.5t-101.5 53t-145.5 19.5q-6 0 -12.5 -0.5t-11.5 -0.5q-6 -1 -13 -1l18 86l397 461h-501l32 158h787l-12 -62l-455 -518q58 -11 112.5 -40.5t95.5 -74.5 t66 -103.5t25 -125.5q0 -112 -44 -210.5t-125 -171.5t-196 -115t-256 -42q-91 0 -169 22t-128 50z" />
<glyph unicode="4" horiz-adv-x="1178" d="M608 0l64 307h-660l15 62l1015 1093h66l-211 -997h184l-34 -158h-185l-63 -307h-191zM831 1059l-534 -594h410z" />
<glyph unicode="5" horiz-adv-x="1108" d="M76 221q59 -35 136.5 -59.5t164.5 -24.5q79 0 151.5 27t128 76t88.5 116t33 148q0 106 -67.5 168.5t-192.5 62.5q-63 0 -118 -10.5t-96 -22.5q-48 -14 -87 -32l203 764h710l-32 -158h-535l-110 -395q15 3 33 6q15 2 34.5 4t42.5 2q93 0 168.5 -28.5t129.5 -77.5 t83 -115.5t29 -141.5q0 -114 -45.5 -216t-127.5 -178t-195.5 -120.5t-248.5 -44.5q-99 0 -181.5 22t-135.5 50z" />
<glyph unicode="6" horiz-adv-x="1174" d="M627 926q7 1 15 2q7 1 16.5 1.5t21.5 0.5q87 0 160 -29t125 -80t81 -120t29 -150q0 -127 -46 -233.5t-125 -183.5t-184.5 -120t-225.5 -43q-94 0 -171.5 29t-133 80t-86.5 121t-31 151q0 110 45 207t121 182l632 693h230zM516 137q68 0 132.5 29.5t114 82t79.5 124.5 t30 157q0 54 -17 97.5t-48 73.5t-75.5 46.5t-98.5 16.5q-75 0 -140 -32.5t-114 -87t-77 -125t-28 -146.5q0 -55 18 -98.5t50 -74t76.5 -47t97.5 -16.5z" />
<glyph unicode="7" horiz-adv-x="1036" d="M61 0l840 1276h-678l33 158h930l-12 -62l-904 -1372h-209z" />
<glyph unicode="8" horiz-adv-x="1204" d="M469 748q-37 21 -68.5 45t-54.5 55t-36 69.5t-13 88.5q0 70 21.5 131.5t58 112t86.5 90t107 67t118.5 41.5t122.5 14q79 0 145.5 -20t115 -56.5t75.5 -89t27 -116.5q0 -60 -16.5 -111.5t-43 -94.5t-61 -77.5t-70.5 -61t-71.5 -46t-63.5 -31.5q41 -23 80.5 -50.5t70 -64 t49.5 -82.5t19 -106q0 -112 -44.5 -201.5t-121 -152.5t-180 -96.5t-221.5 -33.5q-92 0 -167.5 24t-129.5 67t-83.5 102t-29.5 129q0 71 19.5 129.5t51 105.5t72 83t82.5 63t82.5 45t71.5 29zM604 682q-21 -8 -52.5 -22.5t-66 -36t-69 -50.5t-62 -66t-44.5 -82.5t-17 -100.5 q0 -45 16 -82t46.5 -63.5t75 -41t101.5 -14.5q60 0 119.5 22.5t107.5 62.5t77.5 95.5t29.5 122.5q0 51 -22 88t-58.5 66.5t-83.5 53.5t-98 48zM715 823q36 15 82 42t87 66.5t69 91.5t28 118q0 75 -51.5 122.5t-145.5 47.5q-50 0 -100.5 -18t-91.5 -51.5t-66.5 -82 t-25.5 -108.5q0 -42 16.5 -74.5t45.5 -59.5t68.5 -49.5t84.5 -44.5z" />
<glyph unicode="9" horiz-adv-x="1174" d="M172 0l473 508q-7 -1 -15 -2q-7 -1 -17 -1.5t-21 -0.5q-88 0 -160.5 29t-124.5 80t-81 120t-29 150q0 127 46 233t125 183t184.5 120t225.5 43q94 0 171.5 -29t133 -80t86.5 -121t31 -151q0 -109 -45 -206.5t-121 -182.5l-633 -692h-229zM639 670q75 0 140 32.5t113.5 87 t76.5 125t28 146.5q0 54 -18 97.5t-50 74t-76 47t-97 16.5q-69 0 -133 -29.5t-114 -82t-80 -124.5t-30 -157q0 -54 17 -97t48.5 -73t76 -46.5t98.5 -16.5z" />
<glyph unicode=":" horiz-adv-x="539" d="M162 -29q-54 0 -87.5 32t-33.5 83q0 34 14.5 66.5t39.5 57t58 39.5t70 15q54 0 86.5 -30.5t32.5 -79.5q0 -38 -15 -71.5t-40.5 -58t-58 -39t-66.5 -14.5zM315 698q-55 0 -87.5 32t-32.5 85q0 34 15 65.5t40 56t58 39.5t69 15q54 0 86.5 -30.5t32.5 -79.5q0 -38 -15 -71.5 t-40 -58t-57.5 -39t-68.5 -14.5z" />
<glyph unicode=";" horiz-adv-x="551" d="M315 698q-55 0 -87.5 32t-32.5 85q0 34 15 65.5t40 56t58 39.5t69 15q54 0 86.5 -30.5t32.5 -79.5q0 -38 -15 -71.5t-40 -58t-57.5 -39t-68.5 -14.5zM-33 -256q79 60 130.5 121t68.5 106q-56 2 -90.5 33t-34.5 82q0 34 14.5 66.5t39.5 57t58 39.5t70 15q54 0 89.5 -34 t35.5 -99q0 -58 -26 -120t-71 -122t-105.5 -116t-129.5 -101z" />
<glyph unicode="&#x3c;" horiz-adv-x="1245" d="M123 512v158l1040 512v-185l-864 -405l864 -408v-184z" />
<glyph unicode="=" horiz-adv-x="1501" d="M215 748v155h1133v-155h-1133zM215 279v155h1133v-155h-1133z" />
<glyph unicode="&#x3e;" horiz-adv-x="1245" d="M143 0v184l865 408l-865 405v185l1041 -512v-158z" />
<glyph unicode="?" horiz-adv-x="829" d="M250 477q4 73 25 131t51.5 105.5t68.5 86.5t77 73.5t75.5 66.5t65 65.5t46 71t17.5 82.5q0 66 -45.5 100.5t-128.5 34.5q-68 0 -129 -16.5t-115 -38.5l35 170q23 11 53.5 20.5t66 17t73 11.5t75.5 4q69 0 128 -19.5t102.5 -54.5t68.5 -84t25 -108q0 -67 -19.5 -120.5 t-51.5 -98t-73 -82t-84.5 -73t-85.5 -71.5t-76.5 -77t-57.5 -89t-27 -108h-160zM403 154q0 -38 -15 -71.5t-40.5 -58t-58 -39t-66.5 -14.5q-54 0 -87.5 32t-33.5 83q0 34 14.5 66.5t39.5 57t58.5 39.5t70.5 15q54 0 86 -30.5t32 -79.5z" />
<glyph unicode="@" horiz-adv-x="1849" d="M1237 -80q-115 -60 -241 -93.5t-263 -33.5q-142 0 -257 38t-196 110t-125 175t-44 234q0 138 38.5 274.5t108.5 260t169 229t220 183t260.5 121.5t292.5 44q136 0 246.5 -40t188.5 -113.5t120.5 -176.5t42.5 -229q0 -71 -15.5 -151.5t-45.5 -160.5t-75 -154t-103 -130.5 t-129.5 -90.5t-155.5 -34q-65 0 -105 19t-63 42q-26 27 -39 62q-21 -14 -48 -31t-61.5 -32t-77 -25t-92.5 -10q-112 0 -169.5 65t-57.5 181q0 80 19.5 155t53 141.5t79.5 122t98.5 95.5t109.5 62t113 22q65 0 106 -23t72 -65l27 79h160l-178 -575q-9 -28 -8.5 -54t12 -46.5 t34.5 -32.5t58 -12q51 0 106.5 42.5t101.5 117.5t75.5 177.5t29.5 221.5q0 103 -32.5 184.5t-93 138.5t-147 87t-194.5 30q-116 0 -226 -36.5t-208 -101.5t-180 -154t-141 -193.5t-92 -220t-33 -234.5q0 -108 34.5 -190.5t99 -139t155.5 -85.5t204 -29q223 0 412 106z M1174 829q-7 9 -20 20t-32 20.5t-43.5 16.5t-54.5 7q-65 0 -117 -37.5t-88 -94.5t-55 -124.5t-19 -128.5q0 -30 5.5 -56t18.5 -45.5t34 -30.5t53 -11q29 0 58.5 6.5t55 16.5t45.5 20t32 18z" />
<glyph unicode="A" horiz-adv-x="1255" d="M963 0l-56 305h-600l-182 -305h-225l899 1450h73l285 -1450h-194zM770 1081l-367 -612h476z" />
<glyph unicode="B" horiz-adv-x="1245" d="M102 0l304 1434h417q92 0 162 -20t117.5 -56.5t71.5 -87.5t24 -113q0 -60 -19 -118t-55.5 -107t-91 -87t-125.5 -57v-4q57 -13 99.5 -41t71 -67t43 -87t14.5 -100q0 -104 -46.5 -193t-127.5 -155t-190.5 -103.5t-235.5 -37.5h-433zM575 164q85 0 152.5 27t114.5 72.5 t71.5 105t24.5 125.5q0 43 -14.5 81t-45 65.5t-78 43.5t-112.5 16h-242l-112 -536h241zM709 864q70 0 123.5 20.5t89 55t53.5 79.5t18 95q0 34 -11 62.5t-34.5 49.5t-61 32.5t-91.5 11.5h-228l-86 -406h228z" />
<glyph unicode="C" horiz-adv-x="1280" d="M1067 61q-82 -45 -183 -67.5t-206 -22.5q-123 0 -222.5 42.5t-169 117t-107.5 175t-38 216.5q0 115 27 229.5t78.5 219t125.5 194.5t169 156t208.5 103.5t243.5 37.5q102 0 192.5 -26.5t160.5 -69.5l-43 -188q-29 21 -64.5 40.5t-78.5 34.5t-92.5 24t-106.5 9 q-74 0 -148.5 -24t-142 -69t-126 -110t-102 -147t-68 -180t-24.5 -209q0 -95 24 -169t71 -125.5t115 -78.5t157 -27q60 0 115.5 10.5t105 28t93 40.5t79.5 48z" />
<glyph unicode="D" horiz-adv-x="1413" d="M102 0l304 1434h319q165 0 286 -36.5t199.5 -105t117 -165t38.5 -216.5q0 -198 -63.5 -365t-185 -288.5t-297 -189.5t-398.5 -68h-320zM457 164q147 0 275 50.5t222.5 145t148.5 231t54 308.5q0 89 -28.5 158t-86 116.5t-145.5 72t-207 24.5h-123l-233 -1106h123z" />
<glyph unicode="E" horiz-adv-x="1106" d="M102 0l304 1434h757l-35 -164h-561l-88 -420h500l-35 -164h-500l-110 -522h561l-35 -164h-758z" />
<glyph unicode="F" horiz-adv-x="1044" d="M102 0l304 1434h737l-35 -164h-541l-96 -457h500l-35 -164h-500l-137 -649h-197z" />
<glyph unicode="G" horiz-adv-x="1413" d="M1059 518h-248l35 164h444l-131 -619q-93 -43 -198.5 -67.5t-217.5 -24.5q-142 0 -253.5 39.5t-189 113t-118.5 178t-41 233.5q0 115 27.5 228.5t80 216.5t128.5 191t172.5 153t213 101.5t249.5 36.5q114 0 214 -24.5t179 -67.5l-41 -186q-32 18 -72 36.5t-89 33 t-105 23.5t-119 9q-83 0 -162.5 -24.5t-149.5 -70.5t-128.5 -110.5t-101 -144.5t-66 -174t-23.5 -197q0 -207 102.5 -314.5t311.5 -107.5q59 0 115 11.5t110 29.5z" />
<glyph unicode="H" horiz-adv-x="1462" d="M958 0l146 686h-660l-145 -686h-197l304 1434h196l-123 -584h660l123 584h196l-303 -1434h-197z" />
<glyph unicode="I" horiz-adv-x="606" d="M102 0l304 1434h196l-303 -1434h-197z" />
<glyph unicode="J" horiz-adv-x="848" d="M657 1434h197l-223 -1049q-44 -202 -164.5 -308t-312.5 -106q-32 0 -67 3.5t-67 9t-58.5 12.5t-41.5 14l39 185q21 -13 45.5 -23t51 -16.5t52 -9.5t48.5 -3q57 0 104 19.5t82 52.5t58 77t34 93z" />
<glyph unicode="K" horiz-adv-x="1243" d="M920 0l-293 662l-230 -191l-98 -471h-197l304 1434h196l-156 -736l721 736h246l-657 -654l383 -780h-219z" />
<glyph unicode="L" horiz-adv-x="971" d="M102 0l304 1434h196l-268 -1270h561l-35 -164h-758z" />
<glyph unicode="M" horiz-adv-x="1812" d="M1305 0l204 973l-610 -664h-61l-334 664l-205 -973h-197l308 1450h57l434 -872l807 872h100l-307 -1450h-196z" />
<glyph unicode="N" horiz-adv-x="1569" d="M1196 -16l-678 1054l-219 -1038h-197l308 1450h61l678 -1057l219 1041h197l-308 -1450h-61z" />
<glyph unicode="O" horiz-adv-x="1604" d="M756 143q88 0 166 28.5t142.5 78.5t115.5 118.5t86.5 148t54 166.5t18.5 175t-22.5 166.5t-70.5 137.5t-123.5 93.5t-182.5 34.5q-88 0 -166 -28.5t-143 -78.5t-116.5 -118t-87 -147.5t-54.5 -167t-19 -175.5q0 -87 22.5 -165.5t71 -138t124.5 -94t184 -34.5zM731 -29 q-134 0 -241.5 45t-184 125.5t-117.5 192t-41 244.5q0 113 26 222.5t75.5 207.5t121 181.5t162 144t199.5 94.5t234 34q133 0 241 -45t184 -125.5t117 -192.5t41 -245q0 -113 -26 -222t-75 -207t-120.5 -181.5t-162.5 -144t-200 -94.5t-233 -34z" />
<glyph unicode="P" horiz-adv-x="1176" d="M102 0l304 1434h366q112 0 194 -25t135 -70.5t79 -110t26 -143.5q0 -123 -44 -226t-126 -177.5t-197.5 -116t-258.5 -41.5h-170l-111 -524h-197zM614 688q81 0 151 23.5t121.5 70t81 115.5t29.5 160q0 51 -14 91t-45 67t-80.5 41t-120.5 14h-170l-123 -582h170z" />
<glyph unicode="Q" horiz-adv-x="1604" d="M1221 -86l-107 156q-83 -48 -179 -73.5t-204 -25.5q-134 0 -241.5 45t-184 125.5t-117.5 192t-41 244.5q0 113 26 222.5t75.5 207.5t121 181.5t162 144t199.5 94.5t234 34q133 0 241 -45t184 -125.5t117 -192.5t41 -245q0 -97 -19 -191t-55.5 -181t-89.5 -164t-120 -140 l182 -264h-225zM844 473l147 102l164 -239q44 51 78 112.5t57.5 128.5t36 138.5t12.5 142.5q0 88 -22.5 166.5t-70.5 137.5t-123.5 93.5t-182.5 34.5q-88 0 -166 -28.5t-143 -78.5t-116.5 -118t-87 -147.5t-54.5 -167t-19 -175.5q0 -87 22.5 -165.5t71 -138t124.5 -94 t184 -34.5q72 0 137.5 19.5t122.5 54.5z" />
<glyph unicode="R" horiz-adv-x="1245" d="M913 0l-254 575h-239l-121 -575h-197l304 1434h360q103 0 182 -23.5t133 -67.5t81.5 -106t27.5 -139q0 -86 -26.5 -162.5t-74 -139.5t-112.5 -110t-141 -74l294 -612h-217zM618 737q72 0 138.5 21t116.5 63t80 105t30 147q0 99 -64 148t-188 49h-164l-112 -533h163z" />
<glyph unicode="S" d="M63 248q23 -17 57 -35.5t76 -34t90.5 -25.5t102.5 -10q61 0 115 16.5t94.5 48.5t64 79t23.5 108q0 68 -31.5 119.5t-79 96.5t-102.5 88t-102.5 93t-79 112.5t-31.5 146.5q0 96 34.5 172t96 129.5t146.5 81.5t186 28q58 0 108.5 -8t92.5 -20t74 -26t53 -26l-39 -190 q-20 15 -51 32.5t-70 33t-86 26t-100 10.5q-51 0 -95 -15t-76 -42.5t-50.5 -67.5t-18.5 -90q0 -49 18.5 -89.5t48.5 -76t68 -68.5t78 -67.5t78 -72t68 -82.5t48.5 -99t18.5 -121q0 -101 -39.5 -181.5t-109 -136t-163.5 -85t-202 -29.5q-65 0 -123.5 11.5t-105 27t-79 32 t-46.5 26.5z" />
<glyph unicode="T" horiz-adv-x="1053" d="M326 0l268 1270h-420l35 164h1036l-35 -164h-419l-269 -1270h-196z" />
<glyph unicode="U" horiz-adv-x="1454" d="M1264 1434h196l-198 -934q-28 -135 -87.5 -235t-143.5 -165t-189 -97t-224 -32q-114 0 -204.5 35t-147.5 102.5t-76.5 166t7.5 225.5l198 934h197l-199 -936q-19 -97 -10 -165t43 -111t91.5 -63t135.5 -20q80 0 147.5 24.5t120.5 71t89.5 113t54.5 150.5z" />
<glyph unicode="V" horiz-adv-x="1221" d="M467 -16l-264 1450h196l176 -1069l619 1069h225l-878 -1450h-74z" />
<glyph unicode="W" horiz-adv-x="1888" d="M1247 -16l-180 1079l-639 -1079h-80l-139 1450h192l88 -1022l617 1038h74l174 -1038l522 1022h205l-754 -1450h-80z" />
<glyph unicode="X" horiz-adv-x="1217" d="M854 0l-223 571l-445 -571h-243l610 741l-277 693h213l203 -525l408 525h243l-571 -695l295 -739h-213z" />
<glyph unicode="Y" horiz-adv-x="1053" d="M326 0l125 588l-248 846h194l185 -656l438 656h231l-604 -846l-125 -588h-196z" />
<glyph unicode="Z" horiz-adv-x="1102" d="M-12 0l12 61l866 1209h-590l35 164h871l-13 -62l-868 -1208h643l-35 -164h-921z" />
<glyph unicode="[" horiz-adv-x="829" d="M80 -297l405 1915h441l-33 -160h-248l-340 -1595h248l-33 -160h-440z" />
<glyph unicode="\" horiz-adv-x="743" d="M401 -152l-127 1737h166l127 -1737h-166z" />
<glyph unicode="]" horiz-adv-x="829" d="M-23 -297l33 160h248l340 1595h-248l33 160h440l-405 -1915h-441z" />
<glyph unicode="^" horiz-adv-x="1001" d="M807 776l-229 520l-228 -520h-170l316 686h166l315 -686h-170z" />
<glyph unicode="_" horiz-adv-x="1180" d="M-231 -512l30 143h1219l-31 -143h-1218z" />
<glyph unicode="`" horiz-adv-x="735" d="M629 1255l-310 301h261l196 -301h-147z" />
<glyph unicode="a" d="M920 12q-11 -8 -45.5 -15t-77.5 -7q-76 0 -121 38.5t-45 100.5h-4q-28 -32 -59.5 -60.5t-69 -50t-83 -34.5t-100.5 -13q-58 0 -106 20t-82 55t-53 82.5t-19 102.5q0 89 38 164t105 129t159 84.5t200 30.5q29 0 55.5 -3t48 -7t37.5 -8t25 -7l18 91q25 106 -19 167.5 t-167 61.5q-46 0 -91 -7t-84 -17t-69 -21t-47 -19l37 174q15 6 44.5 15t68 16.5t84.5 13t94 5.5q90 0 160 -27t114.5 -78t60 -123.5t-4.5 -163.5l-95 -444q-6 -28 -6 -50.5t8 -38.5t25.5 -25t46.5 -9q15 0 30 5q8 2 15 5zM694 477q-17 8 -56 20.5t-93 12.5q-55 0 -108 -17.5 t-95 -50t-68 -78.5t-26 -104q0 -28 8.5 -52.5t25.5 -43t43.5 -29t61.5 -10.5q43 0 83.5 15.5t75.5 41t63.5 58t47.5 67.5z" />
<glyph unicode="b" horiz-adv-x="1268" d="M301 168q35 -16 89.5 -30.5t125.5 -14.5q105 0 190 46t146 121.5t94 173t33 200.5q0 60 -17 110t-49 85.5t-78.5 55t-105.5 19.5q-51 0 -96 -13t-82.5 -32t-66 -40t-46.5 -36zM399 1495h185l-109 -510q28 21 62.5 40.5t73.5 34.5t82.5 24.5t90.5 9.5q96 0 169 -32.5 t122 -90t74 -135.5t25 -168q0 -142 -48.5 -268.5t-136.5 -222t-212 -151t-275 -55.5q-65 0 -125.5 10t-113 25.5t-95 33.5t-70.5 34z" />
<glyph unicode="c" horiz-adv-x="1001" d="M791 25q-59 -26 -121 -40t-127 -14q-98 0 -178 32t-138 89t-89.5 135t-31.5 170q0 141 47 268t133 222t206 151t266 56q69 0 133 -14t115 -40l-35 -166q-44 25 -101 42.5t-127 17.5q-91 0 -172 -40t-141.5 -109.5t-95.5 -164t-35 -202.5q0 -137 71 -212t205 -75 q70 0 135 20t117 46z" />
<glyph unicode="d" horiz-adv-x="1255" d="M844 0q-1 12 -2 29q-1 14 -1.5 33.5t-0.5 43.5q-27 -23 -64.5 -47t-82.5 -43.5t-95 -32t-102 -12.5q-96 0 -169 32.5t-122 90t-74 135.5t-25 168q0 142 48.5 268.5t136.5 222t212 151t275 55.5q66 0 126.5 -13t105.5 -30l96 444h184l-260 -1225q-14 -60 -22 -109t-13 -85 q-5 -42 -8 -76h-143zM979 897q-35 16 -89.5 30.5t-125.5 14.5q-105 0 -190 -46t-146 -121.5t-94 -173t-33 -200.5q0 -60 17 -110t49 -85.5t78.5 -55t105.5 -19.5q51 0 96 13t82.5 32t66 40t46.5 36z" />
<glyph unicode="e" horiz-adv-x="1161" d="M905 68q-72 -42 -166 -69.5t-209 -27.5q-103 0 -182 33.5t-133 93t-81.5 142t-27.5 180.5q0 99 23.5 187.5t65 163.5t98.5 135t124 101.5t141 64t151 22.5q86 0 155 -25.5t118 -72.5t75 -112.5t26 -146.5q0 -45 -6.5 -87.5t-14.5 -75.5q-9 -39 -20 -74h-735 q-2 -13 -4 -27q-2 -12 -3 -27t-1 -30q0 -65 15.5 -117.5t49 -90.5t86.5 -58.5t128 -20.5q48 0 98 11t98 28.5t91.5 39t78.5 42.5zM883 651q2 11 4 24q2 11 3 26t1 32q0 102 -54 153.5t-145 51.5q-56 0 -108 -20t-97 -57.5t-82 -90.5t-63 -119h541z" />
<glyph unicode="f" horiz-adv-x="672" d="M113 0l192 913h-164l33 152h164l27 121q32 147 112 228t217 81q32 0 60 -3t50 -7q26 -4 48 -10l-35 -156q-16 6 -34 10q-16 4 -37 7t-44 3q-57 0 -96 -35t-57 -116l-27 -123h232l-33 -152h-232l-192 -913h-184z" />
<glyph unicode="g" horiz-adv-x="1253" d="M805 111q-29 -21 -63 -40.5t-73 -35t-82.5 -24.5t-90.5 -9q-96 0 -169 32.5t-122 89.5t-74 135t-25 169q0 138 47.5 259.5t134.5 212t210 142.5t274 52q64 0 125 -10t113.5 -25.5t95 -33.5t70.5 -34l-209 -991q-53 -251 -209 -381.5t-408 -130.5q-66 0 -120.5 11.5 t-97.5 28t-74 36t-50 35.5l37 174q16 -14 46 -35t73 -41t97.5 -34.5t119.5 -14.5q80 0 146.5 25.5t117.5 72t86 111.5t51 143zM973 897q-35 16 -89.5 30.5t-125.5 14.5q-105 0 -189.5 -42.5t-144 -113.5t-91.5 -163t-32 -191q0 -61 17 -110.5t49 -85t78.5 -55t105.5 -19.5 q51 0 96 13t82.5 32t66 40t46.5 36z" />
<glyph unicode="h" horiz-adv-x="1204" d="M743 0l144 684q26 127 -16 188.5t-144 61.5q-46 0 -91.5 -17t-84.5 -40.5t-70 -48.5t-49 -40l-166 -788h-184l317 1495h185l-119 -551q25 22 62 48.5t81.5 49t93.5 37.5t97 15q104 0 166 -36t91 -93.5t31.5 -129t-12.5 -141.5l-147 -694h-185z" />
<glyph unicode="i" horiz-adv-x="549" d="M571 1374q0 -28 -11.5 -52t-30.5 -42t-44 -28.5t-51 -10.5q-42 0 -66 25t-24 63q0 28 11.5 52t31 42t44 28.5t50.5 10.5q42 0 66 -25t24 -63zM80 0l225 1065h184l-225 -1065h-184z" />
<glyph unicode="j" horiz-adv-x="528" d="M-170 -346q6 -2 15 -3q15 -3 46 -3q23 0 42 5.5t34.5 21.5t27 44.5t19.5 73.5l271 1272h184l-272 -1280q-29 -148 -102 -222.5t-210 -74.5q-20 0 -36 1.5t-28 3.5q-14 2 -26 5zM551 1374q0 -28 -11.5 -52t-31 -42t-44 -28.5t-50.5 -10.5q-42 0 -66 25t-24 63 q0 28 11.5 52t30.5 42t44 28.5t51 10.5q42 0 66 -25t24 -63z" />
<glyph unicode="k" horiz-adv-x="1059" d="M739 0l-194 498l-211 -176l-68 -322h-184l317 1495h185l-209 -975l516 545h242l-461 -449l274 -616h-207z" />
<glyph unicode="l" horiz-adv-x="623" d="M481 -12q-17 -5 -36 -9q-17 -3 -39 -5.5t-48 -2.5q-134 0 -192.5 79t-26.5 231l260 1214h185l-262 -1227q-9 -38 -9.5 -65.5t9.5 -45t32.5 -26t61.5 -8.5q20 0 38 2.5t32 6.5q16 4 28 9z" />
<glyph unicode="m" horiz-adv-x="1784" d="M1323 0l143 684q23 127 -13 188.5t-126 61.5q-42 0 -84 -17t-79 -43t-68 -56.5t-52 -57.5q-2 -17 -4.5 -33.5t-5.5 -32.5l-147 -694h-185l144 684q23 127 -13.5 188.5t-125.5 61.5q-45 0 -87.5 -16.5t-78.5 -40t-64 -47.5t-43 -39l-168 -791h-184l168 795 q12 59 20.5 108.5t13.5 85.5q6 42 9 76h164q1 -16 1 -36q0 -17 -1 -41.5t-4 -53.5q24 23 58.5 51t76.5 52t90.5 40.5t99.5 16.5q60 0 104.5 -14.5t75.5 -40t50 -60t28 -74.5q38 39 81 73.5t89.5 60t95.5 40.5t97 15q97 0 154 -36t84.5 -93.5t29.5 -129t-12 -141.5l-148 -694 h-184z" />
<glyph unicode="n" horiz-adv-x="1204" d="M743 0l144 684q26 127 -16 188.5t-144 61.5q-48 0 -93 -16.5t-84 -40t-69 -47.5t-47 -39l-168 -791h-184l168 795q12 59 20.5 108.5t13.5 85.5q6 42 9 76h164q1 -16 1 -36q0 -17 -1 -41.5t-4 -53.5q26 23 62.5 51t81.5 52t96 40.5t106 16.5q104 0 166 -36t91 -93.5 t31.5 -129t-12.5 -141.5l-147 -694h-185z" />
<glyph unicode="o" horiz-adv-x="1223" d="M528 -29q-100 0 -178.5 33t-132.5 92t-82.5 140t-28.5 178q0 88 20 173t57.5 160.5t91 139t120 109.5t145.5 72t167 26q100 0 178 -33t132 -92t82.5 -140t28.5 -178q0 -133 -44 -255.5t-123.5 -217t-190 -151t-242.5 -56.5zM541 129q85 0 157.5 42t125 114t82.5 167.5 t30 202.5q0 65 -17.5 117t-49.5 88.5t-76.5 56t-98.5 19.5q-85 0 -157.5 -42t-125 -114t-82.5 -167.5t-30 -202.5q0 -65 17.5 -117t49.5 -88.5t76.5 -56t98.5 -19.5z" />
<glyph unicode="p" horiz-adv-x="1268" d="M156 -512h-185l279 1307q13 59 21.5 108.5t13.5 85.5q5 42 8 76h143q1 -13 2 -30q1 -14 1.5 -33.5t0.5 -43.5q27 23 64.5 47.5t82.5 44t95 32t102 12.5q96 0 169 -32.5t122 -90t74 -135.5t25 -168q0 -142 -48.5 -268.5t-136.5 -222t-212 -151t-275 -55.5q-66 0 -126.5 13 t-105.5 30zM301 168q35 -16 89.5 -30.5t125.5 -14.5q105 0 190 46t146 121.5t94 173t33 200.5q0 60 -17 110t-49 85.5t-78.5 55t-105.5 19.5q-51 0 -96 -13t-82.5 -32t-66 -40t-46.5 -36z" />
<glyph unicode="q" horiz-adv-x="1260" d="M979 897q-35 16 -89.5 30.5t-125.5 14.5q-105 0 -190 -46t-146 -121.5t-94 -173t-33 -200.5q0 -60 17 -110t49 -85.5t78.5 -55t105.5 -19.5q51 0 96 13t82.5 32t66 40t46.5 36zM678 -512l127 592q-29 -21 -63 -40.5t-73 -34.5t-82.5 -24.5t-90.5 -9.5q-96 0 -169 32.5 t-122 90t-74 135.5t-25 168q0 142 48.5 268.5t136.5 222t212 151t275 55.5q64 0 125 -10t113.5 -25.5t95 -33.5t70.5 -34l-320 -1503h-184z" />
<glyph unicode="r" horiz-adv-x="760" d="M82 0l168 795q12 59 20.5 108.5t13.5 85.5q6 42 9 76h162q1 -18 2 -39q1 -19 0.5 -44t-2.5 -56h4q39 47 77.5 79t76.5 52t75 28.5t72 8.5q25 0 44 -4t32 -9q15 -5 26 -12l-39 -184q-17 8 -38 14q-18 5 -43 9.5t-56 4.5q-55 0 -101 -20t-80 -44q-40 -28 -73 -63l-166 -786 h-184z" />
<glyph unicode="s" horiz-adv-x="885" d="M70 229q17 -17 45.5 -34.5t63.5 -32t75.5 -24t81.5 -9.5q47 0 86 11t67.5 32t44 51t15.5 68q0 48 -26.5 84.5t-66.5 67.5t-86.5 62t-86.5 69t-66.5 87t-26.5 117q0 71 29.5 129t80.5 99.5t120.5 64.5t150.5 23q47 0 88.5 -7.5t75.5 -19t59 -24.5t40 -25l-37 -170 q-18 16 -44 32t-56 28.5t-63 20t-67 7.5q-44 0 -78.5 -12t-58 -32t-35.5 -47t-12 -57q0 -43 26 -77t65.5 -65.5t85.5 -63.5t85.5 -71.5t65.5 -89.5t26 -116q0 -75 -30.5 -137t-84 -105.5t-125.5 -67.5t-155 -24q-51 0 -99.5 9t-89.5 22.5t-72 30t-48 30.5z" />
<glyph unicode="t" horiz-adv-x="713" d="M537 -10q-20 -6 -42 -10q-19 -4 -43.5 -6.5t-50.5 -2.5q-67 0 -115.5 22.5t-77 63t-35.5 98t9 126.5l133 632h-174l33 152h174l49 235l195 41l-60 -276h222l-33 -152h-221l-135 -634q-9 -42 -7.5 -71t12 -47t30 -26t46.5 -8q24 0 46 3t39 7q20 4 38 10z" />
<glyph unicode="u" horiz-adv-x="1206" d="M770 0q-1 16 -1 36q0 17 1 41.5t4 53.5q-26 -23 -63 -51t-81.5 -52t-96 -40.5t-105.5 -16.5q-104 0 -166 36t-91 93.5t-31.5 129t12.5 141.5l147 694h184l-143 -684q-26 -127 16 -188.5t144 -61.5q48 0 93 16.5t84 39.5t69 47.5t47 39.5l168 791h184l-168 -795 q-13 -60 -21 -109t-13 -85q-6 -42 -9 -76h-164z" />
<glyph unicode="v" horiz-adv-x="999" d="M344 -16l-221 1081h180l135 -727l439 727h204l-680 -1081h-57z" />
<glyph unicode="w" horiz-adv-x="1599" d="M993 -16l-155 770l-484 -770h-61l-170 1081h172l104 -729l457 745h78l141 -745l412 729h194l-628 -1081h-60z" />
<glyph unicode="x" horiz-adv-x="1016" d="M659 0l-176 414l-348 -414h-229l497 553l-243 512h198l160 -375l307 375h236l-461 -512l264 -553h-205z" />
<glyph unicode="y" horiz-adv-x="971" d="M-178 -326q6 -3 14 -5q15 -5 39 -5q48 0 97.5 16.5t100.5 56.5t105 107.5t113 169.5l22 43l-180 1008h199l112 -772l406 772h213l-582 -1053q-66 -116 -135 -212.5t-142.5 -165.5t-152.5 -107.5t-166 -38.5q-20 0 -38 2.5t-32 6.5q-16 4 -30 9z" />
<glyph unicode="z" horiz-adv-x="901" d="M-41 0l12 61l664 852h-463l33 152h727l-12 -61l-666 -852h504l-31 -152h-768z" />
<glyph unicode="{" horiz-adv-x="821" d="M512 -297q-103 0 -169.5 15t-105.5 40.5t-54 60.5t-15 75q0 43 13.5 90.5t33.5 96.5t44 99.5t44 100.5t33.5 99t13.5 95q0 26 -9.5 47.5t-32.5 37t-62.5 24t-100.5 8.5l29 139q80 1 132 14t83.5 44t46.5 84.5t21 136.5q3 37 3.5 81t0.5 97q0 47 1.5 97t13.5 98t38.5 90.5 t77.5 74.5t130 51t196 19l-33 -154q-49 0 -86.5 -4.5t-65 -19.5t-45 -42.5t-26.5 -72.5q-9 -42 -10.5 -94t-1.5 -107.5t-2.5 -111t-12.5 -103.5q-12 -57 -37 -100t-59.5 -72t-76.5 -46t-89 -23l-4 -15q80 -14 124 -56t44 -118q0 -36 -12 -80.5t-30 -92.5t-39 -97t-39 -95 t-30 -86.5t-12 -70.5q0 -32 11 -51.5t32.5 -30t53 -13.5t73.5 -3z" />
<glyph unicode="|" horiz-adv-x="684" d="M283 -348v2007h192v-2007h-192z" />
<glyph unicode="}" horiz-adv-x="821" d="M10 -141q48 0 85 4.5t65 19t46 42t27 73.5q9 42 10.5 93.5t1.5 106.5t2.5 110.5t12.5 103.5q23 109 91 166.5t171 74.5l4 15q-75 10 -121.5 51t-46.5 121q0 37 12 81.5t30 93t39 98.5t39 96.5t30 87t12 71.5t-11 49.5t-32.5 29t-53 14t-73.5 3.5l33 154 q103 0 169.5 -14.5t105.5 -40t54 -59.5t15 -74q0 -44 -13.5 -91.5t-33.5 -97t-44 -100t-44 -101t-33.5 -99.5t-13.5 -95q0 -26 9 -47.5t32 -36.5t62.5 -23t101.5 -8l-29 -139q-81 -2 -134 -15.5t-85 -48.5t-46.5 -96t-19.5 -156q-2 -32 -2 -67.5v-77.5q0 -46 -1.5 -95.5 t-14 -97t-39.5 -90.5t-78 -75t-129.5 -51t-194.5 -19z" />
<glyph unicode="~" horiz-adv-x="1358" d="M1245 803q0 -78 -22 -144t-62 -114t-96.5 -74.5t-126.5 -26.5q-48 0 -90.5 14.5t-81.5 35.5t-75 46.5t-71 46.5t-70.5 35.5t-72.5 14.5q-71 0 -113 -52.5t-42 -140.5h-148q0 78 21 144t60.5 114t95.5 74.5t126 26.5q51 0 94.5 -14.5t82.5 -35.5t74 -46.5t69.5 -46.5 t70 -35.5t74.5 -14.5q71 0 113.5 52.5t42.5 140.5h147z" />
<glyph unicode="&#xa1;" horiz-adv-x="539" d="M-20 -369l223 957h168l-183 -957h-208zM514 979q0 -35 -14.5 -67t-39.5 -56.5t-58 -39.5t-70 -15q-54 0 -86.5 30.5t-32.5 79.5q0 38 15 71.5t40.5 58t57.5 39t67 14.5q54 0 87.5 -32t33.5 -83z" />
<glyph unicode="&#xa2;" horiz-adv-x="1004" d="M244 -225l96 239q-54 25 -97.5 64t-74 88t-46.5 107.5t-16 123.5q0 143 47.5 269.5t134.5 221.5t209.5 150.5t272.5 55.5l90 225h148l-97 -244q26 -6 49.5 -15t45.5 -20l-35 -166q-44 25 -101 42.5t-127 17.5q-91 0 -172 -40t-141.5 -109.5t-95.5 -164t-35 -202.5 q0 -137 71 -212t205 -75q70 0 135 20t117 46l-36 -172q-59 -26 -121 -40t-127 -14q-38 0 -72 6l-80 -202h-147z" />
<glyph unicode="&#xa3;" horiz-adv-x="1122" d="M909 53q-24 -23 -55 -41q-26 -16 -63.5 -28.5t-83.5 -12.5q-68 0 -114.5 13t-85.5 29t-79 29t-94 13q-40 0 -80.5 -12t-74.5 -26q-40 -17 -77 -37l-43 110q64 35 119 78t95.5 96t63.5 119t23 147v54.5t-2 54.5h-202l30 143h162v49q0 157 38 275t105.5 197t160 119 t202.5 40q59 0 106.5 -10.5t82.5 -23.5q40 -15 73 -33l-35 -170q-29 20 -64 36q-30 14 -70 25.5t-85 11.5q-83 0 -143 -33t-98.5 -95t-57 -152.5t-18.5 -204.5v-31h352l-31 -143h-317q0 -112 -25 -190.5t-59.5 -131t-70.5 -82t-58 -42.5l4 -9q12 3 28 6l31.5 4.5t40.5 2.5 q41 0 74.5 -6t65.5 -12.5t66.5 -12.5t76.5 -6q49 0 90.5 12t70.5 27q34 17 62 39z" />
<glyph unicode="&#xa4;" horiz-adv-x="1286" d="M684 238q-72 0 -136 20t-118 55l-154 -153l-112 112l153 154q-75 110 -75 254q0 142 75 252l-153 155l112 113l154 -156q54 38 118 58t136 20q71 0 134.5 -20t117.5 -58l156 156l112 -113l-155 -155q37 -54 57 -117.5t20 -134.5t-20 -135t-55 -117l153 -156l-112 -112 l-156 153q-110 -75 -252 -75zM684 387q59 0 108.5 22t85 61.5t55 93t19.5 116.5t-19.5 116.5t-55 93t-85 61.5t-108.5 22t-108.5 -22t-85 -61.5t-55 -93t-19.5 -116.5t19.5 -116.5t55 -93t85 -61.5t108.5 -22z" />
<glyph unicode="&#xa5;" horiz-adv-x="1053" d="M580 272l-58 -272h-196l57 272h-324l29 138h324l32 151h-323l29 137h268l-215 736h194l185 -656l438 656h231l-526 -736h268l-28 -137h-324l-33 -151h324l-29 -138h-323z" />
<glyph unicode="&#xa6;" horiz-adv-x="684" d="M283 -348v883h192v-883h-192zM283 776v883h192v-883h-192z" />
<glyph unicode="&#xa7;" horiz-adv-x="1159" d="M23 -186q24 -15 59.5 -31t79 -30t95 -23t108.5 -9q60 0 116 15.5t99 45t68.5 71t25.5 94.5q0 44 -20 80t-52.5 67.5t-74.5 59.5l-85.5 57t-85.5 60.5t-74.5 68.5t-52.5 81.5t-20 100.5q0 57 17 106t48.5 89.5t75.5 72t99 54.5q-31 24 -57.5 50t-46 57t-31 66t-11.5 77 q0 86 38.5 154t106 115.5t159 73t198.5 25.5q54 0 103 -8t90 -19t73 -23.5t53 -22.5l-39 -170q-21 13 -53.5 28.5t-73 29t-88 22t-100.5 8.5q-52 0 -98.5 -12t-81.5 -35.5t-55.5 -57.5t-20.5 -78q0 -57 34.5 -101.5t86.5 -84.5t112.5 -80t112.5 -87.5t86.5 -107t34.5 -139.5 q0 -54 -16 -102t-45 -88.5t-69.5 -72.5t-90.5 -56q27 -25 50 -52t40 -58t27 -66.5t10 -75.5q0 -90 -42 -161t-114.5 -120.5t-170 -75.5t-208.5 -26q-68 0 -129 10t-110 23.5t-83 28.5t-48 24zM612 731q-41 -6 -76 -21t-60.5 -37.5t-40.5 -52.5t-15 -67q0 -38 15.5 -69.5 t41 -60t59 -54.5t70.5 -52q35 14 65 34t51.5 45.5t33.5 56t12 65.5q0 34 -12.5 63t-33.5 55t-49.5 49.5t-60.5 45.5z" />
<glyph unicode="&#xa8;" horiz-adv-x="858" d="M530 1374q0 -28 -11.5 -52t-30.5 -42t-44 -28.5t-51 -10.5q-24 0 -42 9t-29 24t-15.5 35t0.5 43q4 24 16.5 44t30.5 34.5t40 23t46 8.5q42 0 66 -25t24 -63zM922 1374q0 -28 -11.5 -52t-31 -42t-44.5 -28.5t-51 -10.5q-24 0 -42 9t-29 24t-15.5 35t0.5 43q10 48 47.5 79 t85.5 31q42 0 66.5 -25t24.5 -63z" />
<glyph unicode="&#xa9;" horiz-adv-x="1737" d="M920 -29q-155 0 -290.5 58.5t-237 160t-160 237t-58.5 290.5q0 103 26.5 198t75 178t117 151t151 116.5t178 75t198.5 26.5t198 -26.5t178 -75t151 -116.5t116.5 -151t75 -178t26.5 -198t-26.5 -198.5t-75 -178t-116.5 -151t-151 -117t-178 -75t-198 -26.5zM920 113 q121 0 228 47t186.5 129t126 192t46.5 236t-46.5 236t-126 192t-186.5 129t-228 47q-122 0 -229 -47t-186.5 -129t-126 -192t-46.5 -236t46.5 -236t126 -192t186.5 -129t229 -47zM1169 356q-51 -28 -109 -42.5t-118 -14.5q-87 0 -159 30.5t-123.5 85.5t-80 132t-28.5 170 t28.5 170t80 132t123.5 85.5t159 30.5q60 0 118 -15t109 -43v-159q-24 16 -50.5 31.5t-55.5 27.5t-59 19.5t-60 7.5q-55 0 -100 -20t-77 -57.5t-49.5 -90.5t-17.5 -119t17.5 -119t49.5 -90.5t77 -57.5t100 -20q59 0 118 26.5t107 61.5v-162z" />
<glyph unicode="&#xaa;" horiz-adv-x="825" d="M786 748q-9 -7 -34 -13t-54 -6q-48 0 -76.5 25t-33.5 73q-17 -19 -37.5 -38.5t-45.5 -35.5t-55 -26t-65 -10q-39 0 -71.5 13.5t-55.5 37.5t-36 56t-13 69q0 60 25 110.5t69.5 86.5t106 56.5t133.5 20.5q35 0 60.5 -3.5t39.5 -8.5l10 49q16 63 -10.5 100t-101.5 37 q-29 0 -59.5 -5.5t-57.5 -13t-49 -16t-35 -14.5l31 135q10 5 30 11t45.5 11.5t56 9t62.5 3.5q52 0 94.5 -13.5t72.5 -39t46.5 -62.5t16.5 -85q0 -16 -1.5 -32t-5.5 -32l-61 -289q-2 -12 -2.5 -24.5t3.5 -22t13 -16t25 -6.5t27 3q6 1 12 3zM623 1051q-13 6 -35.5 11t-52.5 5 q-34 0 -67 -10.5t-59.5 -30.5t-42.5 -48.5t-16 -64.5q0 -34 20 -56.5t62 -22.5q27 0 52.5 9.5t47 25t39 35t29.5 40.5q5 28 11.5 53.5t11.5 53.5zM113 463l22 115h643l-22 -115h-643z" />
<glyph unicode="&#xab;" horiz-adv-x="1217" d="M84 451l35 157l553 410l-39 -189l-357 -313l224 -315l-35 -160zM537 451l34 157l553 410l-39 -189l-356 -313l223 -315l-34 -160z" />
<glyph unicode="&#xac;" horiz-adv-x="1378" d="M1106 309v400h-956v176h1132v-576h-176z" />
<glyph unicode="&#xae;" horiz-adv-x="1737" d="M920 -29q-155 0 -290.5 58.5t-237 160t-160 237t-58.5 290.5q0 103 26.5 198t75 178t117 151t151 116.5t178 75t198.5 26.5t198 -26.5t178 -75t151 -116.5t116.5 -151t75 -178t26.5 -198t-26.5 -198.5t-75 -178t-116.5 -151t-151 -117t-178 -75t-198 -26.5zM920 113 q121 0 228 47t186.5 129t126 192t46.5 236t-46.5 236t-126 192t-186.5 129t-228 47q-122 0 -229 -47t-186.5 -129t-126 -192t-46.5 -236t46.5 -236t126 -192t186.5 -129t229 -47zM1124 309l-209 305h-100v-305h-141v799h223q69 0 124 -17.5t93.5 -50t59 -78t20.5 -100.5 q0 -72 -37 -129t-102 -86l245 -338h-176zM897 739q72 0 111 31.5t39 91.5q0 59 -39 90t-111 31h-82v-244h82z" />
<glyph unicode="&#xaf;" horiz-adv-x="786" d="M295 1296l31 146h540l-30 -146h-541z" />
<glyph unicode="&#xb0;" horiz-adv-x="774" d="M842 1214q0 -74 -30 -143t-81.5 -123t-121 -86.5t-148.5 -32.5q-56 0 -102 19t-78.5 52.5t-50 79t-17.5 97.5q0 74 30 143.5t81.5 123t121 86t148.5 32.5q56 0 101.5 -19t78 -52.5t50.5 -79t18 -97.5zM690 1190q0 59 -30 95t-93 36q-37 0 -73 -18.5t-64.5 -49t-46.5 -70 t-18 -81.5q0 -59 29.5 -95t92.5 -36q37 0 73.5 18.5t65 49t46.5 70t18 81.5z" />
<glyph unicode="&#xb1;" horiz-adv-x="1419" d="M807 659v-366h-156v366h-446v156h446v365h156v-365h448v-156h-448zM205 0v156h1050v-156h-1050z" />
<glyph unicode="&#xb2;" horiz-adv-x="752" d="M162 672l14 65l260 246q82 77 129 140.5t47 117.5q0 37 -25 56.5t-67 19.5q-27 0 -54 -8t-54.5 -20.5t-54.5 -29t-52 -34.5l33 159q54 31 112.5 47.5t110.5 16.5q47 0 84.5 -12.5t64 -35.5t40.5 -55.5t14 -72.5q0 -39 -12 -77t-36.5 -78t-62 -83.5t-88.5 -91.5l-147 -139 h278l-28 -131h-506z" />
<glyph unicode="&#xb3;" horiz-adv-x="725" d="M199 846q42 -23 91.5 -39t92.5 -16q29 0 58.5 9.5t53 27.5t38 44t14.5 58q0 48 -50.5 77t-144.5 29l15 64l188 207h-256l27 127h460l-12 -64l-209 -227q60 -22 96.5 -68t36.5 -112q0 -62 -25.5 -117.5t-71 -97.5t-107.5 -66.5t-134 -24.5q-54 0 -106 14t-86 31z" />
<glyph unicode="&#xb4;" horiz-adv-x="770" d="M483 1255h-170l271 301h288z" />
<glyph unicode="&#xb5;" horiz-adv-x="1270" d="M1098 12q-28 -12 -62 -17t-69 -5q-83 0 -122.5 41t-39.5 104h-4q-25 -24 -60.5 -53t-81.5 -53.5t-101.5 -41t-119.5 -16.5q-55 0 -99 10.5t-75 28.5l-82 -377h-180l305 1432h185l-146 -684q-12 -54 -7.5 -99.5t26.5 -79t63 -52.5t102 -19q50 0 95.5 16.5t84 39t68 47 t47.5 40.5l168 791h185l-172 -807q-6 -23 -6 -45t8 -39.5t25.5 -28t47.5 -10.5q15 0 30 5q8 2 15 5z" />
<glyph unicode="&#xb6;" horiz-adv-x="1382" d="M805 -512l383 1802h-207l-383 -1802h-160l221 1036h-10q-108 0 -189 24.5t-135.5 69.5t-82 108.5t-27.5 141.5q0 123 46 227t129 179t198.5 117.5t253.5 42.5h536l-413 -1946h-160z" />
<glyph unicode="&#xb7;" horiz-adv-x="621" d="M324 545q-56 0 -88.5 32t-32.5 85q0 34 15 65.5t40 56t58 39.5t69 15q54 0 86.5 -30.5t32.5 -80.5q0 -38 -15 -71t-40 -57.5t-57.5 -39t-67.5 -14.5z" />
<glyph unicode="&#xb8;" horiz-adv-x="639" d="M-59 -367q17 -10 37 -17q17 -7 40.5 -12t49.5 -5q51 0 84 22.5t43 61.5q9 47 -32 76.5t-143 29.5l164 211h140l-113 -133q37 -8 66.5 -23.5t48.5 -38.5t26.5 -53.5t-0.5 -68.5q-11 -50 -41 -87.5t-72 -62.5t-91.5 -38t-98.5 -13q-29 0 -53.5 3.5t-42.5 8.5q-21 5 -39 12z " />
<glyph unicode="&#xb9;" horiz-adv-x="520" d="M297 672l135 633h-135l27 129h274l-162 -762h-139z" />
<glyph unicode="&#xba;" horiz-adv-x="967" d="M133 463l23 115h690l-23 -115h-690zM539 721q-66 0 -120.5 22t-92.5 61.5t-59 93t-21 116.5q0 89 31 170t85.5 143t129.5 98.5t163 36.5q65 0 118.5 -22t92 -61.5t59.5 -93t21 -116.5q0 -89 -31 -170t-85.5 -143t-129 -98.5t-161.5 -36.5zM547 840q54 0 100 27.5 t79.5 73.5t52 106.5t18.5 126.5q0 86 -40 127.5t-112 41.5q-54 0 -100 -27.5t-79.5 -73t-52 -106t-18.5 -126.5q0 -87 40 -128.5t112 -41.5z" />
<glyph unicode="&#xbb;" horiz-adv-x="1217" d="M111 41l39 188l356 314l-223 315l34 160l381 -410l-34 -157zM563 41l39 188l356 314l-223 315l35 160l381 -410l-35 -157z" />
<glyph unicode="&#xbc;" horiz-adv-x="1518" d="M297 672l135 633h-135l27 129h274l-162 -762h-139zM184 -29l1022 1491h142l-1022 -1491h-142zM1049 0l32 160h-348l12 55l543 561h66l-105 -495h103l-27 -121h-102l-33 -160h-141zM1157 512l-227 -231h178z" />
<glyph unicode="&#xbd;" horiz-adv-x="1616" d="M297 672l135 633h-135l27 129h274l-162 -762h-139zM184 -29l1022 1491h142l-1022 -1491h-142zM885 0l12 66l260 245q82 79 129 141.5t47 116.5q0 37 -25 56.5t-67 19.5q-54 0 -108 -28.5t-107 -65.5l33 162q56 31 113.5 47t111.5 16q93 0 147 -48.5t54 -129.5 q0 -75 -47 -152.5t-150 -175.5l-147 -139h276l-26 -131h-506z" />
<glyph unicode="&#xbe;" horiz-adv-x="1665" d="M332 -29l1022 1491h141l-1022 -1491h-141zM1196 0l33 160h-348l12 55l543 561h65l-104 -495h102l-26 -121h-103l-33 -160h-141zM1305 512l-228 -231h178zM565 1143q60 -22 96.5 -68t36.5 -112q0 -62 -25.5 -117.5t-71 -97.5t-107.5 -66.5t-134 -24.5q-54 0 -106 14 t-86 31l31 144q42 -23 91.5 -39t92.5 -16q29 0 58.5 9.5t53 27.5t38 44t14.5 58q0 48 -50.5 77t-144.5 29l15 64l188 207h-256l27 127h460l-12 -64z" />
<glyph unicode="&#xbf;" horiz-adv-x="889" d="M590 -344q-23 -11 -54 -20.5t-66 -17t-73 -11.5t-75 -4q-69 0 -128.5 19.5t-103 54.5t-68 84t-24.5 108q0 89 33.5 155t84.5 119.5t110.5 99.5t112.5 96t90.5 109.5t43.5 139.5h160q-6 -97 -40 -168.5t-81.5 -127.5t-101 -100.5t-98.5 -88t-75 -90.5t-30 -107 q0 -66 45 -100.5t129 -34.5q68 0 129 16.5t115 38.5zM780 979q0 -35 -14.5 -67t-39.5 -56.5t-58 -39.5t-70 -15q-54 0 -86.5 30.5t-32.5 79.5q0 38 15 71.5t40.5 58t57.5 39t67 14.5q54 0 87.5 -32t33.5 -83z" />
<glyph unicode="&#xc0;" horiz-adv-x="1255" d="M0 0zM963 0l-56 305h-600l-182 -305h-225l899 1450h73l285 -1450h-194zM770 1081l-367 -612h476zM930 1613l-310 301h261l196 -301h-147z" />
<glyph unicode="&#xc1;" horiz-adv-x="1255" d="M0 0zM963 0l-56 305h-600l-182 -305h-225l899 1450h73l285 -1450h-194zM770 1081l-367 -612h476zM845 1613h-170l271 301h288z" />
<glyph unicode="&#xc2;" horiz-adv-x="1255" d="M0 0zM963 0l-56 305h-600l-182 -305h-225l899 1450h73l285 -1450h-194zM770 1081l-367 -612h476zM994 1613l-103 197l-184 -197h-182l293 301h192l166 -301h-182z" />
<glyph unicode="&#xc3;" horiz-adv-x="1255" d="M0 0zM963 0l-56 305h-600l-182 -305h-225l899 1450h73l285 -1450h-194zM770 1081l-367 -612h476zM1266 1903q-12 -55 -32.5 -107t-52 -92.5t-75.5 -65t-104 -24.5q-40 0 -67.5 11t-48.5 28t-37.5 36t-33 36t-35.5 28t-45 11q-27 0 -46 -14.5t-32 -36.5t-21.5 -48.5 t-14.5 -50.5h-125q11 53 31 104.5t51.5 92.5t75 66.5t102.5 25.5q38 0 65.5 -11t48.5 -28t37.5 -36t33.5 -36t35.5 -28t43.5 -11q28 0 48 16.5t34 39.5t23.5 49t15.5 45h125z" />
<glyph unicode="&#xc4;" horiz-adv-x="1255" d="M0 0zM963 0l-56 305h-600l-182 -305h-225l899 1450h73l285 -1450h-194zM770 1081l-367 -612h476zM809 1747q0 -28 -11.5 -52t-30.5 -42t-44 -28.5t-51 -10.5q-24 0 -42 9t-29 24t-15.5 35t0.5 43q4 24 16.5 44t30.5 34.5t40 23t46 8.5q42 0 66 -25t24 -63zM1201 1747 q0 -28 -11.5 -52t-31 -42t-44.5 -28.5t-51 -10.5q-24 0 -42 9t-29 24t-15.5 35t0.5 43q10 48 47.5 79t85.5 31q42 0 66.5 -25t24.5 -63z" />
<glyph unicode="&#xc5;" horiz-adv-x="1255" d="M0 0zM963 0l-56 305h-600l-182 -305h-225l899 1450h73l285 -1450h-194zM770 1081l-367 -612h476zM946 1650q0 41 -19 63.5t-51 22.5q-24 0 -46 -11t-39 -31.5t-27.5 -49.5t-10.5 -65q0 -41 19 -63.5t51 -22.5q24 0 46 11t39 31.5t27.5 49.5t10.5 65zM1071 1675 q0 -65 -22.5 -119t-60 -94t-87 -62t-103.5 -22q-80 0 -125 48t-45 128q0 64 22.5 118.5t60 94.5t87 62t103.5 22q80 0 125 -48t45 -128z" />
<glyph unicode="&#xc6;" horiz-adv-x="1825" d="M801 0l63 305h-487l-242 -305h-235l1157 1434h825l-35 -164h-585l-88 -420h524l-35 -164h-524l-111 -522h586l-35 -164h-778zM1044 1151l-536 -682h391z" />
<glyph unicode="&#xc7;" horiz-adv-x="1280" d="M141 0zM1067 61q-82 -45 -183 -67.5t-206 -22.5q-123 0 -222.5 42.5t-169 117t-107.5 175t-38 216.5q0 115 27 229.5t78.5 219t125.5 194.5t169 156t208.5 103.5t243.5 37.5q102 0 192.5 -26.5t160.5 -69.5l-43 -188q-29 21 -64.5 40.5t-78.5 34.5t-92.5 24t-106.5 9 q-74 0 -148.5 -24t-142 -69t-126 -110t-102 -147t-68 -180t-24.5 -209q0 -95 24 -169t71 -125.5t115 -78.5t157 -27q60 0 115.5 10.5t105 28t93 40.5t79.5 48zM340 -367q17 -10 37 -17q17 -7 40.5 -12t49.5 -5q51 0 84 22.5t43 61.5q9 47 -32 76.5t-143 29.5l164 211h140 l-113 -133q37 -8 66.5 -23.5t48.5 -38.5t26.5 -53.5t-0.5 -68.5q-11 -50 -41 -87.5t-72 -62.5t-91.5 -38t-98.5 -13q-29 0 -53.5 3.5t-42.5 8.5q-21 5 -39 12z" />
<glyph unicode="&#xc8;" horiz-adv-x="1106" d="M102 0zM102 0l304 1434h757l-35 -164h-561l-88 -420h500l-35 -164h-500l-110 -522h561l-35 -164h-758zM832 1597l-310 301h261l196 -301h-147z" />
<glyph unicode="&#xc9;" horiz-adv-x="1106" d="M102 0zM102 0l304 1434h757l-35 -164h-561l-88 -420h500l-35 -164h-500l-110 -522h561l-35 -164h-758zM829 1597h-170l271 301h288z" />
<glyph unicode="&#xca;" horiz-adv-x="1106" d="M102 0zM102 0l304 1434h757l-35 -164h-561l-88 -420h500l-35 -164h-500l-110 -522h561l-35 -164h-758zM957 1597l-103 197l-184 -197h-182l293 301h192l166 -301h-182z" />
<glyph unicode="&#xcb;" horiz-adv-x="1108" d="M102 0zM102 0l304 1434h757l-35 -164h-561l-88 -420h500l-35 -164h-500l-110 -522h561l-35 -164h-758zM774 1730q0 -28 -11.5 -52t-30.5 -42t-44 -28.5t-51 -10.5q-24 0 -42 9t-29 24t-15.5 35t0.5 43q4 24 16.5 44t30.5 34.5t40 23t46 8.5q42 0 66 -25t24 -63z M1166 1730q0 -28 -11.5 -52t-31 -42t-44.5 -28.5t-51 -10.5q-24 0 -42 9t-29 24t-15.5 35t0.5 43q10 48 47.5 79t85.5 31q42 0 66.5 -25t24.5 -63z" />
<glyph unicode="&#xcc;" horiz-adv-x="606" d="M102 0zM102 0l304 1434h196l-303 -1434h-197zM579 1597l-310 301h261l196 -301h-147z" />
<glyph unicode="&#xcd;" horiz-adv-x="606" d="M102 0zM102 0l304 1434h196l-303 -1434h-197zM532 1597h-170l271 301h288z" />
<glyph unicode="&#xce;" horiz-adv-x="606" d="M102 0zM102 0l304 1434h196l-303 -1434h-197zM673 1597l-103 197l-184 -197h-182l293 301h192l166 -301h-182z" />
<glyph unicode="&#xcf;" horiz-adv-x="606" d="M102 0zM102 0l304 1434h196l-303 -1434h-197zM480 1730q0 -28 -11.5 -52t-30.5 -42t-44 -28.5t-51 -10.5q-24 0 -42 9t-29 24t-15.5 35t0.5 43q4 24 16.5 44t30.5 34.5t40 23t46 8.5q42 0 66 -25t24 -63zM872 1730q0 -28 -11.5 -52t-31 -42t-44.5 -28.5t-51 -10.5 q-24 0 -42 9t-29 24t-15.5 35t0.5 43q10 48 47.5 79t85.5 31q42 0 66.5 -25t24.5 -63z" />
<glyph unicode="&#xd0;" horiz-adv-x="1413" d="M102 0l119 561h-184l31 150h184l154 723h319q165 0 286 -36.5t199.5 -105t117 -165t38.5 -216.5q0 -198 -63.5 -365t-185 -288.5t-297 -189.5t-398.5 -68h-320zM457 164q147 0 275 50.5t222.5 145t148.5 231t54 308.5q0 89 -28.5 158t-86 116.5t-145.5 72t-207 24.5h-123 l-118 -559h270l-31 -150h-270l-84 -397h123z" />
<glyph unicode="&#xd1;" horiz-adv-x="1569" d="M102 0zM1196 -16l-678 1054l-219 -1038h-197l308 1450h61l678 -1057l219 1041h197l-308 -1450h-61zM1393 1878q-12 -55 -32.5 -107t-52 -92.5t-75.5 -65t-104 -24.5q-40 0 -67.5 11t-48.5 28t-37.5 36t-33 36t-35.5 28t-45 11q-27 0 -46 -14.5t-32 -36.5t-21.5 -48.5 t-14.5 -50.5h-125q11 53 31 104.5t51.5 92.5t75 66.5t102.5 25.5q38 0 65.5 -11t48.5 -28t37.5 -36t33.5 -36t35.5 -28t43.5 -11q28 0 48 16.5t34 39.5t23.5 49t15.5 45h125z" />
<glyph unicode="&#xd2;" horiz-adv-x="1604" d="M147 0zM756 143q88 0 166 28.5t142.5 78.5t115.5 118.5t86.5 148t54 166.5t18.5 175t-22.5 166.5t-70.5 137.5t-123.5 93.5t-182.5 34.5q-88 0 -166 -28.5t-143 -78.5t-116.5 -118t-87 -147.5t-54.5 -167t-19 -175.5q0 -87 22.5 -165.5t71 -138t124.5 -94t184 -34.5z M731 -29q-134 0 -241.5 45t-184 125.5t-117.5 192t-41 244.5q0 113 26 222.5t75.5 207.5t121 181.5t162 144t199.5 94.5t234 34q133 0 241 -45t184 -125.5t117 -192.5t41 -245q0 -113 -26 -222t-75 -207t-120.5 -181.5t-162.5 -144t-200 -94.5t-233 -34zM1104 1626l-310 301 h261l196 -301h-147z" />
<glyph unicode="&#xd3;" horiz-adv-x="1604" d="M147 0zM756 143q88 0 166 28.5t142.5 78.5t115.5 118.5t86.5 148t54 166.5t18.5 175t-22.5 166.5t-70.5 137.5t-123.5 93.5t-182.5 34.5q-88 0 -166 -28.5t-143 -78.5t-116.5 -118t-87 -147.5t-54.5 -167t-19 -175.5q0 -87 22.5 -165.5t71 -138t124.5 -94t184 -34.5z M731 -29q-134 0 -241.5 45t-184 125.5t-117.5 192t-41 244.5q0 113 26 222.5t75.5 207.5t121 181.5t162 144t199.5 94.5t234 34q133 0 241 -45t184 -125.5t117 -192.5t41 -245q0 -113 -26 -222t-75 -207t-120.5 -181.5t-162.5 -144t-200 -94.5t-233 -34zM1020 1626h-170 l271 301h288z" />
<glyph unicode="&#xd4;" horiz-adv-x="1604" d="M147 0zM756 143q88 0 166 28.5t142.5 78.5t115.5 118.5t86.5 148t54 166.5t18.5 175t-22.5 166.5t-70.5 137.5t-123.5 93.5t-182.5 34.5q-88 0 -166 -28.5t-143 -78.5t-116.5 -118t-87 -147.5t-54.5 -167t-19 -175.5q0 -87 22.5 -165.5t71 -138t124.5 -94t184 -34.5z M731 -29q-134 0 -241.5 45t-184 125.5t-117.5 192t-41 244.5q0 113 26 222.5t75.5 207.5t121 181.5t162 144t199.5 94.5t234 34q133 0 241 -45t184 -125.5t117 -192.5t41 -245q0 -113 -26 -222t-75 -207t-120.5 -181.5t-162.5 -144t-200 -94.5t-233 -34zM1192 1626l-103 197 l-184 -197h-182l293 301h192l166 -301h-182z" />
<glyph unicode="&#xd5;" horiz-adv-x="1604" d="M147 0zM756 143q88 0 166 28.5t142.5 78.5t115.5 118.5t86.5 148t54 166.5t18.5 175t-22.5 166.5t-70.5 137.5t-123.5 93.5t-182.5 34.5q-88 0 -166 -28.5t-143 -78.5t-116.5 -118t-87 -147.5t-54.5 -167t-19 -175.5q0 -87 22.5 -165.5t71 -138t124.5 -94t184 -34.5z M731 -29q-134 0 -241.5 45t-184 125.5t-117.5 192t-41 244.5q0 113 26 222.5t75.5 207.5t121 181.5t162 144t199.5 94.5t234 34q133 0 241 -45t184 -125.5t117 -192.5t41 -245q0 -113 -26 -222t-75 -207t-120.5 -181.5t-162.5 -144t-200 -94.5t-233 -34zM1440 1915 q-12 -55 -32.5 -107t-52 -92.5t-75.5 -65t-104 -24.5q-40 0 -67.5 11t-48.5 28t-37.5 36t-33 36t-35.5 28t-45 11q-27 0 -46 -14.5t-32 -36.5t-21.5 -48.5t-14.5 -50.5h-125q11 53 31 104.5t51.5 92.5t75 66.5t102.5 25.5q38 0 65.5 -11t48.5 -28t37.5 -36t33.5 -36 t35.5 -28t43.5 -11q28 0 48 16.5t34 39.5t23.5 49t15.5 45h125z" />
<glyph unicode="&#xd6;" horiz-adv-x="1622" d="M165 0zM774 143q88 0 166 28.5t142.5 78.5t115.5 118.5t86.5 148t54 166.5t18.5 175t-22.5 166.5t-70.5 137.5t-123.5 93.5t-182.5 34.5q-88 0 -166 -28.5t-143 -78.5t-116.5 -118t-87 -147.5t-54.5 -167t-19 -175.5q0 -87 22.5 -165.5t71 -138t124.5 -94t184 -34.5z M749 -29q-134 0 -241.5 45t-184 125.5t-117.5 192t-41 244.5q0 113 26 222.5t75.5 207.5t121 181.5t162 144t199.5 94.5t234 34q133 0 241 -45t184 -125.5t117 -192.5t41 -245q0 -113 -26 -222t-75 -207t-120.5 -181.5t-162.5 -144t-200 -94.5t-233 -34zM1001 1759 q0 -28 -11.5 -52t-30.5 -42t-44 -28.5t-51 -10.5q-24 0 -42 9t-29 24t-15.5 35t0.5 43q4 24 16.5 44t30.5 34.5t40 23t46 8.5q42 0 66 -25t24 -63zM1393 1759q0 -28 -11.5 -52t-31 -42t-44.5 -28.5t-51 -10.5q-24 0 -42 9t-29 24t-15.5 35t0.5 43q10 48 47.5 79t85.5 31 q42 0 66.5 -25t24.5 -63z" />
<glyph unicode="&#xd7;" horiz-adv-x="1331" d="M696 481l-432 -432l-110 111l432 430l-432 432l110 111l432 -433l432 435l111 -111l-432 -434l432 -432l-111 -111z" />
<glyph unicode="&#xd8;" horiz-adv-x="1602" d="M1446 1221q49 -75 75.5 -168t26.5 -199q0 -113 -26 -222t-75 -207t-120.5 -181.5t-162.5 -144t-200 -94.5t-233 -34q-125 0 -225.5 38.5t-175.5 107.5l-148 -146h-184l248 246q-48 74 -73.5 164.5t-25.5 196.5q0 113 26 222.5t75.5 207.5t121 181.5t162 144t199.5 94.5 t234 34q121 0 221.5 -36.5t175.5 -104.5l143 141h185zM465 252q48 -51 120 -80t171 -29q88 0 166 28.5t142.5 78.5t115.5 118.5t86.5 148t54 166.5t18.5 175q0 59 -9.5 114t-31.5 103zM1225 1186q-50 48 -119.5 76t-165.5 28q-88 0 -166 -28.5t-143 -78.5t-116.5 -118 t-87 -147.5t-54.5 -167t-19 -175.5q0 -117 39 -213z" />
<glyph unicode="&#xd9;" horiz-adv-x="1454" d="M189 0zM1264 1434h196l-198 -934q-28 -135 -87.5 -235t-143.5 -165t-189 -97t-224 -32q-114 0 -204.5 35t-147.5 102.5t-76.5 166t7.5 225.5l198 934h197l-199 -936q-19 -97 -10 -165t43 -111t91.5 -63t135.5 -20q80 0 147.5 24.5t120.5 71t89.5 113t54.5 150.5z M940 1597l-310 301h261l196 -301h-147z" />
<glyph unicode="&#xda;" horiz-adv-x="1454" d="M189 0zM1264 1434h196l-198 -934q-28 -135 -87.5 -235t-143.5 -165t-189 -97t-224 -32q-114 0 -204.5 35t-147.5 102.5t-76.5 166t7.5 225.5l198 934h197l-199 -936q-19 -97 -10 -165t43 -111t91.5 -63t135.5 -20q80 0 147.5 24.5t120.5 71t89.5 113t54.5 150.5z M958 1597h-170l271 301h288z" />
<glyph unicode="&#xdb;" horiz-adv-x="1454" d="M189 0zM1264 1434h196l-198 -934q-28 -135 -87.5 -235t-143.5 -165t-189 -97t-224 -32q-114 0 -204.5 35t-147.5 102.5t-76.5 166t7.5 225.5l198 934h197l-199 -936q-19 -97 -10 -165t43 -111t91.5 -63t135.5 -20q80 0 147.5 24.5t120.5 71t89.5 113t54.5 150.5z M1086 1597l-103 197l-184 -197h-182l293 301h192l166 -301h-182z" />
<glyph unicode="&#xdc;" horiz-adv-x="1454" d="M189 0zM1264 1434h196l-198 -934q-28 -135 -87.5 -235t-143.5 -165t-189 -97t-224 -32q-114 0 -204.5 35t-147.5 102.5t-76.5 166t7.5 225.5l198 934h197l-199 -936q-19 -97 -10 -165t43 -111t91.5 -63t135.5 -20q80 0 147.5 24.5t120.5 71t89.5 113t54.5 150.5z M884 1749q0 -28 -11.5 -52t-30.5 -42t-44 -28.5t-51 -10.5q-24 0 -42 9t-29 24t-15.5 35t0.5 43q4 24 16.5 44t30.5 34.5t40 23t46 8.5q42 0 66 -25t24 -63zM1276 1749q0 -28 -11.5 -52t-31 -42t-44.5 -28.5t-51 -10.5q-24 0 -42 9t-29 24t-15.5 35t0.5 43q10 48 47.5 79 t85.5 31q42 0 66.5 -25t24.5 -63z" />
<glyph unicode="&#xdd;" horiz-adv-x="1053" d="M203 0zM326 0l125 588l-248 846h194l185 -656l438 656h231l-604 -846l-125 -588h-196zM819 1597h-170l271 301h288z" />
<glyph unicode="&#xde;" horiz-adv-x="1180" d="M102 0l304 1434h192l-53 -250h174q108 0 189.5 -24t136 -68t82.5 -106t28 -138q0 -117 -45 -214.5t-127 -168.5t-196 -110.5t-252 -39.5h-175l-65 -315h-193zM569 479q78 0 146.5 21t120.5 63t82 106t30 150q0 97 -66.5 149t-197.5 52h-174l-115 -541h174z" />
<glyph unicode="&#xdf;" horiz-adv-x="1260" d="M463 223q21 -17 54 -33.5t72 -30t81 -22t82 -8.5q44 0 82.5 13t67 35.5t45 52t16.5 63.5q0 45 -27 78t-67.5 62t-88 56.5t-88 61t-67.5 76t-27 100.5q0 53 16 92.5t42.5 69t60.5 52t69.5 42.5t69.5 40.5t60.5 45.5t42.5 57t16 76q0 34 -14 59.5t-39 42.5t-59.5 26 t-74.5 9q-43 0 -89 -14t-87 -43.5t-73 -75.5t-45 -110l-232 -1096h-180l231 1094q20 93 62.5 167.5t106 126.5t148.5 79.5t191 27.5q81 0 145.5 -22.5t110 -59.5t70 -85.5t24.5 -100.5q0 -77 -27.5 -131t-69 -93t-89.5 -68t-89.5 -55.5t-69 -55t-27.5 -66.5t26 -67.5 t65.5 -58t85.5 -58t85.5 -66t65.5 -83.5t26 -110q0 -78 -36 -141.5t-96 -108.5t-139 -69.5t-165 -24.5q-51 0 -97 8t-83.5 20t-66 26t-44.5 26z" />
<glyph unicode="&#xe0;" d="M55 0zM920 12q-11 -8 -45.5 -15t-77.5 -7q-76 0 -121 38.5t-45 100.5h-4q-28 -32 -59.5 -60.5t-69 -50t-83 -34.5t-100.5 -13q-58 0 -106 20t-82 55t-53 82.5t-19 102.5q0 89 38 164t105 129t159 84.5t200 30.5q29 0 55.5 -3t48 -7t37.5 -8t25 -7l18 91q25 106 -19 167.5 t-167 61.5q-46 0 -91 -7t-84 -17t-69 -21t-47 -19l37 174q15 6 44.5 15t68 16.5t84.5 13t94 5.5q90 0 160 -27t114.5 -78t60 -123.5t-4.5 -163.5l-95 -444q-6 -28 -6 -50.5t8 -38.5t25.5 -25t46.5 -9q15 0 30 5q8 2 15 5zM694 477q-17 8 -56 20.5t-93 12.5q-55 0 -108 -17.5 t-95 -50t-68 -78.5t-26 -104q0 -28 8.5 -52.5t25.5 -43t43.5 -29t61.5 -10.5q43 0 83.5 15.5t75.5 41t63.5 58t47.5 67.5zM705 1255l-310 301h261l196 -301h-147z" />
<glyph unicode="&#xe1;" d="M55 0zM920 12q-11 -8 -45.5 -15t-77.5 -7q-76 0 -121 38.5t-45 100.5h-4q-28 -32 -59.5 -60.5t-69 -50t-83 -34.5t-100.5 -13q-58 0 -106 20t-82 55t-53 82.5t-19 102.5q0 89 38 164t105 129t159 84.5t200 30.5q29 0 55.5 -3t48 -7t37.5 -8t25 -7l18 91q25 106 -19 167.5 t-167 61.5q-46 0 -91 -7t-84 -17t-69 -21t-47 -19l37 174q15 6 44.5 15t68 16.5t84.5 13t94 5.5q90 0 160 -27t114.5 -78t60 -123.5t-4.5 -163.5l-95 -444q-6 -28 -6 -50.5t8 -38.5t25.5 -25t46.5 -9q15 0 30 5q8 2 15 5zM694 477q-17 8 -56 20.5t-93 12.5q-55 0 -108 -17.5 t-95 -50t-68 -78.5t-26 -104q0 -28 8.5 -52.5t25.5 -43t43.5 -29t61.5 -10.5q43 0 83.5 15.5t75.5 41t63.5 58t47.5 67.5zM620 1255h-170l271 301h288z" />
<glyph unicode="&#xe2;" d="M55 0zM920 12q-11 -8 -45.5 -15t-77.5 -7q-76 0 -121 38.5t-45 100.5h-4q-28 -32 -59.5 -60.5t-69 -50t-83 -34.5t-100.5 -13q-58 0 -106 20t-82 55t-53 82.5t-19 102.5q0 89 38 164t105 129t159 84.5t200 30.5q29 0 55.5 -3t48 -7t37.5 -8t25 -7l18 91q25 106 -19 167.5 t-167 61.5q-46 0 -91 -7t-84 -17t-69 -21t-47 -19l37 174q15 6 44.5 15t68 16.5t84.5 13t94 5.5q90 0 160 -27t114.5 -78t60 -123.5t-4.5 -163.5l-95 -444q-6 -28 -6 -50.5t8 -38.5t25.5 -25t46.5 -9q15 0 30 5q8 2 15 5zM694 477q-17 8 -56 20.5t-93 12.5q-55 0 -108 -17.5 t-95 -50t-68 -78.5t-26 -104q0 -28 8.5 -52.5t25.5 -43t43.5 -29t61.5 -10.5q43 0 83.5 15.5t75.5 41t63.5 58t47.5 67.5zM789 1255l-103 197l-184 -197h-182l293 301h192l166 -301h-182z" />
<glyph unicode="&#xe3;" d="M55 0zM920 12q-11 -8 -45.5 -15t-77.5 -7q-76 0 -121 38.5t-45 100.5h-4q-28 -32 -59.5 -60.5t-69 -50t-83 -34.5t-100.5 -13q-58 0 -106 20t-82 55t-53 82.5t-19 102.5q0 89 38 164t105 129t159 84.5t200 30.5q29 0 55.5 -3t48 -7t37.5 -8t25 -7l18 91q25 106 -19 167.5 t-167 61.5q-46 0 -91 -7t-84 -17t-69 -21t-47 -19l37 174q15 6 44.5 15t68 16.5t84.5 13t94 5.5q90 0 160 -27t114.5 -78t60 -123.5t-4.5 -163.5l-95 -444q-6 -28 -6 -50.5t8 -38.5t25.5 -25t46.5 -9q15 0 30 5q8 2 15 5zM694 477q-17 8 -56 20.5t-93 12.5q-55 0 -108 -17.5 t-95 -50t-68 -78.5t-26 -104q0 -28 8.5 -52.5t25.5 -43t43.5 -29t61.5 -10.5q43 0 83.5 15.5t75.5 41t63.5 58t47.5 67.5zM1027 1571q-12 -55 -32.5 -107t-52 -92.5t-75.5 -65t-104 -24.5q-40 0 -67.5 11t-48.5 28t-37.5 36t-33 36t-35.5 28t-45 11q-27 0 -46 -14.5 t-32 -36.5t-21.5 -48.5t-14.5 -50.5h-125q11 53 31 104.5t51.5 92.5t75 66.5t102.5 25.5q38 0 65.5 -11t48.5 -28t37.5 -36t33.5 -36t35.5 -28t43.5 -11q28 0 48 16.5t34 39.5t23.5 49t15.5 45h125z" />
<glyph unicode="&#xe4;" d="M55 0zM920 12q-11 -8 -45.5 -15t-77.5 -7q-76 0 -121 38.5t-45 100.5h-4q-28 -32 -59.5 -60.5t-69 -50t-83 -34.5t-100.5 -13q-58 0 -106 20t-82 55t-53 82.5t-19 102.5q0 89 38 164t105 129t159 84.5t200 30.5q29 0 55.5 -3t48 -7t37.5 -8t25 -7l18 91q25 106 -19 167.5 t-167 61.5q-46 0 -91 -7t-84 -17t-69 -21t-47 -19l37 174q15 6 44.5 15t68 16.5t84.5 13t94 5.5q90 0 160 -27t114.5 -78t60 -123.5t-4.5 -163.5l-95 -444q-6 -28 -6 -50.5t8 -38.5t25.5 -25t46.5 -9q15 0 30 5q8 2 15 5zM694 477q-17 8 -56 20.5t-93 12.5q-55 0 -108 -17.5 t-95 -50t-68 -78.5t-26 -104q0 -28 8.5 -52.5t25.5 -43t43.5 -29t61.5 -10.5q43 0 83.5 15.5t75.5 41t63.5 58t47.5 67.5zM587 1394q0 -28 -11.5 -52t-30.5 -42t-44 -28.5t-51 -10.5q-24 0 -42 9t-29 24t-15.5 35t0.5 43q4 24 16.5 44t30.5 34.5t40 23t46 8.5q42 0 66 -25 t24 -63zM979 1394q0 -28 -11.5 -52t-31 -42t-44.5 -28.5t-51 -10.5q-24 0 -42 9t-29 24t-15.5 35t0.5 43q10 48 47.5 79t85.5 31q42 0 66.5 -25t24.5 -63z" />
<glyph unicode="&#xe5;" d="M55 0zM920 12q-11 -8 -45.5 -15t-77.5 -7q-76 0 -121 38.5t-45 100.5h-4q-28 -32 -59.5 -60.5t-69 -50t-83 -34.5t-100.5 -13q-58 0 -106 20t-82 55t-53 82.5t-19 102.5q0 89 38 164t105 129t159 84.5t200 30.5q29 0 55.5 -3t48 -7t37.5 -8t25 -7l18 91q25 106 -19 167.5 t-167 61.5q-46 0 -91 -7t-84 -17t-69 -21t-47 -19l37 174q15 6 44.5 15t68 16.5t84.5 13t94 5.5q90 0 160 -27t114.5 -78t60 -123.5t-4.5 -163.5l-95 -444q-6 -28 -6 -50.5t8 -38.5t25.5 -25t46.5 -9q15 0 30 5q8 2 15 5zM694 477q-17 8 -56 20.5t-93 12.5q-55 0 -108 -17.5 t-95 -50t-68 -78.5t-26 -104q0 -28 8.5 -52.5t25.5 -43t43.5 -29t61.5 -10.5q43 0 83.5 15.5t75.5 41t63.5 58t47.5 67.5zM778 1466q0 41 -19 63.5t-51 22.5q-24 0 -46 -11t-39 -31.5t-27.5 -49.5t-10.5 -65q0 -41 19 -63.5t51 -22.5q24 0 46 11t39 31.5t27.5 49.5t10.5 65z M903 1491q0 -65 -22.5 -119t-60 -94t-87 -62t-103.5 -22q-80 0 -125 48t-45 128q0 64 22.5 118.5t60 94.5t87 62t103.5 22q80 0 125 -48t45 -128z" />
<glyph unicode="&#xe6;" horiz-adv-x="1743" d="M1487 68q-72 -42 -166 -69.5t-209 -27.5q-143 0 -238.5 61.5t-142.5 168.5q-40 -50 -84 -92t-95 -73t-109.5 -48t-127.5 -17q-58 0 -106 20t-82 55t-53 82.5t-19 102.5q0 89 38 164t105 129t159 84.5t200 30.5q29 0 55.5 -3t48 -7t37.5 -8t25 -7l18 91q11 53 6.5 95.5 t-27 72t-63.5 45.5t-102 16q-46 0 -91 -7t-84 -17t-69 -21t-47 -19l37 174q15 6 44.5 15t68 16.5t84.5 13t94 5.5q111 0 192 -41.5t119 -118.5q82 77 181.5 118.5t205.5 41.5q86 0 155.5 -25.5t118 -72.5t75 -112.5t26.5 -146.5q0 -45 -6.5 -87.5t-14.5 -75.5 q-9 -39 -20 -74h-735q-2 -13 -4 -27q-2 -12 -3 -27t-1 -30q0 -65 15 -117.5t48.5 -90.5t86.5 -58.5t128 -20.5q48 0 98.5 11t98.5 28.5t91.5 39t78.5 42.5zM694 477q-17 8 -56 20.5t-93 12.5q-55 0 -108 -17.5t-95 -50t-68 -78.5t-26 -104q0 -28 8.5 -52.5t25.5 -43 t43.5 -29t61.5 -10.5q43 0 83.5 15.5t75.5 41t63.5 58t47.5 67.5zM1464 651q2 11 4 24q2 11 3.5 26t1.5 32q0 102 -54 153.5t-145 51.5q-56 0 -108 -20t-97 -57.5t-82 -90.5t-63 -119h540z" />
<glyph unicode="&#xe7;" horiz-adv-x="1001" d="M106 0zM791 25q-59 -26 -121 -40t-127 -14q-98 0 -178 32t-138 89t-89.5 135t-31.5 170q0 141 47 268t133 222t206 151t266 56q69 0 133 -14t115 -40l-35 -166q-44 25 -101 42.5t-127 17.5q-91 0 -172 -40t-141.5 -109.5t-95.5 -164t-35 -202.5q0 -137 71 -212t205 -75 q70 0 135 20t117 46zM177 -367q17 -10 37 -17q17 -7 40.5 -12t49.5 -5q51 0 84 22.5t43 61.5q9 47 -32 76.5t-143 29.5l164 211h140l-113 -133q37 -8 66.5 -23.5t48.5 -38.5t26.5 -53.5t-0.5 -68.5q-11 -50 -41 -87.5t-72 -62.5t-91.5 -38t-98.5 -13q-29 0 -53.5 3.5 t-42.5 8.5q-21 5 -39 12z" />
<glyph unicode="&#xe8;" horiz-adv-x="1161" d="M106 0zM905 68q-72 -42 -166 -69.5t-209 -27.5q-103 0 -182 33.5t-133 93t-81.5 142t-27.5 180.5q0 99 23.5 187.5t65 163.5t98.5 135t124 101.5t141 64t151 22.5q86 0 155 -25.5t118 -72.5t75 -112.5t26 -146.5q0 -45 -6.5 -87.5t-14.5 -75.5q-9 -39 -20 -74h-735 q-2 -13 -4 -27q-2 -12 -3 -27t-1 -30q0 -65 15.5 -117.5t49 -90.5t86.5 -58.5t128 -20.5q48 0 98 11t98 28.5t91.5 39t78.5 42.5zM883 651q2 11 4 24q2 11 3 26t1 32q0 102 -54 153.5t-145 51.5q-56 0 -108 -20t-97 -57.5t-82 -90.5t-63 -119h541zM795 1255l-310 301h261 l196 -301h-147z" />
<glyph unicode="&#xe9;" horiz-adv-x="1161" d="M106 0zM905 68q-72 -42 -166 -69.5t-209 -27.5q-103 0 -182 33.5t-133 93t-81.5 142t-27.5 180.5q0 99 23.5 187.5t65 163.5t98.5 135t124 101.5t141 64t151 22.5q86 0 155 -25.5t118 -72.5t75 -112.5t26 -146.5q0 -45 -6.5 -87.5t-14.5 -75.5q-9 -39 -20 -74h-735 q-2 -13 -4 -27q-2 -12 -3 -27t-1 -30q0 -65 15.5 -117.5t49 -90.5t86.5 -58.5t128 -20.5q48 0 98 11t98 28.5t91.5 39t78.5 42.5zM883 651q2 11 4 24q2 11 3 26t1 32q0 102 -54 153.5t-145 51.5q-56 0 -108 -20t-97 -57.5t-82 -90.5t-63 -119h541zM731 1255h-170l271 301 h288z" />
<glyph unicode="&#xea;" horiz-adv-x="1161" d="M106 0zM905 68q-72 -42 -166 -69.5t-209 -27.5q-103 0 -182 33.5t-133 93t-81.5 142t-27.5 180.5q0 99 23.5 187.5t65 163.5t98.5 135t124 101.5t141 64t151 22.5q86 0 155 -25.5t118 -72.5t75 -112.5t26 -146.5q0 -45 -6.5 -87.5t-14.5 -75.5q-9 -39 -20 -74h-735 q-2 -13 -4 -27q-2 -12 -3 -27t-1 -30q0 -65 15.5 -117.5t49 -90.5t86.5 -58.5t128 -20.5q48 0 98 11t98 28.5t91.5 39t78.5 42.5zM883 651q2 11 4 24q2 11 3 26t1 32q0 102 -54 153.5t-145 51.5q-56 0 -108 -20t-97 -57.5t-82 -90.5t-63 -119h541zM879 1255l-103 197 l-184 -197h-182l293 301h192l166 -301h-182z" />
<glyph unicode="&#xeb;" horiz-adv-x="1161" d="M106 0zM905 68q-72 -42 -166 -69.5t-209 -27.5q-103 0 -182 33.5t-133 93t-81.5 142t-27.5 180.5q0 99 23.5 187.5t65 163.5t98.5 135t124 101.5t141 64t151 22.5q86 0 155 -25.5t118 -72.5t75 -112.5t26 -146.5q0 -45 -6.5 -87.5t-14.5 -75.5q-9 -39 -20 -74h-735 q-2 -13 -4 -27q-2 -12 -3 -27t-1 -30q0 -65 15.5 -117.5t49 -90.5t86.5 -58.5t128 -20.5q48 0 98 11t98 28.5t91.5 39t78.5 42.5zM883 651q2 11 4 24q2 11 3 26t1 32q0 102 -54 153.5t-145 51.5q-56 0 -108 -20t-97 -57.5t-82 -90.5t-63 -119h541zM688 1394q0 -28 -11.5 -52 t-30.5 -42t-44 -28.5t-51 -10.5q-24 0 -42 9t-29 24t-15.5 35t0.5 43q4 24 16.5 44t30.5 34.5t40 23t46 8.5q42 0 66 -25t24 -63zM1080 1394q0 -28 -11.5 -52t-31 -42t-44.5 -28.5t-51 -10.5q-24 0 -42 9t-29 24t-15.5 35t0.5 43q10 48 47.5 79t85.5 31q42 0 66.5 -25 t24.5 -63z" />
<glyph unicode="&#xec;" horiz-adv-x="545" d="M80 0zM80 0l225 1065h180l-225 -1065h-180zM497 1255l-310 301h261l196 -301h-147z" />
<glyph unicode="&#xed;" horiz-adv-x="545" d="M80 0zM80 0l225 1065h180l-225 -1065h-180zM412 1255h-170l271 301h288z" />
<glyph unicode="&#xee;" horiz-adv-x="545" d="M80 0zM80 0l225 1065h180l-225 -1065h-180zM579 1255l-103 197l-184 -197h-182l293 301h192l166 -301h-182z" />
<glyph unicode="&#xef;" horiz-adv-x="545" d="M80 0zM80 0l225 1065h180l-225 -1065h-180zM381 1394q0 -28 -11.5 -52t-30.5 -42t-44 -28.5t-51 -10.5q-24 0 -42 9t-29 24t-15.5 35t0.5 43q4 24 16.5 44t30.5 34.5t40 23t46 8.5q42 0 66 -25t24 -63zM773 1394q0 -28 -11.5 -52t-31 -42t-44.5 -28.5t-51 -10.5 q-24 0 -42 9t-29 24t-15.5 35t0.5 43q10 48 47.5 79t85.5 31q42 0 66.5 -25t24.5 -63z" />
<glyph unicode="&#xf0;" horiz-adv-x="1241" d="M1016 1268q72 -113 108.5 -244.5t36.5 -271.5q0 -195 -49.5 -341t-135 -244t-200 -147t-244.5 -49q-99 0 -176 31.5t-129.5 87.5t-80 132t-27.5 165q0 143 46 258.5t125.5 197t186 125.5t228.5 44q61 0 108.5 -16t79.5 -36q38 -23 65 -51q-3 65 -29.5 143t-68.5 152 l-266 -112l-25 98l238 98q-25 31 -50.5 58t-51.5 49l104 100q42 -31 78.5 -67t70.5 -76l263 108l24 -96zM563 131q71 0 140 34t123.5 95t88 146t33.5 186q0 61 -19 109t-54 81.5t-84 51.5t-109 18q-84 0 -153.5 -38.5t-118.5 -102t-76 -147t-27 -173.5q0 -55 16.5 -102.5 t48.5 -82.5t80 -55t111 -20z" />
<glyph unicode="&#xf1;" horiz-adv-x="1204" d="M82 0zM743 0l144 684q26 127 -16 188.5t-144 61.5q-48 0 -93 -16.5t-84 -40t-69 -47.5t-47 -39l-168 -791h-184l168 795q12 59 20.5 108.5t13.5 85.5q6 42 9 76h164q1 -16 1 -36q0 -17 -1 -41.5t-4 -53.5q26 23 62.5 51t81.5 52t96 40.5t106 16.5q104 0 166 -36t91 -93.5 t31.5 -129t-12.5 -141.5l-147 -694h-185zM1169 1571q-12 -55 -32.5 -107t-52 -92.5t-75.5 -65t-104 -24.5q-40 0 -67.5 11t-48.5 28t-37.5 36t-33 36t-35.5 28t-45 11q-27 0 -46 -14.5t-32 -36.5t-21.5 -48.5t-14.5 -50.5h-125q11 53 31 104.5t51.5 92.5t75 66.5t102.5 25.5 q38 0 65.5 -11t48.5 -28t37.5 -36t33.5 -36t35.5 -28t43.5 -11q28 0 48 16.5t34 39.5t23.5 49t15.5 45h125z" />
<glyph unicode="&#xf2;" horiz-adv-x="1223" d="M106 0zM528 -29q-100 0 -178.5 33t-132.5 92t-82.5 140t-28.5 178q0 88 20 173t57.5 160.5t91 139t120 109.5t145.5 72t167 26q100 0 178 -33t132 -92t82.5 -140t28.5 -178q0 -133 -44 -255.5t-123.5 -217t-190 -151t-242.5 -56.5zM541 129q85 0 157.5 42t125 114 t82.5 167.5t30 202.5q0 65 -17.5 117t-49.5 88.5t-76.5 56t-98.5 19.5q-85 0 -157.5 -42t-125 -114t-82.5 -167.5t-30 -202.5q0 -65 17.5 -117t49.5 -88.5t76.5 -56t98.5 -19.5zM834 1255l-310 301h261l196 -301h-147z" />
<glyph unicode="&#xf3;" horiz-adv-x="1223" d="M106 0zM528 -29q-100 0 -178.5 33t-132.5 92t-82.5 140t-28.5 178q0 88 20 173t57.5 160.5t91 139t120 109.5t145.5 72t167 26q100 0 178 -33t132 -92t82.5 -140t28.5 -178q0 -133 -44 -255.5t-123.5 -217t-190 -151t-242.5 -56.5zM541 129q85 0 157.5 42t125 114 t82.5 167.5t30 202.5q0 65 -17.5 117t-49.5 88.5t-76.5 56t-98.5 19.5q-85 0 -157.5 -42t-125 -114t-82.5 -167.5t-30 -202.5q0 -65 17.5 -117t49.5 -88.5t76.5 -56t98.5 -19.5zM749 1255h-170l271 301h288z" />
<glyph unicode="&#xf4;" horiz-adv-x="1223" d="M106 0zM528 -29q-100 0 -178.5 33t-132.5 92t-82.5 140t-28.5 178q0 88 20 173t57.5 160.5t91 139t120 109.5t145.5 72t167 26q100 0 178 -33t132 -92t82.5 -140t28.5 -178q0 -133 -44 -255.5t-123.5 -217t-190 -151t-242.5 -56.5zM541 129q85 0 157.5 42t125 114 t82.5 167.5t30 202.5q0 65 -17.5 117t-49.5 88.5t-76.5 56t-98.5 19.5q-85 0 -157.5 -42t-125 -114t-82.5 -167.5t-30 -202.5q0 -65 17.5 -117t49.5 -88.5t76.5 -56t98.5 -19.5zM897 1255l-103 197l-184 -197h-182l293 301h192l166 -301h-182z" />
<glyph unicode="&#xf5;" horiz-adv-x="1223" d="M106 0zM528 -29q-100 0 -178.5 33t-132.5 92t-82.5 140t-28.5 178q0 88 20 173t57.5 160.5t91 139t120 109.5t145.5 72t167 26q100 0 178 -33t132 -92t82.5 -140t28.5 -178q0 -133 -44 -255.5t-123.5 -217t-190 -151t-242.5 -56.5zM541 129q85 0 157.5 42t125 114 t82.5 167.5t30 202.5q0 65 -17.5 117t-49.5 88.5t-76.5 56t-98.5 19.5q-85 0 -157.5 -42t-125 -114t-82.5 -167.5t-30 -202.5q0 -65 17.5 -117t49.5 -88.5t76.5 -56t98.5 -19.5zM1176 1571q-12 -55 -32.5 -107t-52 -92.5t-75.5 -65t-104 -24.5q-40 0 -67.5 11t-48.5 28 t-37.5 36t-33 36t-35.5 28t-45 11q-27 0 -46 -14.5t-32 -36.5t-21.5 -48.5t-14.5 -50.5h-125q11 53 31 104.5t51.5 92.5t75 66.5t102.5 25.5q38 0 65.5 -11t48.5 -28t37.5 -36t33.5 -36t35.5 -28t43.5 -11q28 0 48 16.5t34 39.5t23.5 49t15.5 45h125z" />
<glyph unicode="&#xf6;" horiz-adv-x="1223" d="M106 0zM528 -29q-100 0 -178.5 33t-132.5 92t-82.5 140t-28.5 178q0 88 20 173t57.5 160.5t91 139t120 109.5t145.5 72t167 26q100 0 178 -33t132 -92t82.5 -140t28.5 -178q0 -133 -44 -255.5t-123.5 -217t-190 -151t-242.5 -56.5zM541 129q85 0 157.5 42t125 114 t82.5 167.5t30 202.5q0 65 -17.5 117t-49.5 88.5t-76.5 56t-98.5 19.5q-85 0 -157.5 -42t-125 -114t-82.5 -167.5t-30 -202.5q0 -65 17.5 -117t49.5 -88.5t76.5 -56t98.5 -19.5zM714 1394q0 -28 -11.5 -52t-30.5 -42t-44 -28.5t-51 -10.5q-24 0 -42 9t-29 24t-15.5 35 t0.5 43q4 24 16.5 44t30.5 34.5t40 23t46 8.5q42 0 66 -25t24 -63zM1106 1394q0 -28 -11.5 -52t-31 -42t-44.5 -28.5t-51 -10.5q-24 0 -42 9t-29 24t-15.5 35t0.5 43q10 48 47.5 79t85.5 31q42 0 66.5 -25t24.5 -63z" />
<glyph unicode="&#xf7;" horiz-adv-x="1184" d="M612 829q-32 0 -58.5 11.5t-46.5 31t-31 46.5t-11 59q0 31 11 58t31 46t46.5 30t58.5 11q31 0 58 -11t46.5 -30t30.5 -46t11 -58q0 -32 -11 -59t-30.5 -46.5t-46.5 -31t-58 -11.5zM123 514v156h979v-156h-979zM612 61q-32 0 -58.5 11.5t-46.5 31t-31 46.5t-11 59 q0 31 11 58t31 46t46.5 30t58.5 11q31 0 58 -11t46.5 -30t30.5 -46t11 -58q0 -32 -11 -59t-30.5 -46.5t-46.5 -31t-58 -11.5z" />
<glyph unicode="&#xf8;" horiz-adv-x="1221" d="M1065 901q31 -53 47 -116t16 -134q0 -133 -44 -255.5t-123.5 -217t-190 -151t-242.5 -56.5q-89 0 -160.5 26t-123.5 73l-99 -99h-161l186 189q-64 103 -64 254q0 88 20 173t57.5 160.5t91 139t120 109.5t145.5 72t167 26q89 0 160.5 -26.5t125.5 -74.5l101 101h161z M866 864q-32 34 -75.5 53t-96.5 19q-85 0 -157.5 -42t-125 -114t-82.5 -167.5t-30 -202.5q0 -29 3 -55.5t11 -51.5zM371 199q31 -34 74 -52t96 -18q85 0 157.5 42t125 114t82.5 167.5t30 202.5q0 28 -4 54t-10 49z" />
<glyph unicode="&#xf9;" horiz-adv-x="1206" d="M139 0zM770 0q-1 16 -1 36q0 17 1 41.5t4 53.5q-26 -23 -63 -51t-81.5 -52t-96 -40.5t-105.5 -16.5q-104 0 -166 36t-91 93.5t-31.5 129t12.5 141.5l147 694h184l-143 -684q-26 -127 16 -188.5t144 -61.5q48 0 93 16.5t84 39.5t69 47.5t47 39.5l168 791h184l-168 -795 q-13 -60 -21 -109t-13 -85q-6 -42 -9 -76h-164zM803 1255l-310 301h261l196 -301h-147z" />
<glyph unicode="&#xfa;" horiz-adv-x="1206" d="M139 0zM770 0q-1 16 -1 36q0 17 1 41.5t4 53.5q-26 -23 -63 -51t-81.5 -52t-96 -40.5t-105.5 -16.5q-104 0 -166 36t-91 93.5t-31.5 129t12.5 141.5l147 694h184l-143 -684q-26 -127 16 -188.5t144 -61.5q48 0 93 16.5t84 39.5t69 47.5t47 39.5l168 791h184l-168 -795 q-13 -60 -21 -109t-13 -85q-6 -42 -9 -76h-164zM759 1255h-170l271 301h288z" />
<glyph unicode="&#xfb;" horiz-adv-x="1206" d="M139 0zM770 0q-1 16 -1 36q0 17 1 41.5t4 53.5q-26 -23 -63 -51t-81.5 -52t-96 -40.5t-105.5 -16.5q-104 0 -166 36t-91 93.5t-31.5 129t12.5 141.5l147 694h184l-143 -684q-26 -127 16 -188.5t144 -61.5q48 0 93 16.5t84 39.5t69 47.5t47 39.5l168 791h184l-168 -795 q-13 -60 -21 -109t-13 -85q-6 -42 -9 -76h-164zM887 1255l-103 197l-184 -197h-182l293 301h192l166 -301h-182z" />
<glyph unicode="&#xfc;" horiz-adv-x="1206" d="M139 0zM770 0q-1 16 -1 36q0 17 1 41.5t4 53.5q-26 -23 -63 -51t-81.5 -52t-96 -40.5t-105.5 -16.5q-104 0 -166 36t-91 93.5t-31.5 129t12.5 141.5l147 694h184l-143 -684q-26 -127 16 -188.5t144 -61.5q48 0 93 16.5t84 39.5t69 47.5t47 39.5l168 791h184l-168 -795 q-13 -60 -21 -109t-13 -85q-6 -42 -9 -76h-164zM686 1394q0 -28 -11.5 -52t-30.5 -42t-44 -28.5t-51 -10.5q-24 0 -42 9t-29 24t-15.5 35t0.5 43q4 24 16.5 44t30.5 34.5t40 23t46 8.5q42 0 66 -25t24 -63zM1078 1394q0 -28 -11.5 -52t-31 -42t-44.5 -28.5t-51 -10.5 q-24 0 -42 9t-29 24t-15.5 35t0.5 43q10 48 47.5 79t85.5 31q42 0 66.5 -25t24.5 -63z" />
<glyph unicode="&#xfd;" horiz-adv-x="971" d="M0 0zM-178 -326q6 -3 14 -5q15 -5 39 -5q48 0 97.5 16.5t100.5 56.5t105 107.5t113 169.5l22 43l-180 1008h199l112 -772l406 772h213l-582 -1053q-66 -116 -135 -212.5t-142.5 -165.5t-152.5 -107.5t-166 -38.5q-20 0 -38 2.5t-32 6.5q-16 4 -30 9zM680 1255h-170 l271 301h288z" />
<glyph unicode="&#xfe;" horiz-adv-x="1264" d="M-29 -512l414 1946h182l-94 -449q21 16 53 35t72 35.5t86 27.5t96 11q96 0 169 -32.5t121.5 -90t73.5 -135.5t25 -168q0 -142 -48 -268.5t-136 -222t-212 -151t-275 -55.5q-66 0 -126.5 13t-105.5 30l-114 -526h-181zM297 168q35 -16 89.5 -30.5t125.5 -14.5 q105 0 190 46t146 121.5t94 173t33 200.5q0 60 -17 110t-49 85.5t-78.5 55t-105.5 19.5q-51 0 -96 -13t-82.5 -32t-66 -40t-46.5 -36z" />
<glyph unicode="&#xff;" horiz-adv-x="971" d="M0 0zM-178 -326q6 -3 14 -5q15 -5 39 -5q48 0 97.5 16.5t100.5 56.5t105 107.5t113 169.5l22 43l-180 1008h199l112 -772l406 772h213l-582 -1053q-66 -116 -135 -212.5t-142.5 -165.5t-152.5 -107.5t-166 -38.5q-20 0 -38 2.5t-32 6.5q-16 4 -30 9zM548 1374 q0 -28 -11.5 -52t-30.5 -42t-44 -28.5t-51 -10.5q-24 0 -42 9t-29 24t-15.5 35t0.5 43q4 24 16.5 44t30.5 34.5t40 23t46 8.5q42 0 66 -25t24 -63zM940 1374q0 -28 -11.5 -52t-31 -42t-44.5 -28.5t-51 -10.5q-24 0 -42 9t-29 24t-15.5 35t0.5 43q10 48 47.5 79t85.5 31 q42 0 66.5 -25t24.5 -63z" />
<glyph unicode="&#x100;" horiz-adv-x="1255" d="M0 0zM963 0l-56 305h-600l-182 -305h-225l899 1450h73l285 -1450h-194zM770 1081l-367 -612h476zM608 1654l31 146h540l-30 -146h-541z" />
<glyph unicode="&#x101;" d="M55 0zM920 12q-11 -8 -45.5 -15t-77.5 -7q-76 0 -121 38.5t-45 100.5h-4q-28 -32 -59.5 -60.5t-69 -50t-83 -34.5t-100.5 -13q-58 0 -106 20t-82 55t-53 82.5t-19 102.5q0 89 38 164t105 129t159 84.5t200 30.5q29 0 55.5 -3t48 -7t37.5 -8t25 -7l18 91q25 106 -19 167.5 t-167 61.5q-46 0 -91 -7t-84 -17t-69 -21t-47 -19l37 174q15 6 44.5 15t68 16.5t84.5 13t94 5.5q90 0 160 -27t114.5 -78t60 -123.5t-4.5 -163.5l-95 -444q-6 -28 -6 -50.5t8 -38.5t25.5 -25t46.5 -9q15 0 30 5q8 2 15 5zM694 477q-17 8 -56 20.5t-93 12.5q-55 0 -108 -17.5 t-95 -50t-68 -78.5t-26 -104q0 -28 8.5 -52.5t25.5 -43t43.5 -29t61.5 -10.5q43 0 83.5 15.5t75.5 41t63.5 58t47.5 67.5zM377 1316l31 146h540l-30 -146h-541z" />
<glyph unicode="&#x102;" horiz-adv-x="1262" d="M0 0zM969 0l-56 305h-600l-182 -305h-225l899 1450h73l285 -1450h-194zM776 1081l-367 -612h476zM1224 1939q-18 -68 -49.5 -127.5t-77 -103.5t-106 -69t-137.5 -25q-67 0 -112.5 19t-73.5 52.5t-40 79.5t-12 101q0 37 6 73h142q-1 -6 -2 -11t-1 -9.5v-9.5q0 -39 5 -69.5 t18 -51.5t36.5 -32t61.5 -11q42 0 72 13t53 38t41 61t35 82h141z" />
<glyph unicode="&#x103;" d="M55 0zM920 12q-11 -8 -45.5 -15t-77.5 -7q-76 0 -121 38.5t-45 100.5h-4q-28 -32 -59.5 -60.5t-69 -50t-83 -34.5t-100.5 -13q-58 0 -106 20t-82 55t-53 82.5t-19 102.5q0 89 38 164t105 129t159 84.5t200 30.5q29 0 55.5 -3t48 -7t37.5 -8t25 -7l18 91q25 106 -19 167.5 t-167 61.5q-46 0 -91 -7t-84 -17t-69 -21t-47 -19l37 174q15 6 44.5 15t68 16.5t84.5 13t94 5.5q90 0 160 -27t114.5 -78t60 -123.5t-4.5 -163.5l-95 -444q-6 -28 -6 -50.5t8 -38.5t25.5 -25t46.5 -9q15 0 30 5q8 2 15 5zM694 477q-17 8 -56 20.5t-93 12.5q-55 0 -108 -17.5 t-95 -50t-68 -78.5t-26 -104q0 -28 8.5 -52.5t25.5 -43t43.5 -29t61.5 -10.5q43 0 83.5 15.5t75.5 41t63.5 58t47.5 67.5zM1018 1597q-18 -68 -49.5 -127.5t-77 -103.5t-106 -69t-137.5 -25q-67 0 -112.5 19t-73.5 52.5t-40 79.5t-12 101q0 37 6 73h142q-1 -6 -2 -11 t-1 -9.5v-9.5q0 -39 5 -69.5t18 -51.5t36.5 -32t61.5 -11q42 0 72 13t53 38t41 61t35 82h141z" />
<glyph unicode="&#x104;" horiz-adv-x="1255" d="M0 0zM963 0l-56 305h-600l-182 -305h-225l899 1450h73l285 -1450h-194zM770 1081l-367 -612h476zM1153 -487q-21 -12 -48 -22q-23 -8 -57 -14.5t-79 -6.5q-47 0 -84.5 12.5t-61.5 39t-33 67.5t2 98q7 34 20.5 65.5t30.5 60t36 53.5t38 46q44 48 95 88h145 q-46 -41 -85 -85q-33 -38 -63.5 -84t-39.5 -91q-6 -35 1 -58.5t22 -37.5t34 -19.5t37 -5.5q23 0 44 4.5t38 10.5q19 7 37 16z" />
<glyph unicode="&#x105;" d="M55 0zM920 12q-11 -8 -45.5 -15t-77.5 -7q-76 0 -121 38.5t-45 100.5h-4q-28 -32 -59.5 -60.5t-69 -50t-83 -34.5t-100.5 -13q-58 0 -106 20t-82 55t-53 82.5t-19 102.5q0 89 38 164t105 129t159 84.5t200 30.5q29 0 55.5 -3t48 -7t37.5 -8t25 -7l18 91q25 106 -19 167.5 t-167 61.5q-46 0 -91 -7t-84 -17t-69 -21t-47 -19l37 174q15 6 44.5 15t68 16.5t84.5 13t94 5.5q90 0 160 -27t114.5 -78t60 -123.5t-4.5 -163.5l-95 -444q-6 -28 -6 -50.5t8 -38.5t25.5 -25t46.5 -9q15 0 30 5q8 2 15 5zM694 477q-17 8 -56 20.5t-93 12.5q-55 0 -108 -17.5 t-95 -50t-68 -78.5t-26 -104q0 -28 8.5 -52.5t25.5 -43t43.5 -29t61.5 -10.5q43 0 83.5 15.5t75.5 41t63.5 58t47.5 67.5zM916 -475q-21 -12 -48 -22q-23 -8 -57 -14.5t-79 -6.5q-47 0 -84.5 12.5t-61.5 39t-33 67.5t2 98q7 34 20.5 65.5t30.5 60t36 53.5t38 46q44 48 95 88 h145q-46 -41 -85 -85q-33 -38 -63.5 -84t-39.5 -91q-6 -35 1 -58.5t22 -37.5t34 -19.5t37 -5.5q23 0 44 4.5t38 10.5q19 7 37 16z" />
<glyph unicode="&#x106;" horiz-adv-x="1280" d="M141 0zM1067 61q-82 -45 -183 -67.5t-206 -22.5q-123 0 -222.5 42.5t-169 117t-107.5 175t-38 216.5q0 115 27 229.5t78.5 219t125.5 194.5t169 156t208.5 103.5t243.5 37.5q102 0 192.5 -26.5t160.5 -69.5l-43 -188q-29 21 -64.5 40.5t-78.5 34.5t-92.5 24t-106.5 9 q-74 0 -148.5 -24t-142 -69t-126 -110t-102 -147t-68 -180t-24.5 -209q0 -95 24 -169t71 -125.5t115 -78.5t157 -27q60 0 115.5 10.5t105 28t93 40.5t79.5 48zM940 1626h-170l271 301h288z" />
<glyph unicode="&#x107;" horiz-adv-x="1001" d="M106 0zM791 25q-59 -26 -121 -40t-127 -14q-98 0 -178 32t-138 89t-89.5 135t-31.5 170q0 141 47 268t133 222t206 151t266 56q69 0 133 -14t115 -40l-35 -166q-44 25 -101 42.5t-127 17.5q-91 0 -172 -40t-141.5 -109.5t-95.5 -164t-35 -202.5q0 -137 71 -212t205 -75 q70 0 135 20t117 46zM739 1255h-170l271 301h288z" />
<glyph unicode="&#x10c;" horiz-adv-x="1280" d="M141 0zM1067 61q-82 -45 -183 -67.5t-206 -22.5q-123 0 -222.5 42.5t-169 117t-107.5 175t-38 216.5q0 115 27 229.5t78.5 219t125.5 194.5t169 156t208.5 103.5t243.5 37.5q102 0 192.5 -26.5t160.5 -69.5l-43 -188q-29 21 -64.5 40.5t-78.5 34.5t-92.5 24t-106.5 9 q-74 0 -148.5 -24t-142 -69t-126 -110t-102 -147t-68 -180t-24.5 -209q0 -95 24 -169t71 -125.5t115 -78.5t157 -27q60 0 115.5 10.5t105 28t93 40.5t79.5 48zM848 1626l-166 301h182l103 -196l184 196h182l-292 -301h-193z" />
<glyph unicode="&#x10d;" horiz-adv-x="1001" d="M106 0zM791 25q-59 -26 -121 -40t-127 -14q-98 0 -178 32t-138 89t-89.5 135t-31.5 170q0 141 47 268t133 222t206 151t266 56q69 0 133 -14t115 -40l-35 -166q-44 25 -101 42.5t-127 17.5q-91 0 -172 -40t-141.5 -109.5t-95.5 -164t-35 -202.5q0 -137 71 -212t205 -75 q70 0 135 20t117 46zM627 1255l-166 301h182l103 -196l184 196h182l-292 -301h-193z" />
<glyph unicode="&#x10e;" horiz-adv-x="1413" d="M102 0zM102 0l304 1434h319q165 0 286 -36.5t199.5 -105t117 -165t38.5 -216.5q0 -198 -63.5 -365t-185 -288.5t-297 -189.5t-398.5 -68h-320zM457 164q147 0 275 50.5t222.5 145t148.5 231t54 308.5q0 89 -28.5 158t-86 116.5t-145.5 72t-207 24.5h-123l-233 -1106h123z M760 1597l-166 301h182l103 -196l184 196h182l-292 -301h-193z" />
<glyph unicode="&#x10f;" horiz-adv-x="1597" d="M106 0zM844 0q-1 12 -2 29q-1 14 -1.5 33.5t-0.5 43.5q-27 -23 -64.5 -47t-82.5 -43.5t-95 -32t-102 -12.5q-96 0 -169 32.5t-122 90t-74 135.5t-25 168q0 142 48.5 268.5t136.5 222t212 151t275 55.5q66 0 126.5 -13t105.5 -30l96 444h184l-260 -1225q-14 -60 -22 -109 t-13 -85q-5 -42 -8 -76h-143zM979 897q-35 16 -89.5 30.5t-125.5 14.5q-105 0 -190 -46t-146 -121.5t-94 -173t-33 -200.5q0 -60 17 -110t49 -85.5t78.5 -55t105.5 -19.5q51 0 96 13t82.5 32t66 40t46.5 36zM1382 942q81 60 132 121t67 106q-56 2 -90.5 33t-34.5 82 q0 37 15.5 69.5t41 56.5t58 38t67.5 14q54 0 89.5 -34t35.5 -99q0 -57 -26 -119t-71 -122.5t-105 -116.5t-128 -101z" />
<glyph unicode="&#x110;" horiz-adv-x="1413" d="M102 0l119 561h-184l31 150h184l154 723h319q196 0 330 -51.5t209.5 -145.5t94 -226.5t-15.5 -293.5t-107.5 -293.5t-188 -226.5t-270.5 -145.5t-355 -51.5h-320zM457 164q144 0 258.5 37t199.5 108t141 174t83 234q26 131 12.5 234t-68.5 174t-152.5 108t-240.5 37h-127 l-119 -559h275l-31 -150h-274l-84 -397h127z" />
<glyph unicode="&#x111;" horiz-adv-x="1253" d="M842 0q-2 17 -3 35q-1 16 -1.5 36t0.5 42q-29 -23 -69 -48t-87.5 -46t-102.5 -34.5t-114 -13.5q-105 0 -180.5 42t-120 116.5t-55.5 177.5t14 225t78.5 225t129.5 178t170 117t201 42q55 0 99.5 -11t80 -28t63 -38t48.5 -42l45 219h-305l31 143h305l35 158h180l-35 -158 h166l-31 -143h-165l-195 -924q-14 -60 -22 -109t-13 -85q-5 -42 -8 -76h-139zM954 797q-10 15 -29.5 38.5t-50 45.5t-72.5 37.5t-97 15.5q-72 0 -135 -28t-113.5 -80.5t-86.5 -127t-55 -166.5q-18 -92 -12.5 -166t34 -126.5t78.5 -80.5t120 -28q54 0 102.5 15t88 36.5 t69 44.5t47.5 39z" />
<glyph unicode="&#x112;" horiz-adv-x="1106" d="M102 0zM102 0l304 1434h757l-35 -164h-561l-88 -420h500l-35 -164h-500l-110 -522h561l-35 -164h-758zM569 1679l31 146h540l-30 -146h-541z" />
<glyph unicode="&#x113;" horiz-adv-x="1161" d="M106 0zM905 68q-72 -42 -166 -69.5t-209 -27.5q-103 0 -182 33.5t-133 93t-81.5 142t-27.5 180.5q0 99 23.5 187.5t65 163.5t98.5 135t124 101.5t141 64t151 22.5q86 0 155 -25.5t118 -72.5t75 -112.5t26 -146.5q0 -45 -6.5 -87.5t-14.5 -75.5q-9 -39 -20 -74h-735 q-2 -13 -4 -27q-2 -12 -3 -27t-1 -30q0 -65 15.5 -117.5t49 -90.5t86.5 -58.5t128 -20.5q48 0 98 11t98 28.5t91.5 39t78.5 42.5zM883 651q2 11 4 24q2 11 3 26t1 32q0 102 -54 153.5t-145 51.5q-56 0 -108 -20t-97 -57.5t-82 -90.5t-63 -119h541zM485 1316l31 146h540 l-30 -146h-541z" />
<glyph unicode="&#x116;" horiz-adv-x="1106" d="M102 0zM102 0l304 1434h757l-35 -164h-561l-88 -420h500l-35 -164h-500l-110 -522h561l-35 -164h-758zM829 1597q-54 0 -87.5 32t-33.5 83q0 34 14.5 66.5t39.5 57t58.5 39.5t70.5 15q54 0 86 -30.5t32 -80.5q0 -38 -15 -71t-40.5 -57.5t-58 -39t-66.5 -14.5z" />
<glyph unicode="&#x117;" horiz-adv-x="1161" d="M106 0zM905 68q-72 -42 -166 -69.5t-209 -27.5q-103 0 -182 33.5t-133 93t-81.5 142t-27.5 180.5q0 99 23.5 187.5t65 163.5t98.5 135t124 101.5t141 64t151 22.5q86 0 155 -25.5t118 -72.5t75 -112.5t26 -146.5q0 -45 -6.5 -87.5t-14.5 -75.5q-9 -39 -20 -74h-735 q-2 -13 -4 -27q-2 -12 -3 -27t-1 -30q0 -65 15.5 -117.5t49 -90.5t86.5 -58.5t128 -20.5q48 0 98 11t98 28.5t91.5 39t78.5 42.5zM883 651q2 11 4 24q2 11 3 26t1 32q0 102 -54 153.5t-145 51.5q-56 0 -108 -20t-97 -57.5t-82 -90.5t-63 -119h541zM754 1235q-54 0 -87.5 32 t-33.5 83q0 34 14.5 66.5t39.5 57t58.5 39.5t70.5 15q54 0 86 -30.5t32 -80.5q0 -38 -15 -71t-40.5 -57.5t-58 -39t-66.5 -14.5z" />
<glyph unicode="&#x118;" horiz-adv-x="1106" d="M102 0zM102 0l304 1434h757l-35 -164h-561l-88 -420h500l-35 -164h-500l-110 -522h561l-35 -164h-758zM856 -487q-21 -12 -48 -22q-23 -8 -57 -14.5t-79 -6.5q-47 0 -84.5 12.5t-61.5 39t-33 67.5t2 98q7 34 20.5 65.5t30.5 60t36 53.5t38 46q44 48 95 88h145 q-46 -41 -85 -85q-33 -38 -63.5 -84t-39.5 -91q-6 -35 1 -58.5t22 -37.5t34 -19.5t37 -5.5q23 0 44 4.5t38 10.5q19 7 37 16z" />
<glyph unicode="&#x119;" horiz-adv-x="1161" d="M106 0zM905 68q-72 -42 -166 -69.5t-209 -27.5q-103 0 -182 33.5t-133 93t-81.5 142t-27.5 180.5q0 99 23.5 187.5t65 163.5t98.5 135t124 101.5t141 64t151 22.5q86 0 155 -25.5t118 -72.5t75 -112.5t26 -146.5q0 -45 -6.5 -87.5t-14.5 -75.5q-9 -39 -20 -74h-735 q-2 -13 -4 -27q-2 -12 -3 -27t-1 -30q0 -65 15.5 -117.5t49 -90.5t86.5 -58.5t128 -20.5q48 0 98 11t98 28.5t91.5 39t78.5 42.5zM883 651q2 11 4 24q2 11 3 26t1 32q0 102 -54 153.5t-145 51.5q-56 0 -108 -20t-97 -57.5t-82 -90.5t-63 -119h541zM737 -487q-21 -12 -48 -22 q-23 -8 -57 -14.5t-79 -6.5q-47 0 -84.5 12.5t-61.5 39t-33 67.5t2 98q7 34 20.5 65.5t30.5 60t36 53.5t38 46q44 48 95 88h145q-46 -41 -85 -85q-33 -38 -63.5 -84t-39.5 -91q-6 -35 1 -58.5t22 -37.5t34 -19.5t37 -5.5q23 0 44 4.5t38 10.5q19 7 37 16z" />
<glyph unicode="&#x11a;" horiz-adv-x="1106" d="M102 0zM102 0l304 1434h757l-35 -164h-561l-88 -420h500l-35 -164h-500l-110 -522h561l-35 -164h-758zM725 1597l-166 301h182l103 -196l184 196h182l-292 -301h-193z" />
<glyph unicode="&#x11b;" horiz-adv-x="1161" d="M106 0zM905 68q-72 -42 -166 -69.5t-209 -27.5q-103 0 -182 33.5t-133 93t-81.5 142t-27.5 180.5q0 99 23.5 187.5t65 163.5t98.5 135t124 101.5t141 64t151 22.5q86 0 155 -25.5t118 -72.5t75 -112.5t26 -146.5q0 -45 -6.5 -87.5t-14.5 -75.5q-9 -39 -20 -74h-735 q-2 -13 -4 -27q-2 -12 -3 -27t-1 -30q0 -65 15.5 -117.5t49 -90.5t86.5 -58.5t128 -20.5q48 0 98 11t98 28.5t91.5 39t78.5 42.5zM883 651q2 11 4 24q2 11 3 26t1 32q0 102 -54 153.5t-145 51.5q-56 0 -108 -20t-97 -57.5t-82 -90.5t-63 -119h541zM639 1255l-166 301h182 l103 -196l184 196h182l-292 -301h-193z" />
<glyph unicode="&#x11e;" horiz-adv-x="1413" d="M141 0zM1059 518h-248l35 164h444l-131 -619q-93 -43 -198.5 -67.5t-217.5 -24.5q-142 0 -253.5 39.5t-189 113t-118.5 178t-41 233.5q0 115 27.5 228.5t80 216.5t128.5 191t172.5 153t213 101.5t249.5 36.5q114 0 214 -24.5t179 -67.5l-41 -186q-32 18 -72 36.5t-89 33 t-105 23.5t-119 9q-83 0 -162.5 -24.5t-149.5 -70.5t-128.5 -110.5t-101 -144.5t-66 -174t-23.5 -197q0 -207 102.5 -314.5t311.5 -107.5q59 0 115 11.5t110 29.5zM1353 1972q-18 -68 -49.5 -127.5t-77 -103.5t-106 -69t-137.5 -25q-67 0 -112.5 19t-73.5 52.5t-40 79.5 t-12 101q0 37 6 73h142q-1 -6 -2 -11t-1 -9.5v-9.5q0 -39 5 -69.5t18 -51.5t36.5 -32t61.5 -11q42 0 72 13t53 38t41 61t35 82h141z" />
<glyph unicode="&#x11f;" horiz-adv-x="1253" d="M8 0zM805 111q-29 -21 -63 -40.5t-73 -35t-82.5 -24.5t-90.5 -9q-96 0 -169 32.5t-122 89.5t-74 135t-25 169q0 138 47.5 259.5t134.5 212t210 142.5t274 52q64 0 125 -10t113.5 -25.5t95 -33.5t70.5 -34l-209 -991q-53 -251 -209 -381.5t-408 -130.5q-66 0 -120.5 11.5 t-97.5 28t-74 36t-50 35.5l37 174q16 -14 46 -35t73 -41t97.5 -34.5t119.5 -14.5q80 0 146.5 25.5t117.5 72t86 111.5t51 143zM973 897q-35 16 -89.5 30.5t-125.5 14.5q-105 0 -189.5 -42.5t-144 -113.5t-91.5 -163t-32 -191q0 -61 17 -110.5t49 -85t78.5 -55t105.5 -19.5 q51 0 96 13t82.5 32t66 40t46.5 36zM1159 1597q-18 -68 -49.5 -127.5t-77 -103.5t-106 -69t-137.5 -25q-67 0 -112.5 19t-73.5 52.5t-40 79.5t-12 101q0 37 6 73h142q-1 -6 -2 -11t-1 -9.5v-9.5q0 -39 5 -69.5t18 -51.5t36.5 -32t61.5 -11q42 0 72 13t53 38t41 61t35 82h141 z" />
<glyph unicode="&#x122;" horiz-adv-x="1413" d="M141 0zM1059 518h-248l35 164h444l-131 -619q-93 -43 -198.5 -67.5t-217.5 -24.5q-142 0 -253.5 39.5t-189 113t-118.5 178t-41 233.5q0 115 27.5 228.5t80 216.5t128.5 191t172.5 153t213 101.5t249.5 36.5q114 0 214 -24.5t179 -67.5l-41 -186q-32 18 -72 36.5t-89 33 t-105 23.5t-119 9q-83 0 -162.5 -24.5t-149.5 -70.5t-128.5 -110.5t-101 -144.5t-66 -174t-23.5 -197q0 -207 102.5 -314.5t311.5 -107.5q59 0 115 11.5t110 29.5zM434 -710q78 60 128.5 121t66.5 106q-31 1 -56 12.5t-41 31t-22.5 46t0.5 58.5q6 31 23 58t41 46t53 30 t61 11t58 -12t42.5 -35.5t21.5 -58.5t-5 -80q-11 -53 -40 -108t-71.5 -107.5t-97 -101t-115.5 -89.5z" />
<glyph unicode="&#x123;" horiz-adv-x="1253" d="M8 0zM805 111q-29 -21 -63 -40.5t-73 -35t-82.5 -24.5t-90.5 -9q-96 0 -169 32.5t-122 89.5t-74 135t-25 169q0 138 47.5 259.5t134.5 212t210 142.5t274 52q64 0 125 -10t113.5 -25.5t95 -33.5t70.5 -34l-209 -991q-53 -251 -209 -381.5t-408 -130.5q-66 0 -120.5 11.5 t-97.5 28t-74 36t-50 35.5l37 174q16 -14 46 -35t73 -41t97.5 -34.5t119.5 -14.5q80 0 146.5 25.5t117.5 72t86 111.5t51 143zM973 897q-35 16 -89.5 30.5t-125.5 14.5q-105 0 -189.5 -42.5t-144 -113.5t-91.5 -163t-32 -191q0 -61 17 -110.5t49 -85t78.5 -55t105.5 -19.5 q51 0 96 13t82.5 32t66 40t46.5 36zM1071 1801q-79 -60 -131.5 -121.5t-67.5 -106.5q56 -2 90.5 -33.5t34.5 -82.5q0 -34 -15 -66t-40 -56.5t-58 -39.5t-69 -15q-54 0 -89.5 33.5t-35.5 100.5q0 57 26 118.5t71 122t104.5 116.5t127.5 101z" />
<glyph unicode="&#x12a;" horiz-adv-x="606" d="M102 0zM102 0l304 1434h196l-303 -1434h-197zM265 1679l31 146h540l-30 -146h-541z" />
<glyph unicode="&#x12b;" horiz-adv-x="547" d="M82 0zM82 0l225 1065h180l-225 -1065h-180zM163 1316l31 146h540l-30 -146h-541z" />
<glyph unicode="&#x12e;" horiz-adv-x="606" d="M0 0zM102 0l304 1434h196l-303 -1434h-197zM292 -487q-21 -12 -48 -22q-23 -8 -57 -14.5t-79 -6.5q-47 0 -84.5 12.5t-61.5 39t-33 67.5t2 98q7 34 20.5 65.5t30.5 60t36 53.5t38 46q44 48 95 88h145q-46 -41 -85 -85q-33 -38 -63.5 -84t-39.5 -91q-6 -35 1 -58.5 t22 -37.5t34 -19.5t37 -5.5q23 0 44 4.5t38 10.5q19 7 37 16z" />
<glyph unicode="&#x12f;" horiz-adv-x="549" d="M0 0zM571 1374q0 -28 -11.5 -52t-30.5 -42t-44 -28.5t-51 -10.5q-42 0 -66 25t-24 63q0 28 11.5 52t31 42t44 28.5t50.5 10.5q42 0 66 -25t24 -63zM80 0l225 1065h184l-225 -1065h-184zM259 -487q-21 -12 -48 -22q-23 -8 -57 -14.5t-79 -6.5q-47 0 -84.5 12.5t-61.5 39 t-33 67.5t2 98q7 34 20.5 65.5t30.5 60t36 53.5t38 46q44 48 95 88h145q-46 -41 -85 -85q-33 -38 -63.5 -84t-39.5 -91q-6 -35 1 -58.5t22 -37.5t34 -19.5t37 -5.5q23 0 44 4.5t38 10.5q19 7 37 16z" />
<glyph unicode="&#x130;" horiz-adv-x="606" d="M102 0zM102 0l304 1434h196l-303 -1434h-197zM541 1618q-54 0 -87.5 32t-33.5 83q0 34 14.5 66.5t39.5 57t58.5 39.5t70.5 15q54 0 86 -30.5t32 -80.5q0 -38 -15 -71t-40.5 -57.5t-58 -39t-66.5 -14.5z" />
<glyph unicode="&#x131;" horiz-adv-x="545" d="M80 0l225 1065h180l-225 -1065h-180z" />
<glyph unicode="&#x136;" horiz-adv-x="1243" d="M102 0zM920 0l-293 662l-230 -191l-98 -471h-197l304 1434h196l-156 -736l721 736h246l-657 -654l383 -780h-219zM305 -643q78 60 128.5 121t66.5 106q-31 1 -56 12.5t-41 31t-22.5 46t0.5 58.5q6 31 23 58t41 46t53 30t61 11t58 -12t42.5 -35.5t21.5 -58.5t-5 -80 q-11 -53 -40 -108t-71.5 -107.5t-97 -101t-115.5 -89.5z" />
<glyph unicode="&#x137;" horiz-adv-x="1059" d="M82 0zM739 0l-194 498l-211 -176l-68 -322h-184l317 1495h185l-209 -975l516 545h242l-461 -449l274 -616h-207zM209 -643q78 60 128.5 121t66.5 106q-31 1 -56 12.5t-41 31t-22.5 46t0.5 58.5q6 31 23 58t41 46t53 30t61 11t58 -12t42.5 -35.5t21.5 -58.5t-5 -80 q-11 -53 -40 -108t-71.5 -107.5t-97 -101t-115.5 -89.5z" />
<glyph unicode="&#x139;" horiz-adv-x="971" d="M102 0zM102 0l304 1434h196l-268 -1270h561l-35 -164h-758zM678 1597h-170l271 301h288z" />
<glyph unicode="&#x13a;" horiz-adv-x="623" d="M139 0zM481 -12q-17 -5 -36 -9q-17 -3 -39 -5.5t-48 -2.5q-134 0 -192.5 79t-26.5 231l260 1214h185l-262 -1227q-9 -38 -9.5 -65.5t9.5 -45t32.5 -26t61.5 -8.5q20 0 38 2.5t32 6.5q16 4 28 9zM561 1658h-170l271 301h288z" />
<glyph unicode="&#x13b;" horiz-adv-x="971" d="M102 0zM102 0l304 1434h196l-268 -1270h561l-35 -164h-758zM202 -724q78 60 128.5 121t66.5 106q-31 1 -56 12.5t-41 31t-22.5 46t0.5 58.5q6 31 23 58t41 46t53 30t61 11t58 -12t42.5 -35.5t21.5 -58.5t-5 -80q-11 -53 -40 -108t-71.5 -107.5t-97 -101t-115.5 -89.5z " />
<glyph unicode="&#x13c;" horiz-adv-x="623" d="M0 0zM481 -12q-17 -5 -36 -9q-17 -3 -39 -5.5t-48 -2.5q-134 0 -192.5 79t-26.5 231l260 1214h185l-262 -1227q-9 -38 -9.5 -65.5t9.5 -45t32.5 -26t61.5 -8.5q20 0 38 2.5t32 6.5q16 4 28 9zM-11 -712q78 60 128.5 121t66.5 106q-31 1 -56 12.5t-41 31t-22.5 46 t0.5 58.5q6 31 23 58t41 46t53 30t61 11t58 -12t42.5 -35.5t21.5 -58.5t-5 -80q-11 -53 -40 -108t-71.5 -107.5t-97 -101t-115.5 -89.5z" />
<glyph unicode="&#x13d;" horiz-adv-x="971" d="M102 0zM102 0l304 1434h196l-268 -1270h561l-35 -164h-758zM700 942q81 60 132 121t67 106q-56 2 -90.5 33t-34.5 82q0 37 15.5 69.5t41 56.5t58 38t67.5 14q54 0 89.5 -34t35.5 -99q0 -57 -26 -119t-71 -122.5t-105 -116.5t-128 -101z" />
<glyph unicode="&#x13e;" horiz-adv-x="889" d="M139 0zM481 -12q-17 -5 -36 -9q-17 -3 -39 -5.5t-48 -2.5q-134 0 -192.5 79t-26.5 231l260 1214h185l-262 -1227q-9 -38 -9.5 -65.5t9.5 -45t32.5 -26t61.5 -8.5q20 0 38 2.5t32 6.5q16 4 28 9zM667 942q81 60 132 121t67 106q-56 2 -90.5 33t-34.5 82q0 37 15.5 69.5 t41 56.5t58 38t67.5 14q54 0 89.5 -34t35.5 -99q0 -57 -26 -119t-71 -122.5t-105 -116.5t-128 -101z" />
<glyph unicode="&#x141;" horiz-adv-x="971" d="M102 0l117 551l-205 -92l37 170l203 92l152 713h196l-131 -617l299 135l-35 -170l-299 -135l-102 -483h561l-35 -164h-758z" />
<glyph unicode="&#x142;" horiz-adv-x="633" d="M481 -12q-17 -5 -36 -9q-17 -3 -39 -5.5t-48 -2.5q-134 0 -192.5 79t-26.5 231l58 268l-203 -90l37 170l202 90l166 776h185l-146 -684l264 121l-34 -170l-267 -121l-79 -373q-9 -38 -9.5 -65.5t9.5 -45t32.5 -26t61.5 -8.5q20 0 38 2.5t32 6.5q16 4 28 9z" />
<glyph unicode="&#x143;" horiz-adv-x="1569" d="M102 0zM1196 -16l-678 1054l-219 -1038h-197l308 1450h61l678 -1057l219 1041h197l-308 -1450h-61zM1050 1572h-170l271 301h288z" />
<glyph unicode="&#x144;" horiz-adv-x="1204" d="M82 0zM743 0l144 684q26 127 -16 188.5t-144 61.5q-48 0 -93 -16.5t-84 -40t-69 -47.5t-47 -39l-168 -791h-184l168 795q12 59 20.5 108.5t13.5 85.5q6 42 9 76h164q1 -16 1 -36q0 -17 -1 -41.5t-4 -53.5q26 23 62.5 51t81.5 52t96 40.5t106 16.5q104 0 166 -36t91 -93.5 t31.5 -129t-12.5 -141.5l-147 -694h-185zM784 1255h-170l271 301h288z" />
<glyph unicode="&#x145;" horiz-adv-x="1569" d="M102 0zM1196 -16l-678 1054l-219 -1038h-197l308 1450h61l678 -1057l219 1041h197l-308 -1450h-61zM426 -683q78 60 128.5 121t66.5 106q-31 1 -56 12.5t-41 31t-22.5 46t0.5 58.5q6 31 23 58t41 46t53 30t61 11t58 -12t42.5 -35.5t21.5 -58.5t-5 -80q-11 -53 -40 -108 t-71.5 -107.5t-97 -101t-115.5 -89.5z" />
<glyph unicode="&#x146;" horiz-adv-x="1204" d="M82 0zM743 0l144 684q26 127 -16 188.5t-144 61.5q-48 0 -93 -16.5t-84 -40t-69 -47.5t-47 -39l-168 -791h-184l168 795q12 59 20.5 108.5t13.5 85.5q6 42 9 76h164q1 -16 1 -36q0 -17 -1 -41.5t-4 -53.5q26 23 62.5 51t81.5 52t96 40.5t106 16.5q104 0 166 -36t91 -93.5 t31.5 -129t-12.5 -141.5l-147 -694h-185zM243 -683q78 60 128.5 121t66.5 106q-31 1 -56 12.5t-41 31t-22.5 46t0.5 58.5q6 31 23 58t41 46t53 30t61 11t58 -12t42.5 -35.5t21.5 -58.5t-5 -80q-11 -53 -40 -108t-71.5 -107.5t-97 -101t-115.5 -89.5z" />
<glyph unicode="&#x147;" horiz-adv-x="1569" d="M102 0zM1196 -16l-678 1054l-219 -1038h-197l308 1450h61l678 -1057l219 1041h197l-308 -1450h-61zM924 1597l-166 301h182l103 -196l184 196h182l-292 -301h-193z" />
<glyph unicode="&#x148;" horiz-adv-x="1204" d="M82 0zM743 0l144 684q26 127 -16 188.5t-144 61.5q-48 0 -93 -16.5t-84 -40t-69 -47.5t-47 -39l-168 -791h-184l168 795q12 59 20.5 108.5t13.5 85.5q6 42 9 76h164q1 -16 1 -36q0 -17 -1 -41.5t-4 -53.5q26 23 62.5 51t81.5 52t96 40.5t106 16.5q104 0 166 -36t91 -93.5 t31.5 -129t-12.5 -141.5l-147 -694h-185zM672 1255l-166 301h182l103 -196l184 196h182l-292 -301h-193z" />
<glyph unicode="&#x14c;" horiz-adv-x="1604" d="M147 0zM756 143q88 0 166 28.5t142.5 78.5t115.5 118.5t86.5 148t54 166.5t18.5 175t-22.5 166.5t-70.5 137.5t-123.5 93.5t-182.5 34.5q-88 0 -166 -28.5t-143 -78.5t-116.5 -118t-87 -147.5t-54.5 -167t-19 -175.5q0 -87 22.5 -165.5t71 -138t124.5 -94t184 -34.5z M731 -29q-134 0 -241.5 45t-184 125.5t-117.5 192t-41 244.5q0 113 26 222.5t75.5 207.5t121 181.5t162 144t199.5 94.5t234 34q133 0 241 -45t184 -125.5t117 -192.5t41 -245q0 -113 -26 -222t-75 -207t-120.5 -181.5t-162.5 -144t-200 -94.5t-233 -34zM766 1687l31 146 h540l-30 -146h-541z" />
<glyph unicode="&#x14d;" horiz-adv-x="1223" d="M106 0zM528 -29q-100 0 -178.5 33t-132.5 92t-82.5 140t-28.5 178q0 88 20 173t57.5 160.5t91 139t120 109.5t145.5 72t167 26q100 0 178 -33t132 -92t82.5 -140t28.5 -178q0 -133 -44 -255.5t-123.5 -217t-190 -151t-242.5 -56.5zM541 129q85 0 157.5 42t125 114 t82.5 167.5t30 202.5q0 65 -17.5 117t-49.5 88.5t-76.5 56t-98.5 19.5q-85 0 -157.5 -42t-125 -114t-82.5 -167.5t-30 -202.5q0 -65 17.5 -117t49.5 -88.5t76.5 -56t98.5 -19.5zM496 1316l31 146h540l-30 -146h-541z" />
<glyph unicode="&#x150;" horiz-adv-x="1604" d="M147 0zM756 143q88 0 166 28.5t142.5 78.5t115.5 118.5t86.5 148t54 166.5t18.5 175t-22.5 166.5t-70.5 137.5t-123.5 93.5t-182.5 34.5q-88 0 -166 -28.5t-143 -78.5t-116.5 -118t-87 -147.5t-54.5 -167t-19 -175.5q0 -87 22.5 -165.5t71 -138t124.5 -94t184 -34.5z M731 -29q-134 0 -241.5 45t-184 125.5t-117.5 192t-41 244.5q0 113 26 222.5t75.5 207.5t121 181.5t162 144t199.5 94.5t234 34q133 0 241 -45t184 -125.5t117 -192.5t41 -245q0 -113 -26 -222t-75 -207t-120.5 -181.5t-162.5 -144t-200 -94.5t-233 -34zM799 1626h-162 l272 301h275zM1175 1626h-161l272 301h274z" />
<glyph unicode="&#x151;" horiz-adv-x="1223" d="M106 0zM528 -29q-100 0 -178.5 33t-132.5 92t-82.5 140t-28.5 178q0 88 20 173t57.5 160.5t91 139t120 109.5t145.5 72t167 26q100 0 178 -33t132 -92t82.5 -140t28.5 -178q0 -133 -44 -255.5t-123.5 -217t-190 -151t-242.5 -56.5zM541 129q85 0 157.5 42t125 114 t82.5 167.5t30 202.5q0 65 -17.5 117t-49.5 88.5t-76.5 56t-98.5 19.5q-85 0 -157.5 -42t-125 -114t-82.5 -167.5t-30 -202.5q0 -65 17.5 -117t49.5 -88.5t76.5 -56t98.5 -19.5zM547 1255h-162l272 301h275zM923 1255h-161l272 301h274z" />
<glyph unicode="&#x152;" horiz-adv-x="1862" d="M944 0q-49 -14 -102.5 -21.5t-110.5 -7.5q-134 0 -241.5 45t-184 125.5t-117.5 192t-41 244.5q0 113 26 222.5t75.5 207.5t121 181.5t162 144t199.5 94.5t234 34q52 0 100.5 -7t93.5 -21h760l-35 -164h-561l-88 -420h500l-35 -164h-500l-110 -522h561l-35 -164h-672z M1120 1255q-75 35 -180 35q-88 0 -166 -28.5t-143 -78.5t-116.5 -118t-87 -147.5t-54.5 -167t-19 -175.5q0 -87 22.5 -165.5t71 -138t124.5 -94t184 -34.5q35 0 69 5t66 14z" />
<glyph unicode="&#x153;" horiz-adv-x="1974" d="M1718 68q-72 -42 -166 -69.5t-209 -27.5q-139 0 -233 57.5t-143 157.5q-81 -99 -191.5 -157t-247.5 -58q-100 0 -178.5 33t-132.5 92t-82.5 140t-28.5 178q0 88 20 173t57.5 160.5t91 139t120 109.5t145.5 72t167 26q134 0 228.5 -58.5t143.5 -158.5q43 51 94.5 91 t108 68t117.5 43t123 15q86 0 155 -25.5t118 -72.5t75 -112.5t26 -146.5q0 -45 -6.5 -87.5t-14.5 -75.5q-9 -39 -20 -74h-735q-2 -13 -4 -27q-2 -12 -3 -27t-1 -30q0 -65 15.5 -117.5t49 -90.5t86.5 -58.5t128 -20.5q48 0 98 11t98 28.5t91.5 39t78.5 42.5zM541 129 q85 0 157.5 42t125 114t82.5 167.5t30 202.5q0 65 -17.5 117t-49.5 88.5t-76.5 56t-98.5 19.5q-85 0 -157.5 -42t-125 -114t-82.5 -167.5t-30 -202.5q0 -65 17.5 -117t49.5 -88.5t76.5 -56t98.5 -19.5zM1696 651q2 11 4 24q2 11 3 26t1 32q0 102 -54 153.5t-145 51.5 q-56 0 -108 -20t-97 -57.5t-82 -90.5t-63 -119h541z" />
<glyph unicode="&#x154;" horiz-adv-x="1245" d="M102 0zM913 0l-254 575h-239l-121 -575h-197l304 1434h360q103 0 182 -23.5t133 -67.5t81.5 -106t27.5 -139q0 -86 -26.5 -162.5t-74 -139.5t-112.5 -110t-141 -74l294 -612h-217zM618 737q72 0 138.5 21t116.5 63t80 105t30 147q0 99 -64 148t-188 49h-164l-112 -533 h163zM848 1597h-170l271 301h288z" />
<glyph unicode="&#x155;" horiz-adv-x="760" d="M82 0zM82 0l168 795q12 59 20.5 108.5t13.5 85.5q6 42 9 76h162q1 -18 2 -39q1 -19 0.5 -44t-2.5 -56h4q39 47 77.5 79t76.5 52t75 28.5t72 8.5q25 0 44 -4t32 -9q15 -5 26 -12l-39 -184q-17 8 -38 14q-18 5 -43 9.5t-56 4.5q-55 0 -101 -20t-80 -44q-40 -28 -73 -63 l-166 -786h-184zM651 1255h-170l271 301h288z" />
<glyph unicode="&#x156;" horiz-adv-x="1245" d="M102 0zM913 0l-254 575h-239l-121 -575h-197l304 1434h360q103 0 182 -23.5t133 -67.5t81.5 -106t27.5 -139q0 -86 -26.5 -162.5t-74 -139.5t-112.5 -110t-141 -74l294 -612h-217zM618 737q72 0 138.5 21t116.5 63t80 105t30 147q0 99 -64 148t-188 49h-164l-112 -533 h163zM280 -683q78 60 128.5 121t66.5 106q-31 1 -56 12.5t-41 31t-22.5 46t0.5 58.5q6 31 23 58t41 46t53 30t61 11t58 -12t42.5 -35.5t21.5 -58.5t-5 -80q-11 -53 -40 -108t-71.5 -107.5t-97 -101t-115.5 -89.5z" />
<glyph unicode="&#x157;" horiz-adv-x="760" d="M30 0zM82 0l168 795q12 59 20.5 108.5t13.5 85.5q6 42 9 76h162q1 -18 2 -39q1 -19 0.5 -44t-2.5 -56h4q39 47 77.5 79t76.5 52t75 28.5t72 8.5q25 0 44 -4t32 -9q15 -5 26 -12l-39 -184q-17 8 -38 14q-18 5 -43 9.5t-56 4.5q-55 0 -101 -20t-80 -44q-40 -28 -73 -63 l-166 -786h-184zM30 -683q78 60 128.5 121t66.5 106q-31 1 -56 12.5t-41 31t-22.5 46t0.5 58.5q6 31 23 58t41 46t53 30t61 11t58 -12t42.5 -35.5t21.5 -58.5t-5 -80q-11 -53 -40 -108t-71.5 -107.5t-97 -101t-115.5 -89.5z" />
<glyph unicode="&#x158;" horiz-adv-x="1245" d="M102 0zM913 0l-254 575h-239l-121 -575h-197l304 1434h360q103 0 182 -23.5t133 -67.5t81.5 -106t27.5 -139q0 -86 -26.5 -162.5t-74 -139.5t-112.5 -110t-141 -74l294 -612h-217zM618 737q72 0 138.5 21t116.5 63t80 105t30 147q0 99 -64 148t-188 49h-164l-112 -533 h163zM694 1597l-166 301h182l103 -196l184 196h182l-292 -301h-193z" />
<glyph unicode="&#x159;" horiz-adv-x="760" d="M82 0zM82 0l168 795q12 59 20.5 108.5t13.5 85.5q6 42 9 76h162q1 -18 2 -39q1 -19 0.5 -44t-2.5 -56h4q39 47 77.5 79t76.5 52t75 28.5t72 8.5q25 0 44 -4t32 -9q15 -5 26 -12l-39 -184q-17 8 -38 14q-18 5 -43 9.5t-56 4.5q-55 0 -101 -20t-80 -44q-40 -28 -73 -63 l-166 -786h-184zM478 1255l-166 301h182l103 -196l184 196h182l-292 -301h-193z" />
<glyph unicode="&#x15a;" d="M23 0zM63 248q23 -17 57 -35.5t76 -34t90.5 -25.5t102.5 -10q61 0 115 16.5t94.5 48.5t64 79t23.5 108q0 68 -31.5 119.5t-79 96.5t-102.5 88t-102.5 93t-79 112.5t-31.5 146.5q0 96 34.5 172t96 129.5t146.5 81.5t186 28q58 0 108.5 -8t92.5 -20t74 -26t53 -26l-39 -190 q-20 15 -51 32.5t-70 33t-86 26t-100 10.5q-51 0 -95 -15t-76 -42.5t-50.5 -67.5t-18.5 -90q0 -49 18.5 -89.5t48.5 -76t68 -68.5t78 -67.5t78 -72t68 -82.5t48.5 -99t18.5 -121q0 -101 -39.5 -181.5t-109 -136t-163.5 -85t-202 -29.5q-65 0 -123.5 11.5t-105 27t-79 32 t-46.5 26.5zM751 1626h-170l271 301h288z" />
<glyph unicode="&#x15b;" horiz-adv-x="885" d="M33 0zM70 229q17 -17 45.5 -34.5t63.5 -32t75.5 -24t81.5 -9.5q47 0 86 11t67.5 32t44 51t15.5 68q0 48 -26.5 84.5t-66.5 67.5t-86.5 62t-86.5 69t-66.5 87t-26.5 117q0 71 29.5 129t80.5 99.5t120.5 64.5t150.5 23q47 0 88.5 -7.5t75.5 -19t59 -24.5t40 -25l-37 -170 q-18 16 -44 32t-56 28.5t-63 20t-67 7.5q-44 0 -78.5 -12t-58 -32t-35.5 -47t-12 -57q0 -43 26 -77t65.5 -65.5t85.5 -63.5t85.5 -71.5t65.5 -89.5t26 -116q0 -75 -30.5 -137t-84 -105.5t-125.5 -67.5t-155 -24q-51 0 -99.5 9t-89.5 22.5t-72 30t-48 30.5zM622 1255h-170 l271 301h288z" />
<glyph unicode="&#x15e;" d="M23 0zM63 248q23 -17 57 -35.5t76 -34t90.5 -25.5t102.5 -10q61 0 115 16.5t94.5 48.5t64 79t23.5 108q0 68 -31.5 119.5t-79 96.5t-102.5 88t-102.5 93t-79 112.5t-31.5 146.5q0 96 34.5 172t96 129.5t146.5 81.5t186 28q58 0 108.5 -8t92.5 -20t74 -26t53 -26l-39 -190 q-20 15 -51 32.5t-70 33t-86 26t-100 10.5q-51 0 -95 -15t-76 -42.5t-50.5 -67.5t-18.5 -90q0 -49 18.5 -89.5t48.5 -76t68 -68.5t78 -67.5t78 -72t68 -82.5t48.5 -99t18.5 -121q0 -101 -39.5 -181.5t-109 -136t-163.5 -85t-202 -29.5q-65 0 -123.5 11.5t-105 27t-79 32 t-46.5 26.5zM131 -367q17 -10 37 -17q17 -7 40.5 -12t49.5 -5q51 0 84 22.5t43 61.5q9 47 -32 76.5t-143 29.5l164 211h140l-113 -133q37 -8 66.5 -23.5t48.5 -38.5t26.5 -53.5t-0.5 -68.5q-11 -50 -41 -87.5t-72 -62.5t-91.5 -38t-98.5 -13q-29 0 -53.5 3.5t-42.5 8.5 q-21 5 -39 12z" />
<glyph unicode="&#x15f;" horiz-adv-x="885" d="M33 0zM70 229q17 -17 45.5 -34.5t63.5 -32t75.5 -24t81.5 -9.5q47 0 86 11t67.5 32t44 51t15.5 68q0 48 -26.5 84.5t-66.5 67.5t-86.5 62t-86.5 69t-66.5 87t-26.5 117q0 71 29.5 129t80.5 99.5t120.5 64.5t150.5 23q47 0 88.5 -7.5t75.5 -19t59 -24.5t40 -25l-37 -170 q-18 16 -44 32t-56 28.5t-63 20t-67 7.5q-44 0 -78.5 -12t-58 -32t-35.5 -47t-12 -57q0 -43 26 -77t65.5 -65.5t85.5 -63.5t85.5 -71.5t65.5 -89.5t26 -116q0 -75 -30.5 -137t-84 -105.5t-125.5 -67.5t-155 -24q-51 0 -99.5 9t-89.5 22.5t-72 30t-48 30.5zM99 -367 q17 -10 37 -17q17 -7 40.5 -12t49.5 -5q51 0 84 22.5t43 61.5q9 47 -32 76.5t-143 29.5l164 211h140l-113 -133q37 -8 66.5 -23.5t48.5 -38.5t26.5 -53.5t-0.5 -68.5q-11 -50 -41 -87.5t-72 -62.5t-91.5 -38t-98.5 -13q-29 0 -53.5 3.5t-42.5 8.5q-21 5 -39 12z" />
<glyph unicode="&#x160;" d="M23 0zM63 248q23 -17 57 -35.5t76 -34t90.5 -25.5t102.5 -10q61 0 115 16.5t94.5 48.5t64 79t23.5 108q0 68 -31.5 119.5t-79 96.5t-102.5 88t-102.5 93t-79 112.5t-31.5 146.5q0 96 34.5 172t96 129.5t146.5 81.5t186 28q58 0 108.5 -8t92.5 -20t74 -26t53 -26l-39 -190 q-20 15 -51 32.5t-70 33t-86 26t-100 10.5q-51 0 -95 -15t-76 -42.5t-50.5 -67.5t-18.5 -90q0 -49 18.5 -89.5t48.5 -76t68 -68.5t78 -67.5t78 -72t68 -82.5t48.5 -99t18.5 -121q0 -101 -39.5 -181.5t-109 -136t-163.5 -85t-202 -29.5q-65 0 -123.5 11.5t-105 27t-79 32 t-46.5 26.5zM639 1626l-166 301h182l103 -196l184 196h182l-292 -301h-193z" />
<glyph unicode="&#x161;" horiz-adv-x="885" d="M33 0zM70 229q17 -17 45.5 -34.5t63.5 -32t75.5 -24t81.5 -9.5q47 0 86 11t67.5 32t44 51t15.5 68q0 48 -26.5 84.5t-66.5 67.5t-86.5 62t-86.5 69t-66.5 87t-26.5 117q0 71 29.5 129t80.5 99.5t120.5 64.5t150.5 23q47 0 88.5 -7.5t75.5 -19t59 -24.5t40 -25l-37 -170 q-18 16 -44 32t-56 28.5t-63 20t-67 7.5q-44 0 -78.5 -12t-58 -32t-35.5 -47t-12 -57q0 -43 26 -77t65.5 -65.5t85.5 -63.5t85.5 -71.5t65.5 -89.5t26 -116q0 -75 -30.5 -137t-84 -105.5t-125.5 -67.5t-155 -24q-51 0 -99.5 9t-89.5 22.5t-72 30t-48 30.5zM513 1255 l-166 301h182l103 -196l184 196h182l-292 -301h-193z" />
<glyph unicode="&#x162;" horiz-adv-x="1053" d="M113 0zM326 0l268 1270h-420l35 164h1036l-35 -164h-419l-269 -1270h-196zM140 -367q17 -10 37 -17q17 -7 40.5 -12t49.5 -5q51 0 84 22.5t43 61.5q9 47 -32 76.5t-143 29.5l164 211h140l-113 -133q37 -8 66.5 -23.5t48.5 -38.5t26.5 -53.5t-0.5 -68.5q-11 -50 -41 -87.5 t-72 -62.5t-91.5 -38t-98.5 -13q-29 0 -53.5 3.5t-42.5 8.5q-21 5 -39 12z" />
<glyph unicode="&#x163;" horiz-adv-x="713" d="M127 0zM537 -10q-20 -6 -42 -10q-19 -4 -43.5 -6.5t-50.5 -2.5q-67 0 -115.5 22.5t-77 63t-35.5 98t9 126.5l133 632h-174l33 152h174l49 235l195 41l-60 -276h222l-33 -152h-221l-135 -634q-9 -42 -7.5 -71t12 -47t30 -26t46.5 -8q24 0 46 3t39 7q20 4 38 10zM154 -376 q17 -10 37 -17q17 -7 40.5 -12t49.5 -5q51 0 84 22.5t43 61.5q9 47 -32 76.5t-143 29.5l164 211h140l-113 -133q37 -8 66.5 -23.5t48.5 -38.5t26.5 -53.5t-0.5 -68.5q-11 -50 -41 -87.5t-72 -62.5t-91.5 -38t-98.5 -13q-29 0 -53.5 3.5t-42.5 8.5q-21 5 -39 12z" />
<glyph unicode="&#x164;" horiz-adv-x="1053" d="M174 0zM326 0l268 1270h-420l35 164h1036l-35 -164h-419l-269 -1270h-196zM651 1597l-166 301h182l103 -196l184 196h182l-292 -301h-193z" />
<glyph unicode="&#x165;" horiz-adv-x="713" d="M141 0zM537 -10q-20 -6 -42 -10q-19 -4 -43.5 -6.5t-50.5 -2.5q-67 0 -115.5 22.5t-77 63t-35.5 98t9 126.5l133 632h-174l33 152h174l49 235l195 41l-60 -276h222l-33 -152h-221l-135 -634q-9 -42 -7.5 -71t12 -47t30 -26t46.5 -8q24 0 46 3t39 7q20 4 38 10zM731 1313 q81 60 132 121t67 106q-56 2 -90.5 33t-34.5 82q0 37 15.5 69.5t41 56.5t58 38t67.5 14q54 0 89.5 -34t35.5 -99q0 -57 -26 -119t-71 -122.5t-105 -116.5t-128 -101z" />
<glyph unicode="&#x16a;" horiz-adv-x="1454" d="M189 0zM1264 1434h196l-198 -934q-28 -135 -87.5 -235t-143.5 -165t-189 -97t-224 -32q-114 0 -204.5 35t-147.5 102.5t-76.5 166t7.5 225.5l198 934h197l-199 -936q-19 -97 -10 -165t43 -111t91.5 -63t135.5 -20q80 0 147.5 24.5t120.5 71t89.5 113t54.5 150.5z M678 1679l31 146h540l-30 -146h-541z" />
<glyph unicode="&#x16b;" horiz-adv-x="1206" d="M139 0zM770 0q-1 16 -1 36q0 17 1 41.5t4 53.5q-26 -23 -63 -51t-81.5 -52t-96 -40.5t-105.5 -16.5q-104 0 -166 36t-91 93.5t-31.5 129t12.5 141.5l147 694h184l-143 -684q-26 -127 16 -188.5t144 -61.5q48 0 93 16.5t84 39.5t69 47.5t47 39.5l168 791h184l-168 -795 q-13 -60 -21 -109t-13 -85q-6 -42 -9 -76h-164zM483 1316l31 146h540l-30 -146h-541z" />
<glyph unicode="&#x16e;" horiz-adv-x="1454" d="M189 0zM1264 1434h196l-198 -934q-28 -135 -87.5 -235t-143.5 -165t-189 -97t-224 -32q-114 0 -204.5 35t-147.5 102.5t-76.5 166t7.5 225.5l198 934h197l-199 -936q-19 -97 -10 -165t43 -111t91.5 -63t135.5 -20q80 0 147.5 24.5t120.5 71t89.5 113t54.5 150.5z M1065 1828q0 41 -19 63.5t-51 22.5q-24 0 -46 -11t-39 -31.5t-27.5 -49.5t-10.5 -65q0 -41 19 -63.5t51 -22.5q24 0 46 11t39 31.5t27.5 49.5t10.5 65zM1190 1853q0 -65 -22.5 -119t-60 -94t-87 -62t-103.5 -22q-80 0 -125 48t-45 128q0 64 22.5 118.5t60 94.5t87 62 t103.5 22q80 0 125 -48t45 -128z" />
<glyph unicode="&#x16f;" horiz-adv-x="1206" d="M139 0zM770 0q-1 16 -1 36q0 17 1 41.5t4 53.5q-26 -23 -63 -51t-81.5 -52t-96 -40.5t-105.5 -16.5q-104 0 -166 36t-91 93.5t-31.5 129t12.5 141.5l147 694h184l-143 -684q-26 -127 16 -188.5t144 -61.5q48 0 93 16.5t84 39.5t69 47.5t47 39.5l168 791h184l-168 -795 q-13 -60 -21 -109t-13 -85q-6 -42 -9 -76h-164zM877 1466q0 41 -19 63.5t-51 22.5q-24 0 -46 -11t-39 -31.5t-27.5 -49.5t-10.5 -65q0 -41 19 -63.5t51 -22.5q24 0 46 11t39 31.5t27.5 49.5t10.5 65zM1002 1491q0 -65 -22.5 -119t-60 -94t-87 -62t-103.5 -22q-80 0 -125 48 t-45 128q0 64 22.5 118.5t60 94.5t87 62t103.5 22q80 0 125 -48t45 -128z" />
<glyph unicode="&#x170;" horiz-adv-x="1454" d="M189 0zM1264 1434h196l-198 -934q-28 -135 -87.5 -235t-143.5 -165t-189 -97t-224 -32q-114 0 -204.5 35t-147.5 102.5t-76.5 166t7.5 225.5l198 934h197l-199 -936q-19 -97 -10 -165t43 -111t91.5 -63t135.5 -20q80 0 147.5 24.5t120.5 71t89.5 113t54.5 150.5z M715 1597h-162l272 301h275zM1091 1597h-161l272 301h274z" />
<glyph unicode="&#x171;" horiz-adv-x="1206" d="M139 0zM770 0q-1 16 -1 36q0 17 1 41.5t4 53.5q-26 -23 -63 -51t-81.5 -52t-96 -40.5t-105.5 -16.5q-104 0 -166 36t-91 93.5t-31.5 129t12.5 141.5l147 694h184l-143 -684q-26 -127 16 -188.5t144 -61.5q48 0 93 16.5t84 39.5t69 47.5t47 39.5l168 791h184l-168 -795 q-13 -60 -21 -109t-13 -85q-6 -42 -9 -76h-164zM537 1255h-162l272 301h275zM913 1255h-161l272 301h274z" />
<glyph unicode="&#x172;" horiz-adv-x="1454" d="M189 0zM1264 1434h196l-198 -934q-28 -135 -87.5 -235t-143.5 -165t-189 -97t-224 -32q-114 0 -204.5 35t-147.5 102.5t-76.5 166t7.5 225.5l198 934h197l-199 -936q-19 -97 -10 -165t43 -111t91.5 -63t135.5 -20q80 0 147.5 24.5t120.5 71t89.5 113t54.5 150.5z M809 -487q-21 -12 -48 -22q-23 -8 -57 -14.5t-79 -6.5q-47 0 -84.5 12.5t-61.5 39t-33 67.5t2 98q7 34 20.5 65.5t30.5 60t36 53.5t38 46q44 48 95 88h145q-46 -41 -85 -85q-33 -38 -63.5 -84t-39.5 -91q-6 -35 1 -58.5t22 -37.5t34 -19.5t37 -5.5q23 0 44 4.5t38 10.5 q19 7 37 16z" />
<glyph unicode="&#x173;" horiz-adv-x="1206" d="M139 0zM770 0q-1 16 -1 36q0 17 1 41.5t4 53.5q-26 -23 -63 -51t-81.5 -52t-96 -40.5t-105.5 -16.5q-104 0 -166 36t-91 93.5t-31.5 129t12.5 141.5l147 694h184l-143 -684q-26 -127 16 -188.5t144 -61.5q48 0 93 16.5t84 39.5t69 47.5t47 39.5l168 791h184l-168 -795 q-13 -60 -21 -109t-13 -85q-6 -42 -9 -76h-164zM930 -487q-21 -12 -48 -22q-23 -8 -57 -14.5t-79 -6.5q-47 0 -84.5 12.5t-61.5 39t-33 67.5t2 98q7 34 20.5 65.5t30.5 60t36 53.5t38 46q44 48 95 88h145q-46 -41 -85 -85q-33 -38 -63.5 -84t-39.5 -91q-6 -35 1 -58.5 t22 -37.5t34 -19.5t37 -5.5q23 0 44 4.5t38 10.5q19 7 37 16z" />
<glyph unicode="&#x178;" horiz-adv-x="1053" d="M203 0zM326 0l125 588l-248 846h194l185 -656l438 656h231l-604 -846l-125 -588h-196zM680 1730q0 -28 -11.5 -52t-30.5 -42t-44 -28.5t-51 -10.5q-24 0 -42 9t-29 24t-15.5 35t0.5 43q4 24 16.5 44t30.5 34.5t40 23t46 8.5q42 0 66 -25t24 -63zM1072 1730 q0 -28 -11.5 -52t-31 -42t-44.5 -28.5t-51 -10.5q-24 0 -42 9t-29 24t-15.5 35t0.5 43q10 48 47.5 79t85.5 31q42 0 66.5 -25t24.5 -63z" />
<glyph unicode="&#x179;" horiz-adv-x="1102" d="M0 0zM-12 0l12 61l866 1209h-590l35 164h871l-13 -62l-868 -1208h643l-35 -164h-921zM823 1597h-170l271 301h288z" />
<glyph unicode="&#x17a;" horiz-adv-x="901" d="M0 0zM-41 0l12 61l664 852h-463l33 152h727l-12 -61l-666 -852h504l-31 -152h-768zM645 1255h-170l271 301h288z" />
<glyph unicode="&#x17b;" horiz-adv-x="1102" d="M0 0zM-12 0l12 61l866 1209h-590l35 164h871l-13 -62l-868 -1208h643l-35 -164h-921zM786 1597q-54 0 -87.5 32t-33.5 83q0 34 14.5 66.5t39.5 57t58.5 39.5t70.5 15q54 0 86 -30.5t32 -80.5q0 -38 -15 -71t-40.5 -57.5t-58 -39t-66.5 -14.5z" />
<glyph unicode="&#x17c;" horiz-adv-x="901" d="M0 0zM-41 0l12 61l664 852h-463l33 152h727l-12 -61l-666 -852h504l-31 -152h-768zM627 1235q-54 0 -87.5 32t-33.5 83q0 34 14.5 66.5t39.5 57t58.5 39.5t70.5 15q54 0 86 -30.5t32 -80.5q0 -38 -15 -71t-40.5 -57.5t-58 -39t-66.5 -14.5z" />
<glyph unicode="&#x17d;" horiz-adv-x="1102" d="M0 0zM-12 0l12 61l866 1209h-590l35 164h871l-13 -62l-868 -1208h643l-35 -164h-921zM651 1603l-166 301h182l103 -196l184 196h182l-292 -301h-193z" />
<glyph unicode="&#x17e;" horiz-adv-x="901" d="M0 0zM-41 0l12 61l664 852h-463l33 152h727l-12 -61l-666 -852h504l-31 -152h-768zM492 1255l-166 301h182l103 -196l184 196h182l-292 -301h-193z" />
<glyph unicode="&#x192;" horiz-adv-x="905" d="M469 791h-190l51 151h190l96 264q25 67 60.5 120.5t81.5 91t102 57.5t121 20q28 0 52 -3t43 -7q21 -4 40 -10l-57 -156q-14 6 -30 10q-14 4 -32.5 7t-40.5 3q-57 0 -95 -29t-64 -102l-97 -266h226l-52 -151h-225l-360 -1014q-24 -68 -59.5 -121.5t-81.5 -90.5t-102.5 -57 t-121.5 -20q-26 0 -49.5 3t-41.5 7q-21 4 -40 10l57 156q14 -6 31 -10q14 -4 32 -7t38 -3q55 0 93.5 28.5t64.5 102.5z" />
<glyph unicode="&#x218;" d="M23 0zM63 248q23 -17 57 -35.5t76 -34t90.5 -25.5t102.5 -10q61 0 115 16.5t94.5 48.5t64 79t23.5 108q0 68 -31.5 119.5t-79 96.5t-102.5 88t-102.5 93t-79 112.5t-31.5 146.5q0 96 34.5 172t96 129.5t146.5 81.5t186 28q58 0 108.5 -8t92.5 -20t74 -26t53 -26l-39 -190 q-20 15 -51 32.5t-70 33t-86 26t-100 10.5q-51 0 -95 -15t-76 -42.5t-50.5 -67.5t-18.5 -90q0 -49 18.5 -89.5t48.5 -76t68 -68.5t78 -67.5t78 -72t68 -82.5t48.5 -99t18.5 -121q0 -101 -39.5 -181.5t-109 -136t-163.5 -85t-202 -29.5q-65 0 -123.5 11.5t-105 27t-79 32 t-46.5 26.5zM102 -740q78 60 128.5 121t66.5 106q-31 1 -56 12.5t-41 31t-22.5 46t0.5 58.5q6 31 23 58t41 46t53 30t61 11t58 -12t42.5 -35.5t21.5 -58.5t-5 -80q-11 -53 -40 -108t-71.5 -107.5t-97 -101t-115.5 -89.5z" />
<glyph unicode="&#x219;" horiz-adv-x="885" d="M33 0zM70 229q17 -17 45.5 -34.5t63.5 -32t75.5 -24t81.5 -9.5q47 0 86 11t67.5 32t44 51t15.5 68q0 48 -26.5 84.5t-66.5 67.5t-86.5 62t-86.5 69t-66.5 87t-26.5 117q0 71 29.5 129t80.5 99.5t120.5 64.5t150.5 23q47 0 88.5 -7.5t75.5 -19t59 -24.5t40 -25l-37 -170 q-18 16 -44 32t-56 28.5t-63 20t-67 7.5q-44 0 -78.5 -12t-58 -32t-35.5 -47t-12 -57q0 -43 26 -77t65.5 -65.5t85.5 -63.5t85.5 -71.5t65.5 -89.5t26 -116q0 -75 -30.5 -137t-84 -105.5t-125.5 -67.5t-155 -24q-51 0 -99.5 9t-89.5 22.5t-72 30t-48 30.5zM59 -712 q78 60 128.5 121t66.5 106q-31 1 -56 12.5t-41 31t-22.5 46t0.5 58.5q6 31 23 58t41 46t53 30t61 11t58 -12t42.5 -35.5t21.5 -58.5t-5 -80q-11 -53 -40 -108t-71.5 -107.5t-97 -101t-115.5 -89.5z" />
<glyph unicode="&#x21a;" horiz-adv-x="1053" d="M120 0zM326 0l268 1270h-420l35 164h1036l-35 -164h-419l-269 -1270h-196zM120 -712q78 60 128.5 121t66.5 106q-31 1 -56 12.5t-41 31t-22.5 46t0.5 58.5q6 31 23 58t41 46t53 30t61 11t58 -12t42.5 -35.5t21.5 -58.5t-5 -80q-11 -53 -40 -108t-71.5 -107.5t-97 -101 t-115.5 -89.5z" />
<glyph unicode="&#x21b;" horiz-adv-x="713" d="M59 0zM537 -10q-20 -6 -42 -10q-19 -4 -43.5 -6.5t-50.5 -2.5q-67 0 -115.5 22.5t-77 63t-35.5 98t9 126.5l133 632h-174l33 152h174l49 235l195 41l-60 -276h222l-33 -152h-221l-135 -634q-9 -42 -7.5 -71t12 -47t30 -26t46.5 -8q24 0 46 3t39 7q20 4 38 10zM59 -712 q78 60 128.5 121t66.5 106q-31 1 -56 12.5t-41 31t-22.5 46t0.5 58.5q6 31 23 58t41 46t53 30t61 11t58 -12t42.5 -35.5t21.5 -58.5t-5 -80q-11 -53 -40 -108t-71.5 -107.5t-97 -101t-115.5 -89.5z" />
<glyph unicode="&#x2c6;" horiz-adv-x="897" d="M756 1255l-103 197l-184 -197h-182l293 301h192l166 -301h-182z" />
<glyph unicode="&#x2c7;" horiz-adv-x="897" d="M516 1255l-166 301h182l103 -196l184 196h182l-292 -301h-193z" />
<glyph unicode="&#x2d8;" horiz-adv-x="848" d="M952 1556q-18 -68 -49.5 -127.5t-77 -103.5t-106 -69t-137.5 -25q-67 0 -112.5 19t-73.5 52.5t-40 79.5t-12 101q0 37 6 73h142q-1 -6 -2 -11t-1 -9.5v-9.5q0 -39 5 -69.5t18 -51.5t36.5 -32t61.5 -11q42 0 72 13t53 38t41 61t35 82h141z" />
<glyph unicode="&#x2d9;" horiz-adv-x="539" d="M430 1235q-54 0 -87.5 32t-33.5 83q0 34 14.5 66.5t39.5 57t58.5 39.5t70.5 15q54 0 86 -30.5t32 -80.5q0 -38 -15 -71t-40.5 -57.5t-58 -39t-66.5 -14.5z" />
<glyph unicode="&#x2da;" horiz-adv-x="676" d="M635 1466q0 41 -19 63.5t-51 22.5q-24 0 -46 -11t-39 -31.5t-27.5 -49.5t-10.5 -65q0 -41 19 -63.5t51 -22.5q24 0 46 11t39 31.5t27.5 49.5t10.5 65zM760 1491q0 -65 -22.5 -119t-60 -94t-87 -62t-103.5 -22q-80 0 -125 48t-45 128q0 64 22.5 118.5t60 94.5t87 62 t103.5 22q80 0 125 -48t45 -128z" />
<glyph unicode="&#x2db;" horiz-adv-x="602" d="M293 -487q-21 -12 -48 -22q-23 -8 -57 -14.5t-79 -6.5q-47 0 -84.5 12.5t-61.5 39t-33 67.5t2 98q7 34 20.5 65.5t30.5 60t36 53.5t38 46q44 48 95 88h145q-46 -41 -85 -85q-33 -38 -63.5 -84t-39.5 -91q-6 -35 1 -58.5t22 -37.5t34 -19.5t37 -5.5q23 0 44 4.5t38 10.5 q19 7 37 16z" />
<glyph unicode="&#x2dc;" horiz-adv-x="1343" d="M1063 1571q-12 -55 -32.5 -107t-52 -92.5t-75.5 -65t-104 -24.5q-40 0 -67.5 11t-48.5 28t-37.5 36t-33 36t-35.5 28t-45 11q-27 0 -46 -14.5t-32 -36.5t-21.5 -48.5t-14.5 -50.5h-125q11 53 31 104.5t51.5 92.5t75 66.5t102.5 25.5q38 0 65.5 -11t48.5 -28t37.5 -36 t33.5 -36t35.5 -28t43.5 -11q28 0 48 16.5t34 39.5t23.5 49t15.5 45h125z" />
<glyph unicode="&#x2dd;" horiz-adv-x="1147" d="M449 1255h-162l272 301h275zM825 1255h-161l272 301h274z" />
<glyph unicode="&#x3c0;" horiz-adv-x="1399" d="M1133 10q-13 -5 -29 -8.5t-32.5 -6t-32.5 -4t-29 -1.5q-125 0 -171 70.5t-20 193.5l139 659h-337l-193 -913h-180l192 913h-186l33 152h1071l-33 -152h-186l-135 -637q-14 -63 4.5 -94.5t81.5 -31.5q17 0 30 2t23 4q11 3 20 6z" />
<glyph unicode="&#x2013;" horiz-adv-x="1286" d="M135 543l33 151h1040l-32 -151h-1041z" />
<glyph unicode="&#x2014;" horiz-adv-x="2263" d="M135 543l33 151h2017l-33 -151h-2017z" />
<glyph unicode="&#x2018;" horiz-adv-x="430" d="M498 1391q-79 -60 -131.5 -121.5t-67.5 -106.5q56 -2 90.5 -33.5t34.5 -82.5q0 -34 -15 -66t-40 -56.5t-58 -39.5t-69 -15q-54 0 -89.5 33.5t-35.5 100.5q0 57 26 118.5t71 122t104.5 116.5t127.5 101z" />
<glyph unicode="&#x2019;" horiz-adv-x="518" d="M221 942q81 60 132 121t67 106q-56 2 -90.5 33t-34.5 82q0 37 15.5 69.5t41 56.5t58 38t67.5 14q54 0 89.5 -34t35.5 -99q0 -57 -26 -119t-71 -122.5t-105 -116.5t-128 -101z" />
<glyph unicode="&#x201a;" horiz-adv-x="485" d="M-66 -256q79 60 130.5 121.5t68.5 105.5q-56 2 -90.5 33t-34.5 82q0 37 15.5 69.5t41 56.5t58 38t67.5 14q54 0 89.5 -34t35.5 -99q0 -58 -26 -120t-71 -122t-105.5 -116t-128.5 -101z" />
<glyph unicode="&#x201c;" horiz-adv-x="891" d="M958 1391q-78 -60 -130.5 -121.5t-67.5 -106.5q56 -2 90.5 -33.5t34.5 -82.5q0 -34 -15 -66t-40 -56.5t-58.5 -39.5t-69.5 -15q-54 0 -89 33.5t-35 100.5q0 57 26 118.5t71 122t104.5 116.5t127.5 101zM586 1391q-79 -60 -131 -121.5t-68 -106.5q56 -2 90.5 -33.5 t34.5 -82.5q0 -34 -15 -66t-40 -56.5t-58 -39.5t-69 -15q-54 0 -89.5 33.5t-35.5 100.5q0 57 26 118.5t71 122t105 116.5t128 101z" />
<glyph unicode="&#x201d;" horiz-adv-x="891" d="M221 942q81 60 132 121t67 106q-56 2 -90.5 33t-34.5 82q0 37 15.5 69.5t41 56.5t58 38t67.5 14q54 0 89.5 -34t35.5 -99q0 -57 -26 -119t-71 -122.5t-105 -116.5t-128 -101zM594 942q80 60 131.5 121t67.5 106q-56 2 -90.5 33t-34.5 82q0 37 15.5 69.5t41 56.5t58 38 t67.5 14q54 0 89.5 -34t35.5 -99q0 -57 -26.5 -119t-71.5 -122.5t-105 -116.5t-127 -101z" />
<glyph unicode="&#x201e;" horiz-adv-x="858" d="M-66 -256q79 60 130.5 121.5t68.5 105.5q-56 2 -90.5 33t-34.5 82q0 37 15.5 69.5t41 56.5t58 38t67.5 14q54 0 89.5 -34t35.5 -99q0 -58 -26 -120t-71 -122t-105.5 -116t-128.5 -101zM307 -256q79 60 130.5 121t68.5 106q-56 2 -90.5 33t-34.5 82q0 37 15.5 69.5 t41 56.5t58 38t67.5 14q54 0 89.5 -34t35.5 -99q0 -58 -26 -120t-71 -122t-105.5 -116t-129.5 -101z" />
<glyph unicode="&#x2020;" horiz-adv-x="1151" d="M309 -309l260 1155l-372 -12l34 163l367 -18l88 483h193l-117 -483l375 18l-35 -163l-369 12l-231 -1155h-193z" />
<glyph unicode="&#x2021;" horiz-adv-x="1233" d="M350 -309l119 483l-375 -18l35 163l367 -12l51 275l63 264l-372 -12l34 163l367 -18l88 483h193l-117 -483l375 18l-35 -163l-369 12l-47 -264l-68 -275l375 12l-35 -163l-366 18l-90 -483h-193z" />
<glyph unicode="&#x2022;" horiz-adv-x="752" d="M627 670q0 -45 -16.5 -83.5t-45.5 -67t-68 -44.5t-83 -16q-45 0 -83.5 16t-67 44.5t-44.5 67t-16 83.5q0 44 16 83t44.5 68t67 45.5t83.5 16.5q44 0 83 -16.5t68 -45.5t45.5 -68t16.5 -83z" />
<glyph unicode="&#x2026;" horiz-adv-x="1468" d="M129 -29q-54 0 -87.5 32t-33.5 83q0 34 14.5 66.5t39.5 57t58 39.5t70 15q54 0 86.5 -30.5t32.5 -79.5q0 -38 -15 -71.5t-40.5 -58t-58 -39t-66.5 -14.5zM627 -29q-54 0 -87.5 32t-33.5 83q0 34 14.5 66.5t39.5 57t58 39.5t70 15q54 0 86.5 -30.5t32.5 -79.5 q0 -38 -15 -71.5t-40.5 -58t-58 -39t-66.5 -14.5zM1124 -29q-54 0 -87 32t-33 83q0 34 14.5 66.5t39.5 57t58 39.5t70 15q54 0 86.5 -30.5t32.5 -79.5q0 -38 -15 -71.5t-40.5 -58t-58 -39t-67.5 -14.5z" />
<glyph unicode="&#x2030;" horiz-adv-x="2548" d="M487 635q-61 0 -109.5 19.5t-82.5 56t-52 88t-18 116.5q0 115 36.5 210.5t96.5 164t138 106.5t161 38q61 0 110 -20t83 -56.5t52 -89t18 -117.5q0 -113 -36.5 -207.5t-97 -163t-138.5 -107t-161 -38.5zM518 776q46 0 90.5 25.5t79.5 71.5t56.5 109.5t21.5 139.5 q0 79 -35.5 124.5t-101.5 45.5q-47 0 -91.5 -26t-79.5 -72t-56 -109.5t-21 -138.5q0 -78 35.5 -124t101.5 -46zM315 -29l1084 1491h172l-1084 -1491h-172zM1229 0q-62 0 -110.5 19.5t-83 56.5t-52.5 89.5t-18 117.5q0 113 36.5 207.5t96.5 163t138 107t161 38.5 q61 0 110 -20t82.5 -57t51.5 -89.5t18 -116.5q0 -114 -36.5 -209t-96.5 -163.5t-137.5 -106t-159.5 -37.5zM1257 141q46 0 90.5 25.5t79.5 71.5t56.5 109.5t21.5 139.5q0 79 -35.5 124.5t-101.5 45.5q-47 0 -91.5 -26t-79.5 -72t-56 -109.5t-21 -138.5q0 -78 35.5 -124 t101.5 -46zM1989 0q-62 0 -111 19.5t-83 56.5t-52.5 89.5t-18.5 117.5q0 113 36.5 207.5t97 163t138.5 107t161 38.5q61 0 109.5 -20t82.5 -57t52 -89.5t18 -116.5q0 -114 -36.5 -209t-96.5 -163.5t-137.5 -106t-159.5 -37.5zM2017 141q46 0 90.5 25.5t79.5 71.5t56.5 109.5 t21.5 139.5q0 79 -35.5 124.5t-101.5 45.5q-47 0 -91.5 -26t-79.5 -72t-56 -109.5t-21 -138.5q0 -78 35.5 -124t101.5 -46z" />
<glyph unicode="&#x2039;" horiz-adv-x="764" d="M84 451l35 157l553 410l-39 -189l-357 -313l224 -315l-35 -160z" />
<glyph unicode="&#x203a;" horiz-adv-x="764" d="M111 41l39 188l356 314l-223 315l34 160l381 -410l-34 -157z" />
<glyph unicode="&#x2044;" horiz-adv-x="889" d="M-68 -29l981 1491h142l-981 -1491h-142z" />
<glyph unicode="&#x20ac;" horiz-adv-x="1473" d="M1260 63q-88 -43 -187.5 -67.5t-202.5 -24.5q-118 0 -215 39.5t-166.5 109.5t-109 165.5t-43.5 206.5h-211l29 143h188q6 40 15 82t22 84h-189l29 143h209q54 121 132.5 217.5t176.5 163t211.5 102t237.5 35.5q102 0 192.5 -24.5t159.5 -67.5l-115 -156q-52 32 -120 54 t-150 22q-78 0 -153.5 -25t-142.5 -71t-123 -109.5t-95 -140.5h606l-102 -143h-559q-16 -38 -23.5 -83t-13.5 -83h471l-103 -143h-370q5 -83 32.5 -148t74 -109.5t111.5 -68t146 -23.5q82 0 159 22t142 54z" />
<glyph unicode="&#x2113;" horiz-adv-x="918" d="M682 129q-30 -26 -69.5 -54t-86.5 -51t-100 -38t-109 -15q-66 0 -110 21t-70.5 58t-37.5 85.5t-11 104.5q0 92 19 195.5t53 209t80.5 209.5t102 198.5t117.5 175.5t126.5 140.5t129.5 93t126 33.5q65 0 97 -40t32 -105q0 -73 -29.5 -150t-78.5 -153.5t-113 -149.5 t-133 -137.5t-138.5 -118t-128.5 -90.5q-11 -32 -21.5 -70t-18.5 -78t-13.5 -79.5t-5.5 -75.5q0 -37 7 -69t22.5 -56t42 -37.5t65.5 -13.5q43 0 84.5 15t73.5 33q38 21 71 48zM375 643q43 29 94.5 75t104 102.5t101.5 119t87 125.5t61 121.5t23 107.5q0 23 -9.5 38.5 t-29.5 15.5q-35 0 -75 -35.5t-81 -93.5t-82 -132.5t-77.5 -153t-66.5 -154.5t-50 -136z" />
<glyph unicode="&#x2117;" horiz-adv-x="1737" d="M920 -29q-155 0 -290.5 58.5t-237 160t-160 237t-58.5 290.5q0 103 26.5 198t75 178t117 151t151 116.5t178 75t198.5 26.5t198 -26.5t178 -75t151 -116.5t116.5 -151t75 -178t26.5 -198t-26.5 -198.5t-75 -178t-116.5 -151t-151 -117t-178 -75t-198 -26.5zM920 113 q121 0 228 47t186.5 129t126 192t46.5 236t-46.5 236t-126 192t-186.5 129t-228 47q-122 0 -229 -47t-186.5 -129t-126 -192t-46.5 -236t46.5 -236t126 -192t186.5 -129t229 -47zM938 739q72 0 110.5 31.5t38.5 91.5q0 59 -38.5 90t-110.5 31h-82v-244h82zM856 309h-141v799 h223q69 0 124 -17.5t93.5 -50t59 -78t20.5 -100.5t-20.5 -100.5t-59 -77.5t-93.5 -50t-124 -18h-82v-307z" />
<glyph unicode="&#x2120;" horiz-adv-x="1780" d="M225 823q18 -16 41.5 -32t50 -29t55 -21t56.5 -8q30 0 55.5 8.5t44 23.5t29 36t10.5 47q0 38 -25 64t-62.5 48.5t-81.5 44.5t-81.5 51.5t-62.5 70t-25 100.5q0 52 19.5 93t53 69t79.5 42.5t100 14.5q29 0 57 -5t52.5 -12t44.5 -16t35 -16v-156q-15 15 -37 30t-47 27.5 t-52 20.5t-53 8q-54 0 -83 -27t-29 -65q0 -36 25 -61.5t62 -47.5t81 -44t81 -52.5t62 -73t25 -104.5q0 -54 -21.5 -98t-58.5 -75t-87 -48t-108 -17q-32 0 -62.5 6t-57.5 14.5t-49 18.5t-36 19v151zM1606 629v504l-279 -367h-43l-280 367v-504h-136v817h39l398 -520l395 520 h39v-817h-133z" />
<glyph unicode="&#x2122;" horiz-adv-x="1978" d="M514 629v690h-289v115h715v-115h-291v-690h-135zM1804 629v504l-278 -367h-43l-281 367v-504h-135v817h39l397 -520l395 520h39v-817h-133z" />
<glyph unicode="&#x2126;" horiz-adv-x="1774" d="M887 0l37 182q110 25 213.5 86.5t184 150.5t129 202t48.5 243q0 97 -32 177t-90 136.5t-139 87.5t-179 31q-84 0 -167 -23t-158 -66t-140 -104t-112 -137t-74 -165t-27 -187q0 -83 25 -153.5t70 -126t107 -94.5t136 -58l-37 -182h-621l33 158h301q-100 69 -158.5 175 t-58.5 249q0 123 35.5 236t98.5 211t149.5 178t188.5 136.5t215 87.5t229 31q136 0 247.5 -41.5t191 -117t123.5 -180.5t44 -232t-37 -238.5t-100.5 -204.5t-147.5 -166t-178 -124h303l-33 -158h-620z" />
<glyph unicode="&#x212e;" horiz-adv-x="1409" d="M1196 219q-38 -57 -89 -103t-114 -78.5t-135.5 -49.5t-152.5 -17q-126 0 -232.5 42t-184.5 117t-121.5 178t-43.5 224t43.5 224t121.5 178t184.5 117.5t232.5 42.5t232.5 -42.5t184 -117.5t121 -178t43.5 -224v-20h-909v-344q63 -56 145.5 -85.5t182.5 -29.5 q114 0 209 44t161 122h121zM1032 897q-65 54 -147.5 84.5t-179.5 30.5q-100 0 -182.5 -30.5t-145.5 -84.5v-283h655v283z" />
<glyph unicode="&#x2202;" horiz-adv-x="1300" d="M375 1075q59 91 124 162.5t137 121.5t151 76.5t165 26.5q162 0 247 -97t85 -280q0 -140 -35 -277t-96.5 -261t-144.5 -229.5t-180 -182.5t-202.5 -120.5t-211.5 -43.5q-77 0 -137 24.5t-101 68t-62.5 103t-21.5 128.5q0 79 23.5 153t65 138.5t98.5 118.5t124.5 92.5 t142.5 60t152 21.5q71 0 122.5 -18t87.5 -48t59 -69t37 -80q18 44 33.5 94.5t26.5 101.5t17 99.5t6 87.5q0 125 -50.5 190.5t-141.5 65.5q-74 0 -157 -58t-158 -170h-205zM920 494q-12 43 -34 83t-54.5 71t-76.5 49t-100 18q-55 0 -118.5 -24.5t-117.5 -72t-90 -118 t-36 -162.5q0 -90 45 -141.5t123 -51.5q57 0 118 25t120.5 70.5t116 110t104.5 143.5z" />
<glyph unicode="&#x2206;" horiz-adv-x="1421" d="M-78 0l961 1450h24l346 -1450h-1331zM823 1075l-587 -911h788z" />
<glyph unicode="&#x220f;" horiz-adv-x="1548" d="M950 0l271 1276h-557l-271 -1276h-186l270 1276h-186l33 158h1302l-33 -158h-186l-270 -1276h-187z" />
<glyph unicode="&#x2211;" horiz-adv-x="1360" d="M61 0l21 102l674 635l-404 635l13 62h1032l-33 -158h-746l345 -549l-7 -27l-571 -542h741l-32 -158h-1033z" />
<glyph unicode="&#x2212;" horiz-adv-x="1194" d="M145 514v156h951v-156h-951z" />
<glyph unicode="&#x221a;" horiz-adv-x="1452" d="M758 -16l-295 712h-207v158h334l196 -506l504 1284h193l-668 -1648h-57z" />
<glyph unicode="&#x221e;" horiz-adv-x="1579" d="M821 539q-41 -39 -84 -75t-89 -63.5t-96.5 -44t-105.5 -16.5q-65 0 -121.5 23.5t-98.5 64.5t-66.5 97.5t-24.5 121.5q0 64 24 119.5t66 96.5t99 64t122 23q94 0 187.5 -51.5t187.5 -144.5q93 91 188 143.5t189 52.5q65 0 122 -23t99 -64t66 -96.5t24 -119.5 q0 -65 -24.5 -121.5t-66.5 -97.5t-99 -64.5t-121 -23.5q-96 0 -188.5 54t-188.5 145zM709 647q-33 30 -65.5 56.5t-65 46.5t-65.5 31.5t-67 11.5q-33 0 -61.5 -11.5t-50 -31t-33.5 -46t-12 -57.5q0 -32 12 -59t33.5 -47t50 -31.5t61.5 -11.5q34 0 67 11.5t65.5 32t65 47.5 t65.5 58zM934 647q33 -31 65.5 -58t65.5 -47.5t66 -32t67 -11.5q33 0 62 11.5t50 31.5t33.5 47t12.5 59q0 31 -12.5 57.5t-33.5 46t-50 31t-62 11.5q-34 0 -67.5 -12t-66.5 -32t-65.5 -46.5t-64.5 -55.5z" />
<glyph unicode="&#x222b;" horiz-adv-x="905" d="M616 1206q48 135 141 212t224 77q28 0 52 -3t43 -7q21 -4 40 -10l-57 -156q-14 6 -30 10q-14 4 -32.5 7t-40.5 3q-55 0 -94.5 -28.5t-64.5 -102.5l-508 -1431q-24 -68 -59.5 -121.5t-81.5 -90.5t-102.5 -57t-121.5 -20q-26 0 -49.5 3t-41.5 7q-21 4 -40 10l57 156 q14 -6 31 -10q14 -4 32 -7t38 -3q55 0 93.5 28.5t64.5 102.5z" />
<glyph unicode="&#x2248;" horiz-adv-x="1399" d="M1270 963q0 -69 -22 -128t-62 -101.5t-96.5 -66.5t-126.5 -24q-48 0 -90.5 13.5t-81.5 33.5t-75 44t-71 44t-70.5 33.5t-72.5 13.5q-71 0 -113.5 -43.5t-42.5 -117.5h-147q0 70 21 128.5t60.5 101t95.5 66t126 23.5q51 0 94.5 -13.5t82.5 -33.5t74 -44t69.5 -44t70 -33.5 t74.5 -13.5q71 0 113 43.5t42 118.5h148zM1270 539q0 -69 -22 -128t-62 -101.5t-96.5 -66.5t-126.5 -24q-48 0 -90.5 13.5t-81.5 33.5t-75 44t-71 44t-70.5 33.5t-72.5 13.5q-71 0 -113.5 -43.5t-42.5 -117.5h-147q0 70 21 128.5t60.5 101t95.5 66t126 23.5q51 0 94.5 -13.5 t82.5 -33.5t74 -44t69.5 -44t70 -33.5t74.5 -13.5q71 0 113 43.5t42 118.5h148z" />
<glyph unicode="&#x2260;" horiz-adv-x="1542" d="M606 279l-225 -279h-176l225 279h-225v155h350l254 314h-604v155h731l225 279h176l-225 -279h225v-155h-352l-254 -314h606v-155h-731z" />
<glyph unicode="&#x2264;" horiz-adv-x="1409" d="M205 635v158l1040 389v-164l-833 -303l833 -305v-164zM205 0v156h1038v-156h-1038z" />
<glyph unicode="&#x2265;" horiz-adv-x="1409" d="M205 246v164l833 305l-833 303v164l1040 -389v-158zM207 0v156h1038v-156h-1038z" />
<glyph unicode="&#x250c;" horiz-adv-x="1450" d="M811 -625h-172v1334h836v-172h-664v-1162z" />
<glyph unicode="&#x2510;" horiz-adv-x="1450" d="M811 -625h-172v1162h-662v172h834v-1334z" />
<glyph unicode="&#x2514;" horiz-adv-x="1450" d="M1475 535h-836v1333h172v-1161h664v-172z" />
<glyph unicode="&#x2518;" horiz-adv-x="1450" d="M811 535h-834v172h662v1161h172v-1333z" />
<glyph unicode="&#x2588;" horiz-adv-x="1450" d="M1473 -621h-1496v2485h1496v-2485z" />
<glyph unicode="&#x25ca;" horiz-adv-x="1245" d="M508 -16l-336 733l647 733h17l335 -733l-647 -733h-16zM969 717l-201 452l-393 -452l200 -453z" />
<glyph unicode="&#x266a;" horiz-adv-x="1081" d="M514 1434h96q91 0 169 -26t135 -72.5t89.5 -109.5t32.5 -136v-168h-102v45q0 54 -22 99t-61.5 77t-94 49.5t-119.5 17.5h-21v-977q0 -58 -23 -106.5t-63 -83t-94.5 -53.5t-116.5 -19q-57 0 -107 19t-87 51t-58.5 75.5t-21.5 92.5q0 51 21.5 95.5t58.5 77.5t87 52t107 19 q56 0 105.5 -15t89.5 -41v1037z" />
<glyph unicode="&#x266b;" horiz-adv-x="1536" d="M1229 1239l-613 -195v-911q0 -59 -23 -107t-63 -82.5t-94.5 -53.5t-116.5 -19q-57 0 -107 18.5t-87 51t-58.5 75.5t-21.5 93q0 51 21.5 95t58.5 77t87 52t107 19q56 0 105.5 -14.5t89.5 -40.5v973l817 254v-1186q0 -59 -23 -107t-63 -82.5t-94.5 -53.5t-116.5 -19 q-57 0 -107 18.5t-87 51t-58.5 75.5t-21.5 92q0 51 21.5 95.5t58.5 77.5t87 52t107 19q56 0 105.5 -14.5t89.5 -40.5v737z" />
<glyph unicode="&#xe000;" horiz-adv-x="1065" d="M0 1065h1065v-1065h-1065v1065z" />
<glyph unicode="&#xf6c3;" horiz-adv-x="551" d="M-113 -643q78 60 128.5 121t66.5 106q-31 1 -56 12.5t-41 31t-22.5 46t0.5 58.5q6 31 23 58t41 46t53 30t61 11t58 -12t42.5 -35.5t21.5 -58.5t-5 -80q-11 -53 -40 -108t-71.5 -107.5t-97 -101t-115.5 -89.5z" />
<glyph unicode="&#xfb01;" horiz-adv-x="1221" d="M113 0zM113 0l192 913h-164l33 152h164l27 121q32 147 112 228t217 81q32 0 60 -3t50 -7q26 -4 48 -10l-35 -156q-16 6 -34 10q-16 4 -37 7t-44 3q-57 0 -96 -35t-57 -116l-27 -123h232l-33 -152h-232l-192 -913h-184zM1243 1374q0 -28 -11.5 -52t-30.5 -42t-44 -28.5 t-51 -10.5q-42 0 -66 25t-24 63q0 28 11.5 52t31 42t44 28.5t50.5 10.5q42 0 66 -25t24 -63zM752 0l225 1065h184l-225 -1065h-184z" />
<glyph unicode="&#xfb02;" horiz-adv-x="1294" d="M113 0zM113 0l192 913h-164l33 152h164l27 121q32 147 112 228t217 81q32 0 60 -3t50 -7q26 -4 48 -10l-35 -156q-16 6 -34 10q-16 4 -37 7t-44 3q-57 0 -96 -35t-57 -116l-27 -123h232l-33 -152h-232l-192 -913h-184zM1153 -12q-17 -5 -36 -9q-17 -3 -39 -5.5t-48 -2.5 q-134 0 -192.5 79t-26.5 231l260 1214h185l-262 -1227q-9 -38 -9.5 -65.5t9.5 -45t32.5 -26t61.5 -8.5q20 0 38 2.5t32 6.5q16 4 28 9z" />
<glyph horiz-adv-x="1294" d="M0 0z" />
</font>
</defs>
</svg>
