<?xml version="1.0" standalone="no"?>
<!DOCTYPE svg PUBLIC "-//W3C//DTD SVG 1.1//EN" "http://www.w3.org/Graphics/SVG/1.1/DTD/svg11.dtd" >
<svg xmlns="http://www.w3.org/2000/svg">
<metadata></metadata>
<defs>
<font id="MatterhornBoldItalic" horiz-adv-x="1171" >
<font-face units-per-em="2048" ascent="1536" descent="-512" />
<missing-glyph horiz-adv-x="532" />
<glyph horiz-adv-x="0" />
<glyph horiz-adv-x="0" />
<glyph unicode="&#xd;" horiz-adv-x="532" />
<glyph unicode=" "  horiz-adv-x="532" />
<glyph unicode="&#x09;" horiz-adv-x="532" />
<glyph unicode="&#xa0;" horiz-adv-x="532" />
<glyph unicode="!" horiz-adv-x="592" d="M145 518l166 916h348l-223 -916h-291zM174 -29q-37 0 -67 11.5t-51.5 32t-33.5 49t-12 63.5q0 52 21 97t55.5 78t79 52t92.5 19q37 0 67 -11.5t51.5 -32t33.5 -49.5t12 -63q0 -52 -21 -97t-55.5 -78t-79 -52t-92.5 -19z" />
<glyph unicode="&#x22;" horiz-adv-x="985" d="M154 823l127 639h329l-168 -639h-288zM664 823l127 639h329l-168 -639h-288z" />
<glyph unicode="#" horiz-adv-x="1411" d="M616 0l119 348h-211l-118 -348h-254l118 348h-196l45 213h223l107 311h-201l45 213h227l119 349h254l-119 -349h211l119 349h254l-119 -349h197l-45 -213h-224l-106 -311h201l-45 -213h-228l-119 -348h-254zM913 872h-211l-106 -311h211z" />
<glyph unicode="$" horiz-adv-x="1085" d="M260 -242l47 219q-108 11 -188.5 37t-126.5 54l59 288q75 -42 162 -71t190 -29q36 0 75.5 8t72.5 27t54.5 49t21.5 74q0 49 -31.5 87.5t-79 74.5t-102.5 74.5t-102.5 89t-79 118t-31.5 160.5t32.5 168.5t90 131t137 91t174.5 47.5l37 180h246l-39 -184q74 -11 136 -30.5 t97 -41.5l-59 -280q-26 15 -59 30t-71.5 27.5t-82.5 20.5t-92 8q-45 0 -82 -11t-63.5 -30.5t-41 -45.5t-14.5 -57q0 -47 31.5 -84t78.5 -73t102 -75.5t102 -91.5t78.5 -120t31.5 -162q0 -92 -31.5 -168t-87 -133.5t-132 -95.5t-167.5 -55l-47 -226h-246z" />
<glyph unicode="%" horiz-adv-x="2046" d="M504 602q-72 0 -131 22t-101 62t-65 97t-23 128q0 63 17 126.5t48 122t75.5 108.5t99.5 87t119.5 58t136.5 21t131 -22t100.5 -62.5t64.5 -97.5t23 -128q0 -64 -16.5 -127t-48 -121t-75.5 -108t-99 -87t-119.5 -58t-136.5 -21zM547 805q50 0 87 28.5t61 72t36 94.5t12 96 q0 65 -27.5 100t-78.5 35q-50 0 -87 -28.5t-61.5 -72t-36.5 -94.5t-12 -96q0 -65 28 -100t79 -35zM436 -29l1018 1491h258l-1018 -1491h-258zM1468 0q-72 0 -131 22t-100.5 62t-64.5 97t-23 128q0 96 37 189.5t103 167.5t157 119.5t199 45.5q73 0 132 -22t100.5 -62.5 t64 -98t22.5 -128.5q0 -64 -17 -127t-48.5 -120.5t-76 -107.5t-99.5 -86.5t-119.5 -57.5t-135.5 -21zM1511 203q49 0 86 28.5t61.5 71.5t37 93.5t12.5 95.5q0 65 -27.5 101t-78.5 36q-50 0 -87 -28.5t-61.5 -71.5t-36.5 -94.5t-12 -96.5q0 -65 27.5 -100t78.5 -35z" />
<glyph unicode="&#x26;" horiz-adv-x="1366" d="M936 0l-76 123q-91 -71 -200 -111.5t-234 -40.5q-89 0 -158.5 22.5t-117.5 62t-73.5 95t-25.5 121.5q0 89 34 165t89 140.5t125 119t143 100.5q-40 69 -56.5 128.5t-16.5 110.5q0 97 36 175.5t100 134t152 86t191 30.5q73 0 134.5 -17t106 -49t69 -78t24.5 -104 q0 -81 -35 -147.5t-90 -121t-124 -99.5t-136 -84l149 -232q25 39 45 78.5t41 87.5h244q-40 -99 -90.5 -190t-112.5 -174l213 -332h-350zM551 623q-65 -50 -111 -104.5t-61 -125.5q-9 -43 -1 -75t29 -53t53 -31.5t70 -10.5q56 0 112.5 21t107.5 59zM684 936q85 51 141 102 t70 111q10 51 -15 84t-75 33q-39 0 -68 -19t-48.5 -48.5t-29.5 -66.5t-10 -73q0 -25 7.5 -55.5t27.5 -67.5z" />
<glyph unicode="'" horiz-adv-x="475" d="M154 823l127 639h329l-168 -639h-288z" />
<glyph unicode="(" horiz-adv-x="819" d="M299 -297q-35 59 -65 128t-52 147.5t-34.5 166t-12.5 185.5q0 180 40 353.5t114.5 336.5t179 313.5t233.5 284.5h322q-127 -125 -230 -275t-175.5 -317t-112 -347.5t-39.5 -365.5q0 -100 12.5 -188.5t34 -165.5t49.5 -141t60 -115h-324z" />
<glyph unicode=")" horiz-adv-x="840" d="M-115 -297q126 126 229 276t176.5 317t113.5 347t40 365q0 100 -12.5 188.5t-33.5 165.5t-49.5 141t-59.5 115h325q35 -60 64.5 -129t51.5 -147t34 -166t12 -185q0 -179 -40 -353t-114 -338t-179.5 -314.5t-235.5 -282.5h-322z" />
<glyph unicode="*" horiz-adv-x="1073" d="M715 608l-107 262l-217 -262l-172 150l246 235l-281 74l123 238l264 -115l43 305h250l-86 -305l314 115l22 -238l-311 -74l145 -235z" />
<glyph unicode="+" horiz-adv-x="1202" d="M477 4v449h-385v278h385v447h283v-447h387v-278h-387v-449h-283z" />
<glyph unicode="," horiz-adv-x="520" d="M-96 -276q34 24 68.5 53.5t63.5 62t51 66.5t32 67q-63 7 -100 48t-37 104q0 48 18 93t50.5 79.5t76.5 55t96 20.5q37 0 69 -11.5t55 -34t36.5 -54.5t13.5 -72q0 -90 -36.5 -173t-95 -156.5t-132.5 -136.5t-149 -114z" />
<glyph unicode="-" horiz-adv-x="803" d="M104 475l58 268h594l-58 -268h-594z" />
<glyph unicode="." horiz-adv-x="516" d="M393 217q0 -52 -21 -97t-55.5 -78t-79 -52t-92.5 -19q-37 0 -67 11.5t-51.5 32t-33 49t-11.5 63.5q0 52 20.5 97t55 78t79 52t92.5 19q37 0 67.5 -11.5t52 -32t33 -49.5t11.5 -63z" />
<glyph unicode="/" horiz-adv-x="782" d="M-125 -152l842 1737h289l-844 -1737h-287z" />
<glyph unicode="0" horiz-adv-x="1327" d="M594 -29q-114 0 -201.5 41t-147.5 113t-91 170.5t-31 212.5q0 100 18.5 210t56 216t95 201.5t135.5 168t177.5 115.5t221.5 43q114 0 201.5 -41t147.5 -113t91 -170t31 -212q0 -100 -18.5 -210t-56 -216t-95 -202t-135.5 -168.5t-177.5 -115.5t-221.5 -43zM608 240 q50 0 95 30.5t83.5 82.5t69.5 121t52.5 146t33.5 158.5t12 157.5q0 122 -35.5 190t-107.5 68q-49 0 -94 -30.5t-83 -82.5t-69 -121t-52.5 -146t-33.5 -158.5t-12 -157.5q0 -122 35 -190t106 -68z" />
<glyph unicode="1" horiz-adv-x="766" d="M154 0l249 1176h-231l53 258h557l-303 -1434h-325z" />
<glyph unicode="2" horiz-adv-x="1085" d="M-41 0l27 133l444 461q86 90 149.5 156.5t105 120.5t62 100t19.5 94q0 28 -11 52t-32.5 42t-53 28.5t-71.5 10.5q-54 0 -109 -12.5t-105.5 -31.5t-94 -41.5t-74.5 -41.5l61 289q34 18 78.5 36.5t94 33t103 23.5t105.5 9q99 0 179.5 -24t138.5 -68.5t89.5 -106.5 t31.5 -137q0 -91 -35.5 -171.5t-90.5 -154t-123 -141.5t-132 -133l-266 -268h505l-53 -258h-942z" />
<glyph unicode="3" horiz-adv-x="1081" d="M45 311q26 -15 60 -29t72 -24t78.5 -16t80.5 -6q65 0 121 16t97.5 47t65 75t23.5 101q0 42 -17.5 78.5t-51.5 63.5t-84 42t-115 15q-17 0 -31.5 -1t-26.5 -2q-14 -2 -26 -3l31 147l346 361h-435l54 258h858l-29 -134l-411 -426q54 -18 103.5 -48.5t87 -73.5t59.5 -99 t22 -125q0 -123 -49.5 -225.5t-136.5 -176t-205.5 -114.5t-257.5 -41q-48 0 -98 6t-95.5 15.5t-83.5 22t-63 24.5z" />
<glyph unicode="4" horiz-adv-x="1184" d="M526 0l56 262h-613l45 209l928 963h203l-197 -924h178l-51 -248h-178l-55 -262h-316zM723 926l-391 -416h301z" />
<glyph unicode="5" horiz-adv-x="1118" d="M66 311q60 -32 141.5 -56t171.5 -24q63 0 121.5 19t103 54t71.5 83t27 107q0 83 -62.5 128.5t-168.5 45.5q-75 0 -152 -16.5t-145 -41.5l223 824h772l-53 -258h-510l-78 -273q29 5 59 6.5t56 1.5q84 0 156 -25.5t124.5 -72.5t82.5 -115t30 -153q0 -127 -50 -232.5 t-139.5 -181.5t-213 -118t-271.5 -42q-52 0 -103.5 6t-98 16t-85.5 23t-67 27z" />
<glyph unicode="6" horiz-adv-x="1241" d="M721 924q9 0 19 1q8 0 18.5 0.5t21.5 0.5q85 0 156.5 -28.5t123.5 -80t80.5 -123t28.5 -157.5q0 -82 -24 -156t-67 -136.5t-103 -113.5t-131.5 -86.5t-152 -54.5t-165.5 -19q-107 0 -193 26.5t-147.5 75t-96 117.5t-36.5 154q0 129 54 240.5t145 214.5l553 635h389z M569 221q52 0 101 20.5t86 57.5t59.5 88t22.5 113q0 41 -13.5 74.5t-38 57.5t-59 37t-76.5 13q-54 0 -103 -22.5t-85.5 -61t-58 -89t-21.5 -106.5q0 -41 13.5 -74.5t38 -57.5t59 -37t75.5 -13z" />
<glyph unicode="7" horiz-adv-x="1026" d="M2 0l756 1176h-576l54 258h970l-28 -134l-830 -1300h-346z" />
<glyph unicode="8" horiz-adv-x="1241" d="M442 748q-35 21 -67.5 45t-57 54.5t-39 68t-14.5 85.5q0 71 22 133t61 113t92.5 91t116 67.5t131.5 42t140 14.5q88 0 162.5 -20t128.5 -57t84.5 -90t30.5 -119q0 -72 -26 -135.5t-70.5 -116.5t-103 -95t-122.5 -71q42 -22 82.5 -49t72.5 -63t51.5 -82t19.5 -105 q0 -116 -53.5 -206.5t-140.5 -153t-197 -95.5t-224 -33q-103 0 -186 23.5t-141.5 66.5t-90.5 103t-32 133q0 81 28.5 150.5t78 127t117.5 101t146 72.5zM616 641q-16 -9 -51.5 -31t-71.5 -59t-63 -88t-27 -117q0 -62 45.5 -101.5t122.5 -39.5q42 0 83.5 15t74.5 43.5 t53.5 68.5t20.5 90q0 42 -16 74t-42.5 57.5t-60 46t-68.5 41.5zM739 864q16 12 43 34.5t53 55t45 75t19 93.5q0 47 -31 77t-84 30q-35 0 -68.5 -13t-59.5 -36t-42 -55.5t-16 -71.5q0 -35 12 -61.5t31.5 -49t45 -41.5t52.5 -37z" />
<glyph unicode="9" horiz-adv-x="1241" d="M141 0l473 510q-9 -1 -19 -1q-8 -1 -18.5 -1h-21.5q-85 0 -156.5 28.5t-123 80t-80.5 123t-29 157.5q0 123 52.5 226.5t141.5 179t205 117.5t244 42q107 0 193.5 -26t148 -74.5t95.5 -117.5t36 -154q0 -129 -54 -240.5t-145 -214.5l-553 -635h-389zM684 752 q54 0 103 22.5t85.5 60.5t58 88.5t21.5 106.5q0 42 -13.5 75.5t-38 57t-58.5 36.5t-76 13q-52 0 -100.5 -20.5t-85.5 -57t-59.5 -88t-22.5 -112.5q0 -42 13 -75.5t37.5 -57t59 -36.5t76.5 -13z" />
<glyph unicode=":" horiz-adv-x="573" d="M178 -29q-37 0 -67 11.5t-51.5 32t-33.5 49t-12 63.5q0 52 21 97t55.5 78t79 52t92.5 19q37 0 67 -11.5t51.5 -32t33.5 -49.5t12 -63q0 -52 -21 -97t-55.5 -78t-79 -52t-92.5 -19zM326 662q-37 0 -67.5 11.5t-52 31.5t-33 48.5t-11.5 63.5q0 52 21 97t55.5 78t79 52 t92.5 19q37 0 67 -11.5t51.5 -32t33 -49.5t11.5 -63q0 -52 -20.5 -97t-55 -78t-79 -51.5t-92.5 -18.5z" />
<glyph unicode=";" horiz-adv-x="573" d="M-63 -276q34 24 68.5 53.5t63.5 62t51 66.5t32 67q-63 7 -100.5 48t-37.5 104q0 48 18.5 93t50.5 79.5t76.5 55t96.5 20.5q37 0 68.5 -11.5t55 -34t37 -54.5t13.5 -72q0 -90 -36.5 -173t-95 -156.5t-133 -136.5t-149.5 -114zM326 662q-37 0 -67.5 11.5t-52 31.5t-33 48.5 t-11.5 63.5q0 52 21 97t55.5 78t79 52t92.5 19q37 0 67 -11.5t51.5 -32t33 -49.5t11.5 -63q0 -52 -20.5 -97t-55 -78t-79 -51.5t-92.5 -18.5z" />
<glyph unicode="&#x3c;" horiz-adv-x="1153" d="M92 451v280l1010 451v-308l-658 -284l658 -283v-307z" />
<glyph unicode="=" horiz-adv-x="1399" d="M184 707v278h1092v-278h-1092zM184 197v278h1092v-278h-1092z" />
<glyph unicode="&#x3e;" horiz-adv-x="1151" d="M113 0v307l657 283l-657 284v308l1007 -451v-280z" />
<glyph unicode="?" horiz-adv-x="848" d="M193 518q6 86 37.5 154t75 122.5t93 98t91 82t69 74.5t27.5 75q0 80 -129 80q-62 0 -132 -17.5t-135 -49.5l58 264q91 37 176.5 49t155.5 12q83 0 148.5 -19t111.5 -54t70 -84.5t24 -110.5q0 -64 -17.5 -114.5t-47 -92t-68 -76.5t-79.5 -68t-82 -66.5t-76 -72t-60.5 -84 t-36.5 -102.5h-274zM463 217q0 -52 -21 -97t-55.5 -78t-79 -52t-92.5 -19q-37 0 -67 11.5t-51.5 32t-33.5 49t-12 63.5q0 52 21 97t55.5 78t79 52t92.5 19q37 0 67 -11.5t51.5 -32t33.5 -49.5t12 -63z" />
<glyph unicode="@" horiz-adv-x="1790" d="M1212 -80q-114 -60 -241.5 -93.5t-268.5 -33.5q-140 0 -255 40t-196.5 114.5t-126 181t-44.5 240.5q0 135 37 268.5t105.5 255t165 225.5t214.5 180.5t254.5 120t286.5 43.5q141 0 258 -41.5t201 -116t131 -179t47 -230.5q0 -149 -44.5 -279t-121 -226.5t-177.5 -152 t-214 -55.5q-65 0 -105 19t-63 42q-26 27 -39 62q-21 -14 -48.5 -31t-62 -32t-76.5 -25t-92 -10q-114 0 -170.5 63.5t-56.5 175.5q0 58 15.5 126t44.5 135t70.5 129t94 110t115 76.5t133.5 28.5q65 0 106 -23t72 -65l27 79h225l-172 -559q-17 -56 -2 -80t47 -24 q59 0 106.5 44.5t80.5 114.5t51 156t18 170q0 91 -29 164t-83.5 124.5t-133 79.5t-176.5 28q-109 0 -210 -34t-189.5 -93.5t-161 -141.5t-124.5 -177.5t-80.5 -201.5t-28.5 -213q0 -98 31.5 -172.5t89 -124.5t139 -75t182.5 -25q103 0 198.5 24t182.5 72zM1108 791 q-6 7 -16.5 15.5t-25 16.5t-34 13.5t-43.5 5.5q-53 0 -94 -31.5t-68.5 -79t-42 -102.5t-14.5 -103q0 -44 18.5 -74t65.5 -30q24 0 47 5.5t43.5 13t36.5 16t25 14.5z" />
<glyph unicode="A" horiz-adv-x="1315" d="M915 0l-28 236h-514l-129 -236h-375l842 1434h301l235 -1434h-332zM793 1004l-293 -535h358z" />
<glyph unicode="B" horiz-adv-x="1329" d="M72 0l303 1434h495q117 0 201 -22.5t137.5 -63t79 -97t25.5 -123.5q0 -65 -24.5 -123.5t-67.5 -106.5t-102.5 -83.5t-129.5 -54.5v-4q62 -12 110 -39.5t81 -66.5t50 -88t17 -105q0 -79 -27.5 -144t-75 -116t-112 -88t-138 -61t-153.5 -36t-159 -12h-510zM578 254 q84 0 146 15.5t102 43.5t59.5 68t19.5 88q0 37 -14 67t-44 51t-77 32.5t-113 11.5h-120l-80 -377h121zM700 877q75 0 123.5 18.5t76 45t38 55.5t10.5 51q0 26 -8.5 50t-29.5 42.5t-56 29.5t-88 11h-113l-65 -303h112z" />
<glyph unicode="C" horiz-adv-x="1257" d="M1079 66q-25 -15 -65.5 -32t-92 -31t-113.5 -23t-130 -9q-129 0 -233.5 45t-179 124.5t-114.5 189t-40 237.5q0 115 28.5 226t82 210t131 183.5t175.5 145.5t215 95.5t250 34.5q65 0 122.5 -10t104 -24.5t81 -31t53.5 -30.5l-66 -285q-22 15 -53.5 32.5t-71.5 31.5 t-88 23.5t-102 9.5q-116 0 -210 -50t-161 -132t-103 -187t-36 -215q0 -79 18 -142t55.5 -107t95 -67.5t136.5 -23.5q55 0 109 12t102.5 30t90 39.5t71.5 39.5z" />
<glyph unicode="D" horiz-adv-x="1448" d="M72 0l303 1434h360q178 0 309 -43.5t217.5 -121t128.5 -184t42 -231.5q0 -191 -72 -348t-203 -269.5t-315.5 -174.5t-409.5 -62h-360zM483 266q121 0 229 40.5t189 116t128.5 184t47.5 243.5q0 154 -98.5 235.5t-302.5 81.5h-25l-192 -901h24z" />
<glyph unicode="E" d="M72 0l303 1434h885l-56 -267h-553l-63 -297h450l-57 -266h-451l-71 -338h553l-56 -266h-884z" />
<glyph unicode="F" horiz-adv-x="1090" d="M72 0l303 1434h844l-56 -267h-512l-71 -338h430l-58 -266h-430l-119 -563h-331z" />
<glyph unicode="G" horiz-adv-x="1397" d="M950 524h-151l51 238h483l-147 -694q-28 -15 -72 -32t-102.5 -31.5t-131.5 -24t-159 -9.5q-142 0 -255 44t-192 121.5t-121 183.5t-42 231q0 123 29.5 238t85 216.5t135.5 185.5t180.5 144t220 93.5t254.5 33.5q77 0 141 -10t114.5 -25t87.5 -31.5t60 -29.5l-61 -272 q-23 10 -60 25t-84 28.5t-103 23t-116 9.5q-79 0 -149.5 -22.5t-129.5 -62t-106 -95t-79.5 -121t-50 -139.5t-17.5 -152q0 -77 19.5 -138.5t58.5 -105t98 -67t139 -23.5q31 0 61.5 4t55.5 10z" />
<glyph unicode="H" horiz-adv-x="1548" d="M940 0l129 614h-537l-129 -614h-331l303 1434h332l-117 -553h536l117 553h332l-303 -1434h-332z" />
<glyph unicode="I" horiz-adv-x="680" d="M72 0l303 1434h332l-304 -1434h-331z" />
<glyph unicode="J" horiz-adv-x="883" d="M588 1434h332l-209 -985q-27 -128 -78 -218.5t-121.5 -148t-158.5 -84.5t-189 -27q-35 0 -73 4t-72.5 10.5t-63 15.5t-45.5 19l57 273q32 -17 79 -29t101 -12q39 0 76 12t68 36t53.5 59.5t32.5 82.5z" />
<glyph unicode="K" horiz-adv-x="1395" d="M938 0l-254 573l-197 -176l-84 -397h-331l303 1434h332l-132 -619l603 619h417l-651 -668l348 -766h-354z" />
<glyph unicode="L" horiz-adv-x="1067" d="M72 0l303 1434h332l-248 -1168h553l-56 -266h-884z" />
<glyph unicode="M" horiz-adv-x="1905" d="M1296 0l189 887l-502 -559h-141l-254 542l-185 -870h-331l303 1434h291l321 -684l612 684h332l-303 -1434h-332z" />
<glyph unicode="N" horiz-adv-x="1622" d="M1055 0l-463 895l-189 -895h-331l303 1434h291l460 -895l191 895h332l-303 -1434h-291z" />
<glyph unicode="O" horiz-adv-x="1632" d="M774 254q106 0 194 48.5t151 129t97.5 183t34.5 210.5q0 81 -20 147t-59 112t-95.5 71t-128.5 25q-70 0 -132.5 -22.5t-115.5 -62t-95.5 -93.5t-72 -118t-45.5 -134.5t-16 -143.5q0 -81 20.5 -146t59.5 -110.5t95.5 -70.5t127.5 -25zM762 -29q-142 0 -260.5 45 t-203.5 127t-132 195.5t-47 251.5q0 109 26 216t75.5 204t122 179.5t166 143t207 95t245.5 34.5q142 0 260 -45t203 -126.5t132.5 -195.5t47.5 -251q0 -109 -26 -216t-75.5 -204t-122 -180t-166 -143.5t-207.5 -95t-245 -34.5z" />
<glyph unicode="P" horiz-adv-x="1284" d="M72 0l303 1434h473q117 0 203 -30t142.5 -82.5t84 -125.5t27.5 -158q0 -126 -49 -235.5t-136 -190.5t-205.5 -127.5t-257.5 -46.5h-161l-93 -438h-331zM655 705q68 0 123 23t93.5 62.5t59.5 92t21 112.5q0 48 -13 80.5t-36 53t-56 29.5t-73 9h-123l-98 -462h102z" />
<glyph unicode="Q" horiz-adv-x="1632" d="M1180 -86l-82 125q-75 -32 -158.5 -50t-177.5 -18q-142 0 -260.5 45t-203.5 127t-132 195.5t-47 251.5q0 109 26 216t75.5 204t122 179.5t166 143t207 95t245.5 34.5q142 0 260 -45t203 -126.5t132.5 -195.5t47.5 -251q0 -91 -18 -180.5t-53.5 -173t-86.5 -159 t-117 -138.5l184 -279h-333zM793 514l223 154l131 -199q49 77 76.5 168.5t27.5 187.5q0 81 -20 147t-59 112t-95.5 71t-128.5 25q-70 0 -132.5 -22.5t-115.5 -62t-95.5 -93.5t-72 -118t-45.5 -134.5t-16 -143.5q0 -81 20.5 -146t59.5 -110.5t95.5 -70.5t127.5 -25 q45 0 85.5 9t78.5 26z" />
<glyph unicode="R" horiz-adv-x="1354" d="M897 0l-199 479h-194l-101 -479h-331l303 1434h493q109 0 191.5 -29.5t138 -81.5t83.5 -123t28 -153q0 -74 -22 -144t-62 -132t-96.5 -115t-124.5 -93l253 -563h-360zM676 745q58 0 109 18.5t89 53t60 84t22 111.5q0 79 -52 117t-138 38h-115l-90 -422h115z" />
<glyph unicode="S" horiz-adv-x="1085" d="M51 356q75 -42 162 -71t190 -29q36 0 75.5 8t72.5 27t54.5 49t21.5 74q0 49 -31.5 87.5t-79 74.5t-102.5 74.5t-102.5 89t-79 118t-31.5 160.5q0 106 41 188.5t113.5 139.5t171 86.5t212.5 29.5q56 0 111.5 -7t105 -18t90 -26t66.5 -31l-59 -280q-26 15 -59 30 t-71.5 27.5t-82.5 20.5t-92 8q-45 0 -82 -11t-63.5 -30.5t-41 -45.5t-14.5 -57q0 -47 31.5 -84t78.5 -73t102 -75.5t102 -91.5t78.5 -120t31.5 -162q0 -109 -43.5 -195.5t-119.5 -146.5t-177.5 -91.5t-218.5 -31.5q-74 0 -138 9t-117.5 23t-95 31t-69.5 34z" />
<glyph unicode="T" d="M328 0l247 1167h-401l55 267h1135l-55 -267h-402l-248 -1167h-331z" />
<glyph unicode="U" horiz-adv-x="1505" d="M1210 1434h332l-180 -852q-34 -161 -98.5 -277t-155 -190t-205.5 -109t-250 -35q-144 0 -248 49t-166 132t-80.5 194t7.5 236l180 852h332l-180 -854q-15 -69 -14 -129t22 -104.5t64 -70.5t114 -26q129 0 219 79.5t127 250.5z" />
<glyph unicode="V" horiz-adv-x="1321" d="M408 0l-215 1434h331l105 -990l526 990h375l-821 -1434h-301z" />
<glyph unicode="W" horiz-adv-x="1991" d="M1167 0l-67 975l-482 -975h-321l-98 1434h333l41 -914l451 914h317l64 -914l430 914h358l-704 -1434h-322z" />
<glyph unicode="X" horiz-adv-x="1309" d="M836 0l-174 442l-347 -442h-403l631 760l-285 674h346l156 -404l317 404h389l-589 -717l303 -717h-344z" />
<glyph unicode="Y" horiz-adv-x="1217" d="M340 0l111 526l-279 908h356l138 -560l370 560h410l-664 -908l-110 -526h-332z" />
<glyph unicode="Z" horiz-adv-x="1147" d="M-43 0l47 225l780 942h-559l56 267h976l-47 -226l-780 -942h610l-55 -266h-1028z" />
<glyph unicode="[" horiz-adv-x="928" d="M59 -297l406 1915h579l-55 -266h-248l-295 -1383h248l-55 -266h-580z" />
<glyph unicode="\" horiz-adv-x="805" d="M360 -152l-106 1737h289l106 -1737h-289z" />
<glyph unicode="]" horiz-adv-x="928" d="M-43 -297l55 266h248l295 1383h-248l55 266h580l-405 -1915h-580z" />
<glyph unicode="^" horiz-adv-x="1210" d="M854 735l-188 479l-187 -479h-317l336 727h338l335 -727h-317z" />
<glyph unicode="_" horiz-adv-x="1184" d="M-209 -512l49 225h1260l-49 -225h-1260z" />
<glyph unicode="`" horiz-adv-x="823" d="M596 1255l-287 301h402l174 -301h-289z" />
<glyph unicode="a" horiz-adv-x="1112" d="M991 20q-19 -9 -43 -16q-20 -6 -47.5 -11t-60.5 -5q-56 0 -95 11t-65.5 29.5t-42.5 44.5t-25 56h-2q-24 -33 -54 -62t-65 -50t-77 -33.5t-90 -12.5q-63 0 -117.5 17t-95 51t-63.5 84.5t-23 116.5q0 91 37.5 166.5t103.5 130t156.5 84.5t197.5 30q44 0 82.5 -5.5 t73.5 -14.5l14 63q17 86 -23 123t-130 37q-70 0 -128.5 -10t-101.5 -21q-50 -13 -92 -30l53 251q45 14 102 25q49 9 116.5 17t150.5 8q85 0 161.5 -24t130.5 -72.5t77 -123t2 -176.5l-82 -376q-11 -48 -0.5 -77.5t59.5 -29.5q20 0 35 5q8 2 14 5zM637 449q-19 6 -42 10 t-48 4q-49 0 -86.5 -13.5t-63 -36t-38.5 -52t-13 -62.5q0 -42 27.5 -69t75.5 -27q43 0 81 20t70 49z" />
<glyph unicode="b" horiz-adv-x="1309" d="M575 1018q22 14 50 27.5t60.5 24.5t68 17.5t73.5 6.5q97 0 174.5 -33t131.5 -93t83 -144t29 -187q0 -83 -22.5 -164.5t-65.5 -155.5t-105.5 -137.5t-141.5 -109.5t-174 -72.5t-204 -26.5q-77 0 -149.5 13t-134 31.5t-108 39.5t-72.5 37l297 1403h311zM416 264 q8 -5 25 -11t39 -11t46 -8t47 -3q82 0 146.5 35.5t109.5 92.5t69 129t24 145q0 57 -15 99t-41 69t-62.5 40t-78.5 13q-29 0 -58.5 -6t-55.5 -16t-48 -21.5t-37 -22.5z" />
<glyph unicode="c" horiz-adv-x="1051" d="M829 33q-21 -9 -53.5 -20t-71.5 -20.5t-83.5 -15.5t-90.5 -6q-102 0 -185.5 29t-143.5 86t-92.5 141t-32.5 193q0 87 20 171t59 159t95.5 138t130 109t162.5 71.5t192 25.5q52 0 98.5 -6.5t85.5 -17t69.5 -23.5t51.5 -25l-51 -246q-14 9 -37.5 20t-54.5 21.5t-69.5 17.5 t-82.5 7q-81 0 -145 -31t-108.5 -84.5t-68.5 -126t-24 -154.5q0 -108 62 -161.5t174 -53.5q40 0 77 7t68.5 18t58.5 24t48 25z" />
<glyph unicode="d" horiz-adv-x="1303" d="M1108 270q-14 -60 -22 -109t-13 -85q-5 -42 -8 -76h-260q-2 16 -3 34q-1 16 -1 36t2 43q-62 -60 -144.5 -101t-185.5 -41q-92 0 -165.5 33t-125 93t-79 144t-27.5 187q0 83 20.5 164.5t60.5 155.5t99 137.5t136 109.5t171 72.5t205 26.5q37 0 71.5 -5t61.5 -10 q32 -6 60 -14l92 430h315zM911 823q-28 13 -69 21t-90 8q-67 0 -130.5 -29t-113 -83.5t-79.5 -132.5t-30 -175q0 -57 14 -97.5t39 -66t60.5 -37.5t77.5 -12q33 0 65.5 8.5t61 22.5t51 31t35.5 34z" />
<glyph unicode="e" horiz-adv-x="1165" d="M936 66q-34 -21 -76.5 -38.5t-89.5 -30t-98 -19.5t-101 -7q-115 0 -207 30t-156 87t-98 140t-34 190q0 85 19.5 168.5t57.5 158.5t93 139t126 110.5t156.5 73t184.5 26.5q87 0 161 -25.5t128 -72.5t85 -115t31 -152q0 -68 -15 -137.5t-38 -132.5h-659q-2 -10 -2.5 -19 t-0.5 -18q-6 -211 242 -211q37 0 79 6t86.5 18.5t89.5 31t87 42.5zM805 651q6 20 8 40t2 38q0 63 -33.5 100t-95.5 37q-46 0 -86 -18.5t-71.5 -48.5t-53.5 -68.5t-33 -79.5h363z" />
<glyph unicode="f" horiz-adv-x="752" d="M82 0l174 821h-152l52 244h151l19 82q21 93 58 159t89 108t117.5 61.5t142.5 19.5q31 0 62.5 -2.5t59 -7t48.5 -10t33 -11.5l-49 -237q-29 9 -60 15.5t-69 6.5q-47 0 -79.5 -23t-43.5 -79l-17 -82h222l-52 -244h-221l-174 -821h-311z" />
<glyph unicode="g" horiz-adv-x="1298" d="M745 66q-46 -23 -111 -43.5t-140 -20.5q-97 0 -174.5 31t-131.5 89t-83 141t-29 186q0 83 22.5 163t65 151.5t104.5 132t141 104.5t173.5 69t203.5 25q78 0 150.5 -13t134 -31.5t108 -39.5t72.5 -37l-200 -953q-29 -138 -92 -238.5t-151.5 -165.5t-199.5 -96.5 t-237 -31.5q-82 0 -151 15t-122.5 36t-88.5 43t-50 37l57 266q19 -19 53 -45.5t81.5 -51t108 -41.5t132.5 -17q61 0 116 15.5t99.5 48.5t77 84t47.5 122zM903 801q-8 5 -25 11t-39 11t-46.5 8t-47.5 3q-81 0 -145.5 -32.5t-109 -85.5t-68 -121.5t-23.5 -141.5q0 -58 15 -100 t41 -69t62.5 -40t78.5 -13q29 0 58.5 6t55.5 16t48 21.5t37 22.5z" />
<glyph unicode="h" horiz-adv-x="1288" d="M729 0l133 633q9 40 8 78t-15.5 67t-44 46.5t-77.5 17.5q-32 0 -63 -11t-59.5 -28t-52 -36.5t-38.5 -37.5l-153 -729h-316l318 1495h315l-123 -571q15 17 44.5 45.5t72 56.5t98.5 48t125 20q89 0 152 -33t99.5 -88t46.5 -127.5t-7 -151.5l-148 -694h-315z" />
<glyph unicode="i" horiz-adv-x="629" d="M49 0l225 1065h316l-225 -1065h-316zM682 1415q0 -48 -18.5 -84t-49.5 -60.5t-70 -37t-79 -12.5q-68 0 -109 31t-41 89q0 48 18.5 84t49.5 61t69.5 37.5t79.5 12.5q69 0 109.5 -31t40.5 -90z" />
<glyph unicode="j" horiz-adv-x="659" d="M-184 -250q11 -5 25 -9q12 -4 28.5 -6.5t36.5 -2.5q57 0 93.5 34.5t53.5 114.5l252 1184h316l-246 -1159q-24 -111 -62.5 -190.5t-92.5 -130.5t-124.5 -75t-158.5 -24q-36 0 -67.5 4t-54.5 9q-27 6 -51 14zM713 1415q0 -48 -18.5 -84t-49.5 -60.5t-70 -37t-79 -12.5 q-68 0 -109 31t-41 89q0 48 18.5 84t49.5 61t69.5 37.5t79.5 12.5q68 0 109 -31t41 -90z" />
<glyph unicode="k" horiz-adv-x="1137" d="M729 0l-151 416l-148 -109l-63 -307h-316l318 1495h315l-178 -833l377 403h377l-461 -457l276 -608h-346z" />
<glyph unicode="l" horiz-adv-x="676" d="M561 -8q-21 -7 -46 -11q-21 -4 -48.5 -7t-56.5 -3q-96 0 -162 28t-102.5 78.5t-45.5 120.5t9 154l243 1143h316l-236 -1108q-8 -38 -8 -65.5t9.5 -46.5t31 -28t57.5 -9q29 0 53 5t41 11z" />
<glyph unicode="m" horiz-adv-x="1905" d="M1346 0l133 633q7 35 9.5 72t-7.5 67.5t-36 50t-77 19.5q-27 0 -56.5 -11.5t-56.5 -28.5t-50 -36.5t-38 -36.5l-6 -35l-147 -694h-316l133 633q7 35 9.5 72t-7 67.5t-35.5 50t-77 19.5q-29 0 -59 -11.5t-57 -28.5t-49.5 -36.5t-35.5 -34.5l-153 -731h-316l168 795 q12 59 20.5 108.5t13.5 85.5q6 42 9 76h295q0 -19 -1 -44q-2 -44 -9 -114q20 25 52.5 57t76.5 61t99.5 49t121.5 20q108 0 176.5 -53t89.5 -146q32 34 72.5 69.5t88.5 64.5t103 47t117 18q79 0 137.5 -29t93 -81.5t43.5 -126t-10 -163.5l-147 -694h-315z" />
<glyph unicode="n" horiz-adv-x="1288" d="M729 0l133 633q9 40 8 78t-15.5 67t-44 46.5t-77.5 17.5q-32 0 -63 -11t-59.5 -28t-52 -36.5t-38.5 -37.5l-153 -729h-316l168 795q12 59 20.5 108.5t13.5 85.5q6 42 9 76h295q0 -19 -1 -43q-1 -20 -3 -49.5t-6 -65.5q18 22 50 54.5t76.5 61.5t101.5 50t126 21 q89 0 152 -33t99.5 -88t46.5 -127.5t-7 -151.5l-148 -694h-315z" />
<glyph unicode="o" horiz-adv-x="1266" d="M571 213q73 0 130 40t96 101.5t59.5 134.5t20.5 138q0 111 -44.5 168t-125.5 57q-73 0 -130.5 -40t-97 -101.5t-60 -134.5t-20.5 -138q0 -112 45.5 -168.5t126.5 -56.5zM541 -29q-106 0 -192 34t-146.5 95.5t-93.5 146.5t-33 187q0 85 22 167t63.5 155.5t100 135 t132 106.5t160 70.5t183.5 25.5q105 0 191 -34t147 -95.5t94 -146.5t33 -187q0 -85 -22 -167t-63.5 -155.5t-100 -135t-132 -106.5t-160 -70.5t-183.5 -25.5z" />
<glyph unicode="p" horiz-adv-x="1315" d="M256 -512h-315l278 1307q13 59 21.5 108.5t13.5 85.5q5 42 8 76h260q1 -16 2 -34q1 -16 1.5 -36t-1.5 -43q62 60 144.5 101t185.5 41q92 0 165.5 -33t125 -93t79 -144t27.5 -187q0 -83 -20.5 -164.5t-60.5 -155.5t-99 -137.5t-136 -109.5t-171.5 -72.5t-204.5 -26.5 q-37 0 -71.5 4.5t-61.5 9.5q-32 6 -59 15zM416 242q28 -13 69 -21t90 -8q67 0 130.5 29t113 83.5t79.5 132t30 175.5q0 57 -14 97.5t-39 66t-60.5 37.5t-77.5 12q-33 0 -65.5 -8.5t-61 -22.5t-51 -31t-35.5 -34z" />
<glyph unicode="q" horiz-adv-x="1300" d="M629 -512l116 559q-21 -14 -49 -27.5t-60.5 -24.5t-68.5 -17.5t-73 -6.5q-97 0 -174.5 33t-131.5 93t-83 144t-29 187q0 83 22.5 164.5t65.5 155.5t105 137.5t141.5 109.5t174 72.5t203.5 26.5q78 0 150.5 -13t134 -31.5t108 -39.5t72.5 -37l-313 -1485h-311zM905 801 q-8 5 -25 11t-39 11t-46 8t-47 3q-82 0 -146.5 -35.5t-109.5 -92.5t-69 -129t-24 -145q0 -57 15 -99t41 -69t62.5 -40t78.5 -13q29 0 58.5 6t55.5 16t48 21t37 22z" />
<glyph unicode="r" horiz-adv-x="864" d="M51 0l168 795q12 59 20.5 108.5t13.5 85.5q6 42 9 76h295q-1 -29 -3 -62q-2 -28 -5.5 -62t-11.5 -69h4q18 27 49 65t74 73t96 59.5t114 24.5q20 0 37 -3t30 -7q14 -4 26 -9l-60 -284q-15 5 -34 9q-17 3 -42 6t-59 3q-58 0 -104.5 -13.5t-79.5 -29.5q-39 -19 -68 -43 l-153 -723h-316z" />
<glyph unicode="s" horiz-adv-x="952" d="M55 297q27 -18 62 -34t73.5 -28.5t79 -20t78.5 -7.5q26 0 55.5 4.5t54.5 15.5t41.5 30.5t16.5 49.5q0 34 -26.5 60t-66.5 52t-87 55t-87 67.5t-66.5 90.5t-26.5 124q0 82 35 145t94 106t136.5 65t162.5 22q61 0 115 -6t98 -16t78 -21.5t57 -22.5l-53 -246 q-20 13 -49 26.5t-63.5 24.5t-71 18t-70.5 7q-73 0 -110.5 -23t-37.5 -63q0 -32 27 -58t67.5 -52t88 -55t88 -68t67.5 -90.5t27 -122.5q0 -86 -37.5 -152.5t-100 -111.5t-144 -68t-169.5 -23q-64 0 -125 7.5t-112.5 19t-91 25.5t-60.5 28z" />
<glyph unicode="t" horiz-adv-x="786" d="M635 -2q-28 -8 -60 -14q-27 -5 -61.5 -9t-69.5 -4q-103 0 -166 31t-93.5 86.5t-32.5 133t18 169.5l92 430h-151l51 244h151l54 246l327 61l-65 -307h229l-51 -244h-229l-93 -434q-8 -40 -5 -68t16 -46t35.5 -26.5t52.5 -8.5q20 0 39.5 2.5t34.5 6.5q18 4 32 9z" />
<glyph unicode="u" horiz-adv-x="1290" d="M754 0q0 19 1 43q2 42 9 115q-18 -23 -50 -55t-76.5 -61t-101.5 -50t-126 -21q-89 0 -152 33t-99.5 88t-46.5 127.5t7 151.5l147 694h316l-133 -633q-9 -41 -8 -78.5t15.5 -66.5t44 -46.5t77.5 -17.5q31 0 62.5 11t60 28t52 36.5t38.5 37.5l153 729h316l-168 -795 q-13 -60 -21 -109t-13 -85q-6 -42 -9 -76h-295z" />
<glyph unicode="v" horiz-adv-x="1087" d="M309 0l-207 1065h297l97 -653l362 653h342l-657 -1065h-234z" />
<glyph unicode="w" horiz-adv-x="1681" d="M948 0l-88 672l-371 -672h-241l-146 1065h287l74 -600l332 600h256l82 -600l321 600h330l-596 -1065h-240z" />
<glyph unicode="x" horiz-adv-x="1038" d="M618 0l-129 322l-243 -322h-371l487 557l-229 508h313l111 -285l213 285h371l-457 -522l248 -543h-314z" />
<glyph unicode="y" horiz-adv-x="1044" d="M-178 -215q16 -5 36 -9q17 -4 42 -6.5t55 -2.5q31 0 68 8t77 32.5t81.5 69.5t82.5 119l21 37l-172 1032h303l80 -645l321 645h350l-583 -1065q-85 -154 -168.5 -253t-167 -156.5t-167.5 -80t-169 -22.5q-36 0 -63.5 4.5t-46.5 9.5q-22 6 -38 15z" />
<glyph unicode="z" horiz-adv-x="967" d="M-51 0l35 172l571 659h-408l50 234h821l-37 -172l-569 -660h450l-49 -233h-864z" />
<glyph unicode="{" horiz-adv-x="813" d="M524 -297q-217 0 -322.5 53t-105.5 174q0 61 20 118t46.5 112.5t53 110.5t38.5 114q9 45 4 76t-23 50.5t-48.5 28.5t-71.5 9l49 223q52 0 92 17.5t67.5 49.5t41.5 77t14 100q0 43 -3 89.5t-3 94.5q0 126 41 206t115 126.5t176.5 65t224.5 20.5l-45 -215q-55 0 -91 -14 t-57.5 -41t-30 -67.5t-8.5 -94.5q0 -38 3.5 -77t3.5 -77q0 -67 -19 -128t-56.5 -109.5t-93 -82t-128.5 -44.5l-5 -15q85 -11 135 -61t50 -133q0 -57 -18 -109.5t-42.5 -104t-49 -104.5t-36.5 -110t15.5 -85t111.5 -28z" />
<glyph unicode="|" horiz-adv-x="782" d="M266 -348v2007h332v-2007h-332z" />
<glyph unicode="}" horiz-adv-x="813" d="M2 -82q54 0 90 14t57.5 41t30 67.5t8.5 94.5q0 38 -3 77t-3 77q0 70 18 131t54.5 109t92.5 80.5t132 43.5l4 15q-85 11 -134.5 61t-49.5 133q0 57 18 109.5t42.5 104t48.5 104.5t36 110q13 57 -14.5 85t-112.5 28l45 215q217 0 323 -53t106 -174q0 -62 -20 -120 t-46.5 -114t-53 -111t-38.5 -110q-20 -89 18 -126.5t121 -37.5l-49 -223q-111 0 -163 -64.5t-52 -179.5q0 -43 3 -89.5t3 -94.5q0 -126 -41 -206t-115 -126.5t-176.5 -65t-224.5 -20.5z" />
<glyph unicode="~" horiz-adv-x="1481" d="M1358 852q0 -96 -23.5 -176t-69.5 -138t-114 -90t-156 -32q-72 0 -133 22.5t-114.5 50t-102 50t-96.5 22.5q-34 0 -58.5 -11t-40 -31t-23 -47.5t-7.5 -59.5h-256q0 96 23 176t68 138t112.5 90t156.5 32q49 0 92.5 -11t82.5 -27t75 -35t69.5 -35t65.5 -27t64 -11 q68 0 98.5 42t30.5 108h256z" />
<glyph unicode="&#xa1;" horiz-adv-x="606" d="M-55 -369l223 916h291l-166 -916h-348zM594 938q0 -52 -21 -97t-55.5 -78t-79 -52t-92.5 -19q-37 0 -67 11.5t-51.5 32t-33.5 49t-12 63.5q0 52 21 97t55.5 78t79 52t92.5 19q37 0 67 -11.5t51.5 -32t33.5 -49.5t12 -63z" />
<glyph unicode="&#xa2;" horiz-adv-x="1051" d="M158 -225l104 264q-88 54 -137 149.5t-49 231.5q0 126 41.5 243.5t120.5 210t193 151t259 67.5l90 227h232l-103 -248q44 -11 76 -24t55 -25l-51 -246q-14 9 -37.5 20t-54.5 21.5t-69.5 17.5t-82.5 7q-81 0 -145 -31t-108.5 -84.5t-68.5 -126t-24 -154.5 q0 -108 62 -161.5t174 -53.5q40 0 77 7t68.5 18t58.5 24t48 25l-58 -272q-21 -9 -53.5 -20t-71.5 -20.5t-83.5 -15.5t-90.5 -6q-15 0 -30.5 1t-30.5 3l-80 -200h-231z" />
<glyph unicode="&#xa3;" horiz-adv-x="1104" d="M928 43q-22 -20 -51 -36q-25 -14 -60 -25t-80 -11q-69 0 -117 13t-89 28t-82.5 28t-96.5 13q-46 0 -89 -13t-78 -29q-40 -18 -76 -42l-64 156q64 24 115 67t86.5 99t54 123.5t18.5 140.5v31.5t-2 31.5h-157l39 185h106q0 52 3.5 111.5t19.5 132.5q21 102 69.5 179.5 t117 130t154 79t181.5 26.5q65 0 118 -10.5t91 -23.5q45 -15 80 -33l-54 -256q-28 19 -63 34q-30 13 -71.5 24t-92.5 11q-33 0 -65.5 -10t-60 -31t-48.5 -54t-31 -79q-15 -71 -19.5 -126.5t-4.5 -104.5h274l-39 -185h-231q-5 -48 -13 -101t-26 -102t-48.5 -91t-80.5 -68 l2 -8q10 2 23 5q11 2 27 3.5t36 1.5q28 0 54.5 -3.5t52.5 -7.5t53.5 -7.5t56.5 -3.5q48 0 87 9.5t67 20.5q33 13 57 31z" />
<glyph unicode="&#xa4;" horiz-adv-x="1331" d="M707 193q-70 0 -133 17t-117 48l-144 -141l-170 170l142 143q-31 54 -48.5 117.5t-17.5 132.5t17 131.5t49 118.5l-142 143l170 170l144 -143q54 32 117 49.5t133 17.5q68 0 130.5 -17.5t116.5 -49.5l146 143l170 -170l-144 -143q32 -56 50 -118.5t18 -131.5t-18 -132.5 t-50 -117.5l144 -143l-170 -170l-144 143q-55 -32 -117.5 -49.5t-131.5 -17.5zM707 416q53 0 97 20t76 55t50 83.5t18 105.5t-18 105t-50 83.5t-76 55.5t-97 20t-97.5 -20t-76.5 -55.5t-50 -83.5t-18 -105t18 -105.5t50 -83.5t76.5 -55t97.5 -20z" />
<glyph unicode="&#xa5;" horiz-adv-x="1217" d="M719 227l-47 -227h-332l47 227h-317l39 179h315l27 120h-318l39 179h223l-223 729h356l138 -560l370 560h410l-535 -729h232l-39 -179h-322l-26 -120h323l-39 -179h-321z" />
<glyph unicode="&#xa6;" horiz-adv-x="778" d="M266 -348v899h328v-899h-328zM266 760v899h328v-899h-328z" />
<glyph unicode="&#xa7;" horiz-adv-x="1227" d="M2 -84q77 -37 168.5 -62.5t200.5 -25.5q37 0 77 6.5t73.5 22.5t55 42t21.5 64q0 44 -34 77t-85 64t-110.5 63.5t-110.5 76t-85 101.5t-34 140q0 129 74 218t203 133q-51 45 -84 102t-33 135q0 93 43 165.5t118.5 122t178 75.5t221.5 26q58 0 116.5 -6t110 -16t93.5 -23 t69 -26l-61 -256q-28 12 -62 25t-74.5 24.5t-86.5 18.5t-97 7q-93 0 -147.5 -34.5t-54.5 -90.5q0 -31 19.5 -56t51.5 -48t73 -46t84 -49t84 -56.5t73 -69.5t51.5 -87.5t19.5 -109.5q0 -127 -71.5 -217.5t-196.5 -138.5q48 -45 78.5 -100.5t30.5 -131.5q0 -95 -45.5 -170.5 t-124.5 -128t-185.5 -80.5t-228.5 -28q-77 0 -144 7.5t-122.5 20t-98.5 28t-73 30.5zM678 674q-45 -2 -82 -15.5t-63 -36t-40 -52.5t-14 -64q0 -41 35 -73t88 -64q34 6 67 19.5t58.5 35.5t41 51.5t15.5 67.5q0 40 -30 71t-76 60z" />
<glyph unicode="&#xa8;" horiz-adv-x="981" d="M606 1403q-7 -33 -24.5 -61.5t-42 -49.5t-55 -33t-62.5 -12q-35 0 -61 12t-42.5 33t-22.5 49.5t1 61.5t24.5 61t43 48.5t56.5 32t66 11.5q32 0 57.5 -11.5t41.5 -32t21.5 -48.5t-1.5 -61zM1073 1403q-7 -33 -24.5 -61.5t-42 -49.5t-55 -33t-62.5 -12q-35 0 -61.5 12 t-43 33t-22 49.5t1.5 61.5t24.5 61t43 48.5t56.5 32t66 11.5q32 0 57.5 -11.5t41.5 -32t21.5 -48.5t-1.5 -61z" />
<glyph unicode="&#xa9;" horiz-adv-x="1737" d="M920 -29q-155 0 -290.5 58.5t-237 160t-160 237t-58.5 290.5q0 103 26.5 198t75 178t117 151t151 116.5t178 75t198.5 26.5t198 -26.5t178 -75t151 -116.5t116.5 -151t75 -178t26.5 -198t-26.5 -198.5t-75 -178t-116.5 -151t-151 -117t-178 -75t-198 -26.5zM920 145 q115 0 214.5 42t172.5 118t115 181t42 231t-42 231t-115 180.5t-172.5 117.5t-214.5 42q-116 0 -215.5 -42t-172.5 -117.5t-115 -180.5t-42 -231t42 -231t115 -181t172.5 -118t215.5 -42zM1167 360q-28 -17 -85.5 -35t-135.5 -18q-85 0 -157.5 30t-126 84t-83.5 129.5 t-30 166.5q0 90 30 165.5t83.5 129.5t126 84t157.5 30q39 0 73 -5t62.5 -13t50 -17t35.5 -18v-188q-35 34 -83 60t-115 26q-55 0 -97.5 -18.5t-72 -52t-45 -80t-15.5 -103.5t15.5 -104t45 -80t72 -51.5t97.5 -18.5q67 0 115 26t83 60v-189z" />
<glyph unicode="&#xaa;" horiz-adv-x="950" d="M885 758q-16 -7 -36 -12q-17 -5 -40.5 -8t-50.5 -3q-32 0 -54.5 7t-37 18.5t-22.5 25.5t-11 29q-18 -17 -41.5 -33t-51 -29t-60.5 -20.5t-70 -7.5q-48 0 -87.5 14t-66 41.5t-36 69.5t2.5 98q10 48 38 91t72.5 75.5t103.5 52t132 19.5q62 0 115 -12l6 24q4 23 1 42 t-16 32.5t-37.5 20.5t-62.5 7q-52 0 -96 -11t-76 -24q-38 -15 -69 -34l37 172q33 16 75 29q36 11 86 20.5t111 9.5q127 0 194.5 -46t67.5 -136q0 -29 -6 -59l-55 -267q-8 -38 3 -52.5t36 -14.5q12 0 22 2l8 2zM657 1049q-30 6 -67 6q-38 0 -66.5 -8t-48.5 -22t-31.5 -32 t-15.5 -37q-8 -35 14.5 -58.5t73.5 -23.5q32 0 61 13.5t54 32.5zM111 430l30 148h705l-31 -148h-704z" />
<glyph unicode="&#xab;" horiz-adv-x="1233" d="M55 410l60 280l575 410l-63 -295l-326 -279l209 -276l-53 -250zM545 410l59 280l576 410l-64 -295l-325 -279l208 -276l-53 -250z" />
<glyph unicode="&#xac;" horiz-adv-x="1409" d="M1038 254v381h-895v268h1164v-649h-269z" />
<glyph unicode="&#xae;" horiz-adv-x="1737" d="M920 -29q-155 0 -290.5 58.5t-237 160t-160 237t-58.5 290.5q0 103 26.5 198t75 178t117 151t151 116.5t178 75t198.5 26.5t198 -26.5t178 -75t151 -116.5t116.5 -151t75 -178t26.5 -198t-26.5 -198.5t-75 -178t-116.5 -151t-151 -117t-178 -75t-198 -26.5zM920 145 q114 0 213 43t172.5 119.5t116 181t42.5 228.5t-42.5 228.5t-116 180.5t-172.5 119t-213 43t-213.5 -43t-174 -119t-117 -180.5t-42.5 -228.5t42.5 -228.5t117 -181t174 -119.5t213.5 -43zM1085 322l-153 264h-109v-264h-180v788h287q71 0 126 -21t92 -56.5t56 -83 t19 -101.5q0 -69 -31.5 -127.5t-91.5 -93.5l200 -305h-215zM897 733q60 0 97.5 26.5t37.5 88.5q0 32 -9.5 54.5t-27 36.5t-42.5 20t-56 6h-74v-232h74z" />
<glyph unicode="&#xaf;" horiz-adv-x="831" d="M270 1317l49 227h644l-50 -227h-643z" />
<glyph unicode="&#xb0;" horiz-adv-x="866" d="M942 1171q0 -56 -17 -111t-47.5 -104t-73.5 -91t-94 -72.5t-108.5 -48t-118.5 -17.5q-67 0 -122.5 22t-95 60.5t-61.5 91.5t-22 115q0 84 37 164t100 142.5t145.5 101t174.5 38.5q67 0 122.5 -22t95.5 -60.5t62.5 -92t22.5 -116.5zM711 1094q7 33 2 61.5t-20.5 49 t-40.5 32.5t-58 12q-32 0 -62 -12t-54 -32.5t-40.5 -49t-23.5 -61.5q-7 -32 -2 -60t20 -49t39.5 -33t56.5 -12q33 0 63 12t54.5 33t41.5 49t24 60z" />
<glyph unicode="&#xb1;" horiz-adv-x="1419" d="M879 655v-288h-258v288h-396v258h396v269h258v-269h397v-258h-397zM225 0v258h1051v-258h-1051z" />
<glyph unicode="&#xb2;" horiz-adv-x="733" d="M145 688l23 105l242 229q35 34 60.5 61.5t42.5 49t26.5 39.5t13.5 34q5 23 -11.5 39.5t-52.5 16.5q-26 0 -57.5 -9.5t-63 -24t-60.5 -30.5t-50 -29l43 207q57 34 121 53t127 19q61 0 107.5 -17.5t76 -49t40.5 -75.5t-1 -96q-14 -63 -61 -124.5t-125 -133.5l-88 -82h219 l-39 -182h-533z" />
<glyph unicode="&#xb3;" horiz-adv-x="709" d="M184 893q22 -7 47.5 -13t50.5 -10t49 -6t44 -2q46 0 75 21t35 47q8 38 -37 59t-147 21l18 82l158 159h-215l39 183h494l-21 -103l-180 -180q66 -25 97 -81.5t14 -139.5q-11 -52 -41 -98.5t-77 -81.5t-109.5 -55.5t-137.5 -20.5q-53 0 -107 10t-88 23z" />
<glyph unicode="&#xb4;" horiz-adv-x="840" d="M551 1255h-285l301 301h398z" />
<glyph unicode="&#xb5;" horiz-adv-x="1382" d="M1247 -2q-24 -9 -52 -15q-24 -5 -55 -9.5t-65 -4.5q-125 0 -191.5 49t-78.5 154h-4q-23 -29 -59 -64t-84 -65.5t-107 -51t-129 -20.5q-19 0 -34.5 1t-31.5 3l-73 -342h-312l305 1432h312l-135 -633q-9 -38 -7.5 -75.5t16 -67t44.5 -48t78 -18.5q35 0 69.5 10t64.5 25 t54.5 33t40.5 35l158 739h311l-149 -700q-14 -70 8 -99.5t76 -29.5q17 0 33 2.5t28 6.5q14 4 25 9z" />
<glyph unicode="&#xb6;" horiz-adv-x="1595" d="M911 -512l359 1679h-207l-358 -1679h-308l199 934h-10q-105 0 -185 26t-133.5 74t-80.5 116t-27 153q0 128 47.5 244.5t132.5 205t202.5 141t258.5 52.5h827l-409 -1946h-308z" />
<glyph unicode="&#xb7;" horiz-adv-x="688" d="M348 504q-43 0 -76.5 15t-54.5 41.5t-28.5 63.5t1.5 81q9 43 32 80t55 63.5t72 41.5t83 15t77 -15t55.5 -41.5t29 -63.5t-1.5 -80q-9 -44 -32.5 -81t-56 -63.5t-72.5 -41.5t-83 -15z" />
<glyph unicode="&#xb8;" horiz-adv-x="659" d="M-80 -367q17 -9 37 -16q17 -6 40.5 -11t49.5 -5q42 0 70.5 21.5t36.5 60.5q5 24 -6 43.5t-34.5 33.5t-58 21.5t-75.5 7.5l163 211h222l-101 -119q34 -10 61.5 -27.5t45 -43t24 -57.5t-1.5 -70q-12 -56 -47 -98.5t-83.5 -71t-105.5 -42.5t-114 -14q-32 0 -60 3.5t-48 8.5 q-24 5 -44 13z" />
<glyph unicode="&#xb9;" horiz-adv-x="537" d="M262 688l119 563h-119l39 183h336l-158 -746h-217z" />
<glyph unicode="&#xba;" horiz-adv-x="987" d="M545 725q-71 0 -127 20.5t-95 57t-60 88.5t-21 115q0 88 35.5 170.5t97.5 146t145.5 101.5t179.5 38q71 0 127.5 -20t95.5 -57t60 -88.5t21 -114.5q0 -92 -35.5 -173t-98 -142t-146 -98.5t-179.5 -43.5zM578 885q51 0 91 25.5t67.5 65.5t42 90t14.5 99q0 68 -33.5 103 t-91.5 35q-52 0 -92 -25.5t-67.5 -66t-41.5 -90.5t-14 -99q0 -68 33 -102.5t92 -34.5zM109 422l32 156h742l-33 -156h-741z" />
<glyph unicode="&#xbb;" horiz-adv-x="1233" d="M569 0l64 295l325 278l-208 277l53 250l401 -410l-59 -280zM80 0l63 295l326 278l-209 277l53 250l402 -410l-60 -280z" />
<glyph unicode="&#xbc;" horiz-adv-x="1575" d="M262 688l119 563h-119l39 183h336l-158 -746h-217zM164 -29l1018 1491h258l-1018 -1491h-258zM1071 0l25 125h-301l28 131l482 489h135l-94 -444h90l-39 -176h-90l-25 -125h-211zM1167 459l-155 -158h123z" />
<glyph unicode="&#xbd;" horiz-adv-x="1638" d="M264 688l119 563h-123l39 183h340l-158 -746h-217zM164 -29l1018 1491h258l-1018 -1491h-258zM905 0l21 104l241 230q36 34 62 61.5t43.5 49t26.5 39.5t12 34q5 23 -11 39t-51 16q-26 0 -57.5 -9.5t-63 -23.5t-61 -30t-51.5 -29l45 207q57 34 120 53t126 19 q60 0 107 -17.5t77 -49t41 -75.5t0 -96q-14 -63 -61 -125t-125 -133l-91 -82h220l-37 -182h-533z" />
<glyph unicode="&#xbe;" horiz-adv-x="1688" d="M594 1151q66 -25 97 -81.5t14 -139.5q-11 -52 -41 -98.5t-77 -81.5t-109.5 -55.5t-137.5 -20.5q-53 0 -107 10t-88 23l39 186q22 -7 47.5 -13t50.5 -10t49 -6t44 -2q46 0 75 21t35 47q8 38 -37 59t-147 21l18 82l158 159h-215l39 183h494l-21 -103zM276 -29l1018 1491 h260l-1017 -1491h-261zM1184 0l24 125h-303l29 131l481 489h139l-94 -444h90l-39 -176h-90l-24 -125h-213zM1280 459l-156 -158h123z" />
<glyph unicode="&#xbf;" horiz-adv-x="944" d="M670 -336q-91 -37 -177 -49t-155 -12q-83 0 -148.5 19t-111.5 54t-70 84.5t-24 110.5q0 64 17.5 114.5t47 92t68 76.5t79.5 68t82 66.5t75.5 72t60.5 84t37 102.5h274q-6 -86 -37.5 -154t-75.5 -122.5t-93 -98t-90.5 -82t-69 -74.5t-27.5 -75q0 -80 129 -80 q62 0 131.5 17.5t134.5 49.5zM866 938q0 -52 -21 -97t-55.5 -78t-79 -52t-92.5 -19q-37 0 -67 11.5t-51.5 32t-33 49t-11.5 63.5q0 52 20.5 97t55 78t79 52t92.5 19q37 0 67.5 -11.5t52 -32t33 -49.5t11.5 -63z" />
<glyph unicode="&#xc0;" horiz-adv-x="1315" d="M0 0zM915 0l-28 236h-514l-129 -236h-375l842 1434h301l235 -1434h-332zM793 1004l-293 -535h358zM827 1624l-287 301h402l174 -301h-289z" />
<glyph unicode="&#xc1;" horiz-adv-x="1315" d="M0 0zM915 0l-28 236h-514l-129 -236h-375l842 1434h301l235 -1434h-332zM793 1004l-293 -535h358zM928 1624h-285l301 301h398z" />
<glyph unicode="&#xc2;" horiz-adv-x="1315" d="M0 0zM915 0l-28 236h-514l-129 -236h-375l842 1434h301l235 -1434h-332zM793 1004l-293 -535h358zM1021 1624l-100 156l-166 -156h-268l307 322h324l172 -322h-269z" />
<glyph unicode="&#xc3;" horiz-adv-x="1315" d="M0 0zM915 0l-28 236h-514l-129 -236h-375l842 1434h301l235 -1434h-332zM793 1004l-293 -535h358zM1393 2009q-15 -66 -43.5 -131t-72.5 -116t-102.5 -83t-133.5 -32q-42 0 -72.5 10.5t-53.5 27t-40.5 35t-34 35t-34.5 27t-42 10.5q-42 0 -72 -35t-44 -106h-195 q13 64 41.5 129t72 117t101.5 84.5t131 32.5q40 0 70.5 -11t54 -27t41.5 -35t35.5 -35t34.5 -27t39 -11q48 0 79.5 38t45.5 103h194z" />
<glyph unicode="&#xc4;" horiz-adv-x="1315" d="M0 0zM915 0l-28 236h-514l-129 -236h-375l842 1434h301l235 -1434h-332zM793 1004l-293 -535h358zM835 1772q-7 -33 -24.5 -61.5t-42 -49.5t-55 -33t-62.5 -12q-35 0 -61 12t-42.5 33t-22.5 49.5t1 61.5t24.5 61t43 48.5t56.5 32t66 11.5q32 0 57.5 -11.5t41.5 -32 t21.5 -48.5t-1.5 -61zM1302 1772q-7 -33 -24.5 -61.5t-42 -49.5t-55 -33t-62.5 -12q-35 0 -61.5 12t-43 33t-22 49.5t1.5 61.5t24.5 61t43 48.5t56.5 32t66 11.5q32 0 57.5 -11.5t41.5 -32t21.5 -48.5t-1.5 -61z" />
<glyph unicode="&#xc5;" horiz-adv-x="1315" d="M0 0zM915 0l-28 236h-514l-129 -236h-375l842 1434h301l235 -1434h-332zM793 1004l-293 -535h358zM1007 1613q13 54 -11 88.5t-75 34.5q-25 0 -47.5 -9t-41 -25.5t-31.5 -39t-19 -49.5q-13 -57 11 -92t75 -35t89 35t50 92zM1204 1681q0 -70 -29.5 -135.5t-80 -116 t-118 -81t-143.5 -30.5q-55 0 -100.5 16.5t-78.5 46t-51 71t-18 92.5q0 70 29.5 135t80 115t118 80t143.5 30q55 0 100.5 -16t78.5 -45t51 -70t18 -92z" />
<glyph unicode="&#xc6;" horiz-adv-x="1970" d="M862 0l49 236h-481l-188 -236h-373l1159 1434h1018l-55 -267h-553l-64 -297h451l-58 -266h-450l-72 -338h553l-55 -266h-881zM1087 1063l-471 -594h345z" />
<glyph unicode="&#xc7;" horiz-adv-x="1257" d="M111 0zM1079 66q-25 -15 -65.5 -32t-92 -31t-113.5 -23t-130 -9q-129 0 -233.5 45t-179 124.5t-114.5 189t-40 237.5q0 115 28.5 226t82 210t131 183.5t175.5 145.5t215 95.5t250 34.5q65 0 122.5 -10t104 -24.5t81 -31t53.5 -30.5l-66 -285q-22 15 -53.5 32.5 t-71.5 31.5t-88 23.5t-102 9.5q-116 0 -210 -50t-161 -132t-103 -187t-36 -215q0 -79 18 -142t55.5 -107t95 -67.5t136.5 -23.5q55 0 109 12t102.5 30t90 39.5t71.5 39.5zM330 -367q17 -9 37 -16q17 -6 40.5 -11t49.5 -5q42 0 70.5 21.5t36.5 60.5q5 24 -6 43.5t-34.5 33.5 t-58 21.5t-75.5 7.5l163 211h222l-101 -119q34 -10 61.5 -27.5t45 -43t24 -57.5t-1.5 -70q-12 -56 -47 -98.5t-83.5 -71t-105.5 -42.5t-114 -14q-32 0 -60 3.5t-48 8.5q-24 5 -44 13z" />
<glyph unicode="&#xc8;" d="M125 0zM125 0l303 1434h885l-56 -267h-553l-63 -297h450l-57 -266h-451l-71 -338h553l-56 -266h-884zM739 1624l-287 301h402l174 -301h-289z" />
<glyph unicode="&#xc9;" d="M72 0zM72 0l303 1434h885l-56 -267h-553l-63 -297h450l-57 -266h-451l-71 -338h553l-56 -266h-884zM807 1624h-285l301 301h398z" />
<glyph unicode="&#xca;" d="M125 0zM125 0l303 1434h885l-56 -267h-553l-63 -297h450l-57 -266h-451l-71 -338h553l-56 -266h-884zM944 1624l-100 156l-166 -156h-268l307 322h324l172 -322h-269z" />
<glyph unicode="&#xcb;" d="M125 0zM125 0l303 1434h885l-56 -267h-553l-63 -297h450l-57 -266h-451l-71 -338h553l-56 -266h-884zM784 1772q-7 -33 -24.5 -61.5t-42 -49.5t-55 -33t-62.5 -12q-35 0 -61 12t-42.5 33t-22.5 49.5t1 61.5t24.5 61t43 48.5t56.5 32t66 11.5q32 0 57.5 -11.5t41.5 -32 t21.5 -48.5t-1.5 -61zM1251 1772q-7 -33 -24.5 -61.5t-42 -49.5t-55 -33t-62.5 -12q-35 0 -61.5 12t-43 33t-22 49.5t1.5 61.5t24.5 61t43 48.5t56.5 32t66 11.5q32 0 57.5 -11.5t41.5 -32t21.5 -48.5t-1.5 -61z" />
<glyph unicode="&#xcc;" horiz-adv-x="680" d="M72 0zM72 0l303 1434h332l-304 -1434h-331zM507 1624l-287 301h402l174 -301h-289z" />
<glyph unicode="&#xcd;" horiz-adv-x="680" d="M72 0zM72 0l303 1434h332l-304 -1434h-331zM604 1624h-285l301 301h398z" />
<glyph unicode="&#xce;" horiz-adv-x="680" d="M72 0zM72 0l303 1434h332l-304 -1434h-331zM711 1624l-100 156l-166 -156h-268l307 322h324l172 -322h-269z" />
<glyph unicode="&#xcf;" horiz-adv-x="680" d="M72 0zM72 0l303 1434h332l-304 -1434h-331zM531 1772q-7 -33 -24.5 -61.5t-42 -49.5t-55 -33t-62.5 -12q-35 0 -61 12t-42.5 33t-22.5 49.5t1 61.5t24.5 61t43 48.5t56.5 32t66 11.5q32 0 57.5 -11.5t41.5 -32t21.5 -48.5t-1.5 -61zM998 1772q-7 -33 -24.5 -61.5 t-42 -49.5t-55 -33t-62.5 -12q-35 0 -61.5 12t-43 33t-22 49.5t1.5 61.5t24.5 61t43 48.5t56.5 32t66 11.5q32 0 57.5 -11.5t41.5 -32t21.5 -48.5t-1.5 -61z" />
<glyph unicode="&#xd0;" horiz-adv-x="1452" d="M76 0l119 563h-158l43 199h158l141 672h356q182 0 314.5 -39.5t218.5 -111t127 -170.5t41 -218q0 -133 -35.5 -251t-100.5 -217.5t-156.5 -178.5t-203 -134t-240 -84.5t-268.5 -29.5h-356zM487 266q129 0 238 40.5t188 116t123.5 184t44.5 243.5q0 154 -98.5 235.5 t-302.5 81.5h-25l-86 -405h213l-43 -199h-213l-63 -297h24z" />
<glyph unicode="&#xd1;" horiz-adv-x="1622" d="M72 0zM1055 0l-463 895l-189 -895h-331l303 1434h291l460 -895l191 895h332l-303 -1434h-291zM1515 2009q-15 -66 -43.5 -131t-72.5 -116t-102.5 -83t-133.5 -32q-42 0 -72.5 10.5t-53.5 27t-40.5 35t-34 35t-34.5 27t-42 10.5q-42 0 -72 -35t-44 -106h-195 q13 64 41.5 129t72 117t101.5 84.5t131 32.5q40 0 70.5 -11t54 -27t41.5 -35t35.5 -35t34.5 -27t39 -11q48 0 79.5 38t45.5 103h194z" />
<glyph unicode="&#xd2;" horiz-adv-x="1632" d="M119 0zM774 254q106 0 194 48.5t151 129t97.5 183t34.5 210.5q0 81 -20 147t-59 112t-95.5 71t-128.5 25q-70 0 -132.5 -22.5t-115.5 -62t-95.5 -93.5t-72 -118t-45.5 -134.5t-16 -143.5q0 -81 20.5 -146t59.5 -110.5t95.5 -70.5t127.5 -25zM762 -29q-142 0 -260.5 45 t-203.5 127t-132 195.5t-47 251.5q0 109 26 216t75.5 204t122 179.5t166 143t207 95t245.5 34.5q142 0 260 -45t203 -126.5t132.5 -195.5t47.5 -251q0 -109 -26 -216t-75.5 -204t-122 -180t-166 -143.5t-207.5 -95t-245 -34.5zM889 1624l-287 301h402l174 -301h-289z" />
<glyph unicode="&#xd3;" horiz-adv-x="1632" d="M119 0zM774 254q106 0 194 48.5t151 129t97.5 183t34.5 210.5q0 81 -20 147t-59 112t-95.5 71t-128.5 25q-70 0 -132.5 -22.5t-115.5 -62t-95.5 -93.5t-72 -118t-45.5 -134.5t-16 -143.5q0 -81 20.5 -146t59.5 -110.5t95.5 -70.5t127.5 -25zM762 -29q-142 0 -260.5 45 t-203.5 127t-132 195.5t-47 251.5q0 109 26 216t75.5 204t122 179.5t166 143t207 95t245.5 34.5q142 0 260 -45t203 -126.5t132.5 -195.5t47.5 -251q0 -109 -26 -216t-75.5 -204t-122 -180t-166 -143.5t-207.5 -95t-245 -34.5zM1071 1624h-285l301 301h398z" />
<glyph unicode="&#xd4;" horiz-adv-x="1632" d="M119 0zM774 254q106 0 194 48.5t151 129t97.5 183t34.5 210.5q0 81 -20 147t-59 112t-95.5 71t-128.5 25q-70 0 -132.5 -22.5t-115.5 -62t-95.5 -93.5t-72 -118t-45.5 -134.5t-16 -143.5q0 -81 20.5 -146t59.5 -110.5t95.5 -70.5t127.5 -25zM762 -29q-142 0 -260.5 45 t-203.5 127t-132 195.5t-47 251.5q0 109 26 216t75.5 204t122 179.5t166 143t207 95t245.5 34.5q142 0 260 -45t203 -126.5t132.5 -195.5t47.5 -251q0 -109 -26 -216t-75.5 -204t-122 -180t-166 -143.5t-207.5 -95t-245 -34.5zM1132 1624l-100 156l-166 -156h-268l307 322 h324l172 -322h-269z" />
<glyph unicode="&#xd5;" horiz-adv-x="1632" d="M119 0zM774 254q106 0 194 48.5t151 129t97.5 183t34.5 210.5q0 81 -20 147t-59 112t-95.5 71t-128.5 25q-70 0 -132.5 -22.5t-115.5 -62t-95.5 -93.5t-72 -118t-45.5 -134.5t-16 -143.5q0 -81 20.5 -146t59.5 -110.5t95.5 -70.5t127.5 -25zM762 -29q-142 0 -260.5 45 t-203.5 127t-132 195.5t-47 251.5q0 109 26 216t75.5 204t122 179.5t166 143t207 95t245.5 34.5q142 0 260 -45t203 -126.5t132.5 -195.5t47.5 -251q0 -109 -26 -216t-75.5 -204t-122 -180t-166 -143.5t-207.5 -95t-245 -34.5zM1511 2009q-15 -66 -43.5 -131t-72.5 -116 t-102.5 -83t-133.5 -32q-42 0 -72.5 10.5t-53.5 27t-40.5 35t-34 35t-34.5 27t-42 10.5q-42 0 -72 -35t-44 -106h-195q13 64 41.5 129t72 117t101.5 84.5t131 32.5q40 0 70.5 -11t54 -27t41.5 -35t35.5 -35t34.5 -27t39 -11q48 0 79.5 38t45.5 103h194z" />
<glyph unicode="&#xd6;" horiz-adv-x="1632" d="M119 0zM774 254q106 0 194 48.5t151 129t97.5 183t34.5 210.5q0 81 -20 147t-59 112t-95.5 71t-128.5 25q-70 0 -132.5 -22.5t-115.5 -62t-95.5 -93.5t-72 -118t-45.5 -134.5t-16 -143.5q0 -81 20.5 -146t59.5 -110.5t95.5 -70.5t127.5 -25zM762 -29q-142 0 -260.5 45 t-203.5 127t-132 195.5t-47 251.5q0 109 26 216t75.5 204t122 179.5t166 143t207 95t245.5 34.5q142 0 260 -45t203 -126.5t132.5 -195.5t47.5 -251q0 -109 -26 -216t-75.5 -204t-122 -180t-166 -143.5t-207.5 -95t-245 -34.5zM973 1772q-7 -33 -24.5 -61.5t-42 -49.5 t-55 -33t-62.5 -12q-35 0 -61 12t-42.5 33t-22.5 49.5t1 61.5t24.5 61t43 48.5t56.5 32t66 11.5q32 0 57.5 -11.5t41.5 -32t21.5 -48.5t-1.5 -61zM1440 1772q-7 -33 -24.5 -61.5t-42 -49.5t-55 -33t-62.5 -12q-35 0 -61.5 12t-43 33t-22 49.5t1.5 61.5t24.5 61t43 48.5 t56.5 32t66 11.5q32 0 57.5 -11.5t41.5 -32t21.5 -48.5t-1.5 -61z" />
<glyph unicode="&#xd7;" horiz-adv-x="1376" d="M729 393l-389 -389l-197 197l389 389l-389 391l197 197l389 -392l389 390l197 -197l-389 -389l389 -387l-197 -197z" />
<glyph unicode="&#xd8;" horiz-adv-x="1634" d="M1497 1204q51 -74 79 -164.5t28 -195.5q0 -109 -26 -216t-75.5 -204t-122 -180t-166 -143.5t-207.5 -95t-245 -34.5q-121 0 -223 31.5t-183 91.5l-127 -123h-266l262 256q-51 75 -78.5 166t-27.5 197q0 109 26 216t75.5 204t122 179.5t166 143t207 95t245.5 34.5 q120 0 222.5 -32.5t182.5 -92.5l129 125h266zM1139 1116q-37 31 -84.5 47.5t-106.5 16.5q-70 0 -132.5 -22.5t-115.5 -62t-95.5 -93.5t-72 -118t-45.5 -134.5t-16 -143.5q0 -35 3 -66.5t11 -60.5zM584 315q37 -29 85 -45t105 -16q106 0 194 48.5t151 129t97.5 183 t34.5 210.5q0 34 -4 65.5t-10 59.5z" />
<glyph unicode="&#xd9;" horiz-adv-x="1505" d="M158 0zM1210 1434h332l-180 -852q-34 -161 -98.5 -277t-155 -190t-205.5 -109t-250 -35q-144 0 -248 49t-166 132t-80.5 194t7.5 236l180 852h332l-180 -854q-15 -69 -14 -129t22 -104.5t64 -70.5t114 -26q129 0 219 79.5t127 250.5zM901 1624l-287 301h402l174 -301 h-289z" />
<glyph unicode="&#xda;" horiz-adv-x="1505" d="M158 0zM1210 1434h332l-180 -852q-34 -161 -98.5 -277t-155 -190t-205.5 -109t-250 -35q-144 0 -248 49t-166 132t-80.5 194t7.5 236l180 852h332l-180 -854q-15 -69 -14 -129t22 -104.5t64 -70.5t114 -26q129 0 219 79.5t127 250.5zM1022 1624h-285l301 301h398z" />
<glyph unicode="&#xdb;" horiz-adv-x="1505" d="M158 0zM1210 1434h332l-180 -852q-34 -161 -98.5 -277t-155 -190t-205.5 -109t-250 -35q-144 0 -248 49t-166 132t-80.5 194t7.5 236l180 852h332l-180 -854q-15 -69 -14 -129t22 -104.5t64 -70.5t114 -26q129 0 219 79.5t127 250.5zM1105 1624l-100 156l-166 -156h-268 l307 322h324l172 -322h-269z" />
<glyph unicode="&#xdc;" horiz-adv-x="1505" d="M158 0zM1210 1434h332l-180 -852q-34 -161 -98.5 -277t-155 -190t-205.5 -109t-250 -35q-144 0 -248 49t-166 132t-80.5 194t7.5 236l180 852h332l-180 -854q-15 -69 -14 -129t22 -104.5t64 -70.5t114 -26q129 0 219 79.5t127 250.5zM923 1772q-7 -33 -24.5 -61.5 t-42 -49.5t-55 -33t-62.5 -12q-35 0 -61 12t-42.5 33t-22.5 49.5t1 61.5t24.5 61t43 48.5t56.5 32t66 11.5q32 0 57.5 -11.5t41.5 -32t21.5 -48.5t-1.5 -61zM1390 1772q-7 -33 -24.5 -61.5t-42 -49.5t-55 -33t-62.5 -12q-35 0 -61.5 12t-43 33t-22 49.5t1.5 61.5t24.5 61 t43 48.5t56.5 32t66 11.5q32 0 57.5 -11.5t41.5 -32t21.5 -48.5t-1.5 -61z" />
<glyph unicode="&#xdd;" horiz-adv-x="1217" d="M172 0zM340 0l111 526l-279 908h356l138 -560l370 560h410l-664 -908l-110 -526h-332zM948 1624h-285l301 301h398z" />
<glyph unicode="&#xde;" horiz-adv-x="1286" d="M72 0l303 1434h332l-43 -207h161q111 0 193.5 -28t137 -77.5t81.5 -116.5t27 -145q0 -82 -23.5 -157.5t-65.5 -141t-101 -118.5t-130 -91t-152.5 -59t-168.5 -21h-162l-58 -272h-331zM639 539q58 0 108 19.5t86.5 55.5t57 86.5t20.5 112.5q0 80 -50 114t-132 34h-123 l-90 -422h123z" />
<glyph unicode="&#xdf;" horiz-adv-x="1391" d="M541 287q21 -16 55.5 -32t74 -29t80.5 -21t76 -8q44 0 75.5 11.5t52 29t30.5 39t10 42.5q0 40 -27.5 69t-69 54.5t-89.5 51.5t-89.5 58.5t-69 76.5t-27.5 106q0 60 23.5 102.5t58.5 75.5t76.5 59.5t76.5 54.5t58.5 61.5t23.5 80.5q0 30 -12 51t-30 33.5t-40 18.5t-43 6 q-30 0 -63.5 -11t-64 -34t-54 -58t-33.5 -83l-231 -1092h-308l232 1090q19 90 69.5 165t125.5 128t170.5 82.5t205.5 29.5q93 0 169.5 -22t131.5 -61.5t85 -95.5t30 -124q0 -65 -24.5 -113t-62 -84.5t-80.5 -64t-80.5 -51t-62 -46t-24.5 -49.5q0 -31 27 -56.5t68 -51 t88.5 -54t88.5 -66.5t68 -89t27 -121q0 -83 -38.5 -152t-104.5 -118.5t-155 -77t-190 -27.5q-60 0 -112.5 8t-96 20t-75 26t-49.5 26z" />
<glyph unicode="&#xe0;" horiz-adv-x="1112" d="M25 0zM991 20q-19 -9 -43 -16q-20 -6 -47.5 -11t-60.5 -5q-56 0 -95 11t-65.5 29.5t-42.5 44.5t-25 56h-2q-24 -33 -54 -62t-65 -50t-77 -33.5t-90 -12.5q-63 0 -117.5 17t-95 51t-63.5 84.5t-23 116.5q0 91 37.5 166.5t103.5 130t156.5 84.5t197.5 30q44 0 82.5 -5.5 t73.5 -14.5l14 63q17 86 -23 123t-130 37q-70 0 -128.5 -10t-101.5 -21q-50 -13 -92 -30l53 251q45 14 102 25q49 9 116.5 17t150.5 8q85 0 161.5 -24t130.5 -72.5t77 -123t2 -176.5l-82 -376q-11 -48 -0.5 -77.5t59.5 -29.5q20 0 35 5q8 2 14 5zM637 449q-19 6 -42 10 t-48 4q-49 0 -86.5 -13.5t-63 -36t-38.5 -52t-13 -62.5q0 -42 27.5 -69t75.5 -27q43 0 81 20t70 49zM621 1255l-287 301h402l174 -301h-289z" />
<glyph unicode="&#xe1;" horiz-adv-x="1112" d="M25 0zM991 20q-19 -9 -43 -16q-20 -6 -47.5 -11t-60.5 -5q-56 0 -95 11t-65.5 29.5t-42.5 44.5t-25 56h-2q-24 -33 -54 -62t-65 -50t-77 -33.5t-90 -12.5q-63 0 -117.5 17t-95 51t-63.5 84.5t-23 116.5q0 91 37.5 166.5t103.5 130t156.5 84.5t197.5 30q44 0 82.5 -5.5 t73.5 -14.5l14 63q17 86 -23 123t-130 37q-70 0 -128.5 -10t-101.5 -21q-50 -13 -92 -30l53 251q45 14 102 25q49 9 116.5 17t150.5 8q85 0 161.5 -24t130.5 -72.5t77 -123t2 -176.5l-82 -376q-11 -48 -0.5 -77.5t59.5 -29.5q20 0 35 5q8 2 14 5zM637 449q-19 6 -42 10 t-48 4q-49 0 -86.5 -13.5t-63 -36t-38.5 -52t-13 -62.5q0 -42 27.5 -69t75.5 -27q43 0 81 20t70 49zM701 1255h-285l301 301h398z" />
<glyph unicode="&#xe2;" horiz-adv-x="1112" d="M25 0zM991 20q-19 -9 -43 -16q-20 -6 -47.5 -11t-60.5 -5q-56 0 -95 11t-65.5 29.5t-42.5 44.5t-25 56h-2q-24 -33 -54 -62t-65 -50t-77 -33.5t-90 -12.5q-63 0 -117.5 17t-95 51t-63.5 84.5t-23 116.5q0 91 37.5 166.5t103.5 130t156.5 84.5t197.5 30q44 0 82.5 -5.5 t73.5 -14.5l14 63q17 86 -23 123t-130 37q-70 0 -128.5 -10t-101.5 -21q-50 -13 -92 -30l53 251q45 14 102 25q49 9 116.5 17t150.5 8q85 0 161.5 -24t130.5 -72.5t77 -123t2 -176.5l-82 -376q-11 -48 -0.5 -77.5t59.5 -29.5q20 0 35 5q8 2 14 5zM637 449q-19 6 -42 10 t-48 4q-49 0 -86.5 -13.5t-63 -36t-38.5 -52t-13 -62.5q0 -42 27.5 -69t75.5 -27q43 0 81 20t70 49zM815 1255l-100 156l-166 -156h-268l307 322h324l172 -322h-269z" />
<glyph unicode="&#xe3;" horiz-adv-x="1112" d="M25 0zM991 20q-19 -9 -43 -16q-20 -6 -47.5 -11t-60.5 -5q-56 0 -95 11t-65.5 29.5t-42.5 44.5t-25 56h-2q-24 -33 -54 -62t-65 -50t-77 -33.5t-90 -12.5q-63 0 -117.5 17t-95 51t-63.5 84.5t-23 116.5q0 91 37.5 166.5t103.5 130t156.5 84.5t197.5 30q44 0 82.5 -5.5 t73.5 -14.5l14 63q17 86 -23 123t-130 37q-70 0 -128.5 -10t-101.5 -21q-50 -13 -92 -30l53 251q45 14 102 25q49 9 116.5 17t150.5 8q85 0 161.5 -24t130.5 -72.5t77 -123t2 -176.5l-82 -376q-11 -48 -0.5 -77.5t59.5 -29.5q20 0 35 5q8 2 14 5zM637 449q-19 6 -42 10 t-48 4q-49 0 -86.5 -13.5t-63 -36t-38.5 -52t-13 -62.5q0 -42 27.5 -69t75.5 -27q43 0 81 20t70 49zM1176 1640q-15 -66 -43.5 -131t-72.5 -116t-102.5 -83t-133.5 -32q-42 0 -72.5 10.5t-53.5 27t-40.5 35t-34 35t-34.5 27t-42 10.5q-42 0 -72 -35t-44 -106h-195 q13 64 41.5 129t72 117t101.5 84.5t131 32.5q40 0 70.5 -11t54 -27t41.5 -35t35.5 -35t34.5 -27t39 -11q48 0 79.5 38t45.5 103h194z" />
<glyph unicode="&#xe4;" horiz-adv-x="1112" d="M25 0zM991 20q-19 -9 -43 -16q-20 -6 -47.5 -11t-60.5 -5q-56 0 -95 11t-65.5 29.5t-42.5 44.5t-25 56h-2q-24 -33 -54 -62t-65 -50t-77 -33.5t-90 -12.5q-63 0 -117.5 17t-95 51t-63.5 84.5t-23 116.5q0 91 37.5 166.5t103.5 130t156.5 84.5t197.5 30q44 0 82.5 -5.5 t73.5 -14.5l14 63q17 86 -23 123t-130 37q-70 0 -128.5 -10t-101.5 -21q-50 -13 -92 -30l53 251q45 14 102 25q49 9 116.5 17t150.5 8q85 0 161.5 -24t130.5 -72.5t77 -123t2 -176.5l-82 -376q-11 -48 -0.5 -77.5t59.5 -29.5q20 0 35 5q8 2 14 5zM637 449q-19 6 -42 10 t-48 4q-49 0 -86.5 -13.5t-63 -36t-38.5 -52t-13 -62.5q0 -42 27.5 -69t75.5 -27q43 0 81 20t70 49zM624 1403q-7 -33 -24.5 -61.5t-42 -49.5t-55 -33t-62.5 -12q-35 0 -61 12t-42.5 33t-22.5 49.5t1 61.5t24.5 61t43 48.5t56.5 32t66 11.5q32 0 57.5 -11.5t41.5 -32 t21.5 -48.5t-1.5 -61zM1091 1403q-7 -33 -24.5 -61.5t-42 -49.5t-55 -33t-62.5 -12q-35 0 -61.5 12t-43 33t-22 49.5t1.5 61.5t24.5 61t43 48.5t56.5 32t66 11.5q32 0 57.5 -11.5t41.5 -32t21.5 -48.5t-1.5 -61z" />
<glyph unicode="&#xe5;" horiz-adv-x="1112" d="M25 0zM991 20q-19 -9 -43 -16q-20 -6 -47.5 -11t-60.5 -5q-56 0 -95 11t-65.5 29.5t-42.5 44.5t-25 56h-2q-24 -33 -54 -62t-65 -50t-77 -33.5t-90 -12.5q-63 0 -117.5 17t-95 51t-63.5 84.5t-23 116.5q0 91 37.5 166.5t103.5 130t156.5 84.5t197.5 30q44 0 82.5 -5.5 t73.5 -14.5l14 63q17 86 -23 123t-130 37q-70 0 -128.5 -10t-101.5 -21q-50 -13 -92 -30l53 251q45 14 102 25q49 9 116.5 17t150.5 8q85 0 161.5 -24t130.5 -72.5t77 -123t2 -176.5l-82 -376q-11 -48 -0.5 -77.5t59.5 -29.5q20 0 35 5q8 2 14 5zM637 449q-19 6 -42 10 t-48 4q-49 0 -86.5 -13.5t-63 -36t-38.5 -52t-13 -62.5q0 -42 27.5 -69t75.5 -27q43 0 81 20t70 49zM837 1509q13 54 -11 88.5t-75 34.5q-25 0 -47.5 -9t-41 -25.5t-31.5 -39t-19 -49.5q-13 -57 11 -92t75 -35t89 35t50 92zM1034 1577q0 -70 -29.5 -135.5t-80 -116t-118 -81 t-143.5 -30.5q-55 0 -100.5 16.5t-78.5 46t-51 71t-18 92.5q0 70 29.5 135t80 115t118 80t143.5 30q55 0 100.5 -16t78.5 -45t51 -70t18 -92z" />
<glyph unicode="&#xe6;" horiz-adv-x="1735" d="M1505 66q-34 -21 -76.5 -38.5t-89.5 -30t-97.5 -19.5t-100.5 -7q-143 0 -248 43.5t-168 128.5q-56 -49 -110 -82t-104.5 -53t-97.5 -28.5t-89 -8.5q-63 0 -117.5 17t-95 51t-63.5 84.5t-23 116.5q0 91 37.5 166.5t103.5 130t156.5 84.5t197.5 30q44 0 82.5 -5.5 t73.5 -14.5l14 63q17 86 -23 123t-130 37q-70 0 -128.5 -10t-101.5 -21q-50 -13 -92 -30l53 251q45 14 102 25q49 9 116.5 17t150.5 8q88 0 166.5 -26t132.5 -79q71 50 157.5 77.5t188.5 27.5q87 0 161 -25.5t128.5 -72.5t85.5 -115t31 -152q0 -68 -15.5 -137.5 t-38.5 -132.5h-659q-29 -248 239 -248q75 0 166 24.5t176 73.5zM1374 651q6 20 8 40t2 38q0 63 -33.5 100t-95.5 37q-46 0 -85.5 -18.5t-71 -48.5t-54 -68.5t-32.5 -79.5h362zM637 449q-19 6 -42 10t-48 4q-49 0 -86.5 -13.5t-63 -36t-38.5 -52t-13 -62.5q0 -42 27.5 -69 t75.5 -27q43 0 81 20t70 49z" />
<glyph unicode="&#xe7;" horiz-adv-x="1051" d="M76 0zM829 33q-21 -9 -53.5 -20t-71.5 -20.5t-83.5 -15.5t-90.5 -6q-102 0 -185.5 29t-143.5 86t-92.5 141t-32.5 193q0 87 20 171t59 159t95.5 138t130 109t162.5 71.5t192 25.5q52 0 98.5 -6.5t85.5 -17t69.5 -23.5t51.5 -25l-51 -246q-14 9 -37.5 20t-54.5 21.5 t-69.5 17.5t-82.5 7q-81 0 -145 -31t-108.5 -84.5t-68.5 -126t-24 -154.5q0 -108 62 -161.5t174 -53.5q40 0 77 7t68.5 18t58.5 24t48 25zM172 -367q17 -9 37 -16q17 -6 40.5 -11t49.5 -5q42 0 70.5 21.5t36.5 60.5q5 24 -6 43.5t-34.5 33.5t-58 21.5t-75.5 7.5l163 211h222 l-101 -119q34 -10 61.5 -27.5t45 -43t24 -57.5t-1.5 -70q-12 -56 -47 -98.5t-83.5 -71t-105.5 -42.5t-114 -14q-32 0 -60 3.5t-48 8.5q-24 5 -44 13z" />
<glyph unicode="&#xe8;" horiz-adv-x="1165" d="M76 0zM936 66q-34 -21 -76.5 -38.5t-89.5 -30t-98 -19.5t-101 -7q-115 0 -207 30t-156 87t-98 140t-34 190q0 85 19.5 168.5t57.5 158.5t93 139t126 110.5t156.5 73t184.5 26.5q87 0 161 -25.5t128 -72.5t85 -115t31 -152q0 -68 -15 -137.5t-38 -132.5h-659 q-2 -10 -2.5 -19t-0.5 -18q-6 -211 242 -211q37 0 79 6t86.5 18.5t89.5 31t87 42.5zM805 651q6 20 8 40t2 38q0 63 -33.5 100t-95.5 37q-46 0 -86 -18.5t-71.5 -48.5t-53.5 -68.5t-33 -79.5h363zM680 1255l-287 301h402l174 -301h-289z" />
<glyph unicode="&#xe9;" horiz-adv-x="1165" d="M76 0zM936 66q-34 -21 -76.5 -38.5t-89.5 -30t-98 -19.5t-101 -7q-115 0 -207 30t-156 87t-98 140t-34 190q0 85 19.5 168.5t57.5 158.5t93 139t126 110.5t156.5 73t184.5 26.5q87 0 161 -25.5t128 -72.5t85 -115t31 -152q0 -68 -15 -137.5t-38 -132.5h-659 q-2 -10 -2.5 -19t-0.5 -18q-6 -211 242 -211q37 0 79 6t86.5 18.5t89.5 31t87 42.5zM805 651q6 20 8 40t2 38q0 63 -33.5 100t-95.5 37q-46 0 -86 -18.5t-71.5 -48.5t-53.5 -68.5t-33 -79.5h363zM739 1255h-285l301 301h398z" />
<glyph unicode="&#xea;" horiz-adv-x="1165" d="M76 0zM936 66q-34 -21 -76.5 -38.5t-89.5 -30t-98 -19.5t-101 -7q-115 0 -207 30t-156 87t-98 140t-34 190q0 85 19.5 168.5t57.5 158.5t93 139t126 110.5t156.5 73t184.5 26.5q87 0 161 -25.5t128 -72.5t85 -115t31 -152q0 -68 -15 -137.5t-38 -132.5h-659 q-2 -10 -2.5 -19t-0.5 -18q-6 -211 242 -211q37 0 79 6t86.5 18.5t89.5 31t87 42.5zM805 651q6 20 8 40t2 38q0 63 -33.5 100t-95.5 37q-46 0 -86 -18.5t-71.5 -48.5t-53.5 -68.5t-33 -79.5h363zM864 1255l-100 156l-166 -156h-268l307 322h324l172 -322h-269z" />
<glyph unicode="&#xeb;" horiz-adv-x="1165" d="M76 0zM936 66q-34 -21 -76.5 -38.5t-89.5 -30t-98 -19.5t-101 -7q-115 0 -207 30t-156 87t-98 140t-34 190q0 85 19.5 168.5t57.5 158.5t93 139t126 110.5t156.5 73t184.5 26.5q87 0 161 -25.5t128 -72.5t85 -115t31 -152q0 -68 -15 -137.5t-38 -132.5h-659 q-2 -10 -2.5 -19t-0.5 -18q-6 -211 242 -211q37 0 79 6t86.5 18.5t89.5 31t87 42.5zM805 651q6 20 8 40t2 38q0 63 -33.5 100t-95.5 37q-46 0 -86 -18.5t-71.5 -48.5t-53.5 -68.5t-33 -79.5h363zM684 1403q-7 -33 -24.5 -61.5t-42 -49.5t-55 -33t-62.5 -12q-35 0 -61 12 t-42.5 33t-22.5 49.5t1 61.5t24.5 61t43 48.5t56.5 32t66 11.5q32 0 57.5 -11.5t41.5 -32t21.5 -48.5t-1.5 -61zM1151 1403q-7 -33 -24.5 -61.5t-42 -49.5t-55 -33t-62.5 -12q-35 0 -61.5 12t-43 33t-22 49.5t1.5 61.5t24.5 61t43 48.5t56.5 32t66 11.5q32 0 57.5 -11.5 t41.5 -32t21.5 -48.5t-1.5 -61z" />
<glyph unicode="&#xec;" horiz-adv-x="625" d="M49 0zM49 0l225 1065h312l-226 -1065h-311zM441 1255l-287 301h402l174 -301h-289z" />
<glyph unicode="&#xed;" horiz-adv-x="625" d="M49 0zM49 0l225 1065h312l-226 -1065h-311zM521 1255h-285l301 301h398z" />
<glyph unicode="&#xee;" horiz-adv-x="625" d="M49 0zM49 0l225 1065h312l-226 -1065h-311zM605 1255l-100 156l-166 -156h-268l307 322h324l172 -322h-269z" />
<glyph unicode="&#xef;" horiz-adv-x="625" d="M49 0zM49 0l225 1065h312l-226 -1065h-311zM425 1403q-7 -33 -24.5 -61.5t-42 -49.5t-55 -33t-62.5 -12q-35 0 -61 12t-42.5 33t-22.5 49.5t1 61.5t24.5 61t43 48.5t56.5 32t66 11.5q32 0 57.5 -11.5t41.5 -32t21.5 -48.5t-1.5 -61zM892 1403q-7 -33 -24.5 -61.5 t-42 -49.5t-55 -33t-62.5 -12q-35 0 -61.5 12t-43 33t-22 49.5t1.5 61.5t24.5 61t43 48.5t56.5 32t66 11.5q32 0 57.5 -11.5t41.5 -32t21.5 -48.5t-1.5 -61z" />
<glyph unicode="&#xf0;" horiz-adv-x="1227" d="M1044 1247q63 -111 99.5 -235.5t36.5 -257.5q0 -92 -20 -186t-59.5 -181t-97 -163t-133 -132t-168 -88.5t-200.5 -32.5q-96 0 -174.5 28.5t-134.5 81t-86.5 126t-30.5 162.5q0 71 19.5 145.5t55.5 144.5t87 132t114.5 108t137.5 73t157 27q47 0 85.5 -7.5t70 -19.5 t56 -28t42.5 -33q-11 60 -32 121.5t-52 120.5l-244 -102l-24 98l215 88q-47 62 -98 104l155 154q95 -75 164 -166l219 94l25 -96zM559 213q45 0 83 16.5t68.5 44.5t53.5 65t38.5 78.5t23.5 84.5t8 84q0 91 -42 137.5t-116 46.5q-68 0 -119.5 -36t-86 -91t-52 -122 t-17.5 -128q0 -90 43 -135t115 -45z" />
<glyph unicode="&#xf1;" horiz-adv-x="1288" d="M51 0zM729 0l133 633q9 40 8 78t-15.5 67t-44 46.5t-77.5 17.5q-32 0 -63 -11t-59.5 -28t-52 -36.5t-38.5 -37.5l-153 -729h-316l168 795q12 59 20.5 108.5t13.5 85.5q6 42 9 76h295q0 -19 -1 -43q-1 -20 -3 -49.5t-6 -65.5q18 22 50 54.5t76.5 61.5t101.5 50t126 21 q89 0 152 -33t99.5 -88t46.5 -127.5t-7 -151.5l-148 -694h-315zM1294 1640q-15 -66 -43.5 -131t-72.5 -116t-102.5 -83t-133.5 -32q-42 0 -72.5 10.5t-53.5 27t-40.5 35t-34 35t-34.5 27t-42 10.5q-42 0 -72 -35t-44 -106h-195q13 64 41.5 129t72 117t101.5 84.5t131 32.5 q40 0 70.5 -11t54 -27t41.5 -35t35.5 -35t34.5 -27t39 -11q48 0 79.5 38t45.5 103h194z" />
<glyph unicode="&#xf2;" horiz-adv-x="1266" d="M76 0zM571 213q73 0 130 40t96 101.5t59.5 134.5t20.5 138q0 111 -44.5 168t-125.5 57q-73 0 -130.5 -40t-97 -101.5t-60 -134.5t-20.5 -138q0 -112 45.5 -168.5t126.5 -56.5zM541 -29q-106 0 -192 34t-146.5 95.5t-93.5 146.5t-33 187q0 85 22 167t63.5 155.5t100 135 t132 106.5t160 70.5t183.5 25.5q105 0 191 -34t147 -95.5t94 -146.5t33 -187q0 -85 -22 -167t-63.5 -155.5t-100 -135t-132 -106.5t-160 -70.5t-183.5 -25.5zM672 1255l-287 301h402l174 -301h-289z" />
<glyph unicode="&#xf3;" horiz-adv-x="1266" d="M76 0zM571 213q73 0 130 40t96 101.5t59.5 134.5t20.5 138q0 111 -44.5 168t-125.5 57q-73 0 -130.5 -40t-97 -101.5t-60 -134.5t-20.5 -138q0 -112 45.5 -168.5t126.5 -56.5zM541 -29q-106 0 -192 34t-146.5 95.5t-93.5 146.5t-33 187q0 85 22 167t63.5 155.5t100 135 t132 106.5t160 70.5t183.5 25.5q105 0 191 -34t147 -95.5t94 -146.5t33 -187q0 -85 -22 -167t-63.5 -155.5t-100 -135t-132 -106.5t-160 -70.5t-183.5 -25.5zM772 1255h-285l301 301h398z" />
<glyph unicode="&#xf4;" horiz-adv-x="1266" d="M76 0zM571 213q73 0 130 40t96 101.5t59.5 134.5t20.5 138q0 111 -44.5 168t-125.5 57q-73 0 -130.5 -40t-97 -101.5t-60 -134.5t-20.5 -138q0 -112 45.5 -168.5t126.5 -56.5zM541 -29q-106 0 -192 34t-146.5 95.5t-93.5 146.5t-33 187q0 85 22 167t63.5 155.5t100 135 t132 106.5t160 70.5t183.5 25.5q105 0 191 -34t147 -95.5t94 -146.5t33 -187q0 -85 -22 -167t-63.5 -155.5t-100 -135t-132 -106.5t-160 -70.5t-183.5 -25.5zM894 1255l-100 156l-166 -156h-268l307 322h324l172 -322h-269z" />
<glyph unicode="&#xf5;" horiz-adv-x="1266" d="M76 0zM571 213q73 0 130 40t96 101.5t59.5 134.5t20.5 138q0 111 -44.5 168t-125.5 57q-73 0 -130.5 -40t-97 -101.5t-60 -134.5t-20.5 -138q0 -112 45.5 -168.5t126.5 -56.5zM541 -29q-106 0 -192 34t-146.5 95.5t-93.5 146.5t-33 187q0 85 22 167t63.5 155.5t100 135 t132 106.5t160 70.5t183.5 25.5q105 0 191 -34t147 -95.5t94 -146.5t33 -187q0 -85 -22 -167t-63.5 -155.5t-100 -135t-132 -106.5t-160 -70.5t-183.5 -25.5zM1278 1640q-15 -66 -43.5 -131t-72.5 -116t-102.5 -83t-133.5 -32q-42 0 -72.5 10.5t-53.5 27t-40.5 35t-34 35 t-34.5 27t-42 10.5q-42 0 -72 -35t-44 -106h-195q13 64 41.5 129t72 117t101.5 84.5t131 32.5q40 0 70.5 -11t54 -27t41.5 -35t35.5 -35t34.5 -27t39 -11q48 0 79.5 38t45.5 103h194z" />
<glyph unicode="&#xf6;" horiz-adv-x="1266" d="M76 0zM571 213q73 0 130 40t96 101.5t59.5 134.5t20.5 138q0 111 -44.5 168t-125.5 57q-73 0 -130.5 -40t-97 -101.5t-60 -134.5t-20.5 -138q0 -112 45.5 -168.5t126.5 -56.5zM541 -29q-106 0 -192 34t-146.5 95.5t-93.5 146.5t-33 187q0 85 22 167t63.5 155.5t100 135 t132 106.5t160 70.5t183.5 25.5q105 0 191 -34t147 -95.5t94 -146.5t33 -187q0 -85 -22 -167t-63.5 -155.5t-100 -135t-132 -106.5t-160 -70.5t-183.5 -25.5zM715 1403q-7 -33 -24.5 -61.5t-42 -49.5t-55 -33t-62.5 -12q-35 0 -61 12t-42.5 33t-22.5 49.5t1 61.5t24.5 61 t43 48.5t56.5 32t66 11.5q32 0 57.5 -11.5t41.5 -32t21.5 -48.5t-1.5 -61zM1182 1403q-7 -33 -24.5 -61.5t-42 -49.5t-55 -33t-62.5 -12q-35 0 -61.5 12t-43 33t-22 49.5t1.5 61.5t24.5 61t43 48.5t56.5 32t66 11.5q32 0 57.5 -11.5t41.5 -32t21.5 -48.5t-1.5 -61z" />
<glyph unicode="&#xf7;" horiz-adv-x="1278" d="M680 831q-43 0 -80 13.5t-64 37.5t-42 57.5t-15 72.5t15 72t42 57t64 37.5t80 13.5t80 -13.5t64 -37.5t42 -57t15 -72t-15 -72.5t-42 -57.5t-64 -37.5t-80 -13.5zM143 459v266h1074v-266h-1074zM680 -8q-43 0 -80 13.5t-64 37.5t-42 57t-15 72t15 72t42 57t64 37.5 t80 13.5t80 -13.5t64 -37.5t42 -57t15 -72t-15 -72t-42 -57t-64 -37.5t-80 -13.5z" />
<glyph unicode="&#xf8;" horiz-adv-x="1262" d="M1128 901q76 -112 76 -270q0 -85 -22 -167t-63.5 -155.5t-100 -135t-132 -106.5t-160 -70.5t-183.5 -25.5q-171 0 -287 84l-86 -84h-213l197 191q-76 116 -76 272q0 85 22 167t63.5 155.5t100 135t132 106.5t160 70.5t183.5 25.5q85 0 156.5 -22t128.5 -64l88 86h213z M819 809q-20 22 -48 32.5t-62 10.5q-73 0 -130.5 -40t-97 -101.5t-60 -134.5t-20.5 -138v-35zM461 254q21 -22 49 -31.5t63 -9.5q73 0 130 40t96 101.5t59.5 134.5t20.5 138v15t-2 15z" />
<glyph unicode="&#xf9;" horiz-adv-x="1290" d="M112 0zM754 0q0 19 1 43q2 42 9 115q-18 -23 -50 -55t-76.5 -61t-101.5 -50t-126 -21q-89 0 -152 33t-99.5 88t-46.5 127.5t7 151.5l147 694h316l-133 -633q-9 -41 -8 -78.5t15.5 -66.5t44 -46.5t77.5 -17.5q31 0 62.5 11t60 28t52 36.5t38.5 37.5l153 729h316l-168 -795 q-13 -60 -21 -109t-13 -85q-6 -42 -9 -76h-295zM668 1255l-287 301h402l174 -301h-289z" />
<glyph unicode="&#xfa;" horiz-adv-x="1290" d="M112 0zM754 0q0 19 1 43q2 42 9 115q-18 -23 -50 -55t-76.5 -61t-101.5 -50t-126 -21q-89 0 -152 33t-99.5 88t-46.5 127.5t7 151.5l147 694h316l-133 -633q-9 -41 -8 -78.5t15.5 -66.5t44 -46.5t77.5 -17.5q31 0 62.5 11t60 28t52 36.5t38.5 37.5l153 729h316l-168 -795 q-13 -60 -21 -109t-13 -85q-6 -42 -9 -76h-295zM830 1255h-285l301 301h398z" />
<glyph unicode="&#xfb;" horiz-adv-x="1290" d="M112 0zM754 0q0 19 1 43q2 42 9 115q-18 -23 -50 -55t-76.5 -61t-101.5 -50t-126 -21q-89 0 -152 33t-99.5 88t-46.5 127.5t7 151.5l147 694h316l-133 -633q-9 -41 -8 -78.5t15.5 -66.5t44 -46.5t77.5 -17.5q31 0 62.5 11t60 28t52 36.5t38.5 37.5l153 729h316l-168 -795 q-13 -60 -21 -109t-13 -85q-6 -42 -9 -76h-295zM913 1255l-100 156l-166 -156h-268l307 322h324l172 -322h-269z" />
<glyph unicode="&#xfc;" horiz-adv-x="1290" d="M112 0zM754 0q0 19 1 43q2 42 9 115q-18 -23 -50 -55t-76.5 -61t-101.5 -50t-126 -21q-89 0 -152 33t-99.5 88t-46.5 127.5t7 151.5l147 694h316l-133 -633q-9 -41 -8 -78.5t15.5 -66.5t44 -46.5t77.5 -17.5q31 0 62.5 11t60 28t52 36.5t38.5 37.5l153 729h316l-168 -795 q-13 -60 -21 -109t-13 -85q-6 -42 -9 -76h-295zM733 1403q-7 -33 -24.5 -61.5t-42 -49.5t-55 -33t-62.5 -12q-35 0 -61 12t-42.5 33t-22.5 49.5t1 61.5t24.5 61t43 48.5t56.5 32t66 11.5q32 0 57.5 -11.5t41.5 -32t21.5 -48.5t-1.5 -61zM1200 1403q-7 -33 -24.5 -61.5 t-42 -49.5t-55 -33t-62.5 -12q-35 0 -61.5 12t-43 33t-22 49.5t1.5 61.5t24.5 61t43 48.5t56.5 32t66 11.5q32 0 57.5 -11.5t41.5 -32t21.5 -48.5t-1.5 -61z" />
<glyph unicode="&#xfd;" horiz-adv-x="1044" d="M0 0zM-178 -215q16 -5 36 -9q17 -4 42 -6.5t55 -2.5q31 0 68 8t77 32.5t81.5 69.5t82.5 119l21 37l-172 1032h303l80 -645l321 645h350l-583 -1065q-85 -154 -168.5 -253t-167 -156.5t-167.5 -80t-169 -22.5q-36 0 -63.5 4.5t-46.5 9.5q-22 6 -38 15zM768 1255h-285 l301 301h398z" />
<glyph unicode="&#xfe;" horiz-adv-x="1315" d="M-59 -512l413 1946h316l-92 -437q57 44 125.5 70.5t150.5 26.5q92 0 165.5 -33t125 -93t79 -144t27.5 -187q0 -83 -20.5 -164.5t-60.5 -155.5t-99 -137.5t-136 -109.5t-171.5 -72.5t-204.5 -26.5q-37 0 -71.5 4.5t-61.5 9.5q-32 6 -59 15l-111 -512h-315zM416 242 q28 -13 69 -21t90 -8q67 0 130.5 29t113 83.5t79.5 132t30 175.5q0 57 -14 97.5t-39 66t-60.5 37.5t-77.5 12q-33 0 -65.5 -8.5t-61 -22.5t-51 -31t-35.5 -34z" />
<glyph unicode="&#xff;" horiz-adv-x="1044" d="M0 0zM-178 -215q16 -5 36 -9q17 -4 42 -6.5t55 -2.5q31 0 68 8t77 32.5t81.5 69.5t82.5 119l21 37l-172 1032h303l80 -645l321 645h350l-583 -1065q-85 -154 -168.5 -253t-167 -156.5t-167.5 -80t-169 -22.5q-36 0 -63.5 4.5t-46.5 9.5q-22 6 -38 15zM643 1403 q-7 -33 -24.5 -61.5t-42 -49.5t-55 -33t-62.5 -12q-35 0 -61 12t-42.5 33t-22.5 49.5t1 61.5t24.5 61t43 48.5t56.5 32t66 11.5q32 0 57.5 -11.5t41.5 -32t21.5 -48.5t-1.5 -61zM1110 1403q-7 -33 -24.5 -61.5t-42 -49.5t-55 -33t-62.5 -12q-35 0 -61.5 12t-43 33t-22 49.5 t1.5 61.5t24.5 61t43 48.5t56.5 32t66 11.5q32 0 57.5 -11.5t41.5 -32t21.5 -48.5t-1.5 -61z" />
<glyph unicode="&#x100;" horiz-adv-x="1315" d="M0 0zM915 0l-28 236h-514l-129 -236h-375l842 1434h301l235 -1434h-332zM793 1004l-293 -535h358zM579 1686l49 227h644l-50 -227h-643z" />
<glyph unicode="&#x101;" horiz-adv-x="1112" d="M25 0zM991 20q-19 -9 -43 -16q-20 -6 -47.5 -11t-60.5 -5q-56 0 -95 11t-65.5 29.5t-42.5 44.5t-25 56h-2q-24 -33 -54 -62t-65 -50t-77 -33.5t-90 -12.5q-63 0 -117.5 17t-95 51t-63.5 84.5t-23 116.5q0 91 37.5 166.5t103.5 130t156.5 84.5t197.5 30q44 0 82.5 -5.5 t73.5 -14.5l14 63q17 86 -23 123t-130 37q-70 0 -128.5 -10t-101.5 -21q-50 -13 -92 -30l53 251q45 14 102 25q49 9 116.5 17t150.5 8q85 0 161.5 -24t130.5 -72.5t77 -123t2 -176.5l-82 -376q-11 -48 -0.5 -77.5t59.5 -29.5q20 0 35 5q8 2 14 5zM637 449q-19 6 -42 10 t-48 4q-49 0 -86.5 -13.5t-63 -36t-38.5 -52t-13 -62.5q0 -42 27.5 -69t75.5 -27q43 0 81 20t70 49zM362 1317l49 227h644l-50 -227h-643z" />
<glyph unicode="&#x102;" horiz-adv-x="1315" d="M0 0zM915 0l-28 236h-514l-129 -236h-375l842 1434h301l235 -1434h-332zM793 1004l-293 -535h358zM1346 2026q-21 -84 -62 -157.5t-100.5 -128t-136 -85.5t-168.5 -31q-78 0 -136 22.5t-96 63t-56.5 97t-18.5 123.5q0 23 1.5 47t6.5 49h221q-2 -45 2.5 -79.5t18.5 -58.5 t39 -36.5t63 -12.5q76 0 122.5 49t78.5 138h221z" />
<glyph unicode="&#x103;" horiz-adv-x="1112" d="M25 0zM991 20q-19 -9 -43 -16q-20 -6 -47.5 -11t-60.5 -5q-56 0 -95 11t-65.5 29.5t-42.5 44.5t-25 56h-2q-24 -33 -54 -62t-65 -50t-77 -33.5t-90 -12.5q-63 0 -117.5 17t-95 51t-63.5 84.5t-23 116.5q0 91 37.5 166.5t103.5 130t156.5 84.5t197.5 30q44 0 82.5 -5.5 t73.5 -14.5l14 63q17 86 -23 123t-130 37q-70 0 -128.5 -10t-101.5 -21q-50 -13 -92 -30l53 251q45 14 102 25q49 9 116.5 17t150.5 8q85 0 161.5 -24t130.5 -72.5t77 -123t2 -176.5l-82 -376q-11 -48 -0.5 -77.5t59.5 -29.5q20 0 35 5q8 2 14 5zM637 449q-19 6 -42 10 t-48 4q-49 0 -86.5 -13.5t-63 -36t-38.5 -52t-13 -62.5q0 -42 27.5 -69t75.5 -27q43 0 81 20t70 49zM1145 1657q-21 -84 -62 -157.5t-100.5 -128t-136 -85.5t-168.5 -31q-78 0 -136 22.5t-96 63t-56.5 97t-18.5 123.5q0 23 1.5 47t6.5 49h221q-2 -45 2.5 -79.5t18.5 -58.5 t39 -36.5t63 -12.5q76 0 122.5 49t78.5 138h221z" />
<glyph unicode="&#x104;" horiz-adv-x="1315" d="M0 0zM915 0l-28 236h-514l-129 -236h-375l842 1434h301l235 -1434h-332zM793 1004l-293 -535h358zM1255 -508q-23 -12 -55 -22q-27 -8 -67 -14.5t-93 -6.5q-51 0 -93.5 10.5t-72.5 32.5t-46.5 55.5t-16.5 79.5q0 58 21 111.5t55 101t77.5 88t87.5 72.5h195 q-42 -41 -77 -85q-30 -38 -58 -84t-37 -91q-8 -34 -1.5 -56t20.5 -34.5t32.5 -17.5t34.5 -5q25 0 48 4.5t41 10.5q21 7 40 16z" />
<glyph unicode="&#x105;" horiz-adv-x="1112" d="M25 0zM991 20q-19 -9 -43 -16q-20 -6 -47.5 -11t-60.5 -5q-56 0 -95 11t-65.5 29.5t-42.5 44.5t-25 56h-2q-24 -33 -54 -62t-65 -50t-77 -33.5t-90 -12.5q-63 0 -117.5 17t-95 51t-63.5 84.5t-23 116.5q0 91 37.5 166.5t103.5 130t156.5 84.5t197.5 30q44 0 82.5 -5.5 t73.5 -14.5l14 63q17 86 -23 123t-130 37q-70 0 -128.5 -10t-101.5 -21q-50 -13 -92 -30l53 251q45 14 102 25q49 9 116.5 17t150.5 8q85 0 161.5 -24t130.5 -72.5t77 -123t2 -176.5l-82 -376q-11 -48 -0.5 -77.5t59.5 -29.5q20 0 35 5q8 2 14 5zM637 449q-19 6 -42 10 t-48 4q-49 0 -86.5 -13.5t-63 -36t-38.5 -52t-13 -62.5q0 -42 27.5 -69t75.5 -27q43 0 81 20t70 49zM999 -488q-23 -12 -55 -22q-27 -8 -67 -14.5t-93 -6.5q-51 0 -93.5 10.5t-72.5 32.5t-46.5 55.5t-16.5 79.5q0 58 21 111.5t55 101t77.5 88t87.5 72.5h195q-42 -41 -77 -85 q-30 -38 -58 -84t-37 -91q-8 -34 -1.5 -56t20.5 -34.5t32.5 -17.5t34.5 -5q25 0 48 4.5t41 10.5q21 7 40 16z" />
<glyph unicode="&#x106;" horiz-adv-x="1257" d="M111 0zM1079 66q-25 -15 -65.5 -32t-92 -31t-113.5 -23t-130 -9q-129 0 -233.5 45t-179 124.5t-114.5 189t-40 237.5q0 115 28.5 226t82 210t131 183.5t175.5 145.5t215 95.5t250 34.5q65 0 122.5 -10t104 -24.5t81 -31t53.5 -30.5l-66 -285q-22 15 -53.5 32.5 t-71.5 31.5t-88 23.5t-102 9.5q-116 0 -210 -50t-161 -132t-103 -187t-36 -215q0 -79 18 -142t55.5 -107t95 -67.5t136.5 -23.5q55 0 109 12t102.5 30t90 39.5t71.5 39.5zM981 1624h-285l301 301h398z" />
<glyph unicode="&#x107;" horiz-adv-x="1051" d="M76 0zM829 33q-21 -9 -53.5 -20t-71.5 -20.5t-83.5 -15.5t-90.5 -6q-102 0 -185.5 29t-143.5 86t-92.5 141t-32.5 193q0 87 20 171t59 159t95.5 138t130 109t162.5 71.5t192 25.5q52 0 98.5 -6.5t85.5 -17t69.5 -23.5t51.5 -25l-51 -246q-14 9 -37.5 20t-54.5 21.5 t-69.5 17.5t-82.5 7q-81 0 -145 -31t-108.5 -84.5t-68.5 -126t-24 -154.5q0 -108 62 -161.5t174 -53.5q40 0 77 7t68.5 18t58.5 24t48 25zM731 1255h-285l301 301h398z" />
<glyph unicode="&#x10c;" horiz-adv-x="1257" d="M111 0zM1079 66q-25 -15 -65.5 -32t-92 -31t-113.5 -23t-130 -9q-129 0 -233.5 45t-179 124.5t-114.5 189t-40 237.5q0 115 28.5 226t82 210t131 183.5t175.5 145.5t215 95.5t250 34.5q65 0 122.5 -10t104 -24.5t81 -31t53.5 -30.5l-66 -285q-22 15 -53.5 32.5 t-71.5 31.5t-88 23.5t-102 9.5q-116 0 -210 -50t-161 -132t-103 -187t-36 -215q0 -79 18 -142t55.5 -107t95 -67.5t136.5 -23.5q55 0 109 12t102.5 30t90 39.5t71.5 39.5zM770 1624l-172 322h268l101 -156l166 156h268l-307 -322h-324z" />
<glyph unicode="&#x10d;" horiz-adv-x="1051" d="M76 0zM829 33q-21 -9 -53.5 -20t-71.5 -20.5t-83.5 -15.5t-90.5 -6q-102 0 -185.5 29t-143.5 86t-92.5 141t-32.5 193q0 87 20 171t59 159t95.5 138t130 109t162.5 71.5t192 25.5q52 0 98.5 -6.5t85.5 -17t69.5 -23.5t51.5 -25l-51 -246q-14 9 -37.5 20t-54.5 21.5 t-69.5 17.5t-82.5 7q-81 0 -145 -31t-108.5 -84.5t-68.5 -126t-24 -154.5q0 -108 62 -161.5t174 -53.5q40 0 77 7t68.5 18t58.5 24t48 25zM520 1255l-172 322h268l101 -156l166 156h268l-307 -322h-324z" />
<glyph unicode="&#x10e;" horiz-adv-x="1448" d="M72 0zM72 0l303 1434h360q178 0 309 -43.5t217.5 -121t128.5 -184t42 -231.5q0 -191 -72 -348t-203 -269.5t-315.5 -174.5t-409.5 -62h-360zM483 266q121 0 229 40.5t189 116t128.5 184t47.5 243.5q0 154 -98.5 235.5t-302.5 81.5h-25l-192 -901h24zM739 1624l-172 322 h268l101 -156l166 156h268l-307 -322h-324z" />
<glyph unicode="&#x10f;" horiz-adv-x="1718" d="M76 0zM1108 270q-14 -60 -22 -109t-13 -85q-5 -42 -8 -76h-260q-2 16 -3 34q-1 16 -1 36t2 43q-62 -60 -144.5 -101t-185.5 -41q-92 0 -165.5 33t-125 93t-79 144t-27.5 187q0 83 20.5 164.5t60.5 155.5t99 137.5t136 109.5t171 72.5t205 26.5q37 0 71.5 -5t61.5 -10 q32 -6 60 -14l92 430h315zM911 823q-28 13 -69 21t-90 8q-67 0 -130.5 -29t-113 -83.5t-79.5 -132.5t-30 -175q0 -57 14 -97.5t39 -66t60.5 -37.5t77.5 -12q33 0 65.5 8.5t61 22.5t51 31t35.5 34zM1421 813q34 24 68.5 53.5t63.5 62.5t51 67t32 67q-38 4 -66.5 20.5 t-45.5 43t-22.5 61.5t3.5 76q9 44 32 80.5t55 62.5t72 40.5t83 14.5q72 0 116 -42.5t44 -123.5q0 -90 -36.5 -173.5t-95 -158t-133 -138.5t-149.5 -115z" />
<glyph unicode="&#x110;" horiz-adv-x="1452" d="M76 0l119 563h-158l43 199h158l141 672h356q182 0 314.5 -39.5t218.5 -111t127 -170.5t41 -218q0 -133 -35.5 -251t-100.5 -217.5t-156.5 -178.5t-203 -134t-240 -84.5t-268.5 -29.5h-356zM487 266q129 0 238 40.5t188 116t123.5 184t44.5 243.5q0 154 -98.5 235.5 t-302.5 81.5h-25l-86 -405h213l-43 -199h-213l-63 -297h24z" />
<glyph unicode="&#x111;" horiz-adv-x="1346" d="M834 0q-1 19 -1 39q0 17 0.5 39t2.5 45q-32 -29 -72.5 -56.5t-88.5 -48.5t-101.5 -34t-110.5 -13q-88 0 -159.5 31t-122 87t-78 133.5t-27.5 170.5q0 80 21 163t59.5 161t94.5 146.5t125.5 120t151.5 81t174 29.5q49 0 91 -9t76.5 -23.5t61.5 -33.5t46 -39l37 172h-289 l43 199h289l28 135h312l-29 -135h119l-43 -199h-119l-188 -891q-13 -60 -21 -109t-13 -85q-6 -42 -9 -76h-260zM936 791q-23 21 -68.5 42t-111.5 21q-80 0 -146.5 -35.5t-114 -93.5t-74 -132.5t-26.5 -152.5q0 -54 16.5 -93t45.5 -65t69 -38.5t88 -12.5q29 0 59.5 5.5t59 14 t53.5 19.5t43 23z" />
<glyph unicode="&#x112;" d="M125 0zM125 0l303 1434h885l-56 -267h-553l-63 -297h450l-57 -266h-451l-71 -338h553l-56 -266h-884zM522 1686l49 227h644l-50 -227h-643z" />
<glyph unicode="&#x113;" horiz-adv-x="1165" d="M76 0zM936 66q-34 -21 -76.5 -38.5t-89.5 -30t-98 -19.5t-101 -7q-115 0 -207 30t-156 87t-98 140t-34 190q0 85 19.5 168.5t57.5 158.5t93 139t126 110.5t156.5 73t184.5 26.5q87 0 161 -25.5t128 -72.5t85 -115t31 -152q0 -68 -15 -137.5t-38 -132.5h-659 q-2 -10 -2.5 -19t-0.5 -18q-6 -211 242 -211q37 0 79 6t86.5 18.5t89.5 31t87 42.5zM805 651q6 20 8 40t2 38q0 63 -33.5 100t-95.5 37q-46 0 -86 -18.5t-71.5 -48.5t-53.5 -68.5t-33 -79.5h363zM411 1317l49 227h644l-50 -227h-643z" />
<glyph unicode="&#x116;" d="M125 0zM125 0l303 1434h885l-56 -267h-553l-63 -297h450l-57 -266h-451l-71 -338h553l-56 -266h-884zM833 1641q-38 0 -67 13t-47.5 36.5t-25.5 55t1 69.5q9 38 29.5 70t49 55t63.5 36t73 13q37 0 66.5 -13t49 -36t27 -55t-0.5 -70t-29 -69.5t-50.5 -55t-65.5 -36.5 t-73 -13z" />
<glyph unicode="&#x117;" horiz-adv-x="1165" d="M76 0zM936 66q-34 -21 -76.5 -38.5t-89.5 -30t-98 -19.5t-101 -7q-115 0 -207 30t-156 87t-98 140t-34 190q0 85 19.5 168.5t57.5 158.5t93 139t126 110.5t156.5 73t184.5 26.5q87 0 161 -25.5t128 -72.5t85 -115t31 -152q0 -68 -15 -137.5t-38 -132.5h-659 q-2 -10 -2.5 -19t-0.5 -18q-6 -211 242 -211q37 0 79 6t86.5 18.5t89.5 31t87 42.5zM805 651q6 20 8 40t2 38q0 63 -33.5 100t-95.5 37q-46 0 -86 -18.5t-71.5 -48.5t-53.5 -68.5t-33 -79.5h363zM729 1272q-38 0 -67 13t-47.5 36.5t-25.5 55t1 69.5q9 38 29.5 70t49 55 t63.5 36t73 13q37 0 66.5 -13t49 -36t27 -55t-0.5 -70t-29 -69.5t-50.5 -55t-65.5 -36.5t-73 -13z" />
<glyph unicode="&#x118;" d="M125 0zM125 0l303 1434h885l-56 -267h-553l-63 -297h450l-57 -266h-451l-71 -338h553l-56 -266h-884zM964 -508q-23 -12 -55 -22q-27 -8 -67 -14.5t-93 -6.5q-51 0 -93.5 10.5t-72.5 32.5t-46.5 55.5t-16.5 79.5q0 58 21 111.5t55 101t77.5 88t87.5 72.5h195 q-42 -41 -77 -85q-30 -38 -58 -84t-37 -91q-8 -34 -1.5 -56t20.5 -34.5t32.5 -17.5t34.5 -5q25 0 48 4.5t41 10.5q21 7 40 16z" />
<glyph unicode="&#x119;" horiz-adv-x="1165" d="M76 0zM936 66q-34 -21 -76.5 -38.5t-89.5 -30t-98 -19.5t-101 -7q-115 0 -207 30t-156 87t-98 140t-34 190q0 85 19.5 168.5t57.5 158.5t93 139t126 110.5t156.5 73t184.5 26.5q87 0 161 -25.5t128 -72.5t85 -115t31 -152q0 -68 -15 -137.5t-38 -132.5h-659 q-2 -10 -2.5 -19t-0.5 -18q-6 -211 242 -211q37 0 79 6t86.5 18.5t89.5 31t87 42.5zM805 651q6 20 8 40t2 38q0 63 -33.5 100t-95.5 37q-46 0 -86 -18.5t-71.5 -48.5t-53.5 -68.5t-33 -79.5h363zM731 -508q-23 -12 -55 -22q-27 -8 -67 -14.5t-93 -6.5q-51 0 -93.5 10.5 t-72.5 32.5t-46.5 55.5t-16.5 79.5q0 58 21 111.5t55 101t77.5 88t87.5 72.5h195q-42 -41 -77 -85q-30 -38 -58 -84t-37 -91q-8 -34 -1.5 -56t20.5 -34.5t32.5 -17.5t34.5 -5q25 0 48 4.5t41 10.5q21 7 40 16z" />
<glyph unicode="&#x11a;" d="M125 0zM125 0l303 1434h885l-56 -267h-553l-63 -297h450l-57 -266h-451l-71 -338h553l-56 -266h-884zM649 1624l-172 322h268l101 -156l166 156h268l-307 -322h-324z" />
<glyph unicode="&#x11b;" horiz-adv-x="1165" d="M76 0zM936 66q-34 -21 -76.5 -38.5t-89.5 -30t-98 -19.5t-101 -7q-115 0 -207 30t-156 87t-98 140t-34 190q0 85 19.5 168.5t57.5 158.5t93 139t126 110.5t156.5 73t184.5 26.5q87 0 161 -25.5t128 -72.5t85 -115t31 -152q0 -68 -15 -137.5t-38 -132.5h-659 q-2 -10 -2.5 -19t-0.5 -18q-6 -211 242 -211q37 0 79 6t86.5 18.5t89.5 31t87 42.5zM805 651q6 20 8 40t2 38q0 63 -33.5 100t-95.5 37q-46 0 -86 -18.5t-71.5 -48.5t-53.5 -68.5t-33 -79.5h363zM539 1255l-172 322h268l101 -156l166 156h268l-307 -322h-324z" />
<glyph unicode="&#x11e;" horiz-adv-x="1397" d="M111 0zM950 524h-151l51 238h483l-147 -694q-28 -15 -72 -32t-102.5 -31.5t-131.5 -24t-159 -9.5q-142 0 -255 44t-192 121.5t-121 183.5t-42 231q0 123 29.5 238t85 216.5t135.5 185.5t180.5 144t220 93.5t254.5 33.5q77 0 141 -10t114.5 -25t87.5 -31.5t60 -29.5 l-61 -272q-23 10 -60 25t-84 28.5t-103 23t-116 9.5q-79 0 -149.5 -22.5t-129.5 -62t-106 -95t-79.5 -121t-50 -139.5t-17.5 -152q0 -77 19.5 -138.5t58.5 -105t98 -67t139 -23.5q31 0 61.5 4t55.5 10zM1428 2026q-21 -84 -62 -157.5t-100.5 -128t-136 -85.5t-168.5 -31 q-78 0 -136 22.5t-96 63t-56.5 97t-18.5 123.5q0 23 1.5 47t6.5 49h221q-2 -45 2.5 -79.5t18.5 -58.5t39 -36.5t63 -12.5q76 0 122.5 49t78.5 138h221z" />
<glyph unicode="&#x11f;" horiz-adv-x="1298" d="M0 0zM745 66q-46 -23 -111 -43.5t-140 -20.5q-97 0 -174.5 31t-131.5 89t-83 141t-29 186q0 83 22.5 163t65 151.5t104.5 132t141 104.5t173.5 69t203.5 25q78 0 150.5 -13t134 -31.5t108 -39.5t72.5 -37l-200 -953q-29 -138 -92 -238.5t-151.5 -165.5t-199.5 -96.5 t-237 -31.5q-82 0 -151 15t-122.5 36t-88.5 43t-50 37l57 266q19 -19 53 -45.5t81.5 -51t108 -41.5t132.5 -17q61 0 116 15.5t99.5 48.5t77 84t47.5 122zM903 801q-8 5 -25 11t-39 11t-46.5 8t-47.5 3q-81 0 -145.5 -32.5t-109 -85.5t-68 -121.5t-23.5 -141.5q0 -58 15 -100 t41 -69t62.5 -40t78.5 -13q29 0 58.5 6t55.5 16t48 21.5t37 22.5zM1268 1657q-21 -84 -62 -157.5t-100.5 -128t-136 -85.5t-168.5 -31q-78 0 -136 22.5t-96 63t-56.5 97t-18.5 123.5q0 23 1.5 47t6.5 49h221q-2 -45 2.5 -79.5t18.5 -58.5t39 -36.5t63 -12.5q76 0 122.5 49 t78.5 138h221z" />
<glyph unicode="&#x122;" horiz-adv-x="1397" d="M111 0zM950 524h-151l51 238h483l-147 -694q-28 -15 -72 -32t-102.5 -31.5t-131.5 -24t-159 -9.5q-142 0 -255 44t-192 121.5t-121 183.5t-42 231q0 123 29.5 238t85 216.5t135.5 185.5t180.5 144t220 93.5t254.5 33.5q77 0 141 -10t114.5 -25t87.5 -31.5t60 -29.5 l-61 -272q-23 10 -60 25t-84 28.5t-103 23t-116 9.5q-79 0 -149.5 -22.5t-129.5 -62t-106 -95t-79.5 -121t-50 -139.5t-17.5 -152q0 -77 19.5 -138.5t58.5 -105t98 -67t139 -23.5q31 0 61.5 4t55.5 10zM416 -854q34 24 68.5 53.5t63.5 62t51 67t32 67.5q-63 6 -100 47 t-37 104q0 48 18 93t50.5 79.5t76.5 55t97 20.5q37 0 68.5 -11.5t55 -33.5t37 -54t13.5 -73q0 -90 -36.5 -172.5t-95 -156t-133 -136.5t-149.5 -114z" />
<glyph unicode="&#x123;" horiz-adv-x="1298" d="M0 0zM745 66q-46 -23 -111 -43.5t-140 -20.5q-97 0 -174.5 31t-131.5 89t-83 141t-29 186q0 83 22.5 163t65 151.5t104.5 132t141 104.5t173.5 69t203.5 25q78 0 150.5 -13t134 -31.5t108 -39.5t72.5 -37l-200 -953q-29 -138 -92 -238.5t-151.5 -165.5t-199.5 -96.5 t-237 -31.5q-82 0 -151 15t-122.5 36t-88.5 43t-50 37l57 266q19 -19 53 -45.5t81.5 -51t108 -41.5t132.5 -17q61 0 116 15.5t99.5 48.5t77 84t47.5 122zM903 801q-8 5 -25 11t-39 11t-46.5 8t-47.5 3q-81 0 -145.5 -32.5t-109 -85.5t-68 -121.5t-23.5 -141.5q0 -58 15 -100 t41 -69t62.5 -40t78.5 -13q29 0 58.5 6t55.5 16t48 21.5t37 22.5zM1098 1913q-35 -24 -69.5 -53.5t-63.5 -62.5t-50.5 -67t-31.5 -67q37 -4 65.5 -20.5t46 -43t23 -61.5t-3.5 -76q-9 -44 -32 -80.5t-56 -62.5t-73 -40.5t-83 -14.5q-72 0 -114.5 41.5t-42.5 121.5 q0 91 36 175t94.5 158.5t132 139t148.5 115.5z" />
<glyph unicode="&#x12a;" horiz-adv-x="680" d="M72 0zM72 0l303 1434h332l-304 -1434h-331zM267 1686l49 227h644l-50 -227h-643z" />
<glyph unicode="&#x12b;" horiz-adv-x="625" d="M49 0zM49 0l225 1065h312l-226 -1065h-311zM162 1317l49 227h644l-50 -227h-643z" />
<glyph unicode="&#x12e;" horiz-adv-x="680" d="M0 0zM72 0l303 1434h332l-304 -1434h-331zM411 -508q-23 -12 -55 -22q-27 -8 -67 -14.5t-93 -6.5q-51 0 -93.5 10.5t-72.5 32.5t-46.5 55.5t-16.5 79.5q0 58 21 111.5t55 101t77.5 88t87.5 72.5h195q-42 -41 -77 -85q-30 -38 -58 -84t-37 -91q-8 -34 -1.5 -56t20.5 -34.5 t32.5 -17.5t34.5 -5q25 0 48 4.5t41 10.5q21 7 40 16z" />
<glyph unicode="&#x12f;" horiz-adv-x="629" d="M0 0zM49 0l225 1065h316l-225 -1065h-316zM682 1415q0 -48 -18.5 -84t-49.5 -60.5t-70 -37t-79 -12.5q-68 0 -109 31t-41 89q0 48 18.5 84t49.5 61t69.5 37.5t79.5 12.5q69 0 109.5 -31t40.5 -90zM373 -508q-23 -12 -55 -22q-27 -8 -67 -14.5t-93 -6.5q-51 0 -93.5 10.5 t-72.5 32.5t-46.5 55.5t-16.5 79.5q0 58 21 111.5t55 101t77.5 88t87.5 72.5h195q-42 -41 -77 -85q-30 -38 -58 -84t-37 -91q-8 -34 -1.5 -56t20.5 -34.5t32.5 -17.5t34.5 -5q25 0 48 4.5t41 10.5q21 7 40 16z" />
<glyph unicode="&#x130;" horiz-adv-x="676" d="M16 0zM16 0l303 1434h332l-304 -1434h-331zM526 1641q-38 0 -67 13t-47.5 36.5t-25.5 55t1 69.5q9 38 29.5 70t49 55t63.5 36t73 13q37 0 66.5 -13t49 -36t27 -55t-0.5 -70t-29 -69.5t-50.5 -55t-65.5 -36.5t-73 -13z" />
<glyph unicode="&#x131;" horiz-adv-x="625" d="M49 0l225 1065h312l-226 -1065h-311z" />
<glyph unicode="&#x136;" horiz-adv-x="1395" d="M72 0zM938 0l-254 573l-197 -176l-84 -397h-331l303 1434h332l-132 -619l603 619h417l-651 -668l348 -766h-354zM340 -813q34 24 68.5 53.5t63.5 62t51 67t32 67.5q-63 6 -100 47t-37 104q0 48 18 93t50.5 79.5t76.5 55t97 20.5q37 0 68.5 -11.5t55 -33.5t37 -54 t13.5 -73q0 -90 -36.5 -172.5t-95 -156t-133 -136.5t-149.5 -114z" />
<glyph unicode="&#x137;" horiz-adv-x="1137" d="M51 0zM729 0l-151 416l-148 -109l-63 -307h-316l318 1495h315l-178 -833l377 403h377l-461 -457l276 -608h-346zM242 -834q34 24 68.5 53.5t63.5 62t51 67t32 67.5q-63 6 -100 47t-37 104q0 48 18 93t50.5 79.5t76.5 55t97 20.5q37 0 68.5 -11.5t55 -33.5t37 -54 t13.5 -73q0 -90 -36.5 -172.5t-95 -156t-133 -136.5t-149.5 -114z" />
<glyph unicode="&#x139;" horiz-adv-x="1067" d="M72 0zM72 0l303 1434h332l-248 -1168h553l-56 -266h-884zM713 1624h-285l301 301h398z" />
<glyph unicode="&#x13a;" horiz-adv-x="676" d="M100 0zM561 -8q-21 -7 -46 -11q-21 -4 -48.5 -7t-56.5 -3q-96 0 -162 28t-102.5 78.5t-45.5 120.5t9 154l243 1143h316l-236 -1108q-8 -38 -8 -65.5t9.5 -46.5t31 -28t57.5 -9q29 0 53 5t41 11zM680 1665h-285l301 301h398z" />
<glyph unicode="&#x13b;" horiz-adv-x="1067" d="M72 0zM72 0l303 1434h332l-248 -1168h553l-56 -266h-884zM219 -854q34 24 68.5 53.5t63.5 62t51 67t32 67.5q-63 6 -100 47t-37 104q0 48 18 93t50.5 79.5t76.5 55t97 20.5q37 0 68.5 -11.5t55 -33.5t37 -54t13.5 -73q0 -90 -36.5 -172.5t-95 -156t-133 -136.5 t-149.5 -114z" />
<glyph unicode="&#x13c;" horiz-adv-x="676" d="M19 0zM561 -8q-21 -7 -46 -11q-21 -4 -48.5 -7t-56.5 -3q-96 0 -162 28t-102.5 78.5t-45.5 120.5t9 154l243 1143h316l-236 -1108q-8 -38 -8 -65.5t9.5 -46.5t31 -28t57.5 -9q29 0 53 5t41 11zM19 -854q34 24 68.5 53.5t63.5 62t51 67t32 67.5q-63 6 -100 47t-37 104 q0 48 18 93t50.5 79.5t76.5 55t97 20.5q37 0 68.5 -11.5t55 -33.5t37 -54t13.5 -73q0 -90 -36.5 -172.5t-95 -156t-133 -136.5t-149.5 -114z" />
<glyph unicode="&#x13d;" horiz-adv-x="1130" d="M72 0zM72 0l303 1434h332l-248 -1168h553l-56 -266h-884zM731 813q34 24 68.5 53.5t63.5 62.5t51 67t32 67q-38 4 -66.5 20.5t-45.5 43t-22.5 61.5t3.5 76q9 44 32 80.5t55 62.5t72 40.5t83 14.5q72 0 116 -42.5t44 -123.5q0 -90 -36.5 -173.5t-95 -158t-133 -138.5 t-149.5 -115z" />
<glyph unicode="&#x13e;" horiz-adv-x="1104" d="M100 0zM561 -8q-21 -7 -46 -11q-21 -4 -48.5 -7t-56.5 -3q-96 0 -162 28t-102.5 78.5t-45.5 120.5t9 154l243 1143h316l-236 -1108q-8 -38 -8 -65.5t9.5 -46.5t31 -28t57.5 -9q29 0 53 5t41 11zM731 813q34 24 68.5 53.5t63.5 62.5t51 67t32 67q-38 4 -66.5 20.5 t-45.5 43t-22.5 61.5t3.5 76q9 44 32 80.5t55 62.5t72 40.5t83 14.5q72 0 116 -42.5t44 -123.5q0 -90 -36.5 -173.5t-95 -158t-133 -138.5t-149.5 -115z" />
<glyph unicode="&#x141;" horiz-adv-x="1075" d="M78 0l98 471l-172 -72l49 230l172 71l156 734h332l-123 -584l301 127l-49 -229l-301 -127l-76 -355h555l-55 -266h-887z" />
<glyph unicode="&#x142;" horiz-adv-x="707" d="M584 -2q-28 -8 -60 -14q-27 -5 -61.5 -9t-71.5 -4q-104 0 -166.5 30.5t-92 86t-30.5 133t17 170.5l18 84l-151 -67l49 229l151 68l168 790h316l-138 -639l254 113l-49 -230l-252 -112l-51 -240q-17 -80 9 -114.5t89 -34.5q23 0 42.5 2.5t33.5 6.5q17 4 31 9z" />
<glyph unicode="&#x143;" horiz-adv-x="1622" d="M72 0zM1055 0l-463 895l-189 -895h-331l303 1434h291l460 -895l191 895h332l-303 -1434h-291zM1092 1624h-285l301 301h398z" />
<glyph unicode="&#x144;" horiz-adv-x="1288" d="M51 0zM729 0l133 633q9 40 8 78t-15.5 67t-44 46.5t-77.5 17.5q-32 0 -63 -11t-59.5 -28t-52 -36.5t-38.5 -37.5l-153 -729h-316l168 795q12 59 20.5 108.5t13.5 85.5q6 42 9 76h295q0 -19 -1 -43q-1 -20 -3 -49.5t-6 -65.5q18 22 50 54.5t76.5 61.5t101.5 50t126 21 q89 0 152 -33t99.5 -88t46.5 -127.5t-7 -151.5l-148 -694h-315zM809 1255h-285l301 301h398z" />
<glyph unicode="&#x145;" horiz-adv-x="1622" d="M72 0zM1055 0l-463 895l-189 -895h-331l303 1434h291l460 -895l191 895h332l-303 -1434h-291zM424 -834q34 24 68.5 53.5t63.5 62t51 67t32 67.5q-63 6 -100 47t-37 104q0 48 18 93t50.5 79.5t76.5 55t97 20.5q37 0 68.5 -11.5t55 -33.5t37 -54t13.5 -73 q0 -90 -36.5 -172.5t-95 -156t-133 -136.5t-149.5 -114z" />
<glyph unicode="&#x146;" horiz-adv-x="1288" d="M51 0zM729 0l133 633q9 40 8 78t-15.5 67t-44 46.5t-77.5 17.5q-32 0 -63 -11t-59.5 -28t-52 -36.5t-38.5 -37.5l-153 -729h-316l168 795q12 59 20.5 108.5t13.5 85.5q6 42 9 76h295q0 -19 -1 -43q-1 -20 -3 -49.5t-6 -65.5q18 22 50 54.5t76.5 61.5t101.5 50t126 21 q89 0 152 -33t99.5 -88t46.5 -127.5t-7 -151.5l-148 -694h-315zM215 -834q34 24 68.5 53.5t63.5 62t51 67t32 67.5q-63 6 -100 47t-37 104q0 48 18 93t50.5 79.5t76.5 55t97 20.5q37 0 68.5 -11.5t55 -33.5t37 -54t13.5 -73q0 -90 -36.5 -172.5t-95 -156t-133 -136.5 t-149.5 -114z" />
<glyph unicode="&#x147;" horiz-adv-x="1622" d="M72 0zM1055 0l-463 895l-189 -895h-331l303 1434h291l460 -895l191 895h332l-303 -1434h-291zM860 1624l-172 322h268l101 -156l166 156h268l-307 -322h-324z" />
<glyph unicode="&#x148;" horiz-adv-x="1288" d="M51 0zM729 0l133 633q9 40 8 78t-15.5 67t-44 46.5t-77.5 17.5q-32 0 -63 -11t-59.5 -28t-52 -36.5t-38.5 -37.5l-153 -729h-316l168 795q12 59 20.5 108.5t13.5 85.5q6 42 9 76h295q0 -19 -1 -43q-1 -20 -3 -49.5t-6 -65.5q18 22 50 54.5t76.5 61.5t101.5 50t126 21 q89 0 152 -33t99.5 -88t46.5 -127.5t-7 -151.5l-148 -694h-315zM618 1255l-172 322h268l101 -156l166 156h268l-307 -322h-324z" />
<glyph unicode="&#x14c;" horiz-adv-x="1632" d="M119 0zM774 254q106 0 194 48.5t151 129t97.5 183t34.5 210.5q0 81 -20 147t-59 112t-95.5 71t-128.5 25q-70 0 -132.5 -22.5t-115.5 -62t-95.5 -93.5t-72 -118t-45.5 -134.5t-16 -143.5q0 -81 20.5 -146t59.5 -110.5t95.5 -70.5t127.5 -25zM762 -29q-142 0 -260.5 45 t-203.5 127t-132 195.5t-47 251.5q0 109 26 216t75.5 204t122 179.5t166 143t207 95t245.5 34.5q142 0 260 -45t203 -126.5t132.5 -195.5t47.5 -251q0 -109 -26 -216t-75.5 -204t-122 -180t-166 -143.5t-207.5 -95t-245 -34.5zM712 1686l49 227h644l-50 -227h-643z" />
<glyph unicode="&#x14d;" horiz-adv-x="1266" d="M76 0zM571 213q73 0 130 40t96 101.5t59.5 134.5t20.5 138q0 111 -44.5 168t-125.5 57q-73 0 -130.5 -40t-97 -101.5t-60 -134.5t-20.5 -138q0 -112 45.5 -168.5t126.5 -56.5zM541 -29q-106 0 -192 34t-146.5 95.5t-93.5 146.5t-33 187q0 85 22 167t63.5 155.5t100 135 t132 106.5t160 70.5t183.5 25.5q105 0 191 -34t147 -95.5t94 -146.5t33 -187q0 -85 -22 -167t-63.5 -155.5t-100 -135t-132 -106.5t-160 -70.5t-183.5 -25.5zM454 1317l49 227h644l-50 -227h-643z" />
<glyph unicode="&#x150;" horiz-adv-x="1632" d="M119 0zM774 254q106 0 194 48.5t151 129t97.5 183t34.5 210.5q0 81 -20 147t-59 112t-95.5 71t-128.5 25q-70 0 -132.5 -22.5t-115.5 -62t-95.5 -93.5t-72 -118t-45.5 -134.5t-16 -143.5q0 -81 20.5 -146t59.5 -110.5t95.5 -70.5t127.5 -25zM762 -29q-142 0 -260.5 45 t-203.5 127t-132 195.5t-47 251.5q0 109 26 216t75.5 204t122 179.5t166 143t207 95t245.5 34.5q142 0 260 -45t203 -126.5t132.5 -195.5t47.5 -251q0 -109 -26 -216t-75.5 -204t-122 -180t-166 -143.5t-207.5 -95t-245 -34.5zM803 1624h-285l301 301h398zM1299 1624h-285 l301 301h397z" />
<glyph unicode="&#x151;" horiz-adv-x="1266" d="M76 0zM571 213q73 0 130 40t96 101.5t59.5 134.5t20.5 138q0 111 -44.5 168t-125.5 57q-73 0 -130.5 -40t-97 -101.5t-60 -134.5t-20.5 -138q0 -112 45.5 -168.5t126.5 -56.5zM541 -29q-106 0 -192 34t-146.5 95.5t-93.5 146.5t-33 187q0 85 22 167t63.5 155.5t100 135 t132 106.5t160 70.5t183.5 25.5q105 0 191 -34t147 -95.5t94 -146.5t33 -187q0 -85 -22 -167t-63.5 -155.5t-100 -135t-132 -106.5t-160 -70.5t-183.5 -25.5zM565 1255h-285l301 301h398zM1061 1255h-285l301 301h397z" />
<glyph unicode="&#x152;" horiz-adv-x="1970" d="M987 0q-52 -14 -108.5 -21.5t-116.5 -7.5q-142 0 -260.5 45t-203.5 127t-132 195.5t-47 251.5q0 109 26 216t75.5 204t122 179.5t166 143t207 95t245.5 34.5q57 0 110 -7t103 -21h884l-55 -267h-553l-64 -297h451l-57 -266h-451l-72 -338h553l-55 -266h-768zM1110 1137 q-34 20 -74 31.5t-88 11.5q-70 0 -132.5 -22.5t-115.5 -62t-95.5 -93.5t-72 -118t-45.5 -134.5t-16 -143.5q0 -81 20.5 -146t59.5 -110.5t95.5 -70.5t127.5 -25q42 0 81.5 7.5t74.5 23.5z" />
<glyph unicode="&#x153;" horiz-adv-x="1950" d="M1720 66q-34 -21 -76.5 -38.5t-89.5 -30t-97.5 -19.5t-100.5 -7q-133 0 -233 38t-165 112q-83 -69 -188 -109.5t-229 -40.5q-106 0 -192 34t-146.5 95.5t-93.5 146.5t-33 187q0 85 22 167t63.5 155.5t100 135t132 106.5t160 70.5t183.5 25.5q113 0 203 -39.5t152 -108.5 q78 68 179.5 108t225.5 40q87 0 161.5 -25.5t128.5 -72.5t85 -115t31 -152q0 -68 -15.5 -137.5t-38.5 -132.5h-659q-29 -248 240 -248q37 0 79 6t86.5 18.5t89.5 31t87 42.5zM571 213q73 0 130 40t96 101.5t59.5 134.5t20.5 138q0 111 -44.5 168t-125.5 57q-73 0 -130.5 -40 t-97 -101.5t-60 -134.5t-20.5 -138q0 -112 45.5 -168.5t126.5 -56.5zM1589 651q6 20 8 40t2 38q0 63 -33.5 100t-95.5 37q-46 0 -85.5 -18.5t-71 -48.5t-54 -68.5t-32.5 -79.5h362z" />
<glyph unicode="&#x154;" horiz-adv-x="1354" d="M72 0zM897 0l-199 479h-194l-101 -479h-331l303 1434h493q109 0 191.5 -29.5t138 -81.5t83.5 -123t28 -153q0 -74 -22 -144t-62 -132t-96.5 -115t-124.5 -93l253 -563h-360zM676 745q58 0 109 18.5t89 53t60 84t22 111.5q0 79 -52 117t-138 38h-115l-90 -422h115z M854 1624h-285l301 301h398z" />
<glyph unicode="&#x155;" horiz-adv-x="864" d="M51 0zM51 0l168 795q12 59 20.5 108.5t13.5 85.5q6 42 9 76h295q-1 -29 -3 -62q-2 -28 -5.5 -62t-11.5 -69h4q18 27 49 65t74 73t96 59.5t114 24.5q20 0 37 -3t30 -7q14 -4 26 -9l-60 -284q-15 5 -34 9q-17 3 -42 6t-59 3q-58 0 -104.5 -13.5t-79.5 -29.5 q-39 -19 -68 -43l-153 -723h-316zM639 1255h-285l301 301h398z" />
<glyph unicode="&#x156;" horiz-adv-x="1354" d="M72 0zM897 0l-199 479h-194l-101 -479h-331l303 1434h493q109 0 191.5 -29.5t138 -81.5t83.5 -123t28 -153q0 -74 -22 -144t-62 -132t-96.5 -115t-124.5 -93l253 -563h-360zM676 745q58 0 109 18.5t89 53t60 84t22 111.5q0 79 -52 117t-138 38h-115l-90 -422h115z M282 -834q34 24 68.5 53.5t63.5 62t51 67t32 67.5q-63 6 -100 47t-37 104q0 48 18 93t50.5 79.5t76.5 55t97 20.5q37 0 68.5 -11.5t55 -33.5t37 -54t13.5 -73q0 -90 -36.5 -172.5t-95 -156t-133 -136.5t-149.5 -114z" />
<glyph unicode="&#x157;" horiz-adv-x="864" d="M32 0zM51 0l168 795q12 59 20.5 108.5t13.5 85.5q6 42 9 76h295q-1 -29 -3 -62q-2 -28 -5.5 -62t-11.5 -69h4q18 27 49 65t74 73t96 59.5t114 24.5q20 0 37 -3t30 -7q14 -4 26 -9l-60 -284q-15 5 -34 9q-17 3 -42 6t-59 3q-58 0 -104.5 -13.5t-79.5 -29.5 q-39 -19 -68 -43l-153 -723h-316zM32 -854q34 24 68.5 53.5t63.5 62t51 67t32 67.5q-63 6 -100 47t-37 104q0 48 18 93t50.5 79.5t76.5 55t97 20.5q37 0 68.5 -11.5t55 -33.5t37 -54t13.5 -73q0 -90 -36.5 -172.5t-95 -156t-133 -136.5t-149.5 -114z" />
<glyph unicode="&#x158;" horiz-adv-x="1354" d="M72 0zM897 0l-199 479h-194l-101 -479h-331l303 1434h493q109 0 191.5 -29.5t138 -81.5t83.5 -123t28 -153q0 -74 -22 -144t-62 -132t-96.5 -115t-124.5 -93l253 -563h-360zM676 745q58 0 109 18.5t89 53t60 84t22 111.5q0 79 -52 117t-138 38h-115l-90 -422h115z M684 1624l-172 322h268l101 -156l166 156h268l-307 -322h-324z" />
<glyph unicode="&#x159;" horiz-adv-x="864" d="M51 0zM51 0l168 795q12 59 20.5 108.5t13.5 85.5q6 42 9 76h295q-1 -29 -3 -62q-2 -28 -5.5 -62t-11.5 -69h4q18 27 49 65t74 73t96 59.5t114 24.5q20 0 37 -3t30 -7q14 -4 26 -9l-60 -284q-15 5 -34 9q-17 3 -42 6t-59 3q-58 0 -104.5 -13.5t-79.5 -29.5 q-39 -19 -68 -43l-153 -723h-316zM431 1255l-172 322h268l101 -156l166 156h268l-307 -322h-324z" />
<glyph unicode="&#x15a;" horiz-adv-x="1085" d="M0 0zM51 356q75 -42 162 -71t190 -29q36 0 75.5 8t72.5 27t54.5 49t21.5 74q0 49 -31.5 87.5t-79 74.5t-102.5 74.5t-102.5 89t-79 118t-31.5 160.5q0 106 41 188.5t113.5 139.5t171 86.5t212.5 29.5q56 0 111.5 -7t105 -18t90 -26t66.5 -31l-59 -280q-26 15 -59 30 t-71.5 27.5t-82.5 20.5t-92 8q-45 0 -82 -11t-63.5 -30.5t-41 -45.5t-14.5 -57q0 -47 31.5 -84t78.5 -73t102 -75.5t102 -91.5t78.5 -120t31.5 -162q0 -109 -43.5 -195.5t-119.5 -146.5t-177.5 -91.5t-218.5 -31.5q-74 0 -138 9t-117.5 23t-95 31t-69.5 34zM830 1624h-285 l301 301h398z" />
<glyph unicode="&#x15b;" horiz-adv-x="952" d="M2 0zM55 297q27 -18 62 -34t73.5 -28.5t79 -20t78.5 -7.5q26 0 55.5 4.5t54.5 15.5t41.5 30.5t16.5 49.5q0 34 -26.5 60t-66.5 52t-87 55t-87 67.5t-66.5 90.5t-26.5 124q0 82 35 145t94 106t136.5 65t162.5 22q61 0 115 -6t98 -16t78 -21.5t57 -22.5l-53 -246 q-20 13 -49 26.5t-63.5 24.5t-71 18t-70.5 7q-73 0 -110.5 -23t-37.5 -63q0 -32 27 -58t67.5 -52t88 -55t88 -68t67.5 -90.5t27 -122.5q0 -86 -37.5 -152.5t-100 -111.5t-144 -68t-169.5 -23q-64 0 -125 7.5t-112.5 19t-91 25.5t-60.5 28zM688 1255h-285l301 301h398z" />
<glyph unicode="&#x15e;" horiz-adv-x="1085" d="M0 0zM51 356q75 -42 162 -71t190 -29q36 0 75.5 8t72.5 27t54.5 49t21.5 74q0 49 -31.5 87.5t-79 74.5t-102.5 74.5t-102.5 89t-79 118t-31.5 160.5q0 106 41 188.5t113.5 139.5t171 86.5t212.5 29.5q56 0 111.5 -7t105 -18t90 -26t66.5 -31l-59 -280q-26 15 -59 30 t-71.5 27.5t-82.5 20.5t-92 8q-45 0 -82 -11t-63.5 -30.5t-41 -45.5t-14.5 -57q0 -47 31.5 -84t78.5 -73t102 -75.5t102 -91.5t78.5 -120t31.5 -162q0 -109 -43.5 -195.5t-119.5 -146.5t-177.5 -91.5t-218.5 -31.5q-74 0 -138 9t-117.5 23t-95 31t-69.5 34zM135 -367 q17 -9 37 -16q17 -6 40.5 -11t49.5 -5q42 0 70.5 21.5t36.5 60.5q5 24 -6 43.5t-34.5 33.5t-58 21.5t-75.5 7.5l163 211h222l-101 -119q34 -10 61.5 -27.5t45 -43t24 -57.5t-1.5 -70q-12 -56 -47 -98.5t-83.5 -71t-105.5 -42.5t-114 -14q-32 0 -60 3.5t-48 8.5q-24 5 -44 13 z" />
<glyph unicode="&#x15f;" horiz-adv-x="952" d="M2 0zM55 297q27 -18 62 -34t73.5 -28.5t79 -20t78.5 -7.5q26 0 55.5 4.5t54.5 15.5t41.5 30.5t16.5 49.5q0 34 -26.5 60t-66.5 52t-87 55t-87 67.5t-66.5 90.5t-26.5 124q0 82 35 145t94 106t136.5 65t162.5 22q61 0 115 -6t98 -16t78 -21.5t57 -22.5l-53 -246 q-20 13 -49 26.5t-63.5 24.5t-71 18t-70.5 7q-73 0 -110.5 -23t-37.5 -63q0 -32 27 -58t67.5 -52t88 -55t88 -68t67.5 -90.5t27 -122.5q0 -86 -37.5 -152.5t-100 -111.5t-144 -68t-169.5 -23q-64 0 -125 7.5t-112.5 19t-91 25.5t-60.5 28zM74 -367q17 -9 37 -16 q17 -6 40.5 -11t49.5 -5q42 0 70.5 21.5t36.5 60.5q5 24 -6 43.5t-34.5 33.5t-58 21.5t-75.5 7.5l163 211h222l-101 -119q34 -10 61.5 -27.5t45 -43t24 -57.5t-1.5 -70q-12 -56 -47 -98.5t-83.5 -71t-105.5 -42.5t-114 -14q-32 0 -60 3.5t-48 8.5q-24 5 -44 13z" />
<glyph unicode="&#x160;" horiz-adv-x="1085" d="M0 0zM51 356q75 -42 162 -71t190 -29q36 0 75.5 8t72.5 27t54.5 49t21.5 74q0 49 -31.5 87.5t-79 74.5t-102.5 74.5t-102.5 89t-79 118t-31.5 160.5q0 106 41 188.5t113.5 139.5t171 86.5t212.5 29.5q56 0 111.5 -7t105 -18t90 -26t66.5 -31l-59 -280q-26 15 -59 30 t-71.5 27.5t-82.5 20.5t-92 8q-45 0 -82 -11t-63.5 -30.5t-41 -45.5t-14.5 -57q0 -47 31.5 -84t78.5 -73t102 -75.5t102 -91.5t78.5 -120t31.5 -162q0 -109 -43.5 -195.5t-119.5 -146.5t-177.5 -91.5t-218.5 -31.5q-74 0 -138 9t-117.5 23t-95 31t-69.5 34zM577 1624 l-172 322h268l101 -156l166 156h268l-307 -322h-324z" />
<glyph unicode="&#x161;" horiz-adv-x="952" d="M2 0zM55 297q27 -18 62 -34t73.5 -28.5t79 -20t78.5 -7.5q26 0 55.5 4.5t54.5 15.5t41.5 30.5t16.5 49.5q0 34 -26.5 60t-66.5 52t-87 55t-87 67.5t-66.5 90.5t-26.5 124q0 82 35 145t94 106t136.5 65t162.5 22q61 0 115 -6t98 -16t78 -21.5t57 -22.5l-53 -246 q-20 13 -49 26.5t-63.5 24.5t-71 18t-70.5 7q-73 0 -110.5 -23t-37.5 -63q0 -32 27 -58t67.5 -52t88 -55t88 -68t67.5 -90.5t27 -122.5q0 -86 -37.5 -152.5t-100 -111.5t-144 -68t-169.5 -23q-64 0 -125 7.5t-112.5 19t-91 25.5t-60.5 28zM437 1255l-172 322h268l101 -156 l166 156h268l-307 -322h-324z" />
<glyph unicode="&#x162;" d="M174 0zM328 0l247 1167h-401l55 267h1135l-55 -267h-402l-248 -1167h-331zM215 -367q17 -9 37 -16q17 -6 40.5 -11t49.5 -5q42 0 70.5 21.5t36.5 60.5q5 24 -6 43.5t-34.5 33.5t-58 21.5t-75.5 7.5l163 211h222l-101 -119q34 -10 61.5 -27.5t45 -43t24 -57.5t-1.5 -70 q-12 -56 -47 -98.5t-83.5 -71t-105.5 -42.5t-114 -14q-32 0 -60 3.5t-48 8.5q-24 5 -44 13z" />
<glyph unicode="&#x163;" horiz-adv-x="786" d="M111 0zM635 -2q-28 -8 -60 -14q-27 -5 -61.5 -9t-69.5 -4q-103 0 -166 31t-93.5 86.5t-32.5 133t18 169.5l92 430h-151l51 244h151l54 246l327 61l-65 -307h229l-51 -244h-229l-93 -434q-8 -40 -5 -68t16 -46t35.5 -26.5t52.5 -8.5q20 0 39.5 2.5t34.5 6.5q18 4 32 9z M190 -368q17 -9 37 -16q17 -6 40.5 -11t49.5 -5q42 0 70.5 21.5t36.5 60.5q5 24 -6 43.5t-34.5 33.5t-58 21.5t-75.5 7.5l163 211h222l-101 -119q34 -10 61.5 -27.5t45 -43t24 -57.5t-1.5 -70q-12 -56 -47 -98.5t-83.5 -71t-105.5 -42.5t-114 -14q-32 0 -60 3.5t-48 8.5 q-24 5 -44 13z" />
<glyph unicode="&#x164;" d="M174 0zM328 0l247 1167h-401l55 267h1135l-55 -267h-402l-248 -1167h-331zM649 1624l-172 322h268l101 -156l166 156h268l-307 -322h-324z" />
<glyph unicode="&#x165;" horiz-adv-x="924" d="M111 0zM635 -2q-28 -8 -60 -14q-27 -5 -61.5 -9t-69.5 -4q-103 0 -166 31t-93.5 86.5t-32.5 133t18 169.5l92 430h-151l51 244h151l54 246l327 61l-65 -307h229l-51 -244h-229l-93 -434q-8 -40 -5 -68t16 -46t35.5 -26.5t52.5 -8.5q20 0 39.5 2.5t34.5 6.5q18 4 32 9z M852 1339q34 24 68.5 53.5t63.5 62.5t51 67t32 67q-38 4 -66.5 20.5t-45.5 43t-22.5 61.5t3.5 76q9 44 32 80.5t55 62.5t72 40.5t83 14.5q72 0 116 -42.5t44 -123.5q0 -90 -36.5 -173.5t-95 -158t-133 -138.5t-149.5 -115z" />
<glyph unicode="&#x16a;" horiz-adv-x="1505" d="M158 0zM1210 1434h332l-180 -852q-34 -161 -98.5 -277t-155 -190t-205.5 -109t-250 -35q-144 0 -248 49t-166 132t-80.5 194t7.5 236l180 852h332l-180 -854q-15 -69 -14 -129t22 -104.5t64 -70.5t114 -26q129 0 219 79.5t127 250.5zM663 1686l49 227h644l-50 -227h-643z " />
<glyph unicode="&#x16b;" horiz-adv-x="1290" d="M112 0zM754 0q0 19 1 43q2 42 9 115q-18 -23 -50 -55t-76.5 -61t-101.5 -50t-126 -21q-89 0 -152 33t-99.5 88t-46.5 127.5t7 151.5l147 694h316l-133 -633q-9 -41 -8 -78.5t15.5 -66.5t44 -46.5t77.5 -17.5q31 0 62.5 11t60 28t52 36.5t38.5 37.5l153 729h316l-168 -795 q-13 -60 -21 -109t-13 -85q-6 -42 -9 -76h-295zM471 1317l49 227h644l-50 -227h-643z" />
<glyph unicode="&#x16e;" horiz-adv-x="1505" d="M158 0zM1210 1434h332l-180 -852q-34 -161 -98.5 -277t-155 -190t-205.5 -109t-250 -35q-144 0 -248 49t-166 132t-80.5 194t7.5 236l180 852h332l-180 -854q-15 -69 -14 -129t22 -104.5t64 -70.5t114 -26q129 0 219 79.5t127 250.5zM1139 1878q13 54 -11 88.5t-75 34.5 q-25 0 -47.5 -9t-41 -25.5t-31.5 -39t-19 -49.5q-13 -57 11 -92t75 -35t89 35t50 92zM1336 1946q0 -70 -29.5 -135.5t-80 -116t-118 -81t-143.5 -30.5q-55 0 -100.5 16.5t-78.5 46t-51 71t-18 92.5q0 70 29.5 135t80 115t118 80t143.5 30q55 0 100.5 -16t78.5 -45t51 -70 t18 -92z" />
<glyph unicode="&#x16f;" horiz-adv-x="1290" d="M112 0zM754 0q0 19 1 43q2 42 9 115q-18 -23 -50 -55t-76.5 -61t-101.5 -50t-126 -21q-89 0 -152 33t-99.5 88t-46.5 127.5t7 151.5l147 694h316l-133 -633q-9 -41 -8 -78.5t15.5 -66.5t44 -46.5t77.5 -17.5q31 0 62.5 11t60 28t52 36.5t38.5 37.5l153 729h316l-168 -795 q-13 -60 -21 -109t-13 -85q-6 -42 -9 -76h-295zM948 1509q13 54 -11 88.5t-75 34.5q-25 0 -47.5 -9t-41 -25.5t-31.5 -39t-19 -49.5q-13 -57 11 -92t75 -35t89 35t50 92zM1145 1577q0 -70 -29.5 -135.5t-80 -116t-118 -81t-143.5 -30.5q-55 0 -100.5 16.5t-78.5 46t-51 71 t-18 92.5q0 70 29.5 135t80 115t118 80t143.5 30q55 0 100.5 -16t78.5 -45t51 -70t18 -92z" />
<glyph unicode="&#x170;" horiz-adv-x="1505" d="M158 0zM1210 1434h332l-180 -852q-34 -161 -98.5 -277t-155 -190t-205.5 -109t-250 -35q-144 0 -248 49t-166 132t-80.5 194t7.5 236l180 852h332l-180 -854q-15 -69 -14 -129t22 -104.5t64 -70.5t114 -26q129 0 219 79.5t127 250.5zM774 1624h-285l301 301h398z M1270 1624h-285l301 301h397z" />
<glyph unicode="&#x171;" horiz-adv-x="1290" d="M112 0zM754 0q0 19 1 43q2 42 9 115q-18 -23 -50 -55t-76.5 -61t-101.5 -50t-126 -21q-89 0 -152 33t-99.5 88t-46.5 127.5t7 151.5l147 694h316l-133 -633q-9 -41 -8 -78.5t15.5 -66.5t44 -46.5t77.5 -17.5q31 0 62.5 11t60 28t52 36.5t38.5 37.5l153 729h316l-168 -795 q-13 -60 -21 -109t-13 -85q-6 -42 -9 -76h-295zM602 1255h-285l301 301h398zM1098 1255h-285l301 301h397z" />
<glyph unicode="&#x172;" horiz-adv-x="1505" d="M158 0zM1210 1434h332l-180 -852q-34 -161 -98.5 -277t-155 -190t-205.5 -109t-250 -35q-144 0 -248 49t-166 132t-80.5 194t7.5 236l180 852h332l-180 -854q-15 -69 -14 -129t22 -104.5t64 -70.5t114 -26q129 0 219 79.5t127 250.5zM839 -508q-23 -12 -55 -22 q-27 -8 -67 -14.5t-93 -6.5q-51 0 -93.5 10.5t-72.5 32.5t-46.5 55.5t-16.5 79.5q0 58 21 111.5t55 101t77.5 88t87.5 72.5h195q-42 -41 -77 -85q-30 -38 -58 -84t-37 -91q-8 -34 -1.5 -56t20.5 -34.5t32.5 -17.5t34.5 -5q25 0 48 4.5t41 10.5q21 7 40 16z" />
<glyph unicode="&#x173;" horiz-adv-x="1290" d="M112 0zM754 0q0 19 1 43q2 42 9 115q-18 -23 -50 -55t-76.5 -61t-101.5 -50t-126 -21q-89 0 -152 33t-99.5 88t-46.5 127.5t7 151.5l147 694h316l-133 -633q-9 -41 -8 -78.5t15.5 -66.5t44 -46.5t77.5 -17.5q31 0 62.5 11t60 28t52 36.5t38.5 37.5l153 729h316l-168 -795 q-13 -60 -21 -109t-13 -85q-6 -42 -9 -76h-295zM1057 -508q-23 -12 -55 -22q-27 -8 -67 -14.5t-93 -6.5q-51 0 -93.5 10.5t-72.5 32.5t-46.5 55.5t-16.5 79.5q0 58 21 111.5t55 101t77.5 88t87.5 72.5h195q-42 -41 -77 -85q-30 -38 -58 -84t-37 -91q-8 -34 -1.5 -56 t20.5 -34.5t32.5 -17.5t34.5 -5q25 0 48 4.5t41 10.5q21 7 40 16z" />
<glyph unicode="&#x178;" horiz-adv-x="1217" d="M172 0zM340 0l111 526l-279 908h356l138 -560l370 560h410l-664 -908l-110 -526h-332zM790 1772q-7 -33 -24.5 -61.5t-42 -49.5t-55 -33t-62.5 -12q-35 0 -61 12t-42.5 33t-22.5 49.5t1 61.5t24.5 61t43 48.5t56.5 32t66 11.5q32 0 57.5 -11.5t41.5 -32t21.5 -48.5 t-1.5 -61zM1257 1772q-7 -33 -24.5 -61.5t-42 -49.5t-55 -33t-62.5 -12q-35 0 -61.5 12t-43 33t-22 49.5t1.5 61.5t24.5 61t43 48.5t56.5 32t66 11.5q32 0 57.5 -11.5t41.5 -32t21.5 -48.5t-1.5 -61z" />
<glyph unicode="&#x179;" horiz-adv-x="1147" d="M0 0zM-43 0l47 225l780 942h-559l56 267h976l-47 -226l-780 -942h610l-55 -266h-1028zM862 1624h-285l301 301h398z" />
<glyph unicode="&#x17a;" horiz-adv-x="967" d="M0 0zM-51 0l35 172l571 659h-408l50 234h821l-37 -172l-569 -660h450l-49 -233h-864zM723 1255h-285l301 301h398z" />
<glyph unicode="&#x17b;" horiz-adv-x="1147" d="M0 0zM-43 0l47 225l780 942h-559l56 267h976l-47 -226l-780 -942h610l-55 -266h-1028zM815 1641q-38 0 -67 13t-47.5 36.5t-25.5 55t1 69.5q9 38 29.5 70t49 55t63.5 36t73 13q37 0 66.5 -13t49 -36t27 -55t-0.5 -70t-29 -69.5t-50.5 -55t-65.5 -36.5t-73 -13z" />
<glyph unicode="&#x17c;" horiz-adv-x="967" d="M0 0zM-51 0l35 172l571 659h-408l50 234h821l-37 -172l-569 -660h450l-49 -233h-864zM655 1272q-38 0 -67 13t-47.5 36.5t-25.5 55t1 69.5q9 38 29.5 70t49 55t63.5 36t73 13q37 0 66.5 -13t49 -36t27 -55t-0.5 -70t-29 -69.5t-50.5 -55t-65.5 -36.5t-73 -13z" />
<glyph unicode="&#x17d;" horiz-adv-x="1147" d="M0 0zM-43 0l47 225l780 942h-559l56 267h976l-47 -226l-780 -942h610l-55 -266h-1028zM635 1624l-172 322h268l101 -156l166 156h268l-307 -322h-324z" />
<glyph unicode="&#x17e;" horiz-adv-x="967" d="M0 0zM-51 0l35 172l571 659h-408l50 234h821l-37 -172l-569 -660h450l-49 -233h-864zM482 1255l-172 322h268l101 -156l166 156h268l-307 -322h-324z" />
<glyph unicode="&#x192;" horiz-adv-x="1090" d="M401 698h-204l84 244h206l74 205q31 89 79.5 154.5t109 108.5t131 64t145.5 21q34 0 66.5 -2.5t60 -7t48.5 -10t32 -11.5l-86 -245q-18 8 -40 15q-19 5 -44 10t-53 5q-51 0 -87 -23.5t-53 -70.5l-75 -213h206l-83 -244h-207l-305 -862q-32 -89 -80 -154.5t-109 -108.5 t-131 -64t-145 -21q-33 0 -65 2.5t-59 7t-47.5 10t-31.5 11.5l86 245q18 -9 39 -15q18 -6 42 -10.5t52 -4.5q51 0 86.5 24t52.5 70z" />
<glyph unicode="&#x218;" horiz-adv-x="1085" d="M0 0zM51 356q75 -42 162 -71t190 -29q36 0 75.5 8t72.5 27t54.5 49t21.5 74q0 49 -31.5 87.5t-79 74.5t-102.5 74.5t-102.5 89t-79 118t-31.5 160.5q0 106 41 188.5t113.5 139.5t171 86.5t212.5 29.5q56 0 111.5 -7t105 -18t90 -26t66.5 -31l-59 -280q-26 15 -59 30 t-71.5 27.5t-82.5 20.5t-92 8q-45 0 -82 -11t-63.5 -30.5t-41 -45.5t-14.5 -57q0 -47 31.5 -84t78.5 -73t102 -75.5t102 -91.5t78.5 -120t31.5 -162q0 -109 -43.5 -195.5t-119.5 -146.5t-177.5 -91.5t-218.5 -31.5q-74 0 -138 9t-117.5 23t-95 31t-69.5 34zM49 -854 q34 24 68.5 53.5t63.5 62t51 67t32 67.5q-63 6 -100 47t-37 104q0 48 18 93t50.5 79.5t76.5 55t97 20.5q37 0 68.5 -11.5t55 -33.5t37 -54t13.5 -73q0 -90 -36.5 -172.5t-95 -156t-133 -136.5t-149.5 -114z" />
<glyph unicode="&#x219;" horiz-adv-x="952" d="M2 0zM55 297q27 -18 62 -34t73.5 -28.5t79 -20t78.5 -7.5q26 0 55.5 4.5t54.5 15.5t41.5 30.5t16.5 49.5q0 34 -26.5 60t-66.5 52t-87 55t-87 67.5t-66.5 90.5t-26.5 124q0 82 35 145t94 106t136.5 65t162.5 22q61 0 115 -6t98 -16t78 -21.5t57 -22.5l-53 -246 q-20 13 -49 26.5t-63.5 24.5t-71 18t-70.5 7q-73 0 -110.5 -23t-37.5 -63q0 -32 27 -58t67.5 -52t88 -55t88 -68t67.5 -90.5t27 -122.5q0 -86 -37.5 -152.5t-100 -111.5t-144 -68t-169.5 -23q-64 0 -125 7.5t-112.5 19t-91 25.5t-60.5 28zM27 -854q34 24 68.5 53.5t63.5 62 t51 67t32 67.5q-63 6 -100 47t-37 104q0 48 18 93t50.5 79.5t76.5 55t97 20.5q37 0 68.5 -11.5t55 -33.5t37 -54t13.5 -73q0 -90 -36.5 -172.5t-95 -156t-133 -136.5t-149.5 -114z" />
<glyph unicode="&#x21a;" d="M117 0zM328 0l247 1167h-401l55 267h1135l-55 -267h-402l-248 -1167h-331zM117 -854q34 24 68.5 53.5t63.5 62t51 67t32 67.5q-63 6 -100 47t-37 104q0 48 18 93t50.5 79.5t76.5 55t97 20.5q37 0 68.5 -11.5t55 -33.5t37 -54t13.5 -73q0 -90 -36.5 -172.5t-95 -156 t-133 -136.5t-149.5 -114z" />
<glyph unicode="&#x21b;" horiz-adv-x="786" d="M34 0zM635 -2q-28 -8 -60 -14q-27 -5 -61.5 -9t-69.5 -4q-103 0 -166 31t-93.5 86.5t-32.5 133t18 169.5l92 430h-151l51 244h151l54 246l327 61l-65 -307h229l-51 -244h-229l-93 -434q-8 -40 -5 -68t16 -46t35.5 -26.5t52.5 -8.5q20 0 39.5 2.5t34.5 6.5q18 4 32 9z M34 -854q34 24 68.5 53.5t63.5 62t51 67t32 67.5q-63 6 -100 47t-37 104q0 48 18 93t50.5 79.5t76.5 55t97 20.5q37 0 68.5 -11.5t55 -33.5t37 -54t13.5 -73q0 -90 -36.5 -172.5t-95 -156t-133 -136.5t-149.5 -114z" />
<glyph unicode="&#x2c6;" horiz-adv-x="983" d="M788 1255l-100 156l-166 -156h-268l307 322h324l172 -322h-269z" />
<glyph unicode="&#x2c7;" horiz-adv-x="1024" d="M514 1255l-172 322h268l101 -156l166 156h268l-307 -322h-324z" />
<glyph unicode="&#x2d8;" horiz-adv-x="946" d="M1104 1657q-21 -84 -62 -157.5t-100.5 -128t-136 -85.5t-168.5 -31q-78 0 -136 22.5t-96 63t-56.5 97t-18.5 123.5q0 23 1.5 47t6.5 49h221q-2 -45 2.5 -79.5t18.5 -58.5t39 -36.5t63 -12.5q76 0 122.5 49t78.5 138h221z" />
<glyph unicode="&#x2d9;" horiz-adv-x="557" d="M444 1272q-38 0 -67 13t-47.5 36.5t-25.5 55t1 69.5q9 38 29.5 70t49 55t63.5 36t73 13q37 0 66.5 -13t49 -36t27 -55t-0.5 -70t-29 -69.5t-50.5 -55t-65.5 -36.5t-73 -13z" />
<glyph unicode="&#x2da;" horiz-adv-x="803" d="M731 1509q13 54 -11 88.5t-75 34.5q-25 0 -47.5 -9t-41 -25.5t-31.5 -39t-19 -49.5q-13 -57 11 -92t75 -35t89 35t50 92zM928 1577q0 -70 -29.5 -135.5t-80 -116t-118 -81t-143.5 -30.5q-55 0 -100.5 16.5t-78.5 46t-51 71t-18 92.5q0 70 29.5 135t80 115t118 80 t143.5 30q55 0 100.5 -16t78.5 -45t51 -70t18 -92z" />
<glyph unicode="&#x2db;" horiz-adv-x="643" d="M350 -508q-23 -12 -55 -22q-27 -8 -67 -14.5t-93 -6.5q-51 0 -93.5 10.5t-72.5 32.5t-46.5 55.5t-16.5 79.5q0 58 21 111.5t55 101t77.5 88t87.5 72.5h195q-42 -41 -77 -85q-30 -38 -58 -84t-37 -91q-8 -34 -1.5 -56t20.5 -34.5t32.5 -17.5t34.5 -5q25 0 48 4.5t41 10.5 q21 7 40 16z" />
<glyph unicode="&#x2dc;" horiz-adv-x="1044" d="M1200 1640q-15 -66 -43.5 -131t-72.5 -116t-102.5 -83t-133.5 -32q-42 0 -72.5 10.5t-53.5 27t-40.5 35t-34 35t-34.5 27t-42 10.5q-42 0 -72 -35t-44 -106h-195q13 64 41.5 129t72 117t101.5 84.5t131 32.5q40 0 70.5 -11t54 -27t41.5 -35t35.5 -35t34.5 -27t39 -11 q48 0 79.5 38t45.5 103h194z" />
<glyph unicode="&#x2dd;" horiz-adv-x="1335" d="M551 1255h-285l301 301h398zM1047 1255h-285l301 301h397z" />
<glyph unicode="&#x3c0;" horiz-adv-x="1640" d="M1395 8q-27 -8 -58 -13q-26 -5 -60.5 -9t-72.5 -4q-99 0 -162 26.5t-94.5 79t-34 131t20.5 182.5l90 420h-264l-174 -821h-312l175 821h-234l51 244h1354l-51 -244h-234l-90 -424q-17 -80 8 -114.5t90 -34.5q23 0 43 2.5t34 6.5q17 4 30 9z" />
<glyph unicode="&#x2013;" horiz-adv-x="1245" d="M100 475l58 268h1040l-57 -268h-1041z" />
<glyph unicode="&#x2014;" horiz-adv-x="2222" d="M100 475l58 268h2017l-57 -268h-2018z" />
<glyph unicode="&#x2018;" horiz-adv-x="573" d="M645 1360q-35 -24 -69.5 -53.5t-63.5 -62.5t-50.5 -67t-31.5 -67q37 -4 65.5 -20.5t46 -43t23 -61.5t-3.5 -76q-9 -44 -32 -80.5t-56 -62.5t-73 -40.5t-83 -14.5q-72 0 -114.5 41.5t-42.5 121.5q0 91 36 175t94.5 158.5t132 139t148.5 115.5z" />
<glyph unicode="&#x2019;" horiz-adv-x="573" d="M184 813q34 24 68.5 53.5t63.5 62.5t51 67t32 67q-38 4 -66.5 20.5t-45.5 43t-22.5 61.5t3.5 76q9 44 32 80.5t55 62.5t72 40.5t83 14.5q72 0 116 -42.5t44 -123.5q0 -90 -36.5 -173.5t-95 -158t-133 -138.5t-149.5 -115z" />
<glyph unicode="&#x201a;" horiz-adv-x="541" d="M-80 -276q34 24 68.5 53.5t63.5 62t51 66.5t32 67q-38 4 -66.5 21t-45.5 43.5t-22.5 61t3.5 75.5q9 45 32 81.5t55 62.5t72 40.5t83 14.5q74 0 117 -42.5t43 -123.5q0 -17 -3 -35t-6 -37q-13 -60 -43.5 -125.5t-80 -131.5t-119.5 -131.5t-162 -125.5z" />
<glyph unicode="&#x201c;" horiz-adv-x="1055" d="M1126 1360q-35 -24 -69.5 -53.5t-63.5 -62.5t-50.5 -67t-31.5 -67q38 -4 66.5 -20.5t45.5 -43t22.5 -61.5t-3.5 -76q-9 -44 -32 -80.5t-55.5 -62.5t-72.5 -40.5t-83 -14.5q-73 0 -115.5 41.5t-42.5 121.5q0 91 36 175t94.5 158.5t132.5 139t149 115.5zM645 1360 q-35 -24 -69.5 -53.5t-63.5 -62.5t-50.5 -67t-31.5 -67q37 -4 65.5 -20.5t46 -43t23 -61.5t-3.5 -76q-9 -44 -32 -80.5t-56 -62.5t-73 -40.5t-83 -14.5q-72 0 -114.5 41.5t-42.5 121.5q0 91 36 175t94.5 158.5t132 139t148.5 115.5z" />
<glyph unicode="&#x201d;" horiz-adv-x="1055" d="M184 813q34 24 68.5 53.5t63.5 62.5t51 67t32 67q-38 4 -66.5 20.5t-45.5 43t-22.5 61.5t3.5 76q9 44 32 80.5t55 62.5t72 40.5t83 14.5q72 0 116 -42.5t44 -123.5q0 -90 -36.5 -173.5t-95 -158t-133 -138.5t-149.5 -115zM666 813q34 24 68.5 53.5t63.5 62.5t51 67t32 67 q-38 4 -66.5 20.5t-46 43t-22.5 61.5t4 76q9 44 31.5 80.5t55 62.5t72 40.5t82.5 14.5q72 0 116 -42.5t44 -123.5q0 -90 -36.5 -173.5t-95 -158t-133 -138.5t-149.5 -115z" />
<glyph unicode="&#x201e;" horiz-adv-x="1022" d="M-80 -276q34 24 68.5 53.5t63.5 62t51 66.5t32 67q-38 4 -66.5 21t-45.5 43.5t-22.5 61t3.5 75.5q9 45 32 81.5t55 62.5t72 40.5t83 14.5q74 0 117 -42.5t43 -123.5q0 -90 -36.5 -174t-95 -158.5t-133 -138.5t-149.5 -115zM401 -276q35 24 69 53.5t63.5 62t51 66.5 t31.5 67q-38 4 -66.5 21t-45.5 43.5t-22.5 61t3.5 75.5q9 45 32 81.5t55 62.5t72 40.5t83 14.5q74 0 117 -42.5t43 -123.5q0 -90 -36.5 -174t-95 -158.5t-133 -138.5t-149.5 -115z" />
<glyph unicode="&#x2020;" horiz-adv-x="1155" d="M248 -309l252 1114l-332 -12l51 245l326 -18l80 442h319l-108 -442l333 18l-51 -245l-327 12l-224 -1114h-319z" />
<glyph unicode="&#x2021;" horiz-adv-x="1233" d="M289 -309l108 442l-334 -18l54 245l327 -12l41 234l56 223l-332 -12l51 245l326 -18l80 442h315l-109 -442l334 18l-51 -245l-328 12l-39 -223l-57 -234l332 12l-53 -245l-326 18l-80 -442h-315z" />
<glyph unicode="&#x2022;" horiz-adv-x="899" d="M809 676q0 -65 -24 -121t-66 -97t-98.5 -64t-120.5 -23q-65 0 -121.5 23t-97.5 64t-64.5 97t-23.5 121q0 64 23.5 120.5t64.5 97.5t97.5 65t121.5 24q64 0 120.5 -24t98.5 -65t66 -97.5t24 -120.5z" />
<glyph unicode="&#x2026;" horiz-adv-x="1673" d="M147 -29q-43 0 -76.5 15t-55 41.5t-29 63.5t1.5 81t32 81t55.5 63.5t72.5 41.5t83 15t76.5 -15t55 -41.5t28.5 -63.5t-2 -81t-32 -81t-55 -63.5t-72 -41.5t-83 -15zM725 -29q-43 0 -77 15t-55.5 41.5t-29 63.5t1.5 81t32.5 81t56 63.5t72.5 41.5t83 15t76.5 -15 t54.5 -41.5t28.5 -63.5t-1.5 -81t-32 -81t-55.5 -63.5t-72 -41.5t-82.5 -15zM1303 -29q-43 0 -77 15t-55.5 41.5t-29 63.5t1.5 81t32 81t55.5 63.5t72.5 41.5t83 15t76.5 -15t55 -41.5t28.5 -63.5t-2 -81t-32 -81t-55 -63.5t-71.5 -41.5t-82.5 -15z" />
<glyph unicode="&#x2030;" horiz-adv-x="2939" d="M504 602q-72 0 -131 22t-101 62t-65 97t-23 128q0 63 17 126.5t48 122t75.5 108.5t99.5 87t119.5 58t136.5 21t131 -22t100.5 -62.5t64.5 -97.5t23 -128q0 -64 -16.5 -127t-48 -121t-75.5 -108t-99 -87t-119.5 -58t-136.5 -21zM547 805q50 0 87 28.5t61 72t36 94.5t12 96 q0 65 -27.5 100t-78.5 35q-50 0 -87 -28.5t-61.5 -72t-36.5 -94.5t-12 -96q0 -65 28 -100t79 -35zM436 -29l1018 1491h258l-1018 -1491h-258zM1468 0q-72 0 -131 22t-100.5 62t-64.5 97t-23 128q0 96 37 189.5t103 167.5t157 119.5t199 45.5q73 0 132 -22t100.5 -62.5 t64 -98t22.5 -128.5q0 -64 -17 -127t-48.5 -120.5t-76 -107.5t-99.5 -86.5t-119.5 -57.5t-135.5 -21zM1511 203q49 0 86 28.5t61.5 71.5t37 93.5t12.5 95.5q0 65 -27.5 101t-78.5 36q-50 0 -87 -28.5t-61.5 -71.5t-36.5 -94.5t-12 -96.5q0 -65 27.5 -100t78.5 -35zM2361 0 q-72 0 -131 22t-100.5 62t-64.5 97t-23 128q0 96 37 189.5t103 167.5t157 119.5t198 45.5q73 0 132 -22t101 -62.5t64.5 -98t22.5 -128.5q0 -64 -17 -127t-48.5 -120.5t-76 -107.5t-99.5 -86.5t-119.5 -57.5t-135.5 -21zM2404 203q49 0 86 28.5t61.5 71.5t37 93.5t12.5 95.5 q0 65 -28 101t-79 36q-50 0 -87 -28.5t-61 -71.5t-36 -94.5t-12 -96.5q0 -65 27.5 -100t78.5 -35z" />
<glyph unicode="&#x2039;" horiz-adv-x="743" d="M55 410l60 280l575 410l-63 -295l-326 -279l209 -276l-53 -250z" />
<glyph unicode="&#x203a;" horiz-adv-x="743" d="M80 0l63 295l326 278l-209 277l53 250l402 -410l-60 -280z" />
<glyph unicode="&#x2044;" horiz-adv-x="997" d="M-88 -29l1018 1491h254l-1018 -1491h-254z" />
<glyph unicode="&#x20ac;" horiz-adv-x="1509" d="M1323 94q-29 -17 -74.5 -38.5t-106 -40t-133.5 -31.5t-157 -13q-125 0 -228 35t-179.5 100.5t-123 158t-57.5 206.5h-168l41 184h135q3 31 10 63.5t15 61.5h-135l41 185h168q58 114 143 205.5t189 156.5t222 100t242 35q82 0 149.5 -12t120.5 -30.5t91 -40t61 -40.5 l-182 -245q-46 38 -109.5 62t-150.5 24q-131 0 -237 -57.5t-175 -157.5h580l-137 -185h-533q-9 -24 -15 -59t-9 -66h466l-137 -184h-321q28 -102 109 -159.5t212 -57.5q87 0 160.5 24t136.5 62z" />
<glyph unicode="&#x2113;" horiz-adv-x="979" d="M922 129q-32 -26 -76 -54t-98.5 -51t-120 -38t-140.5 -15q-62 0 -109 19t-80.5 52t-55.5 77.5t-35 95.5t-18 106t-5 109q0 121 16.5 247t48 244.5t76 223t100.5 182.5t122.5 123t140.5 45q62 0 112 -16t85 -43.5t54 -65t19 -80.5q0 -71 -20 -143t-54 -142t-79.5 -136 t-96 -124.5t-104.5 -107.5t-104 -86q-3 -32 -5.5 -68.5t-2.5 -76.5q0 -60 7.5 -119.5t28 -107.5t57 -77.5t95.5 -29.5q43 0 81 15t67 33q33 21 61 48zM506 643q61 54 121.5 126t108 154t77 169t29.5 170q0 35 -14 60.5t-40 25.5q-35 0 -67.5 -35.5t-61 -93.5t-53.5 -132.5 t-45 -153t-34 -154.5t-21 -136z" />
<glyph unicode="&#x2117;" horiz-adv-x="1737" d="M920 -29q-155 0 -290.5 58.5t-237 160t-160 237t-58.5 290.5q0 103 26.5 198t75 178t117 151t151 116.5t178 75t198.5 26.5t198 -26.5t178 -75t151 -116.5t116.5 -151t75 -178t26.5 -198t-26.5 -198.5t-75 -178t-116.5 -151t-151 -117t-178 -75t-198 -26.5zM920 145 q114 0 213 43t172.5 119.5t116 181t42.5 228.5t-42.5 228.5t-116 180.5t-172.5 119t-213 43t-213.5 -43t-174 -119t-117 -180.5t-42.5 -228.5t42.5 -228.5t117 -181t174 -119.5t213.5 -43zM938 733q60 0 97.5 26.5t37.5 88.5q0 32 -9.5 54.5t-27 36.5t-42.5 20t-56 6h-74 v-232h74zM864 322h-180v788h287q71 0 126 -21t92 -56.5t56 -83t19 -101.5t-19 -101.5t-56 -83t-92 -56.5t-126 -21h-107v-264z" />
<glyph unicode="&#x2120;" horiz-adv-x="1860" d="M186 852q48 -34 102.5 -54t108.5 -20q57 0 84 21t27 49q0 25 -23.5 44t-59.5 38.5t-77 41t-77 52t-59.5 72t-23.5 100.5q0 58 22 104.5t61.5 78t94.5 48.5t121 17t118 -15t83 -36v-191q-18 12 -40.5 23.5t-46.5 21t-49.5 15.5t-49.5 6q-47 0 -73 -18t-26 -46 q0 -25 24 -43.5t59.5 -37t77.5 -40t77.5 -51.5t59.5 -72t24 -102q0 -62 -24.5 -110.5t-66.5 -81.5t-99 -50.5t-121 -17.5q-72 0 -131 19.5t-97 39.5v195zM1563 608v488l-234 -320h-59l-232 320v-488h-217v826h193l286 -394l287 394h191v-826h-215z" />
<glyph unicode="&#x2122;" horiz-adv-x="1917" d="M401 608v654h-227v172h674v-172h-230v-654h-217zM1640 608v488l-213 -320h-59l-211 320v-488h-217v826h193l266 -394l266 394h190v-826h-215z" />
<glyph unicode="&#x2126;" horiz-adv-x="1774" d="M887 0l53 258q92 28 171.5 86t138 137t91.5 173t33 194q0 78 -25 142t-69.5 109.5t-106.5 70t-137 24.5t-144 -22.5t-128 -63t-107 -95.5t-82 -119.5t-52.5 -137t-18.5 -146.5q0 -69 17 -126.5t48 -102.5t73 -76t93 -47l-53 -258h-662l54 258h231q-68 65 -105.5 151.5 t-37.5 194.5q0 114 35.5 222t99.5 203.5t151 175t191 136.5t219.5 89t235.5 32q140 0 255.5 -41.5t198 -117t127.5 -180t45 -230.5q0 -189 -92 -349.5t-260 -285.5h234l-54 -258h-661z" />
<glyph unicode="&#x212e;" horiz-adv-x="1368" d="M1237 250q-41 -69 -96 -121t-121 -87.5t-140.5 -53t-154.5 -17.5q-126 0 -232.5 42t-184.5 117t-121.5 178t-43.5 224t43.5 224t121.5 178t184.5 117.5t232.5 42.5t232.5 -42.5t184.5 -117.5t121.5 -178t43.5 -224v-20h-848v-330q54 -40 121.5 -61t144.5 -21 q103 0 188.5 39.5t145.5 110.5h178zM991 883q-55 38 -122 60t-144 22t-144.5 -22t-121.5 -60v-248h532v248z" />
<glyph unicode="&#x2202;" horiz-adv-x="1403" d="M354 1075q66 91 142 162.5t160 121.5t174 76.5t184 26.5q190 0 290.5 -103t100.5 -296q0 -112 -33 -236.5t-93 -246t-144.5 -232t-188 -194.5t-223 -133.5t-248.5 -49.5q-95 0 -169.5 26t-126 71.5t-78.5 106.5t-27 132q0 80 28.5 156.5t78.5 144.5t117 125.5t144 99 t160.5 64.5t165.5 23q54 0 97.5 -10.5t77 -29t58.5 -44t43 -54.5q17 59 29 122.5t12 129.5q0 102 -37.5 154.5t-105.5 52.5q-75 0 -145 -42t-135 -124h-308zM942 539q-17 27 -39.5 51.5t-52 43t-65 29.5t-78.5 11q-48 0 -99.5 -17t-97 -50.5t-79.5 -83t-48 -113.5 q-10 -46 -3 -83.5t27.5 -64t53 -41t74.5 -14.5q51 0 105 23.5t107 67t103 105t92 136.5z" />
<glyph unicode="&#x2206;" horiz-adv-x="1499" d="M-100 0l1022 1450h65l408 -1450h-1495zM848 905l-420 -639h567z" />
<glyph unicode="&#x220f;" horiz-adv-x="1692" d="M930 0l250 1176h-379l-250 -1176h-322l250 1176h-229l53 258h1487l-53 -258h-236l-250 -1176h-321z" />
<glyph unicode="&#x2211;" horiz-adv-x="1401" d="M41 0l49 233l576 484l-371 483l49 234h1114l-53 -258h-703l330 -439l-20 -102l-447 -377h643l-53 -258h-1114z" />
<glyph unicode="&#x2212;" horiz-adv-x="1276" d="M123 453v278h1071v-278h-1071z" />
<glyph unicode="&#x221a;" horiz-adv-x="1473" d="M594 -16l-254 614h-207v256h408l143 -369l430 1147h307l-647 -1648h-180z" />
<glyph unicode="&#x221e;" horiz-adv-x="1716" d="M897 489q-52 -50 -99.5 -88.5t-94 -65t-93 -40.5t-96.5 -14q-76 0 -143.5 29.5t-118 80.5t-80 118.5t-29.5 143.5q0 77 29 145t79 118.5t117.5 80t145.5 29.5q97 0 193 -54t190 -151q41 41 85 78t91.5 65.5t99.5 45t109 16.5q78 0 146 -29t118.5 -79t79.5 -118.5 t29 -146.5q0 -77 -29.5 -144.5t-80.5 -118t-119 -80t-144 -29.5q-49 0 -96 14t-94 41t-95.5 65.5t-99.5 87.5zM731 655q-57 59 -110.5 97.5t-106.5 38.5q-29 0 -54 -10.5t-43 -28.5t-28 -43.5t-10 -55.5q0 -28 10 -53t28 -43.5t43 -29.5t54 -11q26 0 52.5 11t53.5 30 t54.5 44.5t56.5 53.5zM1067 655q28 -29 55 -54.5t54 -44t53.5 -29.5t52.5 -11q29 0 54 11t43.5 29.5t29 43.5t10.5 53q0 30 -10.5 55.5t-29 43.5t-43.5 28.5t-54 10.5q-53 0 -107 -39.5t-108 -96.5z" />
<glyph unicode="&#x222b;" horiz-adv-x="1090" d="M623 1147q31 89 79.5 154.5t109 108.5t130.5 64t145 21q34 0 66.5 -2.5t60.5 -7t48.5 -10t31.5 -11.5l-86 -245q-18 8 -40 15q-19 5 -43.5 10t-53.5 5q-51 0 -86.5 -23.5t-52.5 -70.5l-465 -1319q-32 -89 -80 -154.5t-108.5 -108.5t-131 -64t-145.5 -21q-33 0 -65 2.5 t-59 7t-47.5 10t-31.5 11.5l86 245q18 -9 39 -15q18 -6 42 -10.5t52 -4.5q51 0 87 24t53 70z" />
<glyph unicode="&#x2248;" horiz-adv-x="1481" d="M1337 1038q0 -92 -24.5 -169.5t-70 -133.5t-110 -87.5t-143.5 -31.5q-44 0 -82.5 13.5t-74 34t-68 44t-64.5 44t-64.5 34t-66.5 13.5q-71 0 -113 -44t-42 -118h-189q0 93 24 170.5t69 133.5t108.5 87t142.5 31q47 0 87 -13.5t75 -33.5t67 -44t63.5 -44t63.5 -33.5 t68 -13.5q71 0 113.5 43.5t42.5 117.5h188zM1337 553q0 -92 -24.5 -169.5t-70 -133.5t-110 -87.5t-143.5 -31.5q-44 0 -82.5 13.5t-74 33.5t-68 44t-64.5 44t-64.5 33.5t-66.5 13.5q-71 0 -113 -43.5t-42 -117.5h-189q0 93 24 170t69 133t108.5 87t142.5 31q47 0 87 -13.5 t75 -33.5t67 -44t63.5 -44t63.5 -33.5t68 -13.5q71 0 113.5 44t42.5 118h188z" />
<glyph unicode="&#x2260;" horiz-adv-x="1501" d="M629 197l-146 -197h-258l146 197h-146v278h350l173 232h-523v278h729l146 197h258l-146 -197h146v-278h-352l-172 -232h524v-278h-729z" />
<glyph unicode="&#x2264;" horiz-adv-x="1327" d="M225 602v281l959 299v-267l-629 -174l629 -172v-266zM225 0v258h957v-258h-957z" />
<glyph unicode="&#x2265;" horiz-adv-x="1327" d="M225 303v266l629 172l-629 174v267l959 -299v-281zM227 0v258h957v-258h-957z" />
<glyph unicode="&#x250c;" horiz-adv-x="1450" d="M811 -625h-295v1456h959v-294h-664v-1162z" />
<glyph unicode="&#x2510;" horiz-adv-x="1450" d="M934 -625h-295v1162h-662v294h957v-1456z" />
<glyph unicode="&#x2514;" horiz-adv-x="1452" d="M1475 412h-959v1456h295v-1161h664v-295z" />
<glyph unicode="&#x2518;" horiz-adv-x="1450" d="M934 412h-957v295h662v1161h295v-1456z" />
<glyph unicode="&#x2588;" horiz-adv-x="1450" d="M1473 -621h-1496v2485h1496v-2485z" />
<glyph unicode="&#x25ca;" horiz-adv-x="1409" d="M508 -16l-356 733l667 733h180l357 -733l-668 -733h-180zM1034 717l-194 401l-367 -401l195 -402z" />
<glyph unicode="&#x266a;" horiz-adv-x="1094" d="M502 1434h112q93 0 172.5 -27t138 -74.5t91.5 -112.5t33 -141v-184h-140v66q0 47 -19 87t-53.5 69t-83 45t-106.5 16h-6v-930q0 -62 -24 -112.5t-65.5 -87.5t-98 -57t-121.5 -20q-60 0 -112.5 20t-91 54t-61 80t-22.5 98q0 54 22.5 100.5t61 81t91 54.5t112.5 20 q46 0 89.5 -10t80.5 -29v994z" />
<glyph unicode="&#x266b;" horiz-adv-x="1540" d="M1196 1196l-555 -176v-870q0 -62 -24 -112.5t-65.5 -86.5t-98 -56t-121.5 -20q-61 0 -113.5 19.5t-91 53.5t-60.5 79.5t-22 97.5q0 54 22 101t60.5 82t91 55t113.5 20q46 0 89.5 -10.5t80.5 -30.5v928l833 260v-1182q0 -62 -24 -112.5t-65 -86.5t-97.5 -55.5 t-120.5 -19.5q-61 0 -113.5 19.5t-91 53t-60.5 79t-22 98.5q0 54 22 101t60.5 82t91 55t113.5 20q47 0 89 -10.5t79 -30.5v655z" />
<glyph unicode="&#xe000;" horiz-adv-x="1065" d="M0 1065h1065v-1065h-1065v1065z" />
<glyph unicode="&#xf6c3;" horiz-adv-x="606" d="M49 -854q34 24 68.5 53.5t63.5 62t51 67t32 67.5q-63 6 -100 47t-37 104q0 48 18 93t50.5 79.5t76.5 55t97 20.5q37 0 68.5 -11.5t55 -33.5t37 -54t13.5 -73q0 -90 -36.5 -172.5t-95 -156t-133 -136.5t-149.5 -114z" />
<glyph unicode="&#xfb01;" horiz-adv-x="1380" d="M82 0zM82 0l174 821h-152l52 244h151l19 82q21 93 58 159t89 108t117.5 61.5t142.5 19.5q31 0 62.5 -2.5t59 -7t48.5 -10t33 -11.5l-49 -237q-29 9 -60 15.5t-69 6.5q-47 0 -79.5 -23t-43.5 -79l-17 -82h222l-52 -244h-221l-174 -821h-311zM801 0l225 1065h316 l-225 -1065h-316zM1434 1415q0 -48 -18.5 -84t-49.5 -60.5t-70 -37t-79 -12.5q-68 0 -109 31t-41 89q0 48 18.5 84t49.5 61t69.5 37.5t79.5 12.5q69 0 109.5 -31t40.5 -90z" />
<glyph unicode="&#xfb02;" horiz-adv-x="1427" d="M82 0zM82 0l174 821h-152l52 244h151l19 82q21 93 58 159t89 108t117.5 61.5t142.5 19.5q31 0 62.5 -2.5t59 -7t48.5 -10t33 -11.5l-49 -237q-29 9 -60 15.5t-69 6.5q-47 0 -79.5 -23t-43.5 -79l-17 -82h222l-52 -244h-221l-174 -821h-311zM1313 -8q-21 -7 -46 -11 q-21 -4 -48.5 -7t-56.5 -3q-96 0 -162 28t-102.5 78.5t-45.5 120.5t9 154l243 1143h316l-236 -1108q-8 -38 -8 -65.5t9.5 -46.5t31 -28t57.5 -9q29 0 53 5t41 11z" />
<glyph horiz-adv-x="1427" d="M0 0z" />
</font>
</defs>
</svg>
