<?xml version="1.0" standalone="no"?>
<!DOCTYPE svg PUBLIC "-//W3C//DTD SVG 1.1//EN" "http://www.w3.org/Graphics/SVG/1.1/DTD/svg11.dtd" >
<svg xmlns="http://www.w3.org/2000/svg">
<metadata></metadata>
<defs>
<font id="gotham-mediumgothamMdIt" horiz-adv-x="1024" >
<font-face units-per-em="2048" ascent="1638" descent="-410" />
<missing-glyph horiz-adv-x="614" />
<glyph horiz-adv-x="2048" />
<glyph horiz-adv-x="2048" />
<glyph horiz-adv-x="682" />
<glyph d="M416 1491q0 16 2 27h174q2 -53 39 -91t114 -38q63 0 114.5 37.5t86.5 91.5h178q-45 -141 -155.5 -222.5t-245.5 -81.5q-78 0 -135.5 23t-96 60.5t-57 88t-18.5 105.5z" />
<glyph d="M567 1217l68 245h254l-66 -245h-256z" />
<glyph d="M516 1415q0 51 20.5 97.5t55.5 81t81 55t99 20.5q100 0 158.5 -56.5t58.5 -142.5q0 -51 -20.5 -98t-55 -81t-81 -54t-99.5 -20q-100 0 -158.5 56t-58.5 142zM629 1417q0 -45 27.5 -73.5t78.5 -28.5q61 0 101.5 47t40.5 106q0 45 -28 74t-79 29q-61 0 -101 -47t-40 -107z " />
<glyph unicode="&#xa;" d="M295 1219l305 335l191 -100l-312 -235h-184zM668 1219l307 335l190 -100l-313 -235h-184z" />
<glyph d="M133 -170q0 43 23.5 96.5t52.5 93.5h176q-20 -35 -32.5 -72.5t-12.5 -64.5q0 -96 162 -104l-31 -115q-168 -10 -253 34t-85 132z" />
<glyph d="M416 1518h184l119 -136l199 136h204l-319 -299h-230z" />
<glyph unicode="&#xd;" horiz-adv-x="614" />
<glyph horiz-adv-x="1083" d="M-248 -201l1424 1753h229l-1425 -1753h-228z" />
<glyph horiz-adv-x="1398" d="M68 0l233 868h-137l57 213h137l21 88q47 174 150.5 255t261.5 81q66 0 119 -10t94 -27l-56 -206q-78 33 -151 32q-137 0 -179 -151l-16 -62h299l-57 -213h-295l-234 -868h-247zM836 0l290 1081h248l-291 -1081h-247zM1161 1247l66 236h266l-63 -236h-269z" />
<glyph horiz-adv-x="1398" d="M68 0l233 868h-137l57 213h137l21 88q47 174 150.5 255t261.5 81q66 0 119 -10t94 -27l-56 -206q-78 33 -151 32q-137 0 -179 -151l-16 -62h299l-57 -213h-295l-234 -868h-247zM836 0l401 1495h248l-402 -1495h-247z" />
<glyph horiz-adv-x="1341" d="M102 524l64 234l166 47l168 629h245l-149 -555l451 125l-64 -234l-448 -125l-113 -416h760l-62 -229h-1005l151 569z" />
<glyph horiz-adv-x="704" d="M84 561l61 236l166 45l176 653h248l-155 -577l168 45l-64 -236l-166 -45l-184 -682h-248l164 606z" />
<glyph horiz-adv-x="1394" d="M-39 0l49 186l1096 1024h-793l62 224h1141l-52 -187l-1095 -1024h827l-59 -223h-1176zM666 1851h184l119 -135l198 135h205l-319 -299h-230z" />
<glyph horiz-adv-x="1134" d="M-49 0l47 170l795 709h-584l53 202h912l-46 -170l-796 -708h612l-55 -203h-938zM446 1518h185l119 -136l198 136h205l-319 -299h-230z" />
<glyph unicode=" "  horiz-adv-x="614" />
<glyph unicode="&#x09;" horiz-adv-x="614" />
<glyph unicode="&#xa0;" horiz-adv-x="614" />
<glyph unicode="!" horiz-adv-x="620" d="M29 0l73 281h275l-76 -281h-272zM217 453l166 909l20 72h291l-20 -72l-320 -909h-137z" />
<glyph unicode="&#x22;" horiz-adv-x="1009" d="M205 821l176 613h283l-2 -11l-326 -602h-131zM662 821l178 613h282l-4 -11l-325 -602h-131z" />
<glyph unicode="#" horiz-adv-x="1406" d="M37 330l57 213h209l123 356h-215l57 213h232l112 322h219l-112 -322h336l112 322h217l-110 -322h190l-55 -213h-211l-123 -356h215l-55 -213h-236l-114 -330h-217l114 330h-336l-114 -330h-219l114 330h-190zM522 543h334l125 356h-336z" />
<glyph unicode="$" horiz-adv-x="1292" d="M-8 260l184 156q61 -72 138 -118t169 -67l115 400q-80 31 -144.5 63.5t-108.5 75.5t-68.5 100.5t-24.5 133.5q0 92 41 170.5t113.5 136t171 90.5t210.5 33h19q10 0 20 -2l37 120h178l-41 -143q102 -25 182.5 -72t143.5 -112l-170 -168q-51 47 -106.5 82t-120.5 53 l-109 -381q80 -29 142.5 -63.5t105.5 -78.5t66.5 -101.5t23.5 -131.5q0 -96 -43 -177t-117.5 -138.5t-177 -89t-223.5 -31.5h-12l-60 -201h-178l64 217q-131 27 -237.5 87.5t-182.5 156.5zM510 1030q0 -53 36 -89t126 -73l98 346q-61 2 -109.5 -12t-82 -39.5t-51 -59.5 t-17.5 -73zM643 217q117 4 186.5 55.5t69.5 139.5q0 53 -32.5 90t-118.5 73z" />
<glyph unicode="%" horiz-adv-x="1765" d="M127 0l1382 1434h224l-1385 -1434h-221zM178 1018q0 80 30 157.5t82 139t124.5 98.5t158.5 37q68 0 124.5 -22.5t96.5 -64.5t62.5 -98.5t22.5 -123.5q0 -80 -30 -158t-82 -139.5t-125 -98t-159 -36.5q-70 0 -126 22.5t-96 64.5t-61.5 98t-21.5 124zM348 1026 q0 -78 39 -122t107 -44q47 0 87 24.5t67.5 63.5t43 88t15.5 97q0 78 -38 121.5t-108 43.5q-47 0 -86 -24.5t-67.5 -63.5t-44 -88t-15.5 -96zM981 293q0 82 29.5 159.5t82 138t125 97.5t158.5 37q68 0 124 -22.5t96 -63.5t62.5 -97.5t22.5 -123.5q0 -82 -29.5 -160 t-81.5 -139.5t-125 -98t-159 -36.5q-70 0 -126 23.5t-96 64.5t-61.5 97t-21.5 124zM1151 301q0 -76 38.5 -121t106.5 -45q47 0 87 24.5t69 64.5t44 88t15 96q0 78 -38.5 122.5t-106.5 44.5q-47 0 -87 -24.5t-68.5 -64.5t-44 -89t-15.5 -96z" />
<glyph unicode="&#x26;" horiz-adv-x="1421" d="M51 356q0 143 104.5 266t331.5 193q-39 66 -60 130.5t-21 125.5q0 78 31.5 148.5t88 124t136 84t176.5 30.5q84 0 153.5 -24.5t118.5 -68.5t76.5 -104.5t27.5 -132.5q0 -53 -19 -107t-66.5 -105.5t-126 -98.5t-197.5 -84l201 -276q51 55 98 121.5t94 142.5l158 -107 q-117 -182 -234 -311l154 -213l-186 -119l-134 185q-106 -86 -217.5 -131t-244.5 -45q-94 0 -176 25.5t-140.5 73.5t-92.5 118.5t-34 158.5zM293 373q0 -82 58 -133.5t169 -51.5q160 0 322 127l-252 351q-158 -49 -227.5 -128t-69.5 -165zM629 1069q0 -41 15 -87t54 -105 q86 29 141.5 56.5t88.5 56t46 60t13 64.5q0 57 -42 101.5t-120 44.5q-43 0 -78.5 -15.5t-62.5 -41t-41 -60.5t-14 -74z" />
<glyph unicode="'" horiz-adv-x="550" d="M205 821l176 613h283l-2 -11l-326 -602h-131z" />
<glyph unicode="(" horiz-adv-x="901" d="M143 434q0 162 52.5 313.5t155 283.5t254 242.5t349.5 190.5l90 -184q-166 -74 -287.5 -170t-201.5 -204.5t-119 -226.5t-39 -237q0 -176 78 -317t191 -260l-152 -156q-168 139 -269.5 319.5t-101.5 405.5z" />
<glyph unicode=")" horiz-adv-x="901" d="M-117 -100q166 74 288 170t202 204.5t118.5 226t38.5 236.5q0 88 -20.5 167t-57 150.5t-86 136t-106.5 122.5l154 157q168 -139 269 -319t101 -406q0 -162 -52 -313t-154.5 -284.5t-254 -243t-350.5 -189.5z" />
<glyph unicode="*" horiz-adv-x="880" d="M242 1096l254 37l-199 159l102 103l158 -199l39 248l137 -35l-92 -235l238 92l39 -140l-254 -39l200 -157l-104 -105l-158 199l-37 -248l-139 35l92 236l-237 -93z" />
<glyph unicode="+" horiz-adv-x="1323" d="M170 608l61 226h394l102 391h236l-105 -391h393l-61 -226h-393l-105 -391h-233l104 391h-393z" />
<glyph unicode="," horiz-adv-x="600" d="M-111 -193q111 16 165.5 65.5t70.5 127.5h-107l76 281h273l-64 -238q-23 -88 -57.5 -149.5t-83.5 -101.5t-111.5 -61.5t-142.5 -27.5z" />
<glyph unicode="-" horiz-adv-x="841" d="M109 506l65 244h606l-65 -244h-606z" />
<glyph unicode="." horiz-adv-x="600" d="M18 0l76 281h273l-76 -281h-273z" />
<glyph unicode="/" horiz-adv-x="1067" d="M-268 -262l1417 1896h237l-1417 -1896h-237z" />
<glyph unicode="0" horiz-adv-x="1482" d="M139 553q0 162 53.5 323.5t151.5 290.5t239.5 210t315.5 81q123 0 222.5 -42t168 -117.5t106.5 -182t38 -235.5q0 -162 -52.5 -324t-150.5 -291t-238.5 -210t-316.5 -81q-123 0 -222.5 42t-169 118t-107.5 182.5t-38 235.5zM399 553q0 -162 77 -256t218 -94 q104 0 192.5 62.5t152 159.5t99.5 218t36 238q0 162 -77 256t-218 94q-104 0 -192.5 -62.5t-152 -160t-99.5 -218t-36 -237.5z" />
<glyph unicode="1" horiz-adv-x="827" d="M193 0l315 1174l-272 -70l-5 217l424 123h174l-387 -1444h-249z" />
<glyph unicode="2" horiz-adv-x="1241" d="M-55 0l55 205l764 549q111 80 166 149.5t55 147.5q0 82 -57.5 129t-159.5 47q-104 0 -192.5 -52.5t-169.5 -134.5l-158 162q102 111 233 181.5t297 70.5q104 0 190.5 -27.5t148 -78t95 -120t33.5 -153.5q0 -66 -17.5 -123t-56 -113.5t-101 -112.5t-150.5 -120l-533 -385 h670l-60 -221h-1052z" />
<glyph unicode="3" horiz-adv-x="1239" d="M-18 250l190 135q57 -86 136 -134t204 -48q70 0 128 19.5t101 53t68 78.5t25 97q0 100 -85 150t-233 50h-78l-16 154l487 409h-610l59 220h955l-51 -189l-512 -418q74 -12 135 -38.5t107 -70.5t72 -104.5t26 -140.5q0 -106 -46.5 -197.5t-126 -158t-187 -104.5 t-230.5 -38q-197 0 -324 76t-194 199z" />
<glyph unicode="4" horiz-adv-x="1341" d="M41 508l1020 936h244l-246 -916h205l-56 -206h-204l-86 -322h-240l86 322h-696zM362 528h457l154 572z" />
<glyph unicode="5" horiz-adv-x="1243" d="M-2 233l180 146q72 -86 158 -131t199 -45q76 0 139 22.5t108 61.5t70 89t25 105q0 98 -75 159.5t-216 61.5q-53 0 -116.5 -16t-117.5 -43l-131 107l223 684h842l-63 -224h-613l-108 -329q39 14 89 23t95 9q100 0 183 -28.5t142.5 -81.5t92.5 -129t33 -168 q0 -104 -44 -200.5t-126 -169.5t-197 -116t-256 -43q-82 0 -160 19.5t-144.5 54.5t-120.5 82t-91 100z" />
<glyph unicode="6" horiz-adv-x="1314" d="M135 508q0 215 74 409.5t209 329.5q98 98 224 154.5t278 56.5q139 0 247.5 -48t186.5 -126l-150 -178q-59 55 -133 90t-172 35q-178 0 -305 -129q-61 -61 -110.5 -151.5t-67.5 -188.5q51 61 148.5 109.5t215.5 48.5q96 0 177 -29t139.5 -82t92.5 -128t34 -167 q0 -104 -44 -201.5t-123 -172t-184.5 -120t-228.5 -45.5q-111 0 -205 34t-157 97q-72 72 -109 168.5t-37 233.5zM381 426q0 -98 65 -164q76 -72 199 -72q72 0 131.5 25t101.5 66t65.5 94t23.5 110q0 96 -66.5 162t-189.5 66q-74 0 -135.5 -23.5t-104.5 -63.5t-66.5 -92.5 t-23.5 -107.5z" />
<glyph unicode="7" horiz-adv-x="1228" d="M61 0l914 1212h-709l60 222h1007l-53 -191l-922 -1243h-297z" />
<glyph unicode="8" horiz-adv-x="1343" d="M70 375q0 84 29.5 149.5t81.5 114.5t124 82t154 51q-86 39 -137.5 115t-51.5 170q0 74 36 145.5t103.5 126.5t167 90t224.5 35q111 0 202 -27.5t156.5 -79t102 -120t36.5 -152.5q0 -141 -91 -235.5t-238 -126.5q96 -37 162.5 -116t66.5 -196q0 -84 -41 -159.5 t-117.5 -134t-185.5 -93t-244 -34.5q-113 0 -211 29.5t-171.5 81.5t-115.5 125t-42 159zM319 397q0 -45 21.5 -84t61.5 -67.5t96.5 -44t126.5 -15.5q72 0 131 16.5t102 46.5t67.5 71.5t24.5 93.5q0 90 -83 151.5t-224 61.5q-147 0 -235.5 -66.5t-88.5 -163.5zM508 1030 q-2 -86 70.5 -143.5t193.5 -57.5q66 0 119 17.5t90 47.5t57.5 70t20.5 83q2 84 -68.5 141t-199.5 57q-61 0 -112.5 -16.5t-89.5 -45t-59.5 -67.5t-21.5 -86z" />
<glyph unicode="9" horiz-adv-x="1314" d="M39 164l151 178q72 -66 147 -103.5t173 -37.5q176 0 307 133q63 61 108.5 146t65.5 177q-25 -29 -62.5 -57.5t-83.5 -51t-101.5 -36.5t-116.5 -14q-94 0 -176 28.5t-140.5 82t-92.5 130t-34 170.5q0 113 45 213.5t124 175t184.5 117.5t228.5 43q104 0 201.5 -33.5 t160.5 -97.5q72 -70 109 -169t37 -253q0 -209 -76 -397.5t-211 -323.5q-100 -100 -223 -154.5t-266 -54.5q-135 0 -251 49.5t-208 139.5zM440 938q0 -100 68.5 -165.5t193.5 -65.5q72 0 132.5 24.5t103.5 65.5t66.5 95t23.5 112q0 49 -17.5 92t-47.5 73q-74 74 -199 74 q-72 0 -131.5 -24.5t-102.5 -66.5t-66.5 -97.5t-23.5 -116.5z" />
<glyph unicode=":" horiz-adv-x="606" d="M23 0l75 281h273l-76 -281h-272zM238 801l75 280h273l-76 -280h-272z" />
<glyph unicode=";" horiz-adv-x="606" d="M-109 -193q111 16 166.5 65.5t69.5 127.5h-104l75 281h273l-64 -238q-25 -88 -59.5 -149.5t-83.5 -101.5t-111.5 -61.5t-142.5 -27.5zM238 801l75 280h273l-76 -280h-272z" />
<glyph unicode="&#x3c;" horiz-adv-x="1310" d="M152 610l59 221l1100 453l-68 -248l-819 -325l645 -328l-59 -225z" />
<glyph unicode="=" horiz-adv-x="1310" d="M127 350l61 230h959l-62 -230h-958zM264 862l62 230h958l-61 -230h-959z" />
<glyph unicode="&#x3e;" horiz-adv-x="1310" d="M78 158l67 248l820 325l-646 328l60 225l858 -453l-59 -221z" />
<glyph unicode="?" horiz-adv-x="1107" d="M201 1249q94 96 222 149.5t271 53.5q104 0 186.5 -29.5t138.5 -80t87 -118t31 -141.5q0 -186 -142.5 -300.5t-388.5 -151.5l-67 -178h-166l47 331l12 11q207 16 323.5 81.5t116.5 178.5q0 80 -55 124t-155 44q-90 0 -175.5 -39t-150.5 -101zM203 0l76 281h272l-76 -281 h-272z" />
<glyph unicode="@" horiz-adv-x="2007" d="M119 475q0 199 77.5 378t213 314.5t318.5 215t392 79.5q193 0 344.5 -57t257 -154.5t161.5 -226.5t56 -272q0 -156 -40.5 -271.5t-106.5 -192.5t-149.5 -114t-167.5 -37q-106 0 -177 47t-98 125q-68 -76 -150.5 -125t-193.5 -49q-68 0 -127 22.5t-103 66.5t-71 108.5 t-27 146.5q0 121 44 223.5t117 177t164 116.5t185 42q111 0 178.5 -48t104.5 -120l45 150l188 -51l-159 -506q-35 -111 2 -173.5t125 -62.5q53 0 112.5 33t108.5 99.5t82 165t33 227.5t-50.5 244.5t-145.5 201.5t-232.5 137t-309.5 51q-193 0 -360.5 -73.5t-291.5 -199.5 t-195.5 -291t-71.5 -347q0 -160 56 -292t157.5 -228t245 -148.5t315.5 -52.5q115 0 215 22.5t205 69.5l32 -67q-113 -53 -221 -77t-231 -24q-190 0 -348 58.5t-270.5 164t-175 252t-62.5 322.5zM745 506q0 -92 51.5 -144.5t137.5 -52.5q59 0 117.5 29t104.5 77t75 112.5 t29 136.5q0 90 -56.5 144t-148.5 54q-59 0 -115.5 -27.5t-99.5 -76.5t-69 -113.5t-26 -138.5z" />
<glyph unicode="A" horiz-adv-x="1562" d="M-102 0l1017 1444h242l244 -1444h-258l-56 346h-677l-240 -346h-272zM563 569h494l-92 580z" />
<glyph unicode="B" horiz-adv-x="1468" d="M39 0l385 1434h549q119 0 207 -26t146 -72t87 -109.5t29 -136.5q0 -147 -92.5 -240.5t-235.5 -124.5q96 -37 158.5 -106.5t62.5 -186.5q0 -94 -41 -174t-118.5 -137.5t-191.5 -89t-259 -31.5h-686zM346 223h414q152 0 238.5 59.5t86.5 163.5q0 82 -67.5 126t-183.5 44 h-383zM508 829h356q152 0 238 56.5t86 163.5q0 76 -58.5 118.5t-179.5 42.5h-340z" />
<glyph unicode="C" horiz-adv-x="1495" d="M154 586q0 172 67.5 330.5t185 278.5t275.5 191.5t338 71.5q205 0 342 -83t217 -224l-209 -141q-63 98 -150 157.5t-229 59.5q-115 0 -219 -51.5t-183 -138.5t-126 -200.5t-47 -240.5q0 -88 28.5 -159.5t81 -123t123 -79t156.5 -27.5q123 0 209 45t172 119l166 -168 q-102 -98 -233.5 -163t-317.5 -65q-137 0 -256 42t-206 122t-136 192.5t-49 254.5z" />
<glyph unicode="D" horiz-adv-x="1587" d="M39 0l385 1434h389q199 0 336 -50.5t223 -136.5q158 -156 158 -418q0 -162 -59.5 -305t-172.5 -256q-129 -129 -316 -198.5t-429 -69.5h-514zM352 229h232q160 0 294 49.5t230 145.5q78 78 119 178t41 217q0 86 -27 151.5t-74 112.5q-57 57 -149 89t-223 32h-179z" />
<glyph unicode="E" horiz-adv-x="1351" d="M39 0l385 1434h1053l-62 -226h-801l-100 -374h711l-62 -224h-710l-103 -385h813l-61 -225h-1063z" />
<glyph unicode="F" horiz-adv-x="1353" d="M39 0l385 1434h1067l-61 -230h-816l-104 -391h723l-62 -229h-722l-156 -584h-254z" />
<glyph unicode="G" horiz-adv-x="1601" d="M152 592q0 166 67.5 322.5t186 277.5t281.5 193.5t353 72.5q113 0 202 -20.5t158.5 -56t120 -82t87.5 -95.5l-189 -160q-31 37 -68.5 71t-85.5 58.5t-107.5 39t-135.5 14.5q-129 0 -240.5 -52.5t-192.5 -139.5t-127 -199.5t-46 -235.5q0 -94 30.5 -168t86 -124t130 -76.5 t162.5 -26.5q98 0 173 22.5t130 51.5l89 303h-367l59 219h611l-195 -686q-111 -66 -234.5 -103t-281.5 -37q-125 0 -244 39t-211 116t-147 192.5t-55 269.5z" />
<glyph unicode="H" horiz-adv-x="1548" d="M39 0l385 1434h254l-160 -596h674l160 596h252l-385 -1434h-252l161 604h-673l-162 -604h-254z" />
<glyph unicode="I" horiz-adv-x="649" d="M53 0l385 1434h254l-385 -1434h-254z" />
<glyph unicode="J" horiz-adv-x="1155" d="M-59 246l184 145q53 -92 118.5 -135t155.5 -43q66 0 119 23.5t94 64.5q20 20 38 45t34 58.5t31.5 82t32.5 113.5l223 834h260l-240 -891q-20 -78 -40.5 -138.5t-44 -109.5t-52.5 -90t-66 -78q-78 -76 -177 -111.5t-222 -35.5q-150 0 -266.5 70.5t-181.5 195.5z" />
<glyph unicode="K" horiz-adv-x="1480" d="M39 0l385 1434h254l-195 -725l840 725h346l-729 -613l367 -821h-279l-289 672l-346 -291l-100 -381h-254z" />
<glyph unicode="L" horiz-adv-x="1265" d="M39 0l385 1434h254l-324 -1205h754l-64 -229h-1005z" />
<glyph unicode="M" horiz-adv-x="1777" d="M39 0l385 1434h256l250 -678l614 678h289l-385 -1434h-256l276 1028l-630 -676h-9l-264 672l-274 -1024h-252z" />
<glyph unicode="N" horiz-adv-x="1609" d="M39 0l385 1434h233l486 -1014l274 1014h248l-385 -1434h-211l-502 1042l-278 -1042h-250z" />
<glyph unicode="O" horiz-adv-x="1712" d="M156 604q0 164 63.5 317.5t176 272.5t268 191.5t342.5 72.5q145 0 264 -48t202.5 -132t131 -199.5t47.5 -249.5q0 -162 -63.5 -316.5t-176.5 -273t-269.5 -191.5t-342.5 -73q-143 0 -262 48.5t-204 133.5t-131 199.5t-46 247.5zM418 618q0 -88 27.5 -163.5t80 -131 t128 -86t171.5 -30.5q125 0 228.5 54t178.5 140t116 195t41 219q0 88 -28 164t-80 131t-128 86t-172 31q-125 0 -228.5 -54.5t-178 -140.5t-115.5 -194.5t-41 -219.5z" />
<glyph unicode="P" horiz-adv-x="1380" d="M39 0l385 1434h453q147 0 253.5 -33t180.5 -109q106 -106 106 -282q0 -129 -52 -230.5t-145.5 -171t-222.5 -106.5t-280 -37h-299l-125 -465h-254zM477 688h252q199 0 312.5 79t113.5 222q0 86 -55 141q-74 74 -232 74h-254z" />
<glyph unicode="Q" horiz-adv-x="1712" d="M156 604q0 164 63.5 317.5t176 272.5t268 191.5t342.5 72.5q145 0 264 -48t202.5 -132t131 -199.5t47.5 -249.5q0 -172 -69 -330.5t-191 -279.5l125 -158l-205 -139l-111 158q-88 -49 -188.5 -77t-212.5 -28q-143 0 -262 48.5t-204 133.5t-131 199.5t-46 247.5zM418 618 q0 -88 27.5 -163.5t80 -131t128 -86t171.5 -30.5q68 0 129.5 17.5t114.5 47.5l-203 254l207 142l172 -246q68 84 106 186.5t38 206.5q0 88 -28 164t-80 131t-128 86t-172 31q-125 0 -228.5 -54.5t-178 -140.5t-115.5 -194.5t-41 -219.5z" />
<glyph unicode="R" horiz-adv-x="1480" d="M39 0l385 1434h520q297 0 434 -140q104 -104 105 -270q0 -100 -34 -183t-97 -145q-63 -66 -153.5 -107.5t-205.5 -64.5l267 -524h-289l-246 500h-299l-133 -500h-254zM485 723h326q115 0 201 27.5t137 80.5q72 72 72 173q0 76 -52 131q-35 35 -94 52t-145 17h-314z" />
<glyph unicode="S" horiz-adv-x="1304" d="M-2 248l190 158q88 -100 190.5 -151.5t242.5 -51.5q121 0 198.5 54t77.5 144q0 33 -12.5 59.5t-43 51.5t-80.5 50.5t-128 55.5q-82 33 -149.5 70t-117 82t-76 102.5t-26.5 131.5q0 102 43 185t118 141.5t175 91t215 32.5q180 0 309 -58.5t217 -156.5l-176 -172 q-82 80 -169 122t-199 42q-63 0 -112.5 -16.5t-83.5 -42t-52.5 -59.5t-18.5 -71q0 -35 14.5 -61.5t47.5 -51t86 -50t131 -56.5q82 -33 148.5 -68.5t112.5 -81.5t70.5 -103.5t24.5 -131.5q0 -104 -45 -189t-120.5 -145.5t-177 -92t-216.5 -31.5q-205 0 -357.5 68.5 t-250.5 199.5z" />
<glyph unicode="T" horiz-adv-x="1265" d="M223 1200l64 234h1163l-64 -234h-454l-324 -1200h-252l324 1200h-457z" />
<glyph unicode="U" horiz-adv-x="1560" d="M176 451q0 115 33 227l201 756h252l-211 -791q-10 -35 -15.5 -74t-5.5 -84q0 -123 76 -199.5t225 -76.5q160 0 268 108q51 51 91 125t67 176l219 816h252l-229 -854q-74 -274 -223 -424q-88 -88 -203.5 -133.5t-265.5 -45.5q-254 0 -392.5 127t-138.5 347z" />
<glyph unicode="V" horiz-adv-x="1476" d="M266 1434h271l129 -1096l718 1096h285l-977 -1444h-223z" />
<glyph unicode="W" horiz-adv-x="2248" d="M279 1434h262l59 -1063l633 1067h213l70 -1067l626 1063h287l-887 -1444h-231l-74 1018l-619 -1018h-227z" />
<glyph unicode="X" horiz-adv-x="1429" d="M-88 0l711 743l-330 691h282l230 -512l471 512h323l-688 -721l340 -713h-282l-242 535l-491 -535h-324z" />
<glyph unicode="Y" horiz-adv-x="1341" d="M219 1434h279l217 -648l567 648h311l-809 -891l-145 -543h-252l152 569z" />
<glyph unicode="Z" horiz-adv-x="1394" d="M-39 0l49 186l1096 1024h-793l62 224h1141l-52 -187l-1095 -1024h827l-59 -223h-1176z" />
<glyph unicode="[" horiz-adv-x="929" d="M-4 -266l457 1700h630l-53 -195h-393l-352 -1311h393l-51 -194h-631z" />
<glyph unicode="\" horiz-adv-x="1067" d="M260 1634h207l434 -1896h-207z" />
<glyph unicode="]" horiz-adv-x="929" d="M-131 -266l53 194h393l353 1311h-394l52 195h630l-456 -1700h-631z" />
<glyph unicode="^" d="M201 1010l424 426h174l196 -426h-172l-137 270l-280 -270h-205z" />
<glyph unicode="_" horiz-adv-x="1228" d="M-236 -328l54 193h1237l-51 -193h-1240z" />
<glyph unicode="`" d="M537 1454l231 100l125 -335h-170z" />
<glyph unicode="a" horiz-adv-x="1193" d="M27 274q0 94 35.5 167t100 122t152.5 75t193 26q90 0 171 -14.5t152 -39.5l7 23q6 25 9 43t3 43q0 72 -55.5 116t-180.5 44q-82 0 -156.5 -16.5t-140.5 -43.5l-41 205q84 35 180.5 54.5t207.5 19.5q215 0 324.5 -88t109.5 -248q0 -39 -6.5 -76t-16.5 -78l-162 -608h-243 l37 141q-72 -76 -156 -120t-195 -44q-70 0 -130 21.5t-104 59.5t-69.5 93.5t-25.5 122.5zM281 307q0 -72 46 -109.5t126 -37.5q57 0 110 20.5t97.5 56t76 82t43.5 95.5l13 47q-51 16 -113 28.5t-133 12.5q-125 0 -195.5 -54.5t-70.5 -140.5z" />
<glyph unicode="b" horiz-adv-x="1368" d="M10 0l400 1495h247l-149 -557q74 74 157 120t189 46q90 0 168 -32t134 -92t88 -145t32 -194q0 -143 -50 -265t-134 -210t-192.5 -138.5t-225.5 -50.5q-143 0 -229.5 62.5t-135.5 153.5l-51 -193h-248zM373 463q0 -59 19.5 -109.5t55 -87.5t86 -57.5t111.5 -20.5 q76 0 143.5 34t118.5 93.5t81 138t30 169.5q0 125 -69.5 196.5t-186.5 71.5q-74 0 -144.5 -35t-125 -93t-87 -136t-32.5 -164z" />
<glyph unicode="c" horiz-adv-x="1148" d="M90 457q0 133 51.5 250.5t139.5 205.5t203.5 139.5t244.5 51.5q86 0 155.5 -19.5t123 -53.5t93.5 -79t66 -94l-192 -131q-43 70 -102.5 116t-163.5 46q-74 0 -140.5 -35t-118 -94.5t-82 -137t-30.5 -163.5q0 -63 20.5 -113.5t55.5 -85.5t82 -53.5t98 -18.5q82 0 146.5 32 t129.5 89l131 -162q-86 -78 -182 -125t-233 -47q-104 0 -194.5 34t-158 96.5t-105.5 151.5t-38 200z" />
<glyph unicode="d" horiz-adv-x="1368" d="M90 440q0 143 50 265t134 210.5t192.5 138.5t225.5 50q143 0 229.5 -62.5t135.5 -152.5l162 606h247l-399 -1495h-248l39 143q-74 -74 -157 -120t-189 -46q-90 0 -167 32t-134 92.5t-89 146.5t-32 192zM348 457q0 -123 70.5 -196t187.5 -73q74 0 144.5 35t125 94.5 t87 137t32.5 163.5q0 59 -20.5 109.5t-56 86.5t-86 56.5t-111.5 20.5q-76 0 -143.5 -34t-118.5 -92t-81 -138t-30 -170z" />
<glyph unicode="e" horiz-adv-x="1228" d="M90 449q0 121 46 237.5t131 209.5t202 150.5t258 57.5q104 0 184 -33t135.5 -89t84 -133t28.5 -165q0 -57 -12 -115.5t-35 -117.5h-786q2 -123 72.5 -198t207.5 -75q78 0 142.5 25.5t134.5 79.5l118 -158q-78 -63 -178 -106.5t-241 -43.5q-113 0 -204 33t-154.5 94.5 t-98.5 149.5t-35 197zM352 621h561q10 27 11 73q0 84 -51.5 145.5t-163.5 61.5q-127 0 -221.5 -79t-135.5 -201z" />
<glyph unicode="f" horiz-adv-x="811" d="M68 0l233 868h-137l57 213h137l21 88q47 174 150.5 255t261.5 81q66 0 119 -10t94 -27l-56 -206q-76 32 -147 32h-4q-137 0 -179 -151l-16 -62h299l-57 -213h-295l-234 -868h-247z" />
<glyph unicode="g" horiz-adv-x="1363" d="M-51 -166l137 172q86 -66 189.5 -101.5t213.5 -35.5q88 0 153 24.5t112 71.5q41 41 66.5 94.5t45.5 124.5l19 66q-86 -78 -171 -121t-200 -43q-80 0 -154.5 25.5t-133 76t-93.5 123t-35 166.5q0 135 51.5 250t135.5 199t191.5 131t219.5 47q78 0 134.5 -18.5t98.5 -49 t71.5 -69.5t52.5 -80l51 194h248l-238 -893q-20 -74 -39.5 -129t-41 -98t-47 -77t-56.5 -64q-76 -76 -178.5 -114t-247.5 -38q-160 0 -305.5 44t-249.5 122zM356 520q0 -117 73 -174t177 -57q74 0 142.5 29.5t121 80t83 116t30.5 136.5q0 104 -70.5 173t-191.5 69 q-74 0 -139.5 -29.5t-115.5 -80t-80 -118t-30 -145.5z" />
<glyph unicode="h" horiz-adv-x="1265" d="M10 0l400 1495h247l-147 -553q66 66 144.5 114t183.5 48q152 0 240.5 -87t88.5 -237q0 -43 -10 -93t-22 -97l-156 -590h-248l160 600q8 27 12 56.5t4 52.5q0 82 -49 126t-139 44q-104 0 -184 -75t-113 -196l-164 -608h-248z" />
<glyph unicode="i" horiz-adv-x="585" d="M25 0l290 1081h248l-291 -1081h-247zM350 1247l64 236h268l-66 -236h-266z" />
<glyph unicode="j" horiz-adv-x="583" d="M-256 -315l53 196l40 -8t42 -4q53 0 92 38t58 109l286 1065h248l-295 -1095q-25 -88 -60.5 -148.5t-82.5 -98.5t-103.5 -55.5t-119.5 -17.5q-47 0 -84 4t-74 15zM350 1247l64 236h266l-64 -236h-266z" />
<glyph unicode="k" horiz-adv-x="1191" d="M10 0l402 1495h247l-233 -874l553 460h328l-545 -440l260 -641h-279l-192 481l-209 -168l-84 -313h-248z" />
<glyph unicode="l" horiz-adv-x="585" d="M25 0l401 1495h248l-402 -1495h-247z" />
<glyph unicode="m" horiz-adv-x="1945" d="M10 0l289 1081h248l-37 -139q66 66 139.5 114t177.5 48q121 0 194 -62.5t101 -154.5q72 98 173.5 157.5t232.5 59.5q147 0 234 -88t87 -236q0 -43 -11 -93t-23 -97l-158 -590h-248l162 600q6 27 10 56.5t4 52.5q0 82 -45 126t-131 44q-102 0 -179 -75t-108 -196 l-164 -608h-247l161 600q6 27 10.5 56.5t4.5 52.5q0 82 -45 126t-131 44q-104 0 -180 -75t-109 -196l-164 -608h-248z" />
<glyph unicode="n" horiz-adv-x="1263" d="M10 0l289 1081h248l-37 -139q66 66 144.5 114t183.5 48q152 0 240.5 -87t88.5 -237q0 -43 -10 -93t-22 -97l-156 -590h-248l160 600q8 27 12 56.5t4 52.5q0 82 -49 126t-139 44q-104 0 -184 -75t-113 -196l-164 -608h-248z" />
<glyph unicode="o" horiz-adv-x="1323" d="M92 469q0 123 49 237.5t135 202.5t201 141.5t246 53.5q117 0 210 -37t159.5 -103.5t102.5 -156.5t36 -199q0 -123 -50.5 -237.5t-136.5 -202.5t-200.5 -140.5t-243.5 -52.5q-117 0 -210 37t-159.5 103.5t-102.5 156.5t-36 197zM338 477q0 -137 76.5 -212t199.5 -75 q78 0 145.5 37t118 95.5t79 132t28.5 147.5q0 137 -77 212t-199 75q-80 0 -147.5 -37t-118 -96.5t-78 -133t-27.5 -145.5z" />
<glyph unicode="p" horiz-adv-x="1368" d="M-78 -328l377 1409h248l-39 -143q74 74 157 120t189 46q90 0 168 -32t134 -92t88 -145t32 -194q0 -143 -50 -265t-134 -210t-192.5 -138.5t-225.5 -50.5q-143 0 -229.5 62.5t-135.5 153.5l-139 -521h-248zM373 463q0 -59 19.5 -109.5t55 -87.5t86 -57.5t111.5 -20.5 q76 0 143.5 34t118.5 93.5t81 138t30 169.5q0 125 -69.5 196.5t-186.5 71.5q-74 0 -144.5 -35t-125 -93t-87 -136t-32.5 -164z" />
<glyph unicode="q" horiz-adv-x="1368" d="M90 440q0 143 50 265t134 210.5t192.5 138.5t225.5 50q143 0 229.5 -60.5t135.5 -152.5l51 190h248l-398 -1491h-247l147 555q-72 -76 -156 -122t-190 -46q-90 0 -167 32t-134 92.5t-89 146.5t-32 192zM348 457q0 -123 70.5 -196t187.5 -73q74 0 144.5 35t125 94.5 t87 137t32.5 163.5q0 121 -75.5 197t-198.5 76q-76 0 -143.5 -34t-118.5 -92t-81 -138t-30 -170z" />
<glyph unicode="r" horiz-adv-x="843" d="M10 0l289 1081h248l-64 -243q90 130 199 202q96 64 219 63q17 0 35 -1l-70 -262h-14q-82 0 -156.5 -27t-137 -81t-112 -136t-79.5 -195l-109 -401h-248z" />
<glyph unicode="s" horiz-adv-x="1019" d="M-33 170l148 152q86 -86 176 -119t172 -33q74 0 124 35t50 94q0 41 -38 70.5t-120 64.5q-68 29 -125 56.5t-98 63.5t-64.5 82t-23.5 107q0 76 29.5 141.5t85 114t133.5 76t176 27.5q129 0 238.5 -46t177.5 -106l-138 -159q-149 118 -295 118h-2q-80 0 -122.5 -34.5 t-42.5 -88.5q0 -41 39.5 -71.5t132.5 -69.5q61 -27 115.5 -55.5t94 -63t63.5 -80t24 -104.5q0 -84 -33 -151.5t-91.5 -115.5t-137.5 -74t-171 -26q-123 0 -253 48.5t-224 146.5z" />
<glyph unicode="t" horiz-adv-x="837" d="M131 195q0 63 19 124l145 549h-137l57 213h137l80 297h248l-80 -297h289l-58 -213h-288l-140 -522q-4 -16 -6 -32.5t-2 -28.5q0 -84 109 -84q76 0 158 35l-58 -216q-86 -38 -203 -38q-131 0 -200.5 57t-69.5 156z" />
<glyph unicode="u" horiz-adv-x="1265" d="M98 301q0 43 10.5 93t22.5 98l158 589h248l-162 -600q-6 -25 -10.5 -55.5t-4.5 -52.5q0 -82 48.5 -126t138.5 -44q104 0 184 74.5t113 195.5l164 608h247l-288 -1081h-248l37 139q-66 -66 -145 -114t-183 -48q-152 0 -241 87.5t-89 236.5z" />
<glyph unicode="v" horiz-adv-x="1189" d="M176 1081h256l78 -790l498 790h270l-729 -1089h-223z" />
<glyph unicode="w" horiz-adv-x="1746" d="M188 1081h252l21 -739l438 743h211l41 -743l422 739h250l-647 -1089h-224l-43 739l-442 -739h-219z" />
<glyph unicode="x" horiz-adv-x="1171" d="M-90 0l551 563l-250 518h266l154 -346l319 346h299l-524 -542l256 -539h-266l-162 369l-342 -369h-301z" />
<glyph unicode="y" horiz-adv-x="1198" d="M-111 -260l131 182q29 -20 67 -33.5t73 -13.5q47 0 89 24.5t95 96.5l-158 1085h254l90 -800l478 800h270l-698 -1112q-55 -84 -106.5 -141t-106 -93t-111.5 -52.5t-123 -16.5q-78 0 -135 19.5t-109 54.5z" />
<glyph unicode="z" horiz-adv-x="1134" d="M-49 0l47 170l795 709h-584l53 202h912l-46 -170l-796 -708h612l-55 -203h-938z" />
<glyph unicode="{" horiz-adv-x="997" d="M102 494l52 188h61q76 0 127 14.5t86 52t57.5 102t36.5 165.5q16 111 54 193.5t106 138t169 84t243 32.5l12 -168q-102 -8 -168 -31.5t-106.5 -64.5t-61 -100.5t-31.5 -138.5q-14 -106 -39.5 -177t-65.5 -116t-94.5 -66.5t-127.5 -32.5q82 -16 124 -62t42 -116 q0 -37 -10.5 -73.5t-22.5 -71.5q-12 -41 -24.5 -86t-12.5 -86q0 -74 42 -122t163 -89l-80 -152q-199 41 -281 122t-82 200q0 41 10.5 85t32.5 111q12 39 19.5 76t7.5 62q0 29 -6 52t-24.5 39.5t-53.5 26t-90 9.5h-64z" />
<glyph unicode="|" horiz-adv-x="677" d="M276 -262v1896h199v-1896h-199z" />
<glyph unicode="}" horiz-adv-x="997" d="M-84 -121q102 8 168 31.5t105.5 64.5t60 100.5t33.5 139.5q14 106 39.5 177t65.5 116t94.5 67.5t127.5 30.5q-82 16 -123 62.5t-41 115.5q0 37 9.5 74t21.5 72q12 39 24.5 85t12.5 87q0 74 -42 122t-163 89l80 151q199 -41 281 -121.5t82 -199.5q0 -41 -9.5 -85 t-31.5 -112q-14 -39 -21.5 -75.5t-7.5 -61.5q0 -29 6 -52.5t24.5 -40t53.5 -25.5t92 -9h62l-52 -188h-61q-74 0 -126 -14.5t-87 -52.5t-57.5 -102.5t-36.5 -164.5q-16 -111 -55 -194t-107 -138t-168 -84t-242 -33z" />
<glyph unicode="~" horiz-adv-x="1013" d="M133 532q53 115 123 182.5t160 67.5q51 0 85 -17t68 -46q39 -31 59.5 -43t47.5 -12q43 0 73.5 32.5t61.5 87.5l139 -65q-53 -115 -123.5 -182.5t-158.5 -67.5q-53 0 -86 17.5t-70 45.5q-39 29 -59.5 42.5t-44.5 13.5q-43 0 -75 -34t-63 -87z" />
<glyph unicode="&#xa1;" horiz-adv-x="620" d="M18 0l21 72l319 909h138l-166 -909l-21 -72h-291zM338 1153l76 281h272l-76 -281h-272z" />
<glyph unicode="&#xa2;" horiz-adv-x="1183" d="M141 653q0 133 49.5 250t136.5 203t203.5 135t251.5 49h27q14 0 27 -2l61 158h180l-76 -193q90 -35 149.5 -90t94.5 -121l-188 -129q-29 45 -64 79t-82 57l-262 -672h17q92 0 161.5 30.5t135.5 84.5l133 -166q-76 -70 -179.5 -117t-244.5 -47q-51 0 -94 6l-72 -180h-180 l90 225q-129 59 -202 173t-73 267zM387 657q0 -78 33 -138t86 -95l254 651q-80 -4 -148.5 -40t-119 -93t-78 -131t-27.5 -154z" />
<glyph unicode="&#xa3;" horiz-adv-x="1306" d="M-20 0l43 160l176 49l96 360h-162l57 213h162l58 215q53 201 163 312q72 72 162 107.5t207 35.5q160 0 261.5 -67.5t158.5 -172.5l-203 -135q-41 66 -94 105t-141 39q-57 0 -97.5 -18.5t-74.5 -53.5q-35 -35 -59.5 -84t-41.5 -111l-49 -172h514l-55 -213h-514l-94 -350 h669l-59 -219h-1083z" />
<glyph unicode="&#xa4;" horiz-adv-x="1452" d="M57 461l47 174h156q10 96 33 174h-143l47 174h149q43 102 109.5 189.5t150.5 150.5t187.5 99t220.5 36q207 0 326.5 -92t170.5 -240l-215 -104q-45 100 -111.5 154.5t-187.5 54.5q-123 0 -217 -66.5t-153 -181.5h460l-47 -174h-479q-16 -41 -25.5 -85t-13.5 -89h473 l-47 -174h-428q16 -123 91 -190.5t190 -67.5q104 0 178 41t147 121l170 -148q-92 -109 -212.5 -175.5t-286.5 -66.5q-113 0 -207 34t-165 97.5t-114 152.5t-53 202h-201z" />
<glyph unicode="&#xa5;" horiz-adv-x="1449" d="M117 209l49 182h393l39 150h-393l49 182h321l-282 711h272l221 -603l545 603h305l-671 -711h321l-49 -182h-395l-39 -150h395l-49 -182h-395l-56 -209h-243l55 209h-393z" />
<glyph unicode="&#xa7;" horiz-adv-x="1294" d="M111 164l155 143q57 -55 144.5 -95t187.5 -40q78 0 127 27.5t49 74.5q0 43 -52 73t-179 69q-84 25 -155 51.5t-122 60t-79.5 77.5t-28.5 106q0 106 83 175.5t232 90.5q-41 31 -69.5 75t-28.5 103q0 68 32.5 123t91 95t136.5 61.5t170 21.5q154 0 277.5 -50t195.5 -132 l-156 -144q-57 55 -144 95.5t-187 40.5q-78 0 -127.5 -28t-49.5 -75q0 -43 52.5 -72.5t179.5 -68.5q84 -25 154.5 -51.5t122 -60t80 -78t28.5 -105.5q0 -104 -83 -175t-233 -91q41 -31 70 -75t29 -103q0 -68 -33 -123.5t-91.5 -95t-136 -61t-169.5 -21.5q-154 0 -278 50 t-195 132zM393 750q0 -47 49.5 -78t155.5 -66q72 -23 119 -33t96 -10q76 0 129 36t53 89q0 47 -49 78t-155 65q-72 23 -119 33t-97 10q-76 0 -129 -35.5t-53 -88.5z" />
<glyph unicode="&#xa8;" d="M356 1219l66 241h252l-66 -241h-252zM764 1219l65 241h252l-67 -241h-250z" />
<glyph unicode="&#xa9;" horiz-adv-x="1699" d="M154 715q0 152 57 287t157.5 236t236.5 160.5t292 59.5t291 -58.5t234.5 -158.5t156.5 -235.5t57 -286.5q0 -152 -57 -287t-157.5 -236.5t-236.5 -161t-292 -59.5t-291 58.5t-234.5 159t-156.5 235.5t-57 287zM233 715q0 -137 50.5 -259t138.5 -212t209 -142.5t262 -52.5 t263 53.5t211 143.5t140.5 213t51.5 260q0 139 -50.5 260t-139.5 211t-210 142t-262 52t-263 -53t-211 -143t-139.5 -212t-50.5 -261zM510 725q0 84 29.5 156.5t83 128t126 87t160.5 31.5q109 0 178.5 -33.5t124.5 -86.5l-96 -111q-45 41 -96 66.5t-113 25.5 q-53 0 -97 -20.5t-77 -56t-50 -83t-17 -102.5q0 -53 18 -101t50 -84t77 -56.5t98 -20.5q68 0 116 25.5t95 70.5l99 -96q-61 -66 -133 -102.5t-183 -36.5q-84 0 -156.5 30.5t-125 85t-82 127t-29.5 156.5z" />
<glyph unicode="&#xaa;" horiz-adv-x="798" d="M109 578l32 118h531l-33 -118h-530zM211 985q0 104 75.5 161.5t186.5 57.5q51 0 96 -9t84 -21l4 14q4 10 6.5 21.5t2.5 19.5q0 41 -31 64.5t-100 23.5q-43 0 -84 -8.5t-76 -22.5l-25 115q47 18 99.5 29.5t115.5 11.5q119 0 179.5 -48t60.5 -137q0 -23 -4 -44t-8 -44 l-91 -331h-141l23 80q-41 -41 -89.5 -67t-107.5 -26q-78 0 -127 44t-49 116zM356 1001q0 -33 23.5 -54t64.5 -21q31 0 59.5 11t53.5 30.5t43 46t27 55.5l4 21q-27 8 -60.5 15t-72.5 7q-63 0 -102.5 -30.5t-39.5 -80.5z" />
<glyph unicode="&#xab;" horiz-adv-x="1239" d="M94 520l4 17l471 462l148 -133l-371 -362l166 -342l-201 -92zM606 520l4 17l473 462l146 -133l-371 -362l166 -342l-199 -92z" />
<glyph unicode="&#xad;" horiz-adv-x="841" d="M109 506l65 244h606l-65 -244h-606z" />
<glyph unicode="&#xae;" horiz-adv-x="1699" d="M154 715q0 152 57 287t157.5 236t236.5 160.5t292 59.5t291 -58.5t234.5 -158.5t156.5 -235.5t57 -286.5q0 -152 -57 -287t-157.5 -236.5t-236.5 -161t-292 -59.5t-291 58.5t-234.5 159t-156.5 235.5t-57 287zM233 715q0 -137 50.5 -259t138.5 -212t209 -142.5t262 -52.5 t263 53.5t211 143.5t140.5 213t51.5 260q0 139 -50.5 260t-139.5 211t-210 142t-262 52t-263 -53t-211 -143t-139.5 -212t-50.5 -261zM596 350v776h346q135 0 217 -65.5t82 -181.5q0 -96 -50 -154.5t-130 -81.5l211 -293h-176l-191 268h-160v-268h-149zM745 748h191 q72 0 114 32.5t42 89.5q0 59 -42 91t-114 32h-191v-245z" />
<glyph unicode="&#xaf;" d="M344 1229l49 182h701l-50 -182h-700z" />
<glyph unicode="&#xb0;" horiz-adv-x="862" d="M180 1071q0 74 30 142.5t80 120.5t118.5 84t146.5 32q72 0 128 -22.5t97 -62.5t62.5 -94t21.5 -120q0 -74 -29.5 -142.5t-81 -120.5t-120 -84t-146.5 -32q-70 0 -127 22.5t-97 62.5t-61.5 95.5t-21.5 118.5zM336 1079q0 -78 44 -123t116 -45q47 0 86 20.5t66.5 53.5 t44 75t16.5 85q0 76 -44 122t-116 46q-45 0 -85 -20.5t-67.5 -54.5t-44 -75t-16.5 -84z" />
<glyph unicode="&#xb1;" horiz-adv-x="1259" d="M-14 246l190 139q63 -82 148.5 -132t220.5 -50q74 0 130 18.5t95 50t59.5 72.5t20.5 84q0 96 -77 143t-218 47h-127l57 211h140q78 0 142 14.5t110.5 43t73 70.5t26.5 96q0 82 -66.5 130t-165.5 48q-104 0 -182 -39t-155 -107l-142 160q96 94 215 152.5t289 58.5 q106 0 192.5 -27.5t147.5 -76.5t94 -116t33 -146q0 -141 -91 -235.5t-261 -137.5q43 -14 83 -41t70.5 -64t49 -85t18.5 -105q0 -94 -42 -176t-119 -141.5t-183.5 -94.5t-235.5 -35q-106 0 -192 22.5t-152.5 59.5t-115 86.5t-80.5 102.5z" />
<glyph unicode="&#xb4;" d="M453 1219l307 335l221 -100l-313 -235h-215z" />
<glyph unicode="&#xb5;" horiz-adv-x="1712" d="M156 604q0 164 63.5 317.5t176 272.5t268 191.5t342.5 72.5q145 0 264 -48t202.5 -132t131 -199.5t47.5 -249.5q0 -172 -69 -330.5t-191 -279.5l125 -158l-205 -139l-111 158q-88 -49 -188.5 -77t-212.5 -28q-143 0 -262 48.5t-204 133.5t-131 199.5t-46 247.5zM418 618 q0 -88 27.5 -163.5t80 -131t128 -86t171.5 -30.5q68 0 129.5 17.5t114.5 47.5l-203 254l207 142l172 -246q68 84 106 186.5t38 206.5q0 88 -28 164t-80 131t-128 86t-172 31q-125 0 -228.5 -54.5t-178 -140.5t-115.5 -194.5t-41 -219.5z" />
<glyph unicode="&#xb6;" horiz-adv-x="1157" d="M188 883q0 121 44 221t133.5 174t221.5 115t306 41h319l-385 -1434h-252l123 465q-115 4 -209 30.5t-160.5 77t-103.5 128t-37 182.5z" />
<glyph unicode="&#xb7;" horiz-adv-x="600" d="M141 487l76 281h275l-76 -281h-275z" />
<glyph unicode="&#xb8;" d="M106 -248l254 268h187l-250 -358z" />
<glyph unicode="&#xba;" horiz-adv-x="815" d="M111 578l30 118h564l-31 -118h-563zM219 1096q0 68 26.5 131t74 111t111 77t134.5 29q66 0 118 -20.5t89 -57.5t57.5 -87t20.5 -110q0 -68 -26.5 -131t-74 -111t-110.5 -77t-135 -29q-131 0 -208 78t-77 197zM362 1102q0 -70 41 -113t107 -43q43 0 79 19.5t62.5 50.5 t41 69.5t14.5 77.5q0 72 -41 114t-107 42q-43 0 -79 -18.5t-62.5 -49t-41 -69.5t-14.5 -80z" />
<glyph unicode="&#xbb;" horiz-adv-x="1239" d="M6 201l369 364l-164 342l199 90l219 -448l-4 -17l-473 -462zM518 201l371 364l-166 342l199 90l219 -448l-4 -17l-473 -462z" />
<glyph unicode="&#xbf;" horiz-adv-x="1107" d="M66 350q0 188 142 302t388 151l68 178h165l-47 -332l-12 -10q-207 -16 -323.5 -81.5t-116.5 -178.5q0 -80 55 -124t156 -44q90 0 175 39t150 100l135 -166q-94 -96 -222 -149t-269 -53q-104 0 -187 29.5t-139.5 79.5t-87 117.5t-30.5 141.5zM651 1153l76 281h272 l-75 -281h-273z" />
<glyph unicode="&#xc0;" horiz-adv-x="1562" d="M-102 0l1017 1444h242l244 -1444h-258l-56 346h-677l-240 -346h-272zM563 569h494l-92 580zM795 1788l231 100l125 -336h-170z" />
<glyph unicode="&#xc1;" horiz-adv-x="1562" d="M-102 0l1017 1444h242l244 -1444h-258l-56 346h-677l-240 -346h-272zM563 569h494l-92 580zM911 1552l308 336l221 -100l-314 -236h-215z" />
<glyph unicode="&#xc2;" horiz-adv-x="1562" d="M-102 0l1017 1444h242l244 -1444h-258l-56 346h-677l-240 -346h-272zM563 569h494l-92 580zM674 1552l317 299h232l157 -299h-186l-119 138l-196 -138h-205z" />
<glyph unicode="&#xc3;" horiz-adv-x="1562" d="M-102 0l1017 1444h242l244 -1444h-258l-56 346h-677l-240 -346h-272zM563 569h494l-92 580zM655 1608q53 115 123 182.5t160 67.5q51 0 85 -17.5t69 -46.5q39 -31 59 -43t47 -12q43 0 74 32.5t61 88.5l140 -66q-53 -115 -124 -182.5t-161 -67.5q-51 0 -85 17.5t-69 46.5 q-39 29 -59.5 42t-44.5 13q-43 0 -75 -34t-62 -87z" />
<glyph unicode="&#xc4;" horiz-adv-x="1562" d="M-102 0l1017 1444h242l244 -1444h-258l-56 346h-677l-240 -346h-272zM563 569h494l-92 580zM725 1552l66 242h251l-65 -242h-252zM1133 1552l65 242h252l-68 -242h-249z" />
<glyph unicode="&#xc5;" horiz-adv-x="1562" d="M-96 0l993 1411q-66 55 -66 145q0 51 20.5 97.5t55.5 81t82 55t101 20.5q100 0 158.5 -57t58.5 -141q0 -72 -38 -130.5t-98 -88.5l236 -1393h-258l-55 346h-678l-240 -346h-272zM569 569h494l-92 580zM946 1556q0 -43 28 -72.5t79 -29.5q61 0 100 48t39 108 q0 43 -27.5 72.5t-77.5 29.5q-63 0 -102 -48t-39 -108z" />
<glyph unicode="&#xc6;" horiz-adv-x="2172" d="M-106 0l1185 1434h1209l-62 -226h-766l-100 -374h676l-62 -224h-676l-102 -385h778l-61 -225h-1028l94 346h-524l-285 -346h-276zM637 569h401l172 645h-43z" />
<glyph unicode="&#xc7;" horiz-adv-x="1495" d="M154 586q0 172 67.5 330.5t185 278.5t275.5 191.5t338 71.5q205 0 342 -83t217 -224l-209 -141q-63 98 -150 157.5t-229 59.5q-115 0 -219 -51.5t-183 -138.5t-126 -200.5t-47 -240.5q0 -88 28.5 -159.5t81 -123t123 -79t156.5 -27.5q123 0 209 45t172 119l166 -168 q-102 -98 -233.5 -163t-317.5 -65h-15l-219 -313l-190 90l233 246q-100 25 -184 77t-144.5 126.5t-94 171t-33.5 213.5z" />
<glyph unicode="&#xc8;" horiz-adv-x="1351" d="M39 0l385 1434h1053l-62 -226h-801l-100 -374h711l-62 -224h-710l-103 -385h813l-61 -225h-1063zM723 1788l231 100l125 -336h-170z" />
<glyph unicode="&#xc9;" horiz-adv-x="1351" d="M39 0l385 1434h1053l-62 -226h-801l-100 -374h711l-62 -224h-710l-103 -385h813l-61 -225h-1063zM805 1552l307 336l221 -100l-313 -236h-215z" />
<glyph unicode="&#xca;" horiz-adv-x="1351" d="M39 0l385 1434h1053l-62 -226h-801l-100 -374h711l-62 -224h-710l-103 -385h813l-61 -225h-1063zM618 1552l318 299h231l158 -299h-186l-119 138l-197 -138h-205z" />
<glyph unicode="&#xcb;" horiz-adv-x="1351" d="M39 0l385 1434h1053l-62 -226h-801l-100 -374h711l-62 -224h-710l-103 -385h813l-61 -225h-1063zM645 1552l66 242h252l-66 -242h-252zM1053 1552l65 242h252l-67 -242h-250z" />
<glyph unicode="&#xcc;" horiz-adv-x="649" d="M53 0l385 1434h254l-385 -1434h-254zM344 1788l231 100l125 -336h-170z" />
<glyph unicode="&#xcd;" horiz-adv-x="649" d="M53 0l385 1434h254l-385 -1434h-254zM444 1552l308 336l221 -100l-314 -236h-215z" />
<glyph unicode="&#xce;" horiz-adv-x="649" d="M53 0l385 1434h254l-385 -1434h-254zM223 1552l318 299h231l158 -299h-187l-118 138l-197 -138h-205z" />
<glyph unicode="&#xcf;" horiz-adv-x="649" d="M53 0l385 1434h254l-385 -1434h-254zM266 1552l66 242h252l-66 -242h-252zM674 1552l65 242h252l-67 -242h-250z" />
<glyph unicode="&#xd0;" horiz-adv-x="1634" d="M84 608l61 226h166l160 600h389q199 0 336 -50.5t223 -136.5q158 -156 158 -418q0 -162 -59.5 -305t-171.5 -256q-129 -129 -316.5 -198.5t-429.5 -69.5h-514l164 608h-166zM399 229h232q160 0 294 49.5t230 145.5q78 78 119 178t41 217q0 86 -26.5 151.5t-74.5 112.5 q-57 57 -149 89t-223 32h-178l-101 -370h346l-61 -226h-346z" />
<glyph unicode="&#xd1;" horiz-adv-x="1609" d="M39 0l385 1434h233l486 -1014l274 1014h248l-385 -1434h-211l-502 1042l-278 -1042h-250zM668 1608q53 115 122.5 182.5t159.5 67.5q51 0 85 -17.5t69 -46.5q39 -31 59.5 -43t46.5 -12q43 0 74 32.5t62 88.5l139 -66q-53 -115 -124 -182.5t-161 -67.5q-51 0 -85 17.5 t-68 46.5q-39 29 -59.5 42t-45.5 13q-43 0 -74.5 -34t-62.5 -87z" />
<glyph unicode="&#xd2;" horiz-adv-x="1712" d="M156 604q0 164 63.5 317.5t176 272.5t268 191.5t342.5 72.5q145 0 264 -48t202.5 -132t131 -199.5t47.5 -249.5q0 -162 -63.5 -316.5t-176.5 -273t-269.5 -191.5t-342.5 -73q-143 0 -262 48.5t-204 133.5t-131 199.5t-46 247.5zM418 618q0 -88 27.5 -163.5t80 -131 t128 -86t171.5 -30.5q125 0 228.5 54t178.5 140t116 195t41 219q0 88 -28 164t-80 131t-128 86t-172 31q-125 0 -228.5 -54.5t-178 -140.5t-115.5 -194.5t-41 -219.5zM827 1788l232 100l125 -336h-170z" />
<glyph unicode="&#xd3;" horiz-adv-x="1712" d="M156 604q0 164 63.5 317.5t176 272.5t268 191.5t342.5 72.5q145 0 264 -48t202.5 -132t131 -199.5t47.5 -249.5q0 -162 -63.5 -316.5t-176.5 -273t-269.5 -191.5t-342.5 -73q-143 0 -262 48.5t-204 133.5t-131 199.5t-46 247.5zM418 618q0 -88 27.5 -163.5t80 -131 t128 -86t171.5 -30.5q125 0 228.5 54t178.5 140t116 195t41 219q0 88 -28 164t-80 131t-128 86t-172 31q-125 0 -228.5 -54.5t-178 -140.5t-115.5 -194.5t-41 -219.5zM883 1552l307 336l221 -100l-313 -236h-215z" />
<glyph unicode="&#xd4;" horiz-adv-x="1712" d="M156 604q0 164 63.5 317.5t176 272.5t268 191.5t342.5 72.5q145 0 264 -48t202.5 -132t131 -199.5t47.5 -249.5q0 -162 -63.5 -316.5t-176.5 -273t-269.5 -191.5t-342.5 -73q-143 0 -262 48.5t-204 133.5t-131 199.5t-46 247.5zM418 618q0 -88 27.5 -163.5t80 -131 t128 -86t171.5 -30.5q125 0 228.5 54t178.5 140t116 195t41 219q0 88 -28 164t-80 131t-128 86t-172 31q-125 0 -228.5 -54.5t-178 -140.5t-115.5 -194.5t-41 -219.5zM717 1552l317 299h232l157 -299h-186l-119 138l-196 -138h-205z" />
<glyph unicode="&#xd5;" horiz-adv-x="1712" d="M156 604q0 164 63.5 317.5t176 272.5t268 191.5t342.5 72.5q145 0 264 -48t202.5 -132t131 -199.5t47.5 -249.5q0 -162 -63.5 -316.5t-176.5 -273t-269.5 -191.5t-342.5 -73q-143 0 -262 48.5t-204 133.5t-131 199.5t-46 247.5zM418 618q0 -88 27.5 -163.5t80 -131 t128 -86t171.5 -30.5q125 0 228.5 54t178.5 140t116 195t41 219q0 88 -28 164t-80 131t-128 86t-172 31q-125 0 -228.5 -54.5t-178 -140.5t-115.5 -194.5t-41 -219.5zM692 1608q53 115 123 182.5t160 67.5q51 0 85 -17.5t68 -46.5q39 -31 59.5 -43t47.5 -12q43 0 73.5 32.5 t61.5 88.5l139 -66q-53 -115 -123.5 -182.5t-160.5 -67.5q-51 0 -85 17.5t-69 46.5q-39 29 -59.5 42t-44.5 13q-43 0 -75 -34t-63 -87z" />
<glyph unicode="&#xd6;" horiz-adv-x="1712" d="M156 604q0 164 63.5 317.5t176 272.5t268 191.5t342.5 72.5q145 0 264 -48t202.5 -132t131 -199.5t47.5 -249.5q0 -162 -63.5 -316.5t-176.5 -273t-269.5 -191.5t-342.5 -73q-143 0 -262 48.5t-204 133.5t-131 199.5t-46 247.5zM418 618q0 -88 27.5 -163.5t80 -131 t128 -86t171.5 -30.5q125 0 228.5 54t178.5 140t116 195t41 219q0 88 -28 164t-80 131t-128 86t-172 31q-125 0 -228.5 -54.5t-178 -140.5t-115.5 -194.5t-41 -219.5zM750 1552l65 242h252l-66 -242h-251zM1157 1552l66 242h252l-68 -242h-250z" />
<glyph unicode="&#xd8;" horiz-adv-x="1712" d="M-47 -10l299 266q-96 152 -96 348q0 164 63.5 317.5t176 272.5t268 191.5t342.5 72.5q135 0 246.5 -42t195.5 -118l164 146h252l-305 -275q45 -72 68.5 -157.5t23.5 -182.5q0 -162 -63.5 -316.5t-176.5 -273t-269.5 -191.5t-342.5 -73q-133 0 -243 41t-191 113l-160 -139 h-252zM410 616q0 -111 39 -194l811 717q-109 96 -279 96q-125 0 -230.5 -55.5t-181 -143.5t-117.5 -198.5t-42 -221.5zM555 289q104 -92 268 -92q127 0 232.5 55t181.5 143t118 199t42 221q0 106 -37 189z" />
<glyph unicode="&#xd9;" horiz-adv-x="1560" d="M176 451q0 115 33 227l201 756h252l-211 -791q-10 -35 -15.5 -74t-5.5 -84q0 -123 76 -199.5t225 -76.5q160 0 268 108q51 51 91 125t67 176l219 816h252l-229 -854q-74 -274 -223 -424q-88 -88 -203.5 -133.5t-265.5 -45.5q-254 0 -392.5 127t-138.5 347zM788 1788 l232 100l125 -336h-170z" />
<glyph unicode="&#xda;" horiz-adv-x="1560" d="M176 451q0 115 33 227l201 756h252l-211 -791q-10 -35 -15.5 -74t-5.5 -84q0 -123 76 -199.5t225 -76.5q160 0 268 108q51 51 91 125t67 176l219 816h252l-229 -854q-74 -274 -223 -424q-88 -88 -203.5 -133.5t-265.5 -45.5q-254 0 -392.5 127t-138.5 347zM868 1552 l308 336l221 -100l-314 -236h-215z" />
<glyph unicode="&#xdb;" horiz-adv-x="1560" d="M176 451q0 115 33 227l201 756h252l-211 -791q-10 -35 -15.5 -74t-5.5 -84q0 -123 76 -199.5t225 -76.5q160 0 268 108q51 51 91 125t67 176l219 816h252l-229 -854q-74 -274 -223 -424q-88 -88 -203.5 -133.5t-265.5 -45.5q-254 0 -392.5 127t-138.5 347zM674 1552 l317 299h232l157 -299h-186l-119 138l-196 -138h-205z" />
<glyph unicode="&#xdc;" horiz-adv-x="1560" d="M176 451q0 115 33 227l201 756h252l-211 -791q-10 -35 -15.5 -74t-5.5 -84q0 -123 76 -199.5t225 -76.5q160 0 268 108q51 51 91 125t67 176l219 816h252l-229 -854q-74 -274 -223 -424q-88 -88 -203.5 -133.5t-265.5 -45.5q-254 0 -392.5 127t-138.5 347zM717 1552 l65 242h252l-65 -242h-252zM1124 1552l66 242h252l-68 -242h-250z" />
<glyph unicode="&#xdd;" horiz-adv-x="1341" d="M219 1434h279l217 -648l567 648h311l-809 -891l-145 -543h-252l152 569zM758 1552l307 336l221 -100l-313 -236h-215z" />
<glyph unicode="&#xde;" horiz-adv-x="1398" d="M39 0l385 1434h252l-60 -226h201q147 0 253 -32.5t181 -106.5q53 -53 80 -122.5t27 -160.5q0 -131 -52.5 -232t-146.5 -171t-222 -105.5t-280 -35.5h-299l-65 -242h-254zM416 463h254q199 0 312.5 79t113.5 224q0 84 -56 139q-74 76 -233 76h-252z" />
<glyph unicode="&#xdf;" horiz-adv-x="1286" d="M10 0l277 1028q31 111 73.5 195t104.5 145q68 66 160 103.5t202 37.5q98 0 177 -28.5t134.5 -77.5t85 -116.5t29.5 -147.5q0 -158 -99 -257.5t-253 -146.5q51 -18 96 -43.5t79 -62.5t53.5 -84t19.5 -109q0 -96 -42 -178t-128 -141.5t-215 -92t-303 -28.5l53 197 q109 -2 184.5 18t122.5 54t68.5 80t21.5 97q0 78 -64.5 132.5t-211.5 74.5l45 170q178 41 257 118t79 179q0 86 -56.5 134t-142.5 48q-106 0 -180 -75.5t-111 -214.5l-268 -1008h-248z" />
<glyph unicode="&#xe0;" horiz-adv-x="1193" d="M27 274q0 94 35.5 167t100 122t152.5 75t193 26q90 0 171 -14.5t152 -39.5l7 23q6 25 9 43t3 43q0 72 -55.5 116t-180.5 44q-82 0 -156.5 -16.5t-140.5 -43.5l-41 205q84 35 180.5 54.5t207.5 19.5q215 0 324.5 -88t109.5 -248q0 -39 -6.5 -76t-16.5 -78l-162 -608h-243 l37 141q-72 -76 -156 -120t-195 -44q-70 0 -130 21.5t-104 59.5t-69.5 93.5t-25.5 122.5zM281 307q0 -72 46 -109.5t126 -37.5q57 0 110 20.5t97.5 56t76 82t43.5 95.5l13 47q-51 16 -113 28.5t-133 12.5q-125 0 -195.5 -54.5t-70.5 -140.5zM514 1454l231 100l125 -335h-170 z" />
<glyph unicode="&#xe1;" horiz-adv-x="1193" d="M27 274q0 94 35.5 167t100 122t152.5 75t193 26q90 0 171 -14.5t152 -39.5l7 23q6 25 9 43t3 43q0 72 -55.5 116t-180.5 44q-82 0 -156.5 -16.5t-140.5 -43.5l-41 205q84 35 180.5 54.5t207.5 19.5q215 0 324.5 -88t109.5 -248q0 -39 -6.5 -76t-16.5 -78l-162 -608h-243 l37 141q-72 -76 -156 -120t-195 -44q-70 0 -130 21.5t-104 59.5t-69.5 93.5t-25.5 122.5zM281 307q0 -72 46 -109.5t126 -37.5q57 0 110 20.5t97.5 56t76 82t43.5 95.5l13 47q-51 16 -113 28.5t-133 12.5q-125 0 -195.5 -54.5t-70.5 -140.5zM592 1219l307 335l221 -100 l-313 -235h-215z" />
<glyph unicode="&#xe2;" horiz-adv-x="1193" d="M27 274q0 94 35.5 167t100 122t152.5 75t193 26q90 0 171 -14.5t152 -39.5l7 23q6 25 9 43t3 43q0 72 -55.5 116t-180.5 44q-82 0 -156.5 -16.5t-140.5 -43.5l-41 205q84 35 180.5 54.5t207.5 19.5q215 0 324.5 -88t109.5 -248q0 -39 -6.5 -76t-16.5 -78l-162 -608h-243 l37 141q-72 -76 -156 -120t-195 -44q-70 0 -130 21.5t-104 59.5t-69.5 93.5t-25.5 122.5zM281 307q0 -72 46 -109.5t126 -37.5q57 0 110 20.5t97.5 56t76 82t43.5 95.5l13 47q-51 16 -113 28.5t-133 12.5q-125 0 -195.5 -54.5t-70.5 -140.5zM408 1219l317 299h231l158 -299 h-186l-119 137l-197 -137h-204z" />
<glyph unicode="&#xe3;" horiz-adv-x="1193" d="M27 274q0 94 35.5 167t100 122t152.5 75t193 26q90 0 171 -14.5t152 -39.5l7 23q6 25 9 43t3 43q0 72 -55.5 116t-180.5 44q-82 0 -156.5 -16.5t-140.5 -43.5l-41 205q84 35 180.5 54.5t207.5 19.5q215 0 324.5 -88t109.5 -248q0 -39 -6.5 -76t-16.5 -78l-162 -608h-243 l37 141q-72 -76 -156 -120t-195 -44q-70 0 -130 21.5t-104 59.5t-69.5 93.5t-25.5 122.5zM281 307q0 -72 46 -109.5t126 -37.5q57 0 110 20.5t97.5 56t76 82t43.5 95.5l13 47q-51 16 -113 28.5t-133 12.5q-125 0 -195.5 -54.5t-70.5 -140.5zM375 1274q53 115 122.5 182.5 t159.5 67.5q51 0 85 -17.5t69 -46.5q39 -31 59.5 -43t47.5 -12q43 0 73.5 32.5t61.5 88.5l139 -66q-53 -115 -124 -182.5t-161 -67.5q-51 0 -85 17.5t-68 46.5q-39 29 -59.5 42t-45.5 13q-43 0 -74.5 -33.5t-62.5 -87.5z" />
<glyph unicode="&#xe4;" horiz-adv-x="1193" d="M27 274q0 94 35.5 167t100 122t152.5 75t193 26q90 0 171 -14.5t152 -39.5l7 23q6 25 9 43t3 43q0 72 -55.5 116t-180.5 44q-82 0 -156.5 -16.5t-140.5 -43.5l-41 205q84 35 180.5 54.5t207.5 19.5q215 0 324.5 -88t109.5 -248q0 -39 -6.5 -76t-16.5 -78l-162 -608h-243 l37 141q-72 -76 -156 -120t-195 -44q-70 0 -130 21.5t-104 59.5t-69.5 93.5t-25.5 122.5zM281 307q0 -72 46 -109.5t126 -37.5q57 0 110 20.5t97.5 56t76 82t43.5 95.5l13 47q-51 16 -113 28.5t-133 12.5q-125 0 -195.5 -54.5t-70.5 -140.5zM432 1219l66 241h252l-66 -241 h-252zM840 1219l65 241h252l-67 -241h-250z" />
<glyph unicode="&#xe5;" horiz-adv-x="1193" d="M27 274q0 94 35.5 167t100 122t152.5 75t193 26q90 0 171 -14.5t152 -39.5l7 23q6 25 9 43t3 43q0 72 -55.5 116t-180.5 44q-82 0 -156.5 -16.5t-140.5 -43.5l-41 205q84 35 180.5 54.5t207.5 19.5q215 0 324.5 -88t109.5 -248q0 -39 -6.5 -76t-16.5 -78l-162 -608h-243 l37 141q-72 -76 -156 -120t-195 -44q-70 0 -130 21.5t-104 59.5t-69.5 93.5t-25.5 122.5zM281 307q0 -72 46 -109.5t126 -37.5q57 0 110 20.5t97.5 56t76 82t43.5 95.5l13 47q-51 16 -113 28.5t-133 12.5q-125 0 -195.5 -54.5t-70.5 -140.5zM580 1415q0 51 20.5 97.5t55 81 t80.5 55t100 20.5q100 0 158.5 -56.5t58.5 -142.5q0 -51 -20.5 -98t-55.5 -81t-81 -54t-99 -20q-100 0 -158.5 56t-58.5 142zM692 1417q0 -45 28 -73.5t79 -28.5q61 0 101 47t40 106q0 45 -27.5 74t-78.5 29q-61 0 -101.5 -47t-40.5 -107z" />
<glyph unicode="&#xe6;" horiz-adv-x="1941" d="M27 289q0 90 35.5 159.5t100 117.5t152.5 73t193 25q88 0 170 -14.5t153 -39.5l7 23q6 25 9 43t3 43q0 72 -55.5 116t-180.5 44q-82 0 -156.5 -16.5t-140.5 -43.5l-41 205q84 35 180.5 54.5t207.5 19.5q156 0 246.5 -48.5t127.5 -136.5q78 86 182.5 138.5t227.5 52.5 q102 0 181 -33t132.5 -89t82 -133t28.5 -165q0 -117 -47 -229h-787q0 -123 71 -200t210 -77q78 0 142.5 25.5t135.5 79.5l117 -158q-72 -63 -178 -106.5t-240 -43.5q-141 0 -247.5 54.5t-165.5 158.5q-100 -92 -215 -151.5t-262 -59.5q-176 0 -277.5 84t-101.5 228zM281 307 q0 -72 49 -109.5t141 -37.5q43 0 91 13t95.5 38t92.5 56.5t79 68.5q-4 29 -7 57.5t-3 59.5q-70 25 -138.5 37t-133.5 12q-125 0 -195.5 -54.5t-70.5 -140.5zM1065 618h563q4 14 6 34t2 42q0 84 -50 145.5t-165 61.5q-61 0 -117.5 -21.5t-102.5 -58.5t-81 -89t-55 -114z" />
<glyph unicode="&#xe7;" horiz-adv-x="1148" d="M90 457q0 133 51.5 250.5t139.5 205.5t203.5 139.5t244.5 51.5q86 0 155.5 -19.5t123 -53.5t93.5 -79t66 -94l-192 -131q-43 70 -102.5 116t-163.5 46q-74 0 -140.5 -35t-118 -94.5t-82 -137t-30.5 -163.5q0 -63 20.5 -113.5t55.5 -85.5t82 -53.5t98 -18.5q82 0 146.5 32 t129.5 89l131 -162q-84 -76 -179 -123t-230 -49h-2l-219 -313l-191 90l238 248q-145 47 -236.5 165t-91.5 292z" />
<glyph unicode="&#xe8;" horiz-adv-x="1228" d="M90 449q0 121 46 237.5t131 209.5t202 150.5t258 57.5q104 0 184 -33t135.5 -89t84 -133t28.5 -165q0 -57 -12 -115.5t-35 -117.5h-786q2 -123 72.5 -198t207.5 -75q78 0 142.5 25.5t134.5 79.5l118 -158q-78 -63 -178 -106.5t-241 -43.5q-113 0 -204 33t-154.5 94.5 t-98.5 149.5t-35 197zM352 621h561q10 27 11 73q0 84 -51.5 145.5t-163.5 61.5q-127 0 -221.5 -79t-135.5 -201zM526 1454l232 100l125 -335h-170z" />
<glyph unicode="&#xe9;" horiz-adv-x="1228" d="M90 449q0 121 46 237.5t131 209.5t202 150.5t258 57.5q104 0 184 -33t135.5 -89t84 -133t28.5 -165q0 -57 -12 -115.5t-35 -117.5h-786q2 -123 72.5 -198t207.5 -75q78 0 142.5 25.5t134.5 79.5l118 -158q-78 -63 -178 -106.5t-241 -43.5q-113 0 -204 33t-154.5 94.5 t-98.5 149.5t-35 197zM352 621h561q10 27 11 73q0 84 -51.5 145.5t-163.5 61.5q-127 0 -221.5 -79t-135.5 -201zM600 1219l307 335l221 -100l-313 -235h-215z" />
<glyph unicode="&#xea;" horiz-adv-x="1228" d="M90 449q0 121 46 237.5t131 209.5t202 150.5t258 57.5q104 0 184 -33t135.5 -89t84 -133t28.5 -165q0 -57 -12 -115.5t-35 -117.5h-786q2 -123 72.5 -198t207.5 -75q78 0 142.5 25.5t134.5 79.5l118 -158q-78 -63 -178 -106.5t-241 -43.5q-113 0 -204 33t-154.5 94.5 t-98.5 149.5t-35 197zM352 621h561q10 27 11 73q0 84 -51.5 145.5t-163.5 61.5q-127 0 -221.5 -79t-135.5 -201zM414 1219l317 299h232l157 -299h-186l-119 137l-197 -137h-204z" />
<glyph unicode="&#xeb;" horiz-adv-x="1228" d="M90 449q0 121 46 237.5t131 209.5t202 150.5t258 57.5q104 0 184 -33t135.5 -89t84 -133t28.5 -165q0 -57 -12 -115.5t-35 -117.5h-786q2 -123 72.5 -198t207.5 -75q78 0 142.5 25.5t134.5 79.5l118 -158q-78 -63 -178 -106.5t-241 -43.5q-113 0 -204 33t-154.5 94.5 t-98.5 149.5t-35 197zM352 621h561q10 27 11 73q0 84 -51.5 145.5t-163.5 61.5q-127 0 -221.5 -79t-135.5 -201zM444 1219l66 241h252l-66 -241h-252zM852 1219l66 241h251l-67 -241h-250z" />
<glyph unicode="&#xec;" horiz-adv-x="585" d="M25 0l290 1081h248l-291 -1081h-247zM221 1454l232 100l125 -335h-170z" />
<glyph unicode="&#xed;" horiz-adv-x="585" d="M25 0l290 1081h248l-291 -1081h-247zM324 1219l307 335l221 -100l-313 -235h-215z" />
<glyph unicode="&#xee;" horiz-adv-x="585" d="M25 0l290 1081h248l-291 -1081h-247zM106 1219l318 299h231l158 -299h-186l-119 137l-197 -137h-205z" />
<glyph unicode="&#xef;" horiz-adv-x="585" d="M25 0l290 1081h248l-291 -1081h-247zM139 1219l66 241h252l-66 -241h-252zM547 1219l65 241h252l-67 -241h-250z" />
<glyph unicode="&#xf0;" horiz-adv-x="1292" d="M84 444q0 115 44 215.5t120 175t174 117.5t209 43q104 0 178 -31.5t133 -84.5l-145 327l-289 -112l-66 131l293 114l-69 156h252l32 -76l236 92l65 -131l-243 -94l98 -237q47 -111 69.5 -207.5t22.5 -202.5q0 -135 -43 -255t-124 -211t-196 -144.5t-260 -53.5 q-109 0 -198.5 35t-155 96.5t-101.5 147.5t-36 190zM324 459q0 -129 75.5 -200t192.5 -71q76 0 140.5 30t112.5 79t74.5 113.5t26.5 134.5q0 117 -73.5 192.5t-202.5 75.5q-74 0 -136.5 -28.5t-109.5 -77t-73.5 -113t-26.5 -135.5z" />
<glyph unicode="&#xf1;" horiz-adv-x="1263" d="M10 0l289 1081h248l-37 -139q66 66 144.5 114t183.5 48q152 0 240.5 -87t88.5 -237q0 -43 -10 -93t-22 -97l-156 -590h-248l160 600q8 27 12 56.5t4 52.5q0 82 -49 126t-139 44q-104 0 -184 -75t-113 -196l-164 -608h-248zM410 1274q53 115 122.5 182.5t159.5 67.5 q51 0 85 -17.5t69 -46.5q39 -31 59.5 -43t46.5 -12q43 0 74 32.5t61 88.5l140 -66q-53 -115 -124 -182.5t-161 -67.5q-51 0 -85 17.5t-69 46.5q-39 29 -59 42t-45 13q-43 0 -74.5 -33.5t-62.5 -87.5z" />
<glyph unicode="&#xf2;" horiz-adv-x="1323" d="M92 469q0 123 49 237.5t135 202.5t201 141.5t246 53.5q117 0 210 -37t159.5 -103.5t102.5 -156.5t36 -199q0 -123 -50.5 -237.5t-136.5 -202.5t-200.5 -140.5t-243.5 -52.5q-117 0 -210 37t-159.5 103.5t-102.5 156.5t-36 197zM338 477q0 -137 76.5 -212t199.5 -75 q78 0 145.5 37t118 95.5t79 132t28.5 147.5q0 137 -77 212t-199 75q-80 0 -147.5 -37t-118 -96.5t-78 -133t-27.5 -145.5zM549 1454l231 100l125 -335h-170z" />
<glyph unicode="&#xf3;" horiz-adv-x="1323" d="M92 469q0 123 49 237.5t135 202.5t201 141.5t246 53.5q117 0 210 -37t159.5 -103.5t102.5 -156.5t36 -199q0 -123 -50.5 -237.5t-136.5 -202.5t-200.5 -140.5t-243.5 -52.5q-117 0 -210 37t-159.5 103.5t-102.5 156.5t-36 197zM338 477q0 -137 76.5 -212t199.5 -75 q78 0 145.5 37t118 95.5t79 132t28.5 147.5q0 137 -77 212t-199 75q-80 0 -147.5 -37t-118 -96.5t-78 -133t-27.5 -145.5zM610 1219l308 335l221 -100l-314 -235h-215z" />
<glyph unicode="&#xf4;" horiz-adv-x="1323" d="M92 469q0 123 49 237.5t135 202.5t201 141.5t246 53.5q117 0 210 -37t159.5 -103.5t102.5 -156.5t36 -199q0 -123 -50.5 -237.5t-136.5 -202.5t-200.5 -140.5t-243.5 -52.5q-117 0 -210 37t-159.5 103.5t-102.5 156.5t-36 197zM338 477q0 -137 76.5 -212t199.5 -75 q78 0 145.5 37t118 95.5t79 132t28.5 147.5q0 137 -77 212t-199 75q-80 0 -147.5 -37t-118 -96.5t-78 -133t-27.5 -145.5zM440 1219l318 299h231l158 -299h-186l-119 137l-197 -137h-205z" />
<glyph unicode="&#xf5;" horiz-adv-x="1323" d="M92 469q0 123 49 237.5t135 202.5t201 141.5t246 53.5q117 0 210 -37t159.5 -103.5t102.5 -156.5t36 -199q0 -123 -50.5 -237.5t-136.5 -202.5t-200.5 -140.5t-243.5 -52.5q-117 0 -210 37t-159.5 103.5t-102.5 156.5t-36 197zM338 477q0 -137 76.5 -212t199.5 -75 q78 0 145.5 37t118 95.5t79 132t28.5 147.5q0 137 -77 212t-199 75q-80 0 -147.5 -37t-118 -96.5t-78 -133t-27.5 -145.5zM401 1274q53 115 123 182.5t160 67.5q51 0 85 -17.5t69 -46.5q39 -31 59.5 -43t46.5 -12q43 0 74 32.5t61 88.5l140 -66q-53 -115 -124 -182.5 t-161 -67.5q-51 0 -85 17.5t-69 46.5q-39 29 -59.5 42t-44.5 13q-43 0 -75 -33.5t-62 -87.5z" />
<glyph unicode="&#xf6;" horiz-adv-x="1323" d="M92 469q0 123 49 237.5t135 202.5t201 141.5t246 53.5q117 0 210 -37t159.5 -103.5t102.5 -156.5t36 -199q0 -123 -50.5 -237.5t-136.5 -202.5t-200.5 -140.5t-243.5 -52.5q-117 0 -210 37t-159.5 103.5t-102.5 156.5t-36 197zM338 477q0 -137 76.5 -212t199.5 -75 q78 0 145.5 37t118 95.5t79 132t28.5 147.5q0 137 -77 212t-199 75q-80 0 -147.5 -37t-118 -96.5t-78 -133t-27.5 -145.5zM461 1219l65 241h252l-65 -241h-252zM868 1219l66 241h252l-68 -241h-250z" />
<glyph unicode="&#xf8;" horiz-adv-x="1323" d="M-98 -10l254 223q-63 115 -64 256q0 123 49 237.5t135 202.5t201 141.5t246 53.5q104 0 189 -31t149 -84l119 105h231l-248 -220q68 -113 68 -266q0 -123 -50.5 -237.5t-136.5 -202.5t-200.5 -140.5t-243.5 -52.5q-106 0 -193.5 32t-152.5 87l-119 -104h-233zM330 477 q0 -57 16 -106l543 473q-72 53 -174 53q-84 0 -155 -38t-122 -98.5t-79.5 -135t-28.5 -148.5zM428 240q69 -58 180 -58q84 0 153.5 38t122 97.5t81 135t28.5 149.5q0 68 -18 117z" />
<glyph unicode="&#xf9;" horiz-adv-x="1265" d="M98 301q0 43 10.5 93t22.5 98l158 589h248l-162 -600q-6 -25 -10.5 -55.5t-4.5 -52.5q0 -82 48.5 -126t138.5 -44q104 0 184 74.5t113 195.5l164 608h247l-288 -1081h-248l37 139q-66 -66 -145 -114t-183 -48q-152 0 -241 87.5t-89 236.5zM569 1454l232 100l125 -335 h-170z" />
<glyph unicode="&#xfa;" horiz-adv-x="1265" d="M98 301q0 43 10.5 93t22.5 98l158 589h248l-162 -600q-6 -25 -10.5 -55.5t-4.5 -52.5q0 -82 48.5 -126t138.5 -44q104 0 184 74.5t113 195.5l164 608h247l-288 -1081h-248l37 139q-66 -66 -145 -114t-183 -48q-152 0 -241 87.5t-89 236.5zM631 1219l307 335l221 -100 l-313 -235h-215z" />
<glyph unicode="&#xfb;" horiz-adv-x="1265" d="M98 301q0 43 10.5 93t22.5 98l158 589h248l-162 -600q-6 -25 -10.5 -55.5t-4.5 -52.5q0 -82 48.5 -126t138.5 -44q104 0 184 74.5t113 195.5l164 608h247l-288 -1081h-248l37 139q-66 -66 -145 -114t-183 -48q-152 0 -241 87.5t-89 236.5zM442 1219l318 299h231l158 -299 h-186l-119 137l-197 -137h-205z" />
<glyph unicode="&#xfc;" horiz-adv-x="1265" d="M98 301q0 43 10.5 93t22.5 98l158 589h248l-162 -600q-6 -25 -10.5 -55.5t-4.5 -52.5q0 -82 48.5 -126t138.5 -44q104 0 184 74.5t113 195.5l164 608h247l-288 -1081h-248l37 139q-66 -66 -145 -114t-183 -48q-152 0 -241 87.5t-89 236.5zM471 1219l66 241h251l-65 -241 h-252zM879 1219l65 241h252l-68 -241h-249z" />
<glyph unicode="&#xfd;" horiz-adv-x="1198" d="M-111 -260l131 182q29 -20 67 -33.5t73 -13.5q47 0 89 24.5t95 96.5l-158 1085h254l90 -800l478 800h270l-698 -1112q-55 -84 -106.5 -141t-106 -93t-111.5 -52.5t-123 -16.5q-78 0 -135 19.5t-109 54.5zM604 1219l307 335l222 -100l-314 -235h-215z" />
<glyph unicode="&#xfe;" horiz-adv-x="1368" d="M-78 -328l490 1823h247l-151 -557q74 74 157 120t189 46q90 0 168 -32t134 -92t88 -145t32 -194q0 -143 -50 -265t-134 -210t-192.5 -138.5t-225.5 -50.5q-143 0 -229.5 62.5t-135.5 153.5l-139 -521h-248zM373 463q0 -59 19.5 -109.5t55 -87.5t86 -57.5t111.5 -20.5 q76 0 143.5 34t118.5 93.5t81 138t30 169.5q0 125 -69.5 196.5t-186.5 71.5q-74 0 -144.5 -35t-125 -93t-87 -136t-32.5 -164z" />
<glyph unicode="&#xff;" horiz-adv-x="1198" d="M-111 -260l131 182q29 -20 67 -33.5t73 -13.5q47 0 89 24.5t95 96.5l-158 1085h254l90 -800l478 800h270l-698 -1112q-55 -84 -106.5 -141t-106 -93t-111.5 -52.5t-123 -16.5q-78 0 -135 19.5t-109 54.5zM420 1219l65 241h252l-65 -241h-252zM827 1219l66 241h252 l-68 -241h-250z" />
<glyph unicode="&#x152;" horiz-adv-x="2244" d="M154 604q0 162 58 305.5t173 255.5q129 129 315.5 199t427.5 70h1231l-61 -226h-766l-100 -374h675l-61 -224h-674l-104 -385h778l-61 -225h-1117q-199 0 -336 50t-231 145q-72 72 -109.5 174t-37.5 235zM416 614q0 -166 98 -264q57 -57 149.5 -89t225.5 -32h129l262 975 h-180q-160 0 -295 -49t-232 -145q-78 -78 -117.5 -178.5t-39.5 -217.5z" />
<glyph unicode="&#x153;" horiz-adv-x="2115" d="M92 469q0 125 49 239.5t134 202.5t200 140.5t246 52.5q164 0 271.5 -70.5t154.5 -181.5q76 106 192.5 179t276.5 73q104 0 185 -33t135.5 -89t83 -133t28.5 -165q0 -117 -47 -229h-787q0 -123 71 -200t210 -77q78 0 142.5 25.5t136.5 79.5l116 -158q-72 -63 -178 -106.5 t-239 -43.5q-154 0 -260.5 62.5t-155.5 173.5q-78 -102 -192.5 -169t-264.5 -67q-115 0 -209 37t-160.5 103.5t-102.5 156.5t-36 197zM338 477q0 -131 75.5 -209t198.5 -78q80 0 148.5 35t118 92.5t78 131t28.5 149.5q0 135 -75.5 213t-198.5 78q-80 0 -148.5 -36 t-119 -94.5t-78 -132t-27.5 -149.5zM1241 618h561q10 31 10 76q0 84 -51 145.5t-164 61.5q-61 0 -117.5 -21.5t-102.5 -58.5t-80.5 -89t-55.5 -114z" />
<glyph unicode="&#x178;" horiz-adv-x="1341" d="M219 1434h279l217 -648l567 648h311l-809 -891l-145 -543h-252l152 569zM580 1552l65 242h252l-66 -242h-251zM987 1552l66 242h252l-68 -242h-250z" />
<glyph unicode="&#x2c6;" d="M342 1219l317 299h232l158 -299h-187l-119 137l-196 -137h-205z" />
<glyph unicode="&#x2dc;" d="M322 1274q53 115 122.5 182.5t159.5 67.5q51 0 85 -17.5t69 -46.5q39 -31 59.5 -43t46.5 -12q43 0 74 32.5t61 88.5l140 -66q-53 -115 -124 -182.5t-161 -67.5q-51 0 -85 17.5t-69 46.5q-39 29 -59 42t-45 13q-43 0 -75 -33.5t-62 -87.5z" />
<glyph unicode="&#x2000;" horiz-adv-x="944" />
<glyph unicode="&#x2001;" horiz-adv-x="1888" />
<glyph unicode="&#x2002;" horiz-adv-x="944" />
<glyph unicode="&#x2003;" horiz-adv-x="1888" />
<glyph unicode="&#x2004;" horiz-adv-x="629" />
<glyph unicode="&#x2005;" horiz-adv-x="472" />
<glyph unicode="&#x2006;" horiz-adv-x="314" />
<glyph unicode="&#x2007;" horiz-adv-x="314" />
<glyph unicode="&#x2008;" horiz-adv-x="236" />
<glyph unicode="&#x2009;" horiz-adv-x="377" />
<glyph unicode="&#x200a;" horiz-adv-x="104" />
<glyph unicode="&#x2010;" horiz-adv-x="841" d="M109 506l65 244h606l-65 -244h-606z" />
<glyph unicode="&#x2011;" horiz-adv-x="841" d="M109 506l65 244h606l-65 -244h-606z" />
<glyph unicode="&#x2012;" horiz-adv-x="841" d="M109 506l65 244h606l-65 -244h-606z" />
<glyph unicode="&#x2013;" horiz-adv-x="1085" d="M109 510l63 235h852l-63 -235h-852z" />
<glyph unicode="&#x2014;" horiz-adv-x="1843" d="M109 510l63 235h1610l-64 -235h-1609z" />
<glyph unicode="&#x2018;" horiz-adv-x="600" d="M223 866l64 238q47 176 142 253t255 87l18 -105q-111 -16 -166 -64t-69 -128h104l-75 -281h-273z" />
<glyph unicode="&#x2019;" horiz-adv-x="600" d="M190 961q111 16 166.5 64t69.5 128h-104l75 281h273l-64 -240q-47 -174 -142 -251t-255 -89z" />
<glyph unicode="&#x201a;" horiz-adv-x="600" d="M-111 -193q111 16 165.5 65.5t70.5 127.5h-107l76 281h273l-64 -238q-23 -88 -57.5 -149.5t-83.5 -101.5t-111.5 -61.5t-142.5 -27.5z" />
<glyph unicode="&#x201c;" horiz-adv-x="1073" d="M225 864l64 240q47 174 141 251t254 89l18 -107q-111 -16 -166 -64t-69 -126h106l-75 -283h-273zM698 864l66 240q47 174 141 251t254 89l19 -107q-111 -16 -166.5 -64t-69.5 -126h107l-76 -283h-275z" />
<glyph unicode="&#x201d;" horiz-adv-x="1073" d="M186 961q111 16 165.5 64t70.5 128h-107l76 281h273l-64 -240q-47 -174 -141 -251t-254 -89zM659 961q111 16 166.5 64t69.5 128h-104l75 281h273l-64 -240q-47 -174 -142 -251t-255 -89z" />
<glyph unicode="&#x201e;" horiz-adv-x="1075" d="M-111 -193q111 16 165.5 65.5t70.5 127.5h-107l76 281h273l-64 -238q-23 -88 -57.5 -149.5t-83.5 -101.5t-111.5 -61.5t-142.5 -27.5zM365 -193q111 16 166 65.5t69 127.5h-106l75 281h273l-64 -238q-23 -88 -57.5 -149.5t-83.5 -101.5t-111.5 -61.5t-142.5 -27.5z" />
<glyph unicode="&#x2022;" horiz-adv-x="1005" d="M264 657q0 68 24.5 133.5t68.5 116.5t104.5 83t132.5 32q106 0 167.5 -63.5t61.5 -170.5q0 -68 -24.5 -133t-67.5 -116.5t-103 -83t-132 -31.5q-109 0 -170.5 62.5t-61.5 170.5z" />
<glyph unicode="&#x2026;" horiz-adv-x="1669" d="M18 0l74 276h268l-75 -276h-267zM557 0l74 276h268l-74 -276h-268zM1096 0l75 276h267l-74 -276h-268z" />
<glyph unicode="&#x202f;" horiz-adv-x="377" />
<glyph unicode="&#x2039;" horiz-adv-x="724" d="M94 520l4 17l471 462l148 -133l-371 -362l166 -342l-201 -92z" />
<glyph unicode="&#x203a;" horiz-adv-x="724" d="M6 201l369 364l-164 342l199 90l219 -448l-4 -17l-473 -462z" />
<glyph unicode="&#x205f;" horiz-adv-x="472" />
<glyph unicode="&#x2122;" horiz-adv-x="1427" d="M242 1323l30 111h508l-28 -111h-195l-143 -520h-121l141 520h-192zM743 803l175 631h120l109 -299l270 299h135l-174 -631h-116l124 448l-276 -303h-12l-113 303l-125 -448h-117z" />
<glyph unicode="&#xe000;" horiz-adv-x="1085" d="M0 0v1085h1085v-1085h-1085z" />
</font>
</defs>
</svg>
