<?xml version="1.0" standalone="no"?>
<!DOCTYPE svg PUBLIC "-//W3C//DTD SVG 1.1//EN" "http://www.w3.org/Graphics/SVG/1.1/DTD/svg11.dtd" >
<svg xmlns="http://www.w3.org/2000/svg">
<metadata></metadata>
<defs>
<font id="gotham-bookgotham-book" horiz-adv-x="1024" >
<font-face units-per-em="2048" ascent="1638" descent="-410" />
<missing-glyph horiz-adv-x="614" />
<glyph horiz-adv-x="2048" />
<glyph horiz-adv-x="2048" />
<glyph horiz-adv-x="682" />
<glyph d="M209 1487h115q18 -66 64 -103.5t124 -37.5t124 37.5t64 103.5h115q-10 -129 -92 -201t-211 -72t-211 72t-92 201z" />
<glyph d="M416 1219v196h192v-196h-192z" />
<glyph d="M299 1417v4q0 41 17.5 78t47 64.5t67.5 44t81 16.5t81 -16.5t67.5 -44t47 -64.5t17.5 -78v-4q0 -41 -17.5 -77.5t-47 -64.5t-67.5 -44.5t-81 -16.5t-81 16.5t-67.5 44.5t-47 64.5t-17.5 77.5zM385 1417q0 -51 38 -88t89 -37t89 37t38 88v4q0 51 -37 88t-90 37t-90 -36.5 t-37 -88.5v-4z" />
<glyph unicode="&#xa;" d="M172 1219l195 297l153 -76l-221 -221h-127zM508 1219l194 297l154 -76l-223 -221h-125z" />
<glyph d="M375 -115q0 37 8 72t20 63h123q-12 -53 -12 -104q0 -78 53.5 -120t169.5 -48v-84q-180 -10 -271 53.5t-91 167.5z" />
<glyph d="M225 1487h135l154 -137l154 137h131l-217 -268h-140z" />
<glyph unicode="&#xd;" horiz-adv-x="614" />
<glyph horiz-adv-x="878" d="M-139 -201l956 1753h156l-957 -1753h-155z" />
<glyph horiz-adv-x="1292" d="M90 920v137h146v92q0 180 92 272q82 82 227 82q55 0 95 -6t79 -20v-138q-43 12 -78 19.5t-76 7.5q-184 0 -184 -225v-86h336v-135h-334v-920h-157v920h-146zM932 1290v174h180v-174h-180zM944 0v1059h156v-1059h-156z" />
<glyph horiz-adv-x="1292" d="M90 920v137h146v92q0 180 92 272q82 82 227 82q55 0 95 -6t79 -20v-138q-43 12 -78 19.5t-76 7.5q-184 0 -184 -225v-86h336v-135h-334v-920h-157v920h-146zM944 0v1495h156v-1495h-156z" />
<glyph horiz-adv-x="1329" d="M111 571v150l153 47v666h160v-617l442 135v-151l-442 -133v-518h809v-150h-969v616z" />
<glyph horiz-adv-x="661" d="M98 608v154l156 47v686h156v-639l155 49v-153l-155 -50v-702h-156v657z" />
<glyph horiz-adv-x="1419" d="M137 0v109l928 1179h-897v146h1118v-109l-930 -1180h930v-145h-1149zM432 1829h135l154 -137l153 137h132l-218 -268h-139z" />
<glyph horiz-adv-x="1138" d="M115 0v100l702 826h-678v133h893v-101l-704 -825h704v-133h-917zM301 1487h135l154 -137l153 137h131l-217 -268h-139z" />
<glyph unicode=" "  horiz-adv-x="614" />
<glyph unicode="&#x09;" horiz-adv-x="614" />
<glyph unicode="&#xa0;" horiz-adv-x="614" />
<glyph unicode="!" horiz-adv-x="555" d="M184 0v215h189v-215h-189zM186 1317v117h185v-117l-49 -911h-89z" />
<glyph unicode="&#x22;" horiz-adv-x="901" d="M133 877l62 557h190v-11l-166 -546h-86zM532 877l64 557h188v-11l-166 -546h-86z" />
<glyph unicode="#" horiz-adv-x="1433" d="M92 362v142h248l76 434h-244v141h266l62 355h143l-59 -355h389l61 355h144l-60 -355h221v-141h-245l-76 -434h242v-142h-265l-63 -362h-144l62 362h-389l-64 -362h-143l61 362h-223zM485 504h389l74 434h-389z" />
<glyph unicode="$" horiz-adv-x="1302" d="M115 215l92 123q92 -84 186 -133t211 -62v512q-227 53 -331.5 145.5t-104.5 252.5v4q0 80 31.5 146.5t89 116.5t136.5 80t173 34v118h131v-122q117 -10 209 -52.5t182 -111.5l-88 -123q-74 63 -150.5 98t-158.5 49v-504q233 -53 337.5 -147t104.5 -250v-4 q0 -82 -31.5 -150.5t-89 -118.5t-138.5 -80t-177 -36v-201h-131v205q-137 12 -256 65.5t-227 145.5zM326 1063q0 -43 12 -79t43 -66.5t85 -55t138 -47.5v481q-129 -4 -203.5 -69.5t-74.5 -159.5v-4zM723 137q131 6 208 71.5t77 166.5v4q0 45 -12.5 82t-45 66.5t-87 54 t-140.5 45.5v-490z" />
<glyph unicode="%" horiz-adv-x="1708" d="M106 1079v4q0 74 24 139.5t67 117t103 81t134 29.5q72 0 131.5 -29.5t101.5 -80t65.5 -116t23.5 -137.5v-4q0 -74 -23.5 -139t-66.5 -116.5t-102.5 -81t-133.5 -29.5t-133 29.5t-101 80t-66 116t-24 136.5zM244 1083q0 -53 14 -99t41 -80t61.5 -53.5t73.5 -19.5 q41 0 76 19.5t59.5 53.5t38 79t13.5 96v4q0 53 -15.5 99.5t-41 80t-60.5 53t-74 19.5q-43 0 -77 -19.5t-58.5 -53t-37.5 -78.5t-13 -97v-4zM254 0l1053 1434h145l-1051 -1434h-147zM952 346v4q0 74 23.5 139.5t66.5 116.5t102.5 81t133.5 30t133 -30t101 -80t64.5 -115.5 t22.5 -137.5v-4q0 -74 -23.5 -139.5t-65.5 -116.5t-102 -80.5t-134 -29.5q-72 0 -131.5 29.5t-101.5 79.5t-65.5 115.5t-23.5 137.5zM1087 350q0 -53 14.5 -99t41 -80t61.5 -53.5t74 -19.5q43 0 77 19.5t58.5 53.5t37.5 79t13 96v4q0 53 -14 99.5t-41 80t-60.5 53 t-74.5 19.5t-76 -19.5t-59.5 -53t-38 -78.5t-13.5 -97v-4z" />
<glyph unicode="&#x26;" horiz-adv-x="1425" d="M92 381v4q0 143 90 245.5t256 168.5q-74 86 -108.5 157.5t-34.5 157.5v4q0 72 27.5 133.5t77 107.5t119 72.5t155.5 26.5q76 0 139.5 -25.5t109.5 -69.5t72.5 -102.5t26.5 -125.5v-5q0 -137 -90 -227t-248 -145l328 -334q47 70 90 149.5t82 169.5l133 -61 q-47 -102 -97.5 -192.5t-109.5 -167.5l250 -256l-123 -95l-225 232q-98 -106 -213 -164.5t-256 -58.5q-96 0 -179 28.5t-143.5 81.5t-94.5 127t-34 164zM256 387q0 -57 21.5 -106.5t61.5 -86t95 -57t121 -20.5q102 0 191.5 50t166.5 136l-383 395q-143 -53 -208.5 -134 t-65.5 -173v-4zM451 1114q0 -31 7 -59.5t23.5 -59t44 -66.5t68.5 -79q137 47 206.5 113.5t69.5 158.5v4q0 86 -57 142.5t-145 56.5q-98 0 -157.5 -59.5t-59.5 -147.5v-4z" />
<glyph unicode="'" horiz-adv-x="501" d="M133 877l62 557h192v-11l-166 -546h-88z" />
<glyph unicode="(" horiz-adv-x="888" d="M139 588q0 285 146.5 504t421.5 372l67 -104q-236 -150 -355.5 -337t-119.5 -435t120 -435.5t355 -336.5l-67 -105q-274 154 -421 373t-147 504z" />
<glyph unicode=")" horiz-adv-x="888" d="M115 -184q236 150 355.5 337t119.5 435t-120 435t-355 337l67 104q274 -154 421 -373t147 -503q0 -285 -146.5 -504t-421.5 -373z" />
<glyph unicode="*" horiz-adv-x="880" d="M141 1016l238 108l-238 111l56 94l211 -147l-21 256h107l-21 -256l211 147l55 -94l-237 -111l237 -108l-55 -96l-211 149l21 -256h-107l21 256l-211 -149z" />
<glyph unicode="+" horiz-adv-x="1310" d="M154 647v148h426v422h151v-422h426v-148h-426v-422h-151v422h-426z" />
<glyph unicode="," horiz-adv-x="501" d="M94 -178q78 29 111 70.5t26 107.5h-73v215h188v-184q0 -125 -55 -189.5t-172 -91.5z" />
<glyph unicode="-" horiz-adv-x="835" d="M133 532v166h569v-166h-569z" />
<glyph unicode="." horiz-adv-x="501" d="M158 0v215h188v-215h-188z" />
<glyph unicode="/" horiz-adv-x="1040" d="M-43 -262l950 1896h146l-951 -1896h-145z" />
<glyph unicode="0" horiz-adv-x="1464" d="M127 713v4q0 152 43 286t123 235t192.5 160.5t249.5 59.5q139 0 250 -58.5t189.5 -159.5t120.5 -234.5t42 -284.5v-4q0 -150 -43 -285t-121.5 -236.5t-190.5 -161t-251 -59.5t-250.5 58.5t-190.5 160t-121 235.5t-42 284zM295 717q0 -117 30.5 -224.5t88 -189.5 t139.5 -131t182 -49t181 48t137.5 129t86 188.5t29.5 224.5v4q0 117 -30.5 224.5t-88 189t-138.5 131t-181 49.5t-181 -48.5t-137.5 -129t-87 -187t-30.5 -225.5v-4z" />
<glyph unicode="1" horiz-adv-x="733" d="M57 1323l351 121h118v-1444h-159v1276l-271 -84z" />
<glyph unicode="2" horiz-adv-x="1226" d="M98 0v125l520 459q82 74 139.5 133t92.5 111.5t51.5 102.5t16.5 103q0 63 -24 113.5t-62.5 86.5t-91 55.5t-111.5 19.5q-123 0 -211 -62.5t-174 -183.5l-119 86q49 72 100 129t111.5 96t135.5 59.5t169 20.5q96 0 178 -30.5t141.5 -85t92 -128t32.5 -161.5v-5 q0 -78 -21.5 -144t-65.5 -130.5t-112.5 -132.5t-162.5 -150l-383 -340h760v-147h-1002z" />
<glyph unicode="3" horiz-adv-x="1255" d="M102 231l117 105q84 -102 185.5 -157.5t234.5 -55.5q66 0 123 19.5t99 56.5t66.5 88t24.5 114v5q0 68 -29.5 118.5t-83 85.5t-127 53.5t-161.5 18.5h-92l-33 96l453 510h-701v146h916v-119l-451 -500q94 -8 179 -34.5t150.5 -76t104.5 -122t39 -170.5v-4q0 -96 -38 -176 t-102.5 -136.5t-151.5 -88.5t-187 -32q-180 0 -313.5 71t-221.5 185z" />
<glyph unicode="4" horiz-adv-x="1374" d="M88 457l811 987h141v-969h224v-135h-224v-340h-155v340h-756zM283 475h602v739z" />
<glyph unicode="5" horiz-adv-x="1253" d="M109 203l106 116q94 -92 195.5 -144t212.5 -52q78 0 141 23.5t108.5 66.5t71 101.5t25.5 125.5v4q0 68 -27 123.5t-74 95t-112.5 61t-143.5 21.5q-92 0 -164.5 -23.5t-136.5 -57.5l-108 71l41 699h825v-150h-684l-31 -459q63 29 128 46.5t155 17.5q104 0 194.5 -30 t158 -87t105.5 -138t38 -183v-5q0 -104 -38 -191t-105.5 -149.5t-161.5 -96.5t-207 -34q-154 0 -284 64.5t-228 163.5z" />
<glyph unicode="6" horiz-adv-x="1325" d="M125 676v4q0 164 40 306t116.5 246.5t187.5 165t252 60.5q129 0 229.5 -43t194.5 -121l-94 -125q-80 68 -160 105t-178 37t-176 -47t-132.5 -131t-83 -200t-28.5 -255q29 43 66.5 83t88 69.5t113 48t139.5 18.5q100 0 190.5 -30.5t158 -88t107.5 -139.5t40 -182v-4 q0 -104 -39 -191.5t-108.5 -151t-163.5 -99.5t-203 -36q-119 0 -214 39t-163 107q-43 43 -76.5 94t-56 116.5t-35 149.5t-12.5 195zM322 440q0 -68 26.5 -127t74.5 -102t114.5 -67.5t146.5 -24.5t143.5 25.5t108.5 69.5t69.5 104.5t24.5 127.5v5q0 66 -25.5 122t-71.5 97 t-110.5 64.5t-142.5 23.5q-80 0 -146.5 -26.5t-113.5 -71t-72.5 -100.5t-25.5 -116v-4z" />
<glyph unicode="7" horiz-adv-x="1220" d="M139 1286v148h973v-121l-651 -1313h-180l647 1286h-789z" />
<glyph unicode="8" horiz-adv-x="1290" d="M106 385v4q0 129 83 217t212 135q-49 23 -94 54.5t-78.5 71.5t-53 91.5t-19.5 112.5v4q0 84 40 152.5t106.5 120t155.5 79t187 27.5t187.5 -27.5t156 -79t106.5 -120t40 -152.5v-4q0 -61 -19.5 -112.5t-53.5 -91.5t-79 -71.5t-94 -54.5q127 -47 211 -135t84 -215v-4 q0 -92 -41 -167t-114 -128t-171 -82.5t-213 -29.5t-213 29.5t-171 82.5t-114 128t-41 165zM270 389q0 -55 26 -103t74 -85t117.5 -58.5t157.5 -21.5t157.5 21.5t118 58.5t74 85t25.5 103v4q0 59 -28.5 109.5t-80 86.5t-120 56.5t-146.5 20.5t-146.5 -20.5t-118.5 -56.5 t-80 -86t-30 -110v-4zM317 1061q0 -57 26 -106.5t70 -83t104 -53t128 -19.5t128.5 19.5t104.5 53t69.5 83t25.5 106.5v4q0 53 -24.5 98t-68.5 79t-104.5 52.5t-130.5 18.5t-130 -18.5t-104 -51.5t-69 -79t-25 -99v-4z" />
<glyph unicode="9" horiz-adv-x="1325" d="M129 967v4q0 102 38 191t105.5 154.5t162.5 103.5t210 38q123 0 215 -39t162 -108q82 -82 130 -211t48 -344v-4q0 -170 -43 -312.5t-122 -246t-188.5 -161t-242.5 -57.5q-141 0 -245.5 50.5t-196.5 126.5l94 124q88 -78 172 -115.5t180 -37.5t176 47t136.5 130t86 198.5 t27.5 253.5q-59 -94 -157.5 -162t-247.5 -68q-111 0 -203 33t-157.5 92.5t-102.5 141t-37 178.5zM295 975q0 -68 25.5 -126t71.5 -99t111.5 -64.5t143.5 -23.5q82 0 148.5 27.5t112.5 72.5t71 103.5t25 119.5v4q0 68 -27 127.5t-75 103.5t-115.5 69.5t-147.5 25.5 t-144.5 -27.5t-108.5 -74t-67.5 -106.5t-23.5 -128v-4z" />
<glyph unicode=":" horiz-adv-x="522" d="M168 0v215h188v-215h-188zM168 844v215h188v-215h-188z" />
<glyph unicode=";" horiz-adv-x="522" d="M104 -178q78 29 111 70.5t27 107.5h-74v215h188v-184q0 -125 -55 -189.5t-172 -91.5zM168 844v215h188v-215h-188z" />
<glyph unicode="&#x3c;" horiz-adv-x="1310" d="M147 653v135l961 478v-158l-789 -385l789 -387v-160z" />
<glyph unicode="=" horiz-adv-x="1310" d="M184 406v151h942v-151h-942zM184 885v151h942v-151h-942z" />
<glyph unicode="&#x3e;" horiz-adv-x="1310" d="M203 176v158l788 385l-788 387v160l960 -478v-135z" />
<glyph unicode="?" horiz-adv-x="1099" d="M61 1214q88 106 203 172t279 66q104 0 188 -30.5t144.5 -85t93 -128t32.5 -161.5v-5q0 -96 -33.5 -168.5t-92 -123t-135 -81t-165.5 -42.5l-20 -221h-104l-31 331l10 11q201 4 304.5 81.5t103.5 206.5v4q0 55 -20.5 103.5t-59.5 85.5t-94.5 57.5t-124.5 20.5 q-115 0 -205 -50.5t-168 -142.5zM408 0v215h188v-215h-188z" />
<glyph unicode="@" horiz-adv-x="2007" d="M109 561q0 184 69.5 347t190 285t284.5 193.5t353 71.5q188 0 351 -66.5t283.5 -178t189 -259t68.5 -307.5q0 -131 -33.5 -225t-87 -155.5t-122 -91.5t-139.5 -30q-113 0 -186 47.5t-101 124.5q-59 -70 -141 -121t-197 -51q-76 0 -142.5 27t-116.5 76t-79 117.5 t-29 152.5q0 109 41 202t108.5 161.5t152.5 107.5t171 39q59 0 106.5 -14.5t84.5 -38t63.5 -54t44.5 -63.5l27 141l137 -18l-82 -465q-8 -43 -11 -75.5t-3 -49.5q0 -78 45 -122t129 -44q55 0 106.5 24.5t91.5 77t64.5 132.5t24.5 188q0 141 -62.5 274.5t-172 238t-259 167 t-325.5 62.5t-327 -66t-261.5 -178.5t-173 -263t-62.5 -320.5q0 -172 62.5 -321.5t173 -261t265.5 -176t339 -64.5q154 0 272.5 34.5t237.5 104.5l33 -55q-119 -72 -251 -113t-292 -41q-197 0 -363.5 71t-289.5 192.5t-191.5 283.5t-68.5 346zM672 528q0 -123 69.5 -189.5 t180.5 -66.5q66 0 127 31t107 82t73.5 117.5t27.5 138.5q0 55 -18 103.5t-52 83t-80 54t-99 19.5q-63 0 -125 -28.5t-108 -79t-74.5 -118t-28.5 -147.5z" />
<glyph unicode="A" horiz-adv-x="1617" d="M80 0l653 1444h152l653 -1444h-174l-168 379h-780l-170 -379h-166zM479 524h654l-326 731z" />
<glyph unicode="B" horiz-adv-x="1478" d="M203 0v1434h610q123 0 218 -34t157 -93q92 -96 92 -230v-4q0 -70 -19.5 -124t-52 -94t-72.5 -67.5t-83 -46.5q63 -18 119.5 -47.5t97.5 -70.5t65.5 -97.5t24.5 -130.5v-4q0 -92 -37 -164.5t-105.5 -123t-165 -77t-212.5 -26.5h-637zM362 145h482q164 0 258 68t94 188v5 q0 117 -96 181t-285 64h-453v-506zM362 795h424q147 0 238.5 64.5t91.5 191.5v4q0 106 -82 169.5t-235 63.5h-437v-493z" />
<glyph unicode="C" horiz-adv-x="1511" d="M139 713v4q0 152 54.5 287t150.5 236t229.5 159.5t290.5 58.5q98 0 177 -16.5t146.5 -46t125 -71.5t110.5 -93l-110 -119q-92 86 -197.5 141.5t-253.5 55.5q-119 0 -220 -45t-176 -125t-117 -187.5t-42 -230.5v-4q0 -125 42 -232.5t117 -187.5t176 -126t220 -46 q147 0 254 54t209 153l107 -105q-55 -57 -116 -103t-129.5 -79t-149.5 -51.5t-179 -18.5q-156 0 -287 57.5t-227 157t-150.5 234.5t-54.5 289z" />
<glyph unicode="D" horiz-adv-x="1601" d="M203 0v1434h497q170 0 309.5 -54.5t241 -150.5t156.5 -226.5t55 -281.5v-4q0 -152 -55 -283t-156.5 -227t-241 -151.5t-309.5 -55.5h-497zM365 150h335q135 0 246 43t187.5 118.5t118.5 179t42 222.5v4q0 119 -42 222t-118.5 180t-187 121t-246.5 44h-335v-1134z" />
<glyph unicode="E" horiz-adv-x="1372" d="M203 0v1434h1036v-148h-874v-489h782v-148h-782v-502h884v-147h-1046z" />
<glyph unicode="F" horiz-adv-x="1343" d="M203 0v1434h1030v-150h-868v-512h776v-147h-776v-625h-162z" />
<glyph unicode="G" horiz-adv-x="1605" d="M139 713v4q0 147 52.5 281.5t146.5 236.5t226 162.5t294 60.5q90 0 165 -12t139.5 -37t120.5 -60.5t110 -80.5l-105 -123q-82 72 -183 118t-253 46q-119 0 -219.5 -47.5t-172 -127t-112.5 -186t-41 -227.5v-4q0 -129 40 -237.5t114 -188.5t178 -125t235 -45 q123 0 231.5 42t182.5 101v357h-436v145h592v-571q-100 -90 -247 -155t-329 -65q-168 0 -303 57.5t-230 158t-145.5 234.5t-50.5 288z" />
<glyph unicode="H" horiz-adv-x="1556" d="M203 0v1434h162v-637h827v637h162v-1434h-162v645h-827v-645h-162z" />
<glyph unicode="I" horiz-adv-x="595" d="M217 0v1434h162v-1434h-162z" />
<glyph unicode="J" horiz-adv-x="1132" d="M63 233l117 101q66 -100 140.5 -152.5t187.5 -52.5q121 0 200.5 87t79.5 257v961h164v-959q0 -127 -34.5 -221t-96.5 -156q-122 -118 -315 -118q-162 0 -268.5 71.5t-174.5 181.5z" />
<glyph unicode="K" horiz-adv-x="1472" d="M203 0v1434h162v-856l823 856h209l-615 -627l641 -807h-202l-551 694l-305 -309v-385h-162z" />
<glyph unicode="L" horiz-adv-x="1267" d="M203 0v1434h162v-1284h806v-150h-968z" />
<glyph unicode="M" horiz-adv-x="1777" d="M203 0v1434h164l522 -783l522 783h164v-1434h-162v1161l-522 -768h-8l-523 766v-1159h-157z" />
<glyph unicode="N" horiz-adv-x="1617" d="M203 0v1434h151l903 -1149v1149h158v-1434h-129l-926 1176v-1176h-157z" />
<glyph unicode="O" horiz-adv-x="1740" d="M139 713v4q0 147 53.5 282.5t149.5 236.5t231.5 161.5t298.5 60.5q164 0 298.5 -59.5t230.5 -160.5t148.5 -235.5t52.5 -281.5q1 -1 1 -2t-1 -2q0 -147 -53.5 -282.5t-149.5 -237t-231.5 -162t-299.5 -60.5t-298 59.5t-230 161t-148.5 235.5t-52.5 282zM307 717 q0 -123 42 -230.5t118 -187.5t179 -127t226 -47t226.5 46t177.5 126t116 186.5t42 229.5v4q0 123 -42 230.5t-118 187t-179.5 127t-226.5 47.5t-226 -46t-177 -126t-116 -186.5t-42 -229.5v-4z" />
<glyph unicode="P" horiz-adv-x="1368" d="M203 0v1434h536q121 0 220.5 -32t170 -90.5t108.5 -142.5t38 -190v-4q0 -117 -45 -204t-122 -146.5t-179.5 -89t-216.5 -29.5h-348v-506h-162zM365 653h354q90 0 161.5 22.5t124 64.5t80 100.5t27.5 128.5v4q0 154 -105.5 232.5t-279.5 78.5h-362v-631z" />
<glyph unicode="Q" horiz-adv-x="1740" d="M139 713v4q0 147 53.5 282.5t149.5 236.5t231.5 161.5t298.5 60.5q164 0 298.5 -59.5t230.5 -160.5t148.5 -235.5t52.5 -281.5q2 -2 0 -4q0 -135 -44.5 -259t-127.5 -222l190 -158l-111 -121l-188 172q-92 -72 -204.5 -113t-248.5 -41q-164 0 -298 59.5t-230 161 t-148.5 235.5t-52.5 282zM307 717q0 -123 42 -230.5t118 -187.5t179 -127t226 -47q96 0 180.5 28.5t149.5 79.5l-266 228l108 121l265 -240q59 76 92 170t33 201v4q0 123 -42 230.5t-118 187t-179.5 127t-226.5 47.5t-226 -46t-177 -126t-116 -186.5t-42 -229.5v-4z" />
<glyph unicode="R" horiz-adv-x="1480" d="M203 0v1434h616q133 0 236.5 -38t171.5 -106q53 -53 81.5 -124.5t28.5 -157.5v-4q0 -88 -28.5 -159t-80.5 -123t-124 -86t-156 -50l441 -586h-199l-416 557h-4h-405v-557h-162zM365 702h440q80 0 147.5 20.5t116.5 58.5t77 92.5t28 123.5v4q0 133 -96.5 208t-270.5 75 h-442v-582z" />
<glyph unicode="S" horiz-adv-x="1310" d="M109 209l100 119q113 -102 227.5 -152.5t263.5 -50.5q145 0 232.5 68.5t87.5 175.5v4q0 49 -16.5 89t-57.5 72.5t-113.5 59.5t-185.5 51q-123 27 -214 61.5t-150.5 84t-88 115t-28.5 153.5v4q0 84 35 155.5t98 124t149.5 82t188.5 29.5q158 0 275.5 -44t228.5 -132 l-94 -125q-100 82 -202 119t-212 37q-141 0 -223 -66.5t-82 -165.5v-4q0 -51 16 -91t59 -74t119 -61.5t195 -51.5q240 -51 353.5 -146.5t113.5 -259.5v-4q0 -92 -37 -167t-101.5 -128t-155 -81.5t-196.5 -28.5q-172 0 -314 56t-271 173z" />
<glyph unicode="T" horiz-adv-x="1327" d="M100 1284v150h1127v-150h-482v-1284h-163v1284h-482z" />
<glyph unicode="U" horiz-adv-x="1554" d="M180 600v834h162v-824q0 -233 115.5 -358t322.5 -125q199 0 315.5 119t116.5 354v834h162v-822q0 -156 -43 -274.5t-122 -198.5t-188.5 -121t-244.5 -41q-133 0 -242.5 40t-188.5 119t-122 196t-43 268z" />
<glyph unicode="V" horiz-adv-x="1536" d="M80 1434h180l510 -1235l512 1235h174l-616 -1444h-144z" />
<glyph unicode="W" horiz-adv-x="2267" d="M92 1434h176l410 -1194l393 1198h133l393 -1198l410 1194h170l-512 -1444h-137l-393 1163l-396 -1163h-135z" />
<glyph unicode="X" horiz-adv-x="1484" d="M94 0l551 731l-530 703h190l440 -586l437 586h188l-530 -701l551 -733h-193l-459 616l-458 -616h-187z" />
<glyph unicode="Y" horiz-adv-x="1466" d="M55 1434h197l483 -717l488 717h188l-596 -865v-569h-164v567z" />
<glyph unicode="Z" horiz-adv-x="1419" d="M137 0v109l928 1179h-897v146h1118v-109l-930 -1180h930v-145h-1149z" />
<glyph unicode="[" horiz-adv-x="899" d="M193 -266v1700h585v-123h-436v-1454h436v-123h-585z" />
<glyph unicode="\" horiz-adv-x="1040" d="M-12 1634h145l950 -1896h-145z" />
<glyph unicode="]" horiz-adv-x="899" d="M121 -143h438v1454h-438v123h586v-1700h-586v123z" />
<glyph unicode="^" d="M133 1010l318 428h122l318 -428h-139l-242 315l-242 -315h-135z" />
<glyph unicode="_" horiz-adv-x="1228" d="M-4 -199h1237v-129h-1237v129z" />
<glyph unicode="`" d="M295 1440l164 76l194 -297h-127z" />
<glyph unicode="a" horiz-adv-x="1185" d="M96 307v4q0 86 33 150.5t93.5 107.5t143.5 65.5t183 22.5q102 0 177 -12t146 -33v33q0 141 -81.5 214t-231.5 73q-94 0 -171 -20.5t-150 -55.5l-48 129q88 41 178.5 65.5t206.5 24.5q225 0 343 -117q111 -111 110 -311v-647h-156v158q-27 -35 -63.5 -68t-83.5 -57.5 t-105 -40t-128 -15.5q-74 0 -146 21.5t-127 62.5t-89 102.5t-34 143.5zM256 315q0 -49 21.5 -89t58.5 -66.5t85 -41t101 -14.5q74 0 137.5 20.5t111.5 58.5t75.5 90.5t27.5 115.5v98q-59 16 -134.5 30.5t-174.5 14.5q-147 0 -228 -58t-81 -155v-4z" />
<glyph unicode="b" horiz-adv-x="1359" d="M176 0v1495h158v-649q33 47 72.5 90t89 75.5t110 51t133.5 18.5q96 0 186.5 -36.5t162 -107.5t114.5 -172t43 -233v-4q0 -129 -43 -231t-113.5 -173t-162 -109t-187.5 -38q-74 0 -135 18.5t-110.5 49.5t-89 72t-70.5 86v-203h-158zM328 528q0 -92 31.5 -167.5t86 -129 t123 -83t142.5 -29.5q78 0 145.5 27.5t117.5 80t79.5 128t29.5 171.5v4q0 94 -29.5 170t-80.5 129.5t-119 82t-143 28.5q-74 0 -142.5 -29.5t-123 -83t-86 -129t-31.5 -166.5v-4z" />
<glyph unicode="c" horiz-adv-x="1169" d="M111 524v4q0 113 41 213.5t113.5 176t172 119.5t215.5 44q76 0 137.5 -14t112.5 -40t94 -60.5t80 -73.5l-104 -111q-63 66 -138 113t-184 47q-80 0 -149.5 -31.5t-120.5 -87t-80 -130.5t-29 -161v-4q0 -86 30 -160.5t82 -131t124 -88t154 -31.5q102 0 181 45t142 112 l100 -94q-80 -90 -181 -147.5t-251 -57.5q-117 0 -216 44t-171.5 119t-113.5 175.5t-41 210.5z" />
<glyph unicode="d" horiz-adv-x="1359" d="M115 526v4q0 129 43 231.5t114.5 173.5t162.5 108.5t186 37.5q74 0 135 -18.5t110 -49t89 -71.5t71 -86v639h158v-1495h-158v213q-33 -47 -73 -90t-89 -75t-109 -51.5t-134 -19.5q-94 0 -185.5 37t-163 108t-114.5 172t-43 232zM276 528q0 -94 30 -169.5t81 -129 t118.5 -82t143.5 -28.5q74 0 142.5 29.5t123 84t86 129t31.5 166.5v4q0 92 -31.5 167t-86 128.5t-123 83t-142.5 29.5q-76 0 -144.5 -27.5t-118.5 -80t-80 -128t-30 -172.5v-4z" />
<glyph unicode="e" horiz-adv-x="1212" d="M111 528q0 115 37.5 216.5t105.5 176t161 117.5t203 43q117 0 209.5 -44t156 -119.5t96 -178t32.5 -219.5v-24q0 -12 -2 -31h-840q8 -84 41 -149.5t84 -110.5t114.5 -68.5t133.5 -23.5q111 0 189.5 41t144.5 108l98 -88q-80 -90 -182 -144.5t-254 -54.5q-109 0 -205 40 t-167.5 113t-113.5 175.5t-42 224.5zM270 592h682q-6 72 -30.5 136.5t-66.5 113.5t-102.5 77.5t-138.5 28.5q-68 0 -127 -26.5t-104 -74.5t-74.5 -112.5t-38.5 -142.5z" />
<glyph unicode="f" horiz-adv-x="751" d="M90 920v137h146v92q0 180 92 272q82 82 227 82q55 0 95 -6t79 -20v-138q-43 12 -78 19.5t-76 7.5q-184 0 -184 -225v-86h336v-135h-334v-920h-157v920h-146z" />
<glyph unicode="g" horiz-adv-x="1359" d="M115 578v4q0 117 42 209t111.5 156.5t159.5 99t184 34.5q74 0 136.5 -17t112.5 -46t91 -68t74 -82v191h158v-875q0 -123 -35 -216t-100 -158q-72 -72 -174.5 -107t-229.5 -35q-268 0 -481 148l72 123q92 -66 192 -101t215 -35q176 0 280.5 95.5t104.5 281.5v125 q-70 -92 -170 -157.5t-246 -65.5q-94 0 -184 35t-159.5 99.5t-111.5 155.5t-42 206zM276 582q0 -80 30 -146.5t80 -114t116.5 -74t140.5 -26.5q76 0 145.5 25.5t124 74t87 114t32.5 145.5v4q0 82 -32.5 147.5t-87 112.5t-124 72.5t-145.5 25.5t-142.5 -25.5t-116.5 -71.5 t-79 -111.5t-29 -147.5v-4z" />
<glyph unicode="h" horiz-adv-x="1261" d="M176 0v1495h158v-621q53 86 139 146.5t223 60.5q96 0 171 -30.5t127.5 -87t80 -134t27.5 -172.5v-657h-158v618q0 147 -75.5 233.5t-217.5 86.5q-68 0 -126 -23.5t-101 -67.5t-66.5 -105.5t-23.5 -135.5v-606h-158z" />
<glyph unicode="i" horiz-adv-x="538" d="M180 1290v174h180v-174h-180zM190 0v1059h158v-1059h-158z" />
<glyph unicode="j" horiz-adv-x="538" d="M-8 -195q18 -4 39.5 -5t38.5 -1q53 0 86.5 34t33.5 108v1118h158v-1120q0 -141 -68.5 -207t-189.5 -66q-29 0 -50.5 2t-47.5 8v129zM180 1290v174h180v-174h-180z" />
<glyph unicode="k" horiz-adv-x="1165" d="M176 0v1495h158v-1032l571 596h197l-445 -455l459 -604h-188l-379 494l-215 -218v-276h-158z" />
<glyph unicode="l" horiz-adv-x="538" d="M190 0v1495h158v-1495h-158z" />
<glyph unicode="m" horiz-adv-x="1947" d="M176 0v1059h158v-178q27 39 58.5 75.5t72.5 64.5t92 44t119 16q129 0 213 -60t127 -151q57 88 146 149.5t227 61.5q184 0 288.5 -113.5t104.5 -312.5v-655h-158v618q0 154 -72.5 237t-201.5 83q-59 0 -112.5 -21.5t-93.5 -63.5t-63.5 -103.5t-23.5 -139.5v-610h-156v623 q0 150 -72.5 232.5t-199.5 82.5q-63 0 -116.5 -24.5t-93.5 -69.5t-62.5 -105.5t-22.5 -134.5v-604h-158z" />
<glyph unicode="n" horiz-adv-x="1261" d="M176 0v1059h158v-185q53 86 139 146.5t223 60.5q96 0 171 -30.5t127.5 -87t80 -134t27.5 -172.5v-657h-158v618q0 147 -75.5 233.5t-217.5 86.5q-68 0 -126 -23.5t-101 -67.5t-66.5 -105.5t-23.5 -135.5v-606h-158z" />
<glyph unicode="o" horiz-adv-x="1323" d="M111 524v4q0 113 42 213.5t115.5 176t175 119.5t220.5 44t220 -44t175 -118.5t114.5 -174t40.5 -212.5v-4q0 -113 -42 -213t-115.5 -176t-175 -120t-222.5 -44q-119 0 -219 44t-173.5 119t-114.5 174.5t-41 211.5zM272 528q0 -86 30 -160.5t82 -130t124 -88t156 -32.5 q86 0 157.5 32.5t122.5 88t80 129t29 157.5v4q0 86 -30 161t-83 131.5t-125 89t-156 32.5q-86 0 -157.5 -32.5t-121.5 -88t-79 -130.5t-29 -159v-4z" />
<glyph unicode="p" horiz-adv-x="1359" d="M176 -328v1387h158v-213q33 47 72.5 90t89 75.5t110 51t133.5 18.5q96 0 186.5 -36.5t162 -107.5t114.5 -172t43 -233v-4q0 -129 -43 -231t-113.5 -173t-161.5 -109t-188 -38q-74 0 -135 18.5t-110.5 49.5t-89 72t-70.5 86v-531h-158zM328 528q0 -92 31.5 -167.5t86 -129 t123 -83t142.5 -29.5q78 0 145.5 27.5t117.5 80t79.5 128t29.5 171.5v4q0 94 -29.5 170t-80.5 129.5t-119 82t-143 28.5q-74 0 -142.5 -29.5t-123 -83t-86 -129t-31.5 -166.5v-4z" />
<glyph unicode="q" horiz-adv-x="1359" d="M115 526v4q0 129 43 231.5t114.5 173.5t162.5 108.5t186 37.5q74 0 135 -18.5t110 -49t89 -71.5t71 -86v203h158v-1387h-158v541q-33 -47 -73 -90t-89 -75t-109.5 -51.5t-133.5 -19.5q-94 0 -185.5 37t-163 108t-114.5 172t-43 232zM276 528q0 -94 30 -169.5t81 -129 t118.5 -82t143.5 -28.5q74 0 142.5 29.5t123 84t86 129t31.5 166.5v4q0 92 -31.5 167t-86 128.5t-123 83t-142.5 29.5q-76 0 -144.5 -27.5t-118.5 -80t-80 -128t-30 -172.5v-4z" />
<glyph unicode="r" horiz-adv-x="829" d="M176 0v1059h158v-277q29 66 72 121t98 95q54 40 120 62q55 18 118 18q12 0 24 -1v-170h-12q-86 0 -163 -30.5t-134.5 -92t-90 -151.5t-32.5 -211v-422h-158z" />
<glyph unicode="s" horiz-adv-x="1019" d="M88 135l80 113q86 -66 179 -100.5t188 -34.5q96 0 157.5 45t61.5 123v4q0 41 -21.5 68.5t-58.5 49t-84 38t-101 30.5q-61 18 -123.5 39.5t-112.5 54.5t-82 82t-32 123v4q0 68 27 124t75 96t114.5 61.5t144.5 21.5q98 0 198.5 -31.5t182.5 -84.5l-72 -119 q-74 47 -155 74.5t-158 27.5q-94 0 -149.5 -44t-55.5 -109v-5q0 -37 22.5 -64.5t60.5 -48t87 -36.5t102 -33q61 -18 121.5 -40.5t110 -57.5t79 -84t29.5 -121v-4q0 -76 -29.5 -134.5t-80 -99t-119 -62t-148.5 -21.5q-115 0 -231.5 41.5t-206.5 113.5z" />
<glyph unicode="t" horiz-adv-x="827" d="M84 920v139h147v319h158v-319h336v-139h-336v-619q0 -98 49 -137t129 -39q41 0 77 8t77 29v-135q-41 -23 -87.5 -34t-103.5 -11q-63 0 -118.5 16t-95.5 52t-62.5 93.5t-22.5 137.5v639h-147z" />
<glyph unicode="u" horiz-adv-x="1261" d="M160 401v658h157v-619q0 -147 76 -233t217 -86q68 0 126.5 23.5t100.5 67.5t66.5 105.5t24.5 135.5v606h155v-1059h-155v184q-53 -86 -139.5 -146.5t-223.5 -60.5q-96 0 -171 31t-127 87.5t-79.5 134t-27.5 171.5z" />
<glyph unicode="v" horiz-adv-x="1202" d="M72 1059h174l356 -879l359 879h169l-460 -1067h-140z" />
<glyph unicode="w" horiz-adv-x="1763" d="M86 1059h168l278 -850l285 854h131l287 -854l278 850h164l-372 -1067h-138l-284 835l-287 -835h-139z" />
<glyph unicode="x" horiz-adv-x="1175" d="M80 0l416 539l-400 520h180l314 -410l313 410h176l-401 -516l418 -543h-183l-327 432l-330 -432h-176z" />
<glyph unicode="y" horiz-adv-x="1210" d="M70 1059h174l385 -883l340 883h168l-445 -1094q-33 -82 -69.5 -139t-79.5 -92t-93.5 -51.5t-109.5 -16.5q-66 0 -119 13.5t-106 39.5l53 125q39 -20 77 -29.5t89 -9.5q72 0 121 43t96 156z" />
<glyph unicode="z" horiz-adv-x="1138" d="M115 0v100l702 826h-678v133h893v-101l-704 -825h704v-133h-917z" />
<glyph unicode="{" horiz-adv-x="989" d="M115 526v123h53q70 0 116 16.5t73.5 47t40 77t12.5 105.5v35t-1 45t-1 43v33q0 80 17 145.5t66.5 116.5t136.5 89t224 62l25 -104q-106 -27 -170 -56.5t-98 -67.5t-43 -87t-9 -119q0 -31 1 -76t1 -77q0 -129 -57.5 -194t-155.5 -95q102 -33 157.5 -96.5t55.5 -192.5 q0 -33 -1 -78t-1 -76q0 -70 9 -119t43 -86.5t97.5 -67.5t170.5 -56l-25 -105q-137 25 -224 63t-136.5 89t-66.5 116.5t-17 145.5v33q0 20 1 43.5t1 44.5v35q0 59 -12.5 105t-40 77t-73.5 47t-116 16h-53z" />
<glyph unicode="|" horiz-adv-x="620" d="M244 -262v1896h133v-1896h-133z" />
<glyph unicode="}" horiz-adv-x="989" d="M111 -184q109 27 172 56.5t97 67t43 87t9 118.5q0 31 -1 76t-1 78q0 129 57.5 193.5t155.5 95.5q-51 16 -91 39.5t-66.5 57.5t-41 81t-14.5 111q0 33 1 77.5t1 75.5q0 70 -9 119t-43 87t-97.5 67.5t-171.5 56.5l26 104q139 -25 225.5 -62.5t135.5 -88.5t66.5 -117 t17.5 -145v-33q0 -20 -1 -43t-1 -45v-35q0 -121 51 -183.5t188 -62.5h53v-123h-53q-137 0 -188 -62.5t-51 -182.5v-35q0 -20 1 -44t1 -44v-33q0 -80 -17.5 -145.5t-66.5 -116.5t-135.5 -89t-225.5 -63z" />
<glyph unicode="~" horiz-adv-x="968" d="M150 512q31 117 75.5 167t118.5 50q35 0 72 -13.5t72.5 -28.5t69.5 -28.5t60 -13.5q41 0 62.5 22.5t44.5 80.5l94 -27q-31 -117 -75 -167t-117 -50q-35 0 -72 13t-74 28.5t-69.5 29t-59.5 13.5q-41 0 -62.5 -22.5t-43.5 -80.5z" />
<glyph unicode="&#xa1;" horiz-adv-x="555" d="M184 1219v215h189v-215h-189zM186 0v117l47 911h89l49 -911v-117h-185z" />
<glyph unicode="&#xa2;" horiz-adv-x="1189" d="M119 723v4q0 113 42 213t114.5 176t172 120t214.5 44h26l31 166h133l-37 -184q86 -23 151.5 -69t118.5 -103l-102 -107q-43 45 -92 82t-109 55l-157 -803q10 -2 20 -2h23q102 0 182 45.5t143 112.5l99 -92q-80 -92 -182.5 -149.5t-250.5 -57.5h-28q-12 0 -27 2l-37 -188 h-133l45 217q-80 29 -146.5 80t-113.5 118.5t-73.5 149.5t-26.5 170zM279 727q0 -129 64.5 -231.5t168.5 -149.5l154 793h-9q-80 0 -149.5 -32t-119.5 -87t-79.5 -129t-29.5 -160v-4z" />
<glyph unicode="&#xa3;" horiz-adv-x="1318" d="M137 0v94l172 43v467h-172v141h172v222q0 115 33 208t96 156q59 59 140 91t184 32q82 0 146.5 -17.5t117.5 -47t95 -69.5t79 -87l-125 -98q-59 76 -131 123t-184 47q-121 0 -201 -76q-88 -92 -88 -262v-222h571v-141h-571v-461h727v-143h-1061z" />
<glyph unicode="&#xa4;" horiz-adv-x="1474" d="M115 485v129h166q-4 25 -5 48v51v4q0 31 2.5 61.5t6.5 57.5h-170v127h192q29 109 82 198.5t126 156t163 103.5t192 37q90 0 164 -21.5t133.5 -58.5t107.5 -88t89 -112l-123 -88q-39 53 -78 95t-84 70.5t-97 43t-118 14.5q-137 0 -240.5 -97.5t-150.5 -252.5h526v-127 h-553q-4 -25 -6 -55.5t-2 -59.5v-4q0 -29 1 -53.5t3 -49.5h557v-129h-530q47 -166 155.5 -265t262.5 -99q121 0 206 64.5t158 170.5l117 -82q-43 -63 -91 -118.5t-107.5 -95.5t-131 -62.5t-157.5 -22.5q-109 0 -203 37t-169 104.5t-128 162t-80 206.5h-186z" />
<glyph unicode="&#xa5;" horiz-adv-x="1404" d="M55 1434h193l457 -701l460 701h185l-523 -762h373v-127h-420v-180h420v-127h-420v-238h-155v238h-420v127h420v180h-420v127h370z" />
<glyph unicode="&#xa7;" horiz-adv-x="1294" d="M127 733v4q0 94 74.5 153.5t195.5 80.5q-70 35 -110.5 88t-40.5 119v4q0 123 102.5 197.5t274.5 74.5q143 0 263 -53t206 -141l-103 -99q-72 70 -165 114t-206 44q-109 0 -159.5 -38t-50.5 -97v-4q0 -29 16 -53.5t54 -47t102.5 -44t160.5 -44.5q117 -27 198 -56.5 t132 -63t73.5 -75.5t22.5 -96v-4q0 -92 -74.5 -152.5t-195.5 -80.5q70 -35 111 -88t41 -119v-4q0 -123 -102.5 -197.5t-274.5 -74.5q-143 0 -263 53t-206 141l102 98q72 -70 165 -113.5t206 -43.5q109 0 160 39t51 96v4q0 29 -16.5 53.5t-55.5 47t-103.5 44t-158.5 43.5 q-117 29 -198 57.5t-132 63.5t-73.5 77t-22.5 93zM279 750q0 -25 13 -48.5t47 -45t90 -43t140 -42.5q74 -18 128.5 -25t95.5 -7q100 0 161.5 42t61.5 99v4q0 25 -13.5 48.5t-47 45t-90 43t-140.5 41.5q-76 18 -129 25.5t-94 7.5q-100 0 -161.5 -42t-61.5 -99v-4z" />
<glyph unicode="&#xa8;" d="M240 1219v194h184v-194h-184zM600 1219v194h184v-194h-184z" />
<glyph unicode="&#xa9;" horiz-adv-x="1699" d="M109 713v4q0 152 57 286t157.5 235t236.5 160.5t292 59.5t291 -58.5t234.5 -158.5t156.5 -234.5t57 -285.5v-4q0 -152 -57 -286t-157.5 -235.5t-236.5 -161t-292 -59.5t-291 58.5t-234.5 159t-156.5 234.5t-57 286zM176 713q0 -139 51.5 -262t141.5 -214.5t213 -144.5 t266 -53q145 0 268 54t214 146.5t142.5 215.5t51.5 262v4q0 139 -51.5 262t-141.5 214t-213 144.5t-266 53.5t-267 -54.5t-215 -146.5t-142.5 -215t-51.5 -262v-4zM477 725v4q0 80 29 150.5t81 125t122.5 85t152.5 30.5q104 0 171 -34.5t124 -88.5l-76 -82q-45 43 -99 73 t-122 30q-57 0 -106 -22.5t-85 -62.5t-56.5 -91t-20.5 -111v-4q0 -59 20.5 -111.5t57.5 -92.5t86 -62.5t106 -22.5q72 0 123 28t102 75l74 -72q-59 -61 -129 -98t-174 -37q-82 0 -151.5 30.5t-120.5 84t-80 125t-29 151.5z" />
<glyph unicode="&#xaa;" horiz-adv-x="798" d="M119 592v96h532v-96h-532zM125 1020v4q0 92 70.5 141t181.5 49q53 0 91 -6t73 -16v10q0 72 -42 109t-118 37q-47 0 -89 -12.5t-87 -32.5l-31 86q53 23 102.5 37t114.5 14q121 0 191 -66q59 -59 59 -172v-354h-100v78q-35 -41 -83 -65.5t-114 -24.5q-41 0 -80 11 t-69.5 34.5t-50 58.5t-19.5 80zM231 1024q0 -49 39 -75.5t92 -26.5q72 0 125.5 38.5t53.5 104.5v49q-31 10 -69 16.5t-87 6.5q-72 0 -113 -31t-41 -78v-4z" />
<glyph unicode="&#xab;" horiz-adv-x="1126" d="M98 522v17l332 436l121 -68l-277 -375l277 -378l-121 -70zM555 522v17l332 436l119 -68l-277 -375l277 -378l-119 -70z" />
<glyph unicode="&#xad;" horiz-adv-x="835" d="M133 532v166h569v-166h-569z" />
<glyph unicode="&#xae;" horiz-adv-x="1699" d="M109 713v4q0 152 57 286t157.5 235t236.5 160.5t292 59.5t291 -58.5t234.5 -158.5t156.5 -234.5t57 -285.5v-4q0 -152 -57 -286t-157.5 -235.5t-236.5 -161t-292 -59.5t-291 58.5t-234.5 159t-156.5 234.5t-57 286zM176 713q0 -139 51.5 -262t141.5 -214.5t213 -144.5 t266 -53q145 0 268 54t214 146.5t142.5 215.5t51.5 262v4q0 139 -51.5 262t-141.5 214t-213 144.5t-266 53.5t-267 -54.5t-215 -146.5t-142.5 -215t-51.5 -262v-4zM559 358v760h340q72 0 130 -21.5t95 -58.5q29 -27 45.5 -63.5t16.5 -83.5v-4q0 -92 -55.5 -147.5 t-141.5 -75.5l236 -306h-140l-219 287h-4h-190v-287h-113zM672 745h217q80 0 130 35t50 101v4q0 59 -46 95t-128 36h-223v-271z" />
<glyph unicode="&#xaf;" d="M188 1229v137h648v-137h-648z" />
<glyph unicode="&#xb0;" horiz-adv-x="937" d="M147 1130v5q0 63 27 119.5t72 99.5t102.5 67.5t120.5 24.5t121.5 -24.5t102.5 -67.5t71 -99.5t27 -119.5v-5q0 -61 -27 -117.5t-71 -99.5t-102.5 -68.5t-121.5 -25.5t-120.5 25.5t-102.5 68.5t-72 99.5t-27 117.5zM266 1130q0 -39 15.5 -76.5t42 -65t64.5 -45t81 -17.5 t81 17.5t64.5 45t42 65.5t15.5 76v5q0 41 -15.5 77.5t-42 64.5t-64.5 45t-81 17t-81 -17t-64.5 -45t-42 -64.5t-15.5 -77.5v-5z" />
<glyph unicode="&#xb1;" horiz-adv-x="1236" d="M88 233l119 103q78 -98 182.5 -155.5t241.5 -57.5q72 0 131 18.5t102 53t66.5 84t23.5 110.5v4q0 123 -100 191.5t-283 68.5h-147v140h151q74 0 136.5 18t107.5 52t70.5 83t25.5 111v4q0 109 -82.5 179.5t-224.5 70.5q-121 0 -209 -53.5t-161 -151.5l-119 86 q86 121 204.5 193.5t288.5 72.5q102 0 188.5 -28.5t148 -80t96 -121t34.5 -153.5v-4q0 -70 -21.5 -125t-56 -95t-79.5 -68.5t-93 -47.5q61 -20 114.5 -50t91.5 -72t60.5 -97t22.5 -123v-4q0 -86 -34.5 -161.5t-99 -131t-155.5 -88.5t-202 -33q-174 0 -311.5 73t-227.5 185z " />
<glyph unicode="&#xb4;" d="M371 1219l194 297l164 -76l-231 -221h-127z" />
<glyph unicode="&#xb5;" horiz-adv-x="1740" d="M139 713v4q0 147 53.5 282.5t149.5 236.5t231.5 161.5t298.5 60.5q164 0 298.5 -59.5t230.5 -160.5t148.5 -235.5t52.5 -281.5q2 -2 0 -4q0 -170 -69 -320.5t-196 -255.5l353 -336v-12h-238l-270 252q-143 -70 -314 -70q-164 0 -298 59.5t-230 161t-148.5 235.5 t-52.5 282zM307 717q0 -123 42 -230.5t118 -187.5t179 -127t226 -47t226.5 46t177.5 126t116 186.5t42 229.5v4q0 123 -42 230.5t-118 187t-179.5 127t-226.5 47.5t-226 -46t-177 -126t-116 -186.5t-42 -229.5v-4z" />
<glyph unicode="&#xb6;" horiz-adv-x="1044" d="M98 985v4q0 104 40 187.5t112 139.5t171 87t218 31h217v-1434h-164v541h-22q-121 0 -225.5 28.5t-181.5 86t-121 140.5t-44 189z" />
<glyph unicode="&#xb7;" horiz-adv-x="501" d="M158 508v215h188v-215h-188z" />
<glyph unicode="&#xb8;" d="M307 -248l185 268h124l-155 -337z" />
<glyph unicode="&#xba;" horiz-adv-x="798" d="M98 1135v4q0 61 22.5 117.5t63.5 97.5t96.5 65.5t120.5 24.5q66 0 120 -23.5t94 -65.5t62.5 -96.5t22.5 -115.5v-4q0 -61 -22.5 -117.5t-63.5 -97.5t-96 -65.5t-121 -24.5q-63 0 -118.5 23.5t-95.5 65.5t-62.5 96t-22.5 116zM104 592v96h590v-96h-590zM209 1139 q0 -86 54 -146.5t138 -60.5q86 0 137.5 59.5t51.5 143.5v4q0 43 -14.5 80.5t-40 65.5t-61.5 44.5t-77 16.5q-86 0 -137 -59.5t-51 -143.5v-4z" />
<glyph unicode="&#xbb;" horiz-adv-x="1126" d="M121 152l276 376l-276 377l119 70l331 -436v-17l-331 -438zM575 152l277 376l-277 377l121 70l332 -436v-17l-332 -438z" />
<glyph unicode="&#xbf;" horiz-adv-x="1099" d="M98 387v4q0 96 34 169t92.5 123t135 81t164.5 43l19 221h104l33 -332l-10 -10q-201 -4 -304.5 -82t-103.5 -207v-4q0 -55 20.5 -103t59.5 -85t94.5 -57.5t124.5 -20.5q113 0 203 50t168 142l104 -100q-88 -106 -201.5 -171.5t-277.5 -65.5q-104 0 -189 30.5t-144.5 85 t-92.5 128t-33 161.5zM504 1219v215h188v-215h-188z" />
<glyph unicode="&#xc0;" horiz-adv-x="1617" d="M80 0l653 1444h152l653 -1444h-174l-168 379h-780l-170 -379h-166zM479 524h654l-326 731zM512 1782l164 76l194 -297h-127z" />
<glyph unicode="&#xc1;" horiz-adv-x="1617" d="M80 0l653 1444h152l653 -1444h-174l-168 379h-780l-170 -379h-166zM479 524h654l-326 731zM748 1561l194 297l164 -76l-232 -221h-126z" />
<glyph unicode="&#xc2;" horiz-adv-x="1617" d="M80 0l653 1444h152l653 -1444h-174l-168 379h-780l-170 -379h-166zM479 524h654l-326 731zM522 1554l217 269h140l217 -269h-135l-154 138l-154 -138h-131z" />
<glyph unicode="&#xc3;" horiz-adv-x="1617" d="M80 0l653 1444h152l653 -1444h-174l-168 379h-780l-170 -379h-166zM473 1569q31 117 76 166t119 49q35 0 71.5 -12.5t73.5 -27.5t69.5 -28.5t59.5 -13.5q41 0 62.5 22.5t44.5 77.5l96 -26q-31 -117 -76 -166t-119 -49q-35 0 -71.5 13t-73.5 28.5t-70 27.5t-59 12 q-41 0 -62.5 -22.5t-44.5 -77.5zM479 524h654l-326 731z" />
<glyph unicode="&#xc4;" horiz-adv-x="1617" d="M80 0l653 1444h152l653 -1444h-174l-168 379h-780l-170 -379h-166zM479 524h654l-326 731zM537 1561v194h184v-194h-184zM897 1561v194h184v-194h-184z" />
<glyph unicode="&#xc5;" horiz-adv-x="1617" d="M80 0l629 1393q-49 27 -81 72.5t-32 103.5v4q0 41 17.5 78t47 64.5t67.5 44t81 16.5t81 -16.5t67.5 -44t47 -64.5t17.5 -78v-4q0 -57 -32 -103.5t-81 -72.5l629 -1393h-174l-168 379h-780l-170 -379h-166zM479 524h654l-326 731zM682 1569q0 -51 38 -88t89 -37t89 37 t38 88v4q0 51 -37 88t-90 37t-90 -37t-37 -88v-4z" />
<glyph unicode="&#xc6;" horiz-adv-x="2140" d="M35 0l842 1434h1130v-148h-838v-489h746v-148h-746v-502h848v-147h-1011v379h-578l-223 -379h-170zM510 524h496v766h-50z" />
<glyph unicode="&#xc7;" horiz-adv-x="1511" d="M139 713v4q0 152 54.5 287t150.5 236t229.5 159.5t290.5 58.5q98 0 177 -16.5t146.5 -46t125 -71.5t110.5 -93l-110 -119q-92 86 -197.5 141.5t-253.5 55.5q-119 0 -220 -45t-176 -125t-117 -187.5t-42 -230.5v-4q0 -125 42 -232.5t117 -187.5t176 -126t220 -46 q147 0 254 54t209 153l107 -105q-53 -55 -110.5 -99t-123 -77t-141.5 -52t-166 -24l-135 -292l-154 69l158 230q-135 18 -250 80.5t-197 159.5t-128 223t-46 268z" />
<glyph unicode="&#xc8;" horiz-adv-x="1372" d="M203 0v1434h1036v-148h-874v-489h782v-148h-782v-502h884v-147h-1046zM465 1782l164 76l194 -297h-127z" />
<glyph unicode="&#xc9;" horiz-adv-x="1372" d="M203 0v1434h1036v-148h-874v-489h782v-148h-782v-502h884v-147h-1046zM608 1561l195 297l164 -76l-232 -221h-127z" />
<glyph unicode="&#xca;" horiz-adv-x="1372" d="M203 0v1434h1036v-148h-874v-489h782v-148h-782v-502h884v-147h-1046zM426 1561l217 268h139l217 -268h-135l-153 137l-154 -137h-131z" />
<glyph unicode="&#xcb;" horiz-adv-x="1372" d="M203 0v1434h1036v-148h-874v-489h782v-148h-782v-502h884v-147h-1046zM440 1561v194h185v-194h-185zM801 1561v194h184v-194h-184z" />
<glyph unicode="&#xcc;" horiz-adv-x="595" d="M4 1782l164 76l194 -297h-126zM217 0v1434h162v-1434h-162z" />
<glyph unicode="&#xcd;" horiz-adv-x="595" d="M217 0v1434h162v-1434h-162zM233 1561l195 297l164 -76l-232 -221h-127z" />
<glyph unicode="&#xce;" horiz-adv-x="595" d="M12 1561l217 268h140l217 -268h-135l-154 137l-154 -137h-131zM217 0v1434h162v-1434h-162z" />
<glyph unicode="&#xcf;" horiz-adv-x="595" d="M27 1561v194h184v-194h-184zM217 0v1434h162v-1434h-162zM387 1561v194h184v-194h-184z" />
<glyph unicode="&#xd0;" horiz-adv-x="1662" d="M111 647v148h153v639h498q170 0 309 -54.5t240.5 -150.5t157 -226.5t55.5 -281.5v-4q0 -152 -55.5 -283t-157 -227t-240.5 -151.5t-309 -55.5h-498v647h-153zM426 150h336q135 0 245.5 43t187.5 118.5t119 179t42 222.5v4q0 119 -42 222t-119 180t-187.5 121t-245.5 44 h-336v-489h430v-148h-430v-497z" />
<glyph unicode="&#xd1;" horiz-adv-x="1617" d="M203 0v1434h151l903 -1149v1149h158v-1434h-129l-926 1176v-1176h-157zM473 1569q31 117 76 166t119 49q35 0 71.5 -12.5t73.5 -27.5t69.5 -28.5t59.5 -13.5q41 0 62.5 22.5t44.5 77.5l96 -26q-31 -117 -76 -166t-119 -49q-35 0 -71.5 13t-73.5 28.5t-70 27.5t-59 12 q-41 0 -62.5 -22.5t-44.5 -77.5z" />
<glyph unicode="&#xd2;" horiz-adv-x="1740" d="M139 713v4q0 147 53.5 282.5t149.5 236.5t231.5 161.5t298.5 60.5q164 0 298.5 -59.5t230.5 -160.5t148.5 -235.5t52.5 -281.5q2 -2 0 -4q0 -147 -53.5 -282.5t-149.5 -237t-231.5 -162t-299.5 -60.5t-298 59.5t-230 161t-148.5 235.5t-52.5 282zM307 717 q0 -123 42 -230.5t118 -187.5t179 -127t226 -47t226.5 46t177.5 126t116 186.5t42 229.5v4q0 123 -42 230.5t-118 187t-179.5 127t-226.5 47.5t-226 -46t-177 -126t-116 -186.5t-42 -229.5v-4zM565 1782l164 76l195 -297h-127z" />
<glyph unicode="&#xd3;" horiz-adv-x="1740" d="M139 713v4q0 147 53.5 282.5t149.5 236.5t231.5 161.5t298.5 60.5q164 0 298.5 -59.5t230.5 -160.5t148.5 -235.5t52.5 -281.5q2 -2 0 -4q0 -147 -53.5 -282.5t-149.5 -237t-231.5 -162t-299.5 -60.5t-298 59.5t-230 161t-148.5 235.5t-52.5 282zM307 717 q0 -123 42 -230.5t118 -187.5t179 -127t226 -47t226.5 46t177.5 126t116 186.5t42 229.5v4q0 123 -42 230.5t-118 187t-179.5 127t-226.5 47.5t-226 -46t-177 -126t-116 -186.5t-42 -229.5v-4zM817 1561l195 297l164 -76l-232 -221h-127z" />
<glyph unicode="&#xd4;" horiz-adv-x="1740" d="M139 713v4q0 147 53.5 282.5t149.5 236.5t231.5 161.5t298.5 60.5q164 0 298.5 -59.5t230.5 -160.5t148.5 -235.5t52.5 -281.5q2 -2 0 -4q0 -147 -53.5 -282.5t-149.5 -237t-231.5 -162t-299.5 -60.5t-298 59.5t-230 161t-148.5 235.5t-52.5 282zM307 717 q0 -123 42 -230.5t118 -187.5t179 -127t226 -47t226.5 46t177.5 126t116 186.5t42 229.5v4q0 123 -42 230.5t-118 187t-179.5 127t-226.5 47.5t-226 -46t-177 -126t-116 -186.5t-42 -229.5v-4zM584 1561l217 268h139l217 -268h-135l-154 137l-153 -137h-131z" />
<glyph unicode="&#xd5;" horiz-adv-x="1740" d="M139 713v4q0 147 53.5 282.5t149.5 236.5t231.5 161.5t298.5 60.5q164 0 298.5 -59.5t230.5 -160.5t148.5 -235.5t52.5 -281.5q2 -2 0 -4q0 -147 -53.5 -282.5t-149.5 -237t-231.5 -162t-299.5 -60.5t-298 59.5t-230 161t-148.5 235.5t-52.5 282zM307 717 q0 -123 42 -230.5t118 -187.5t179 -127t226 -47t226.5 46t177.5 126t116 186.5t42 229.5v4q0 123 -42 230.5t-118 187t-179.5 127t-226.5 47.5t-226 -46t-177 -126t-116 -186.5t-42 -229.5v-4zM535 1569q31 117 75.5 166t118.5 49q35 0 72 -12.5t73.5 -27.5t69.5 -28.5 t60 -13.5q41 0 62 22.5t44 77.5l96 -26q-31 -117 -76 -166t-118 -49q-35 0 -72 13t-74 28.5t-69.5 27.5t-59.5 12q-41 0 -62.5 -22.5t-43.5 -77.5z" />
<glyph unicode="&#xd6;" horiz-adv-x="1740" d="M139 713v4q0 147 53.5 282.5t149.5 236.5t231.5 161.5t298.5 60.5q164 0 298.5 -59.5t230.5 -160.5t148.5 -235.5t52.5 -281.5q2 -2 0 -4q0 -147 -53.5 -282.5t-149.5 -237t-231.5 -162t-299.5 -60.5t-298 59.5t-230 161t-148.5 235.5t-52.5 282zM307 717 q0 -123 42 -230.5t118 -187.5t179 -127t226 -47t226.5 46t177.5 126t116 186.5t42 229.5v4q0 123 -42 230.5t-118 187t-179.5 127t-226.5 47.5t-226 -46t-177 -126t-116 -186.5t-42 -229.5v-4zM598 1561v194h184v-194h-184zM958 1561v194h185v-194h-185z" />
<glyph unicode="&#xd8;" horiz-adv-x="1740" d="M123 -10l203 221q-90 100 -138.5 229t-48.5 273v4q0 147 53.5 282.5t149.5 236.5t231.5 161.5t298.5 60.5q133 0 246 -40t203 -111l127 137h170l-203 -221q90 -100 138.5 -229.5t48.5 -272.5q2 -2 0 -4q0 -147 -53.5 -282.5t-149.5 -237t-231.5 -162t-299.5 -60.5 q-133 0 -245.5 39t-202.5 111l-127 -135h-170zM307 717q0 -111 34 -208t95 -175l781 852q-70 59 -158 92t-191 33q-123 0 -226 -46t-177 -126t-116 -187.5t-42 -230.5v-4zM524 248q70 -59 158 -92t190 -33q123 0 226.5 46t177.5 126t116 187.5t42 230.5v4q0 111 -34 208 t-95 175z" />
<glyph unicode="&#xd9;" horiz-adv-x="1554" d="M180 600v834h162v-824q0 -233 115.5 -358t322.5 -125q199 0 315.5 119t116.5 354v834h162v-822q0 -156 -43 -274.5t-122 -198.5t-188.5 -121t-244.5 -41q-133 0 -242.5 40t-188.5 119t-122 196t-43 268zM494 1772l163 75l195 -297h-127z" />
<glyph unicode="&#xda;" horiz-adv-x="1554" d="M180 600v834h162v-824q0 -233 115.5 -358t322.5 -125q199 0 315.5 119t116.5 354v834h162v-822q0 -156 -43 -274.5t-122 -198.5t-188.5 -121t-244.5 -41q-133 0 -242.5 40t-188.5 119t-122 196t-43 268zM702 1550l195 297l164 -75l-232 -222h-127z" />
<glyph unicode="&#xdb;" horiz-adv-x="1554" d="M180 600v834h162v-824q0 -233 115.5 -358t322.5 -125q199 0 315.5 119t116.5 354v834h162v-822q0 -156 -43 -274.5t-122 -198.5t-188.5 -121t-244.5 -41q-133 0 -242.5 40t-188.5 119t-122 196t-43 268zM489 1554l218 269h139l217 -269h-135l-154 138l-153 -138h-132z " />
<glyph unicode="&#xdc;" horiz-adv-x="1554" d="M180 600v834h162v-824q0 -233 115.5 -358t322.5 -125q199 0 315.5 119t116.5 354v834h162v-822q0 -156 -43 -274.5t-122 -198.5t-188.5 -121t-244.5 -41q-133 0 -242.5 40t-188.5 119t-122 196t-43 268zM504 1554v195h184v-195h-184zM864 1554v195h185v-195h-185z" />
<glyph unicode="&#xdd;" horiz-adv-x="1466" d="M55 1434h197l483 -717l488 717h188l-596 -865v-569h-164v567zM674 1550l194 297l164 -75l-231 -222h-127z" />
<glyph unicode="&#xde;" horiz-adv-x="1378" d="M203 0v1434h162v-246h374q121 0 220.5 -32t170 -90t108.5 -143t38 -190v-4q0 -117 -45 -205t-122 -147.5t-179.5 -89t-216.5 -29.5h-348v-258h-162zM365 406h354q90 0 161.5 23.5t124 64.5t80 100t27.5 129v4q0 154 -105.5 232.5t-279.5 78.5h-362v-632z" />
<glyph unicode="&#xdf;" horiz-adv-x="1269" d="M176 0v1026q0 109 33 198t93 152.5t146.5 98t192.5 34.5q96 0 174 -28.5t133.5 -77.5t85 -116.5t29.5 -145.5v-4q0 -72 -24.5 -131.5t-64.5 -105.5t-91.5 -81t-104.5 -57q72 -16 139.5 -45t120 -74t83 -105.5t30.5 -140.5v-4q0 -94 -39 -168.5t-110.5 -126t-174 -78 t-229.5 -24.5v127q182 4 286.5 72.5t104.5 197.5v4q0 123 -105.5 192.5t-285.5 88.5v117q66 25 121 55.5t95 71.5t63.5 91t23.5 113v4q0 106 -73.5 173t-194.5 67q-131 0 -215 -92t-84 -250v-1028h-158z" />
<glyph unicode="&#xe0;" horiz-adv-x="1185" d="M96 307v4q0 86 33 150.5t93.5 107.5t143.5 65.5t183 22.5q102 0 177 -12t146 -33v33q0 141 -81.5 214t-231.5 73q-94 0 -171 -20.5t-150 -55.5l-48 129q88 41 178.5 65.5t206.5 24.5q225 0 343 -117q111 -111 110 -311v-647h-156v158q-27 -35 -63.5 -68t-83.5 -57.5 t-105 -40t-128 -15.5q-74 0 -146 21.5t-127 62.5t-89 102.5t-34 143.5zM256 315q0 -49 21.5 -89t58.5 -66.5t85 -41t101 -14.5q74 0 137.5 20.5t111.5 58.5t75.5 90.5t27.5 115.5v98q-59 16 -134.5 30.5t-174.5 14.5q-147 0 -228 -58t-81 -155v-4zM303 1440l164 76l195 -297 h-127z" />
<glyph unicode="&#xe1;" horiz-adv-x="1185" d="M96 307v4q0 86 33 150.5t93.5 107.5t143.5 65.5t183 22.5q102 0 177 -12t146 -33v33q0 141 -81.5 214t-231.5 73q-94 0 -171 -20.5t-150 -55.5l-48 129q88 41 178.5 65.5t206.5 24.5q225 0 343 -117q111 -111 110 -311v-647h-156v158q-27 -35 -63.5 -68t-83.5 -57.5 t-105 -40t-128 -15.5q-74 0 -146 21.5t-127 62.5t-89 102.5t-34 143.5zM256 315q0 -49 21.5 -89t58.5 -66.5t85 -41t101 -14.5q74 0 137.5 20.5t111.5 58.5t75.5 90.5t27.5 115.5v98q-59 16 -134.5 30.5t-174.5 14.5q-147 0 -228 -58t-81 -155v-4zM508 1219l194 297l164 -76 l-231 -221h-127z" />
<glyph unicode="&#xe2;" horiz-adv-x="1185" d="M96 307v4q0 86 33 150.5t93.5 107.5t143.5 65.5t183 22.5q102 0 177 -12t146 -33v33q0 141 -81.5 214t-231.5 73q-94 0 -171 -20.5t-150 -55.5l-48 129q88 41 178.5 65.5t206.5 24.5q225 0 343 -117q111 -111 110 -311v-647h-156v158q-27 -35 -63.5 -68t-83.5 -57.5 t-105 -40t-128 -15.5q-74 0 -146 21.5t-127 62.5t-89 102.5t-34 143.5zM256 315q0 -49 21.5 -89t58.5 -66.5t85 -41t101 -14.5q74 0 137.5 20.5t111.5 58.5t75.5 90.5t27.5 115.5v98q-59 16 -134.5 30.5t-174.5 14.5q-147 0 -228 -58t-81 -155v-4zM309 1219l217 268h140 l217 -268h-135l-154 137l-154 -137h-131z" />
<glyph unicode="&#xe3;" horiz-adv-x="1185" d="M96 307v4q0 86 33 150.5t93.5 107.5t143.5 65.5t183 22.5q102 0 177 -12t146 -33v33q0 141 -81.5 214t-231.5 73q-94 0 -171 -20.5t-150 -55.5l-48 129q88 41 178.5 65.5t206.5 24.5q225 0 343 -117q111 -111 110 -311v-647h-156v158q-27 -35 -63.5 -68t-83.5 -57.5 t-105 -40t-128 -15.5q-74 0 -146 21.5t-127 62.5t-89 102.5t-34 143.5zM256 315q0 -49 21.5 -89t58.5 -66.5t85 -41t101 -14.5q74 0 137.5 20.5t111.5 58.5t75.5 90.5t27.5 115.5v98q-59 16 -134.5 30.5t-174.5 14.5q-147 0 -228 -58t-81 -155v-4zM262 1227q31 117 76 166 t119 49q35 0 71.5 -12.5t73.5 -28t70 -28.5t59 -13q41 0 62.5 22.5t44.5 77.5l96 -26q-31 -117 -76 -166t-119 -49q-35 0 -71.5 13t-73.5 28.5t-69.5 27.5t-59.5 12q-41 0 -62.5 -22.5t-44.5 -77.5z" />
<glyph unicode="&#xe4;" horiz-adv-x="1185" d="M96 307v4q0 86 33 150.5t93.5 107.5t143.5 65.5t183 22.5q102 0 177 -12t146 -33v33q0 141 -81.5 214t-231.5 73q-94 0 -171 -20.5t-150 -55.5l-48 129q88 41 178.5 65.5t206.5 24.5q225 0 343 -117q111 -111 110 -311v-647h-156v158q-27 -35 -63.5 -68t-83.5 -57.5 t-105 -40t-128 -15.5q-74 0 -146 21.5t-127 62.5t-89 102.5t-34 143.5zM256 315q0 -49 21.5 -89t58.5 -66.5t85 -41t101 -14.5q74 0 137.5 20.5t111.5 58.5t75.5 90.5t27.5 115.5v98q-59 16 -134.5 30.5t-174.5 14.5q-147 0 -228 -58t-81 -155v-4zM324 1219v194h184v-194 h-184zM684 1219v194h184v-194h-184z" />
<glyph unicode="&#xe5;" horiz-adv-x="1185" d="M96 307v4q0 86 33 150.5t93.5 107.5t143.5 65.5t183 22.5q102 0 177 -12t146 -33v33q0 141 -81.5 214t-231.5 73q-94 0 -171 -20.5t-150 -55.5l-48 129q88 41 178.5 65.5t206.5 24.5q225 0 343 -117q111 -111 110 -311v-647h-156v158q-27 -35 -63.5 -68t-83.5 -57.5 t-105 -40t-128 -15.5q-74 0 -146 21.5t-127 62.5t-89 102.5t-34 143.5zM256 315q0 -49 21.5 -89t58.5 -66.5t85 -41t101 -14.5q74 0 137.5 20.5t111.5 58.5t75.5 90.5t27.5 115.5v98q-59 16 -134.5 30.5t-174.5 14.5q-147 0 -228 -58t-81 -155v-4zM383 1417v4q0 41 17.5 78 t47 64.5t67.5 44t81 16.5t81 -16.5t67.5 -44t47 -64.5t17.5 -78v-4q0 -41 -17.5 -77.5t-47 -64.5t-67.5 -44.5t-81 -16.5t-81 16.5t-67.5 44.5t-47 64.5t-17.5 77.5zM469 1417q0 -51 38 -88t89 -37t89 37t38 88v4q0 51 -37 88t-90 37t-90 -36.5t-37 -88.5v-4z" />
<glyph unicode="&#xe6;" horiz-adv-x="1951" d="M96 307v4q0 86 33 150.5t92.5 107.5t141 65.5t178.5 22.5q94 0 164.5 -12t148.5 -33v33q0 143 -81 215t-222 72q-86 0 -163 -20.5t-150 -55.5l-48 129q88 41 177.5 65.5t199.5 24.5q143 0 244.5 -57t142.5 -172q63 106 169 170.5t237 64.5q117 0 208 -44t154.5 -119.5 t96 -178t32.5 -219.5v-24q0 -12 -2 -31h-839q8 -84 40.5 -149.5t84 -110.5t115 -68.5t132.5 -23.5q111 0 190 41t144 108l99 -88q-80 -90 -182.5 -144.5t-254.5 -54.5q-129 0 -238.5 56.5t-181.5 156.5q-43 -43 -97 -81.5t-116.5 -67.5t-129 -45.5t-132.5 -16.5 q-70 0 -139.5 21.5t-124.5 62.5t-89 102.5t-34 143.5zM256 315q0 -49 21.5 -89t57.5 -66.5t83 -41t96 -14.5q70 0 124 14.5t99 39t83 59.5t75 76q-37 92 -43 199q-59 16 -132 28t-163 12q-141 0 -221 -58t-80 -155v-4zM1010 592h682q-6 72 -31 136.5t-67 113.5t-102 77.5 t-138 28.5q-68 0 -127.5 -26.5t-104.5 -74.5t-74.5 -112.5t-37.5 -142.5z" />
<glyph unicode="&#xe7;" horiz-adv-x="1169" d="M111 524v4q0 113 41 213.5t113.5 176t172 119.5t215.5 44q76 0 137.5 -14t112.5 -40t94 -60.5t80 -73.5l-104 -111q-63 66 -138 113t-184 47q-80 0 -149.5 -31.5t-120.5 -87t-80 -130.5t-29 -161v-4q0 -86 30 -160.5t82 -131t124 -88t154 -31.5q102 0 181 45t142 112 l100 -94q-78 -86 -171 -141t-230 -64l-135 -292l-154 69l160 234q-96 16 -178 65t-141.5 121t-92 162t-32.5 190z" />
<glyph unicode="&#xe8;" horiz-adv-x="1212" d="M111 528q0 115 37.5 216.5t105.5 176t161 117.5t203 43q117 0 209.5 -44t156 -119.5t96 -178t32.5 -219.5v-24q0 -12 -2 -31h-840q8 -84 41 -149.5t84 -110.5t114.5 -68.5t133.5 -23.5q111 0 189.5 41t144.5 108l98 -88q-80 -90 -182 -144.5t-254 -54.5q-109 0 -205 40 t-167.5 113t-113.5 175.5t-42 224.5zM270 592h682q-6 72 -30.5 136.5t-66.5 113.5t-102.5 77.5t-138.5 28.5q-68 0 -127 -26.5t-104 -74.5t-74.5 -112.5t-38.5 -142.5zM334 1440l164 76l194 -297h-127z" />
<glyph unicode="&#xe9;" horiz-adv-x="1212" d="M111 528q0 115 37.5 216.5t105.5 176t161 117.5t203 43q117 0 209.5 -44t156 -119.5t96 -178t32.5 -219.5v-24q0 -12 -2 -31h-840q8 -84 41 -149.5t84 -110.5t114.5 -68.5t133.5 -23.5q111 0 189.5 41t144.5 108l98 -88q-80 -90 -182 -144.5t-254 -54.5q-109 0 -205 40 t-167.5 113t-113.5 175.5t-42 224.5zM270 592h682q-6 72 -30.5 136.5t-66.5 113.5t-102.5 77.5t-138.5 28.5q-68 0 -127 -26.5t-104 -74.5t-74.5 -112.5t-38.5 -142.5zM520 1219l195 297l164 -76l-232 -221h-127z" />
<glyph unicode="&#xea;" horiz-adv-x="1212" d="M111 528q0 115 37.5 216.5t105.5 176t161 117.5t203 43q117 0 209.5 -44t156 -119.5t96 -178t32.5 -219.5v-24q0 -12 -2 -31h-840q8 -84 41 -149.5t84 -110.5t114.5 -68.5t133.5 -23.5q111 0 189.5 41t144.5 108l98 -88q-80 -90 -182 -144.5t-254 -54.5q-109 0 -205 40 t-167.5 113t-113.5 175.5t-42 224.5zM270 592h682q-6 72 -30.5 136.5t-66.5 113.5t-102.5 77.5t-138.5 28.5q-68 0 -127 -26.5t-104 -74.5t-74.5 -112.5t-38.5 -142.5zM326 1219l217 268h139l217 -268h-135l-154 137l-153 -137h-131z" />
<glyph unicode="&#xeb;" horiz-adv-x="1212" d="M111 528q0 115 37.5 216.5t105.5 176t161 117.5t203 43q117 0 209.5 -44t156 -119.5t96 -178t32.5 -219.5v-24q0 -12 -2 -31h-840q8 -84 41 -149.5t84 -110.5t114.5 -68.5t133.5 -23.5q111 0 189.5 41t144.5 108l98 -88q-80 -90 -182 -144.5t-254 -54.5q-109 0 -205 40 t-167.5 113t-113.5 175.5t-42 224.5zM270 592h682q-6 72 -30.5 136.5t-66.5 113.5t-102.5 77.5t-138.5 28.5q-68 0 -127 -26.5t-104 -74.5t-74.5 -112.5t-38.5 -142.5zM340 1219v194h184v-194h-184zM700 1219v194h185v-194h-185z" />
<glyph unicode="&#xec;" horiz-adv-x="538" d="M-23 1440l164 76l195 -297h-127zM190 0v1059h158v-1059h-158z" />
<glyph unicode="&#xed;" horiz-adv-x="538" d="M190 0v1059h158v-1059h-158zM205 1219l194 297l164 -76l-231 -221h-127z" />
<glyph unicode="&#xee;" horiz-adv-x="538" d="M-18 1219l217 268h139l217 -268h-135l-154 137l-153 -137h-131zM190 0v1059h158v-1059h-158z" />
<glyph unicode="&#xef;" horiz-adv-x="538" d="M-4 1219v194h184v-194h-184zM190 0v1059h158v-1059h-158zM356 1219v194h185v-194h-185z" />
<glyph unicode="&#xf0;" horiz-adv-x="1296" d="M111 502v4q0 111 38.5 201t105.5 154.5t155 99t186 34.5q111 0 187.5 -32.5t144.5 -79.5l-269 377l-262 -130l-73 97l268 125l-103 143h189l53 -80l203 98l72 -96l-209 -96l207 -305q84 -121 132 -237.5t48 -260.5v-4q0 -106 -38 -204.5t-108.5 -172.5t-172 -118 t-226.5 -44q-115 0 -211 42t-167 114t-110.5 168t-39.5 203zM270 496q0 -74 28 -142.5t79 -122t120.5 -85t151.5 -31.5q84 0 152.5 30.5t118 84t76 123t26.5 145.5v4q0 76 -29.5 142.5t-82 116.5t-123 79.5t-154.5 29.5t-150.5 -28.5t-113.5 -78.5t-73 -117.5t-26 -145.5v-4 z" />
<glyph unicode="&#xf1;" horiz-adv-x="1261" d="M176 0v1059h158v-185q53 86 139 146.5t223 60.5q96 0 171 -30.5t127.5 -87t80 -134t27.5 -172.5v-657h-158v618q0 147 -75.5 233.5t-217.5 86.5q-68 0 -126 -23.5t-101 -67.5t-66.5 -105.5t-23.5 -135.5v-606h-158zM303 1227q31 117 76 166t119 49q35 0 71.5 -12.5 t73.5 -28t69.5 -28.5t59.5 -13q41 0 62.5 22.5t44.5 77.5l96 -26q-31 -117 -76 -166t-119 -49q-35 0 -71.5 13t-73.5 28.5t-70 27.5t-59 12q-41 0 -62.5 -22.5t-44.5 -77.5z" />
<glyph unicode="&#xf2;" horiz-adv-x="1323" d="M111 524v4q0 113 42 213.5t115.5 176t175 119.5t220.5 44t220 -44t175 -118.5t114.5 -174t40.5 -212.5v-4q0 -113 -42 -213t-115.5 -176t-175 -120t-222.5 -44q-119 0 -219 44t-173.5 119t-114.5 174.5t-41 211.5zM272 528q0 -86 30 -160.5t82 -130t124 -88t156 -32.5 q86 0 157.5 32.5t122.5 88t80 129t29 157.5v4q0 86 -30 161t-83 131.5t-125 89t-156 32.5q-86 0 -157.5 -32.5t-121.5 -88t-79 -130.5t-29 -159v-4zM367 1440l163 76l195 -297h-127z" />
<glyph unicode="&#xf3;" horiz-adv-x="1323" d="M111 524v4q0 113 42 213.5t115.5 176t175 119.5t220.5 44t220 -44t175 -118.5t114.5 -174t40.5 -212.5v-4q0 -113 -42 -213t-115.5 -176t-175 -120t-222.5 -44q-119 0 -219 44t-173.5 119t-114.5 174.5t-41 211.5zM272 528q0 -86 30 -160.5t82 -130t124 -88t156 -32.5 q86 0 157.5 32.5t122.5 88t80 129t29 157.5v4q0 86 -30 161t-83 131.5t-125 89t-156 32.5q-86 0 -157.5 -32.5t-121.5 -88t-79 -130.5t-29 -159v-4zM600 1219l195 297l163 -76l-231 -221h-127z" />
<glyph unicode="&#xf4;" horiz-adv-x="1323" d="M111 524v4q0 113 42 213.5t115.5 176t175 119.5t220.5 44t220 -44t175 -118.5t114.5 -174t40.5 -212.5v-4q0 -113 -42 -213t-115.5 -176t-175 -120t-222.5 -44q-119 0 -219 44t-173.5 119t-114.5 174.5t-41 211.5zM272 528q0 -86 30 -160.5t82 -130t124 -88t156 -32.5 q86 0 157.5 32.5t122.5 88t80 129t29 157.5v4q0 86 -30 161t-83 131.5t-125 89t-156 32.5q-86 0 -157.5 -32.5t-121.5 -88t-79 -130.5t-29 -159v-4zM375 1219l217 268h139l217 -268h-135l-154 137l-153 -137h-131z" />
<glyph unicode="&#xf5;" horiz-adv-x="1323" d="M111 524v4q0 113 42 213.5t115.5 176t175 119.5t220.5 44t220 -44t175 -118.5t114.5 -174t40.5 -212.5v-4q0 -113 -42 -213t-115.5 -176t-175 -120t-222.5 -44q-119 0 -219 44t-173.5 119t-114.5 174.5t-41 211.5zM272 528q0 -86 30 -160.5t82 -130t124 -88t156 -32.5 q86 0 157.5 32.5t122.5 88t80 129t29 157.5v4q0 86 -30 161t-83 131.5t-125 89t-156 32.5q-86 0 -157.5 -32.5t-121.5 -88t-79 -130.5t-29 -159v-4zM326 1227q31 117 75.5 166t118.5 49q35 0 72 -12.5t73.5 -28t69.5 -28.5t60 -13q41 0 62.5 22.5t43.5 77.5l96 -26 q-31 -117 -75.5 -166t-118.5 -49q-35 0 -72 13t-73.5 28.5t-69.5 27.5t-60 12q-41 0 -62.5 -22.5t-43.5 -77.5z" />
<glyph unicode="&#xf6;" horiz-adv-x="1323" d="M111 524v4q0 113 42 213.5t115.5 176t175 119.5t220.5 44t220 -44t175 -118.5t114.5 -174t40.5 -212.5v-4q0 -113 -42 -213t-115.5 -176t-175 -120t-222.5 -44q-119 0 -219 44t-173.5 119t-114.5 174.5t-41 211.5zM272 528q0 -86 30 -160.5t82 -130t124 -88t156 -32.5 q86 0 157.5 32.5t122.5 88t80 129t29 157.5v4q0 86 -30 161t-83 131.5t-125 89t-156 32.5q-86 0 -157.5 -32.5t-121.5 -88t-79 -130.5t-29 -159v-4zM389 1219v194h184v-194h-184zM750 1219v194h184v-194h-184z" />
<glyph unicode="&#xf8;" horiz-adv-x="1323" d="M80 -10l162 174q-61 72 -96 165t-35 195v4q0 113 42 213.5t115.5 176t175 119.5t220.5 44q96 0 180 -28.5t149 -81.5l92 100h160q-39 -41 -74 -78q-29 -31 -54 -59.5t-36 -38.5q63 -72 98 -165t35 -198v-4q0 -113 -42 -213t-115.5 -176t-175 -120t-222.5 -44 q-96 0 -179 29t-150 80l-92 -94h-158zM270 528q0 -72 20.5 -134t57.5 -115l549 579q-49 41 -108.5 63.5t-129.5 22.5q-86 0 -157.5 -32.5t-122.5 -89t-80 -131.5t-29 -159v-4zM428 199q47 -41 107.5 -62.5t128.5 -21.5q86 0 158.5 32.5t123.5 88t80 130t29 158.5v4 q0 72 -21.5 135.5t-58.5 114.5z" />
<glyph unicode="&#xf9;" horiz-adv-x="1261" d="M160 401v658h157v-619q0 -147 76 -233t217 -86q68 0 126.5 23.5t100.5 67.5t66.5 105.5t24.5 135.5v606h155v-1059h-155v184q-53 -86 -139.5 -146.5t-223.5 -60.5q-96 0 -171 31t-127 87.5t-79.5 134t-27.5 171.5zM350 1432l164 75l195 -297h-127z" />
<glyph unicode="&#xfa;" horiz-adv-x="1261" d="M160 401v658h157v-619q0 -147 76 -233t217 -86q68 0 126.5 23.5t100.5 67.5t66.5 105.5t24.5 135.5v606h155v-1059h-155v184q-53 -86 -139.5 -146.5t-223.5 -60.5q-96 0 -171 31t-127 87.5t-79.5 134t-27.5 171.5zM545 1210l194 297l164 -75l-231 -222h-127z" />
<glyph unicode="&#xfb;" horiz-adv-x="1261" d="M160 401v658h157v-619q0 -147 76 -233t217 -86q68 0 126.5 23.5t100.5 67.5t66.5 105.5t24.5 135.5v606h155v-1059h-155v184q-53 -86 -139.5 -146.5t-223.5 -60.5q-96 0 -171 31t-127 87.5t-79.5 134t-27.5 171.5zM346 1219l217 268h139l218 -268h-136l-153 137 l-154 -137h-131z" />
<glyph unicode="&#xfc;" horiz-adv-x="1261" d="M160 401v658h157v-619q0 -147 76 -233t217 -86q68 0 126.5 23.5t100.5 67.5t66.5 105.5t24.5 135.5v606h155v-1059h-155v184q-53 -86 -139.5 -146.5t-223.5 -60.5q-96 0 -171 31t-127 87.5t-79.5 134t-27.5 171.5zM360 1219v194h185v-194h-185zM721 1219v194h184v-194 h-184z" />
<glyph unicode="&#xfd;" horiz-adv-x="1210" d="M70 1059h174l385 -883l340 883h168l-445 -1094q-33 -82 -69.5 -139t-79.5 -92t-93.5 -51.5t-109.5 -16.5q-66 0 -119 13.5t-106 39.5l53 125q39 -20 77 -29.5t89 -9.5q72 0 121 43t96 156zM547 1210l194 297l164 -75l-231 -222h-127z" />
<glyph unicode="&#xfe;" horiz-adv-x="1359" d="M176 -328v1823h158v-649q33 47 72.5 90t89 75.5t110 51t133.5 18.5q96 0 186.5 -36.5t162 -107.5t114.5 -172t43 -233v-4q0 -129 -43 -231t-113.5 -173t-161.5 -109t-188 -38q-74 0 -135 18.5t-110.5 49.5t-89 72t-70.5 86v-531h-158zM328 528q0 -92 31.5 -167.5t86 -129 t123 -83t142.5 -29.5q78 0 145.5 27.5t117.5 80t79.5 128t29.5 171.5v4q0 94 -29.5 170t-80.5 129.5t-119 82t-143 28.5q-74 0 -142.5 -29.5t-123 -83t-86 -129t-31.5 -166.5v-4z" />
<glyph unicode="&#xff;" horiz-adv-x="1210" d="M70 1059h174l385 -883l340 883h168l-445 -1094q-33 -82 -69.5 -139t-79.5 -92t-93.5 -51.5t-109.5 -16.5q-66 0 -119 13.5t-106 39.5l53 125q39 -20 77 -29.5t89 -9.5q72 0 121 43t96 156zM334 1219v194h184v-194h-184zM694 1219v194h185v-194h-185z" />
<glyph unicode="&#x152;" horiz-adv-x="2316" d="M139 713v4q0 152 55.5 282.5t157 227t241.5 152t308 55.5h1282v-148h-837v-489h745v-148h-745v-502h847v-147h-1292q-168 0 -308 54.5t-241.5 150.5t-157 226t-55.5 282zM307 717q0 -119 42 -222.5t119 -180t187.5 -120.5t245.5 -44h283v1134h-283q-135 0 -245.5 -43 t-187.5 -118.5t-119 -179t-42 -222.5v-4z" />
<glyph unicode="&#x153;" horiz-adv-x="2148" d="M111 524v4q0 113 42 213.5t115.5 176t174 119.5t216.5 44q156 0 277 -77.5t186 -202.5q59 127 173 203.5t261 76.5q117 0 208 -44t154.5 -119.5t96.5 -178t33 -219.5v-24q0 -12 -2 -31h-840q8 -84 41 -149.5t84 -110.5t114.5 -68.5t133.5 -23.5q111 0 189.5 41t144.5 108 l98 -88q-78 -90 -181.5 -144.5t-252.5 -54.5q-147 0 -269 76t-188 209q-66 -125 -187.5 -205t-279.5 -80q-115 0 -214 44t-171.5 119t-114.5 174.5t-42 211.5zM272 528q0 -86 30 -160.5t82 -130t124 -88t154 -32.5q86 0 156.5 32.5t120.5 88t79 129t29 157.5v4q0 86 -30 161 t-82 131.5t-123 89t-155 32.5q-86 0 -156.5 -32.5t-120.5 -88t-79 -130.5t-29 -159v-4zM1206 592h682q-6 72 -30.5 136.5t-66.5 113.5t-102.5 77.5t-138.5 28.5q-68 0 -127 -26.5t-104 -74.5t-75 -112.5t-38 -142.5z" />
<glyph unicode="&#x178;" horiz-adv-x="1466" d="M55 1434h197l483 -717l488 717h188l-596 -865v-569h-164v567zM461 1554v195h184v-195h-184zM821 1554v195h185v-195h-185z" />
<glyph unicode="&#x2c6;" d="M225 1219l217 268h140l217 -268h-135l-154 137l-154 -137h-131z" />
<glyph unicode="&#x2dc;" d="M176 1227q31 117 76 166t119 49q35 0 71.5 -12.5t73.5 -28t69.5 -28.5t59.5 -13q41 0 62.5 22.5t44.5 77.5l96 -26q-31 -117 -76 -166t-119 -49q-35 0 -71.5 13t-73.5 28.5t-69.5 27.5t-59.5 12q-41 0 -62.5 -22.5t-44.5 -77.5z" />
<glyph unicode="&#x2000;" horiz-adv-x="929" />
<glyph unicode="&#x2001;" horiz-adv-x="1858" />
<glyph unicode="&#x2002;" horiz-adv-x="929" />
<glyph unicode="&#x2003;" horiz-adv-x="1858" />
<glyph unicode="&#x2004;" horiz-adv-x="619" />
<glyph unicode="&#x2005;" horiz-adv-x="464" />
<glyph unicode="&#x2006;" horiz-adv-x="309" />
<glyph unicode="&#x2007;" horiz-adv-x="309" />
<glyph unicode="&#x2008;" horiz-adv-x="232" />
<glyph unicode="&#x2009;" horiz-adv-x="371" />
<glyph unicode="&#x200a;" horiz-adv-x="103" />
<glyph unicode="&#x2010;" horiz-adv-x="835" d="M133 532v166h569v-166h-569z" />
<glyph unicode="&#x2011;" horiz-adv-x="835" d="M133 532v166h569v-166h-569z" />
<glyph unicode="&#x2012;" horiz-adv-x="835" d="M133 532v166h569v-166h-569z" />
<glyph unicode="&#x2013;" horiz-adv-x="1081" d="M133 537v157h815v-157h-815z" />
<glyph unicode="&#x2014;" horiz-adv-x="1839" d="M133 537v157h1573v-157h-1573z" />
<glyph unicode="&#x2018;" horiz-adv-x="501" d="M147 979v184q0 125 54.5 189.5t171.5 91.5l24 -72q-78 -29 -109.5 -70.5t-27.5 -107.5h76v-215h-189z" />
<glyph unicode="&#x2019;" horiz-adv-x="501" d="M104 1040q78 29 111 71t27 108h-74v215h188v-185q0 -125 -55 -189.5t-172 -90.5z" />
<glyph unicode="&#x201a;" horiz-adv-x="501" d="M94 -178q78 29 111 70.5t26 107.5h-73v215h188v-184q0 -125 -55 -189.5t-172 -91.5z" />
<glyph unicode="&#x201c;" horiz-adv-x="911" d="M147 979v184q0 125 54.5 189.5t171.5 91.5l24 -72q-78 -29 -109.5 -70.5t-27.5 -107.5h76v-215h-189zM557 979v184q0 125 54.5 189.5t170.5 91.5l25 -72q-78 -29 -109.5 -70.5t-27.5 -107.5h73v-215h-186z" />
<glyph unicode="&#x201d;" horiz-adv-x="911" d="M104 1040q78 29 111 71t27 108h-74v215h188v-185q0 -125 -55 -189.5t-172 -90.5zM514 1040q78 29 110.5 71t26.5 108h-73v215h186v-185q0 -125 -54.5 -189.5t-170.5 -90.5z" />
<glyph unicode="&#x201e;" horiz-adv-x="911" d="M94 -178q78 29 111 70.5t26 107.5h-73v215h188v-184q0 -125 -55 -189.5t-172 -91.5zM504 -178q78 29 110.5 70.5t26.5 107.5h-74v215h187v-184q0 -125 -54.5 -189.5t-171.5 -91.5z" />
<glyph unicode="&#x2022;" horiz-adv-x="978" d="M221 719v4q0 55 21.5 103t58.5 85t86 57.5t102 20.5t101.5 -20.5t85.5 -57.5t59.5 -85t22.5 -103v-4q0 -55 -21.5 -103.5t-57.5 -85t-85.5 -57t-104.5 -20.5t-104 20.5t-85 57t-57.5 85t-21.5 103.5z" />
<glyph unicode="&#x2026;" horiz-adv-x="1480" d="M158 0v211h182v-211h-182zM649 0v211h182v-211h-182zM1141 0v211h184v-211h-184z" />
<glyph unicode="&#x202f;" horiz-adv-x="371" />
<glyph unicode="&#x2039;" horiz-adv-x="671" d="M98 522v17l332 436l121 -68l-277 -375l277 -378l-121 -70z" />
<glyph unicode="&#x203a;" horiz-adv-x="671" d="M121 152l276 376l-276 377l119 70l331 -436v-17l-331 -438z" />
<glyph unicode="&#x205f;" horiz-adv-x="464" />
<glyph unicode="&#x2122;" horiz-adv-x="1413" d="M53 1348v86h496v-86h-203v-545h-90v545h-203zM688 803v631h96l226 -347l223 347h94v-631h-88v483l-225 -342h-13l-223 342v-483h-90z" />
<glyph unicode="&#xe000;" horiz-adv-x="1054" d="M0 0v1055h1055v-1055h-1055z" />
</font>
</defs>
</svg>
