<?xml  version="1.0" encoding="UTF-8"?>
<!DOCTYPE svg PUBLIC "-//W3C//DTD SVG 1.0//EN" "http://www.w3.org/TR/2001/REC-SVG-20010904/DTD/svg10.dtd" >
<svg xmlns="http://www.w3.org/2000/svg" >
<metadata>
<version>1.0</version>
<id><![CDATA[Bell Gothic W01 Black]]></id>
<vendor>Monotype Imaging Inc.</vendor>
<credits>
<name>Fonts.com WebFonts</name>
<URL>http://webfonts.fonts.com</URL>
<role>Home of the Web fonts</role>
</credits>
<license>
<URL>http://webfonts.fonts.com/Legal</URL>
</license>
<copyright><![CDATA[Copyright © 1992, 2001 Adobe Systems Incorporated.  All Rights Reserved.]]></copyright>
<trademark><![CDATA[Bell Gothic]]></trademark>
<licensee>
<name></name>
</licensee>
</metadata>
<defs >
<font horiz-adv-x="543" id="f0c75b43-5d87-40a6-b473-655083ce053c">
<font-face font-family="" panose-1="2 11 7 6 2 2 2 4 2 4" ascent="942" descent="-250" units-per-em="1000" alphabetic="0">
</font-face>
<missing-glyph horiz-adv-x="275" />

<glyph unicode="&#xA;" />
<glyph unicode="&#xD;" />
<glyph unicode=" " horiz-adv-x="275" />
<glyph unicode="!" horiz-adv-x="389" d="M143 266L113 734H276L249 266H143ZM121 157H274V0H121V157Z"  />
<glyph unicode="&quot;" horiz-adv-x="333" d="M196 700H316V429H196V700ZM15 700H135V429H15V700Z"  />
<glyph unicode="#" horiz-adv-x="600" d="M514 197H428L401 0H301L328 197H237L210 0H110L137 197H52L56 292H151L167 408H82L86 503H180L207 700H307L280 503H371L398 700H498L471 503H548L544 408H458L442 292H518L514 197ZM267 408L251 292H342L358 408H267Z"  />
<glyph unicode="$" horiz-adv-x="556" d="M244 825H311V740Q360 736 412 716T502 657L426 547Q408 571 392 585T362 607T334 618T310 623V456Q354 441 392 421T459 371T504 304T520 214Q520 205 519 192T513 162T501 127T480 91Q459 62 436 46T390 21T347 9T311 5V-125L241 -124V5Q206 5 176 13T120 34T71 63T27 95L95 218Q112 195 133 178T173 148Q193 135 211 129T241 120V329Q238 330 221 336T182 353T135 379T91 414Q73 433 57 463T40 540Q40 555 42 573T50 610T68 648T101 686Q133 713 166 724T244 740V825ZM243 628Q235 628 221 626T194 618T170 599T160 564Q160 544 167 531T185 509T212 493T243 480V628ZM310 116Q325 117 340 122T368 137T388 164T396 203Q396 211 395 220T388 241T372 263T341 285L310 301V116Z"  />
<glyph unicode="%" horiz-adv-x="889" d="M221 446Q242 446 260 454T291 475T311 506T319 543Q319 563 312 580T291 611T259 633T221 641Q201 641 183 633T152 612T131 581T123 543Q123 522 131 504T152 474T183 454T221 446ZM221 353Q181 353 147 367T86 407T45 468T30 543Q30 582 45 617T86 678T146 719T221 734Q260 734 295 719T356 678T397 617T412 543Q412 503 397 468T356 408T295 368T221 353ZM657 6Q678 6 696 14T728 35T748 65T756 102Q756 122 749 139T728 170T696 192T657 200Q637 200 619 192T588 171T567 140T559 102Q559 81 567 64T588 33T619 13T657 6ZM657 -87Q617 -87 583 -73T522 -33T481 27T466 102Q466 141 481 176T522 237T582 278T657 293Q697 293 731 278T792 237T833 176T848 102Q848 62 833 28T792 -32T732 -72T657 -87ZM179 -107L625 753H697L251 -107H179Z"  />
<glyph unicode="&amp;" horiz-adv-x="778" d="M418 374Q434 352 444 339T464 313T486 286T517 248Q540 282 554 319T579 394L714 350Q699 298 676 249T616 155Q627 144 640 139T667 130T693 126T715 125V-18Q671 -19 642 -16T590 -4T550 16T510 45Q485 26 461 14T412 -7T360 -18T300 -22Q240 -22 194 -4T115 48T67 125T50 221Q50 271 65 308T105 372T157 418T211 453Q208 457 201 470T187 502T175 542T169 587Q169 615 180 644T214 696T272 733T358 748Q393 748 427 739T487 711T530 661T546 589Q546 550 531 521T492 470T443 433T394 407L418 374ZM316 105Q358 105 382 117T417 138Q393 165 370 195T328 254T293 308T269 350Q240 335 217 304T194 234Q194 216 200 194T221 152T258 119T316 105ZM296 596Q296 573 308 550T339 495Q371 512 388 528T413 557T422 581T424 596Q424 618 408 638T360 659Q352 659 341 657T320 648T303 629T296 596Z"  />
<glyph unicode="&apos;" horiz-adv-x="222" d="M51 700H171V429H51V700Z"  />
<glyph unicode="(" horiz-adv-x="389" d="M336 748Q333 744 327 735T313 715T298 695T289 682Q254 630 232 580T198 481T182 387T177 299Q177 231 191 164T229 33Q235 18 245 -3T270 -48T303 -98T343 -149H193Q185 -142 171 -122T139 -74T104 -12T75 59Q54 124 45 183T36 303Q36 374 46 434T76 549T122 652T184 748H336Z"  />
<glyph unicode=")" horiz-adv-x="389" d="M205 748Q239 701 266 652T313 549T342 435T353 303Q353 243 344 184T314 59Q302 23 285 -11T251 -74T218 -122T196 -149H46Q67 -124 85 -98T118 -48T143 -3T160 33Q184 96 198 163T212 299Q212 341 208 387T191 481T157 579T100 682Q98 686 91 695T77 714T63 734T53 748H205Z"  />
<glyph unicode="*" horiz-adv-x="556" d="M208 752H330L292 563L464 657L502 543L306 521L455 385L360 311L275 494L190 311L91 377L237 520L43 537L76 649L250 560L208 752Z"  />
<glyph unicode="+" horiz-adv-x="600" d="M240 506H360V313H552V193H360V0H240V193H48V313H240V506Z"  />
<glyph unicode="&#x2c;" horiz-adv-x="278" d="M60 153H215V-15L134 -179H60L128 0H60V153Z"  />
<glyph unicode="-" horiz-adv-x="333" d="M37 324H297V194H37V324Z"  />
<glyph unicode="." horiz-adv-x="278" d="M63 157H216V0H63V157Z"  />
<glyph unicode="/" horiz-adv-x="278" d="M315 748L82 -20H-37L196 748H315Z"  />
<glyph unicode="0" horiz-adv-x="556" d="M363 446Q363 500 357 535T339 590T311 619T277 627Q260 627 245 621T218 596T199 542T192 449V289Q192 223 199 185T219 126T248 100T281 94Q306 94 322 108T347 149T359 214T363 303V446ZM40 363Q40 392 40 424T45 490T58 557T83 620Q93 638 108 660T147 701T202 732T279 745Q301 745 326 740T376 722T425 687T467 630Q480 606 489 575T505 508T513 435T516 362Q516 346 515 315T508 246T494 168T467 95Q458 77 444 56T407 18T355 -12T285 -24Q224 -24 182 -3T113 53T71 131T49 217T41 298T40 363Z"  />
<glyph unicode="1" horiz-adv-x="556" d="M69 118H211V616H58V734H358V118H493V0H69V118Z"  />
<glyph unicode="2" horiz-adv-x="556" d="M16 571Q32 601 51 632T98 688T165 729T260 745Q318 745 362 727T437 679T482 610T497 530Q497 487 485 452T450 387T400 330T339 276Q330 268 318 258T292 237T266 215T244 196Q232 186 225 179T214 165T206 151T200 132H502V0H25Q30 54 38 93T66 169T118 243T206 331Q243 365 269 390T313 437T339 480T347 528Q347 567 325 597T256 628Q222 628 201 613T166 576T147 531T138 494L16 571Z"  />
<glyph unicode="3" horiz-adv-x="556" d="M19 109Q27 107 45 105T109 102Q154 102 198 111T278 139T336 183T358 245Q358 273 349 291T325 319T295 332T267 336Q231 336 208 327T172 310L128 407Q160 422 193 439T258 479Q266 485 277 493T298 513T315 539T322 570Q322 598 301 615T249 633Q219 633 196 623T154 599T121 567T97 537L23 633Q41 653 64 673T117 709T183 736T266 747Q279 747 296 746T331 740T369 727T407 707Q466 665 466 594Q466 558 455 532T426 487T388 455T352 433V428Q366 425 382 421T416 409T450 387T480 352Q497 325 501 298T506 261Q506 189 474 135T390 47Q324 4 248 -10T94 -24Q62 -24 45 -23T19 -20V109Z"  />
<glyph unicode="4" horiz-adv-x="556" d="M117 303H301V618L117 303ZM21 336L250 734H447V303H509V183H447V0H302V183H21V336Z"  />
<glyph unicode="5" horiz-adv-x="556" d="M47 333L90 734H471V606H196L181 472L189 471Q211 481 235 485T284 490Q345 490 389 471T461 418T503 341T517 249Q517 203 500 151T431 53Q406 31 377 17T318 -6T260 -18T208 -22Q179 -22 136 -18T27 2L50 127Q84 114 118 109T174 104Q186 104 203 105T239 109T277 118T312 137Q339 157 353 187T367 253Q367 286 356 309T328 347T291 368T251 375Q215 375 193 361T153 333H47Z"  />
<glyph unicode="6" horiz-adv-x="556" d="M270 87Q305 87 324 102T351 140T361 186T363 229Q363 246 360 267T345 306Q329 329 309 335T272 341Q238 341 220 326T193 290T183 247T181 210Q181 187 185 165T198 126T225 98T270 87ZM392 744Q355 707 317 660T253 568Q246 556 236 538T215 498T195 456T183 419Q201 432 219 439T254 450T283 454T298 455Q340 455 379 440T448 394T497 319T515 216Q515 202 513 179T502 128T478 74T436 25T372 -10T279 -24Q218 -24 171 -4T92 53T44 142T27 259Q27 302 31 338T42 408T61 474T88 542Q100 570 108 588T127 625T154 672T200 744H392Z"  />
<glyph unicode="7" horiz-adv-x="556" d="M55 734H521V676Q521 668 515 659T506 642Q478 579 460 538T430 465T409 408T387 347Q354 250 330 164T291 0H126Q141 55 155 100T184 186T214 266T247 347Q266 392 285 434T319 510T347 568T364 602H55V734Z"  />
<glyph unicode="8" horiz-adv-x="556" d="M278 333Q269 333 247 327T208 298Q197 283 192 264T187 213Q187 172 195 148T216 111T245 94T278 90Q305 90 323 99T351 125T366 164T370 212Q370 225 369 245T359 285T331 319T278 333ZM276 436Q303 436 318 447T342 475T352 507T354 532Q354 581 336 607T277 634Q254 634 239 626T215 605T202 573T198 535Q198 527 199 511T207 478T231 449T276 436ZM400 383Q414 378 427 373T453 359T476 340T497 310Q507 291 514 267T521 205Q521 145 499 98T437 22Q417 7 395 -1T352 -13T310 -19T274 -20Q206 -20 161 2T88 56T48 126T36 193Q36 231 41 256T63 308Q78 331 101 351T153 382V389Q136 396 119 409T87 441T63 487T53 547Q53 558 54 576T62 615T83 659T125 702Q158 727 197 737T277 748Q322 748 362 735T433 697T482 636T500 551Q500 511 488 483T460 436T427 407T400 390V383Z"  />
<glyph unicode="9" horiz-adv-x="556" d="M275 642Q240 642 221 626T194 588T184 543T182 507Q182 495 183 475T193 435T220 402T273 388Q325 388 345 423T365 517Q365 535 362 557T350 598T323 629T275 642ZM153 -14Q208 40 247 93T310 192T347 268T362 310Q345 296 315 285T239 274Q236 274 221 275T184 283T137 303T90 341Q61 372 46 416T30 504Q30 566 47 613T96 691T171 739T266 755Q308 755 341 745T397 721T436 693T458 669Q487 633 503 582T519 451Q519 446 518 432T515 399T510 356T500 308Q491 275 477 236T443 155T399 70T345 -14H153Z"  />
<glyph unicode=":" horiz-adv-x="333" d="M90 157H243V0H90V157ZM90 467H243V310H90V467Z"  />
<glyph unicode=";" horiz-adv-x="333" d="M89 153H244V-15L163 -179H89L157 0H89V153ZM89 467H242V310H89V467Z"  />
<glyph unicode="&lt;" horiz-adv-x="600" d="M554 -8L46 206V300L554 514V399L202 253L554 107V-8Z"  />
<glyph unicode="=" horiz-adv-x="600" d="M552 305H48V425H552V305ZM552 81H48V201H552V81Z"  />
<glyph unicode="&gt;" horiz-adv-x="600" d="M398 253L46 399V514L554 300V206L46 -8V107L398 253Z"  />
<glyph unicode="?" horiz-adv-x="500" d="M167 269Q167 316 171 347T183 400T204 441T233 481Q247 498 259 511T284 543Q290 551 295 564T301 588Q301 617 284 631T239 646Q221 646 208 637T185 614T169 586T159 563L35 610Q46 633 61 658T101 704T163 738T254 752Q310 752 345 737T397 707Q415 692 425 676T439 643T445 613T446 590Q446 567 438 546T418 507T394 476T373 454Q349 429 333 412T308 376T295 333T291 269H167ZM153 157H306V0H153V157Z"  />
<glyph unicode="@" horiz-adv-x="800" d="M486 357Q486 392 465 416T409 440Q388 440 371 432T341 409T321 377T314 340Q314 306 333 283T387 260Q409 260 427 268T459 289T479 320T486 357ZM662 81Q619 41 560 15T423 -12Q345 -12 277 14T157 89T75 203T45 349Q45 427 74 493T154 608T272 684T417 712Q481 712 542 692T650 634T727 543T756 424Q756 372 743 332T709 263T661 214T607 182T556 164T514 159Q488 159 472 171T455 206L453 208Q436 188 409 174T346 159Q320 159 295 171T251 205T221 256T209 318Q209 361 220 400T255 469T313 517T395 535Q432 535 462 522T514 478L523 522H610L570 304Q569 298 568 289T567 271T570 256T579 250Q595 250 611 258T640 284T661 326T669 387Q669 445 650 489T597 564T516 609T414 624Q354 624 304 604T219 547T165 460T145 349Q145 285 166 235T226 149T316 95T431 76Q486 76 532 92T615 135L662 81Z"  />
<glyph unicode="A" horiz-adv-x="667" d="M334 603H330L250 271H415L334 603ZM429 734L641 0H484L447 146H222L184 0H27L234 734H429Z"  />
<glyph unicode="B" horiz-adv-x="667" d="M96 734H338Q386 734 429 729T504 704Q545 679 564 637T583 548Q583 481 554 440T482 389V384Q500 381 521 370T559 338T587 287T599 216Q599 175 589 135T542 58Q522 38 500 27T453 9T398 2T333 0H96V734ZM253 116H333Q381 116 409 140T437 221Q437 247 428 274T390 313Q373 320 335 321T253 322V116ZM253 435Q301 435 334 437T387 448T415 477T424 532Q424 565 414 583T388 610T355 619T326 621H253V435Z"  />
<glyph unicode="C" horiz-adv-x="667" d="M83 487Q83 614 149 682T344 750Q360 750 380 748T422 741T464 726T505 701Q530 681 544 656T567 603T577 549T581 500H420Q420 513 418 533T408 571T384 603T337 616Q322 616 305 610T276 593Q266 584 261 573T253 552T250 531T249 513V234Q249 219 250 199T260 161T286 130T338 117Q363 117 379 126T406 153T420 195T424 250H586Q586 230 586 218T584 197T582 180T579 160Q577 149 573 134T561 102T539 66T502 29Q482 13 460 4T415 -11T373 -18T342 -20Q278 -20 233 -5T152 45Q141 56 129 70T106 110T90 172T83 266V487Z"  />
<glyph unicode="D" horiz-adv-x="667" d="M81 734H259Q326 734 373 728T452 709T506 680T543 639Q555 621 563 601T577 552T584 480T587 376L586 251Q586 220 582 189T566 129T535 78T485 39Q445 19 409 13T328 2Q320 1 298 1T242 0T168 0T81 0V734ZM245 131H291Q315 131 338 135T380 154T410 200T422 284Q422 303 423 329T424 374Q424 440 420 486T397 559Q385 576 372 585T342 598T301 603T245 604V131Z"  />
<glyph unicode="E" horiz-adv-x="667" d="M88 734H581V600H248V444H477V310H250V137H604V0H88V734Z"  />
<glyph unicode="F" horiz-adv-x="611" d="M79 734H567V600H241V442H458V306H241V0H79V734Z"  />
<glyph unicode="G" horiz-adv-x="667" d="M72 463Q72 487 73 516T81 575T104 635T148 691Q190 729 238 739T341 749Q393 749 437 734T512 689T561 617T579 522H419Q417 571 394 594T328 617Q296 617 278 605T251 576T240 538T238 502V271Q238 235 242 207T257 158T286 127T335 116Q366 116 383 127T408 153T417 185T419 212V262H333V384H579V-8H507L486 43H479Q471 34 460 23T430 3T383 -13T312 -20Q256 -20 207 -2T122 61Q92 99 82 147T72 264V463Z"  />
<glyph unicode="H" horiz-adv-x="722" d="M94 734H257V456H463V734H628V0H466V317H258V0H94V734Z"  />
<glyph unicode="I" horiz-adv-x="389" d="M27 0V65H113V670H27V734H362V670H275V67H362V0H27Z"  />
<glyph unicode="J" horiz-adv-x="500" d="M135 231Q135 203 135 181T140 142T156 117T187 108Q219 108 229 125T240 172V734H400V166Q400 157 399 137T390 94T366 46T318 5Q292 -9 264 -14T207 -20Q176 -20 146 -17T83 6Q53 24 37 48T14 98T5 149T4 194Q4 203 4 212T5 231H135Z"  />
<glyph unicode="K" horiz-adv-x="722" d="M655 734L431 392L692 0H499L256 380L478 734H655ZM86 734H250V0H86V734Z"  />
<glyph unicode="L" horiz-adv-x="611" d="M76 734H240V137H563V0H76V734Z"  />
<glyph unicode="M" horiz-adv-x="889" d="M98 734H314L401 428Q404 416 407 407T412 390T416 372T422 351L444 259H449Q457 305 466 343T489 431L575 734H792V0H651V395Q651 414 651 439T653 492T655 549T658 604H654L502 0H391L235 604H230Q230 591 231 561T234 496T236 432T237 390V0H98V734Z"  />
<glyph unicode="N" horiz-adv-x="722" d="M96 734H250L439 391L464 341Q466 336 472 322T480 303H485L481 377Q480 396 480 407T479 427T478 443T478 461V734H626V0H494L299 356Q293 367 289 374T280 394T266 425T244 477H239Q239 469 240 450T242 410T243 370T244 344V0H96V734Z"  />
<glyph unicode="O" horiz-adv-x="667" d="M245 245Q245 216 248 192T261 151T288 123T332 113Q365 113 382 126T408 160T417 203T419 245V500Q419 519 418 539T408 575T383 602T334 613Q301 613 283 600T256 568T247 530T245 500V245ZM81 475Q81 532 94 584T145 678Q180 716 228 732T329 748Q386 748 435 733T522 677Q553 644 569 592T586 450V272Q586 194 572 143T523 53Q500 28 473 14T420 -8T369 -18T327 -20Q300 -20 267 -14T201 8T141 54T100 130Q88 169 85 211T81 278V475Z"  />
<glyph unicode="P" horiz-adv-x="667" d="M257 398Q286 398 306 398T341 399T365 401T382 406Q387 408 397 413T416 430T433 461T441 508Q441 535 437 551T425 578T409 594T392 603Q382 607 374 609T351 612T315 613T257 613V398ZM95 734H337Q418 734 465 718T542 676Q577 645 593 602T609 503Q609 460 599 428T573 374T542 337T513 315Q473 291 431 286T345 278L257 275V0H95V734Z"  />
<glyph unicode="Q" horiz-adv-x="667" d="M639 -68Q617 -68 600 -66T558 -53Q524 -36 508 -15T487 23Q466 9 444 1T400 -12T360 -18T327 -20Q300 -20 267 -14T201 8T141 54T100 130Q88 169 85 211T81 278V475Q81 532 94 584T145 678Q180 716 228 732T329 748Q386 748 435 733T522 677Q553 644 569 592T586 450V272Q586 226 581 190T565 124Q575 111 583 104T600 94T618 91T639 90V-68ZM329 336Q360 331 376 323T406 297Q409 293 411 290T419 278V500Q419 520 417 540T407 577T381 603T332 613Q299 613 282 599T256 566T247 529T245 500V245Q245 215 248 191T262 150T289 123T333 113Q356 113 371 120T397 142Q388 156 381 165T367 180T350 191T329 199V336Z"  />
<glyph unicode="R" horiz-adv-x="667" d="M245 417Q279 417 300 417T334 418T356 420T373 425Q392 432 403 442T419 466T426 493T428 523Q428 561 416 581T380 611Q371 614 361 616T337 619T301 620T245 620V417ZM245 0H86V734H323Q368 734 415 729T502 702T567 638T593 521Q593 451 562 400T453 326L613 0H438L299 300H245V0Z"  />
<glyph unicode="S" horiz-adv-x="611" d="M425 537Q408 570 375 594T298 619Q266 619 249 609T224 587T214 563T212 548Q212 528 220 514T241 490T271 473T305 459L398 425Q431 413 466 391T523 339Q526 334 533 323T547 296T559 258T564 210Q564 198 563 175T551 125T520 69T460 16Q444 6 425 -1T387 -12T351 -19T319 -21Q271 -21 232 -15T160 9T100 55T48 128L173 211Q193 164 228 138T312 111Q325 111 342 114T374 127T399 153T410 194Q410 215 404 228T381 253T338 276T270 304Q228 320 191 338T125 384T80 449T63 541Q63 586 79 624T126 690T201 733T302 749Q383 749 442 716T546 617L425 537Z"  />
<glyph unicode="T" horiz-adv-x="611" d="M575 734V600H392V0H224V600H37V734H575Z"  />
<glyph unicode="U" horiz-adv-x="722" d="M95 734H262V250Q262 233 263 210T274 166T304 130T361 115Q373 115 390 117T424 131T452 171T464 249V734H627V248Q627 231 626 205T617 149T595 90T551 37Q513 6 467 -6T370 -19Q312 -19 258 -5T169 42Q142 67 128 95T106 151T97 206T95 259V734Z"  />
<glyph unicode="V" horiz-adv-x="667" d="M249 0L25 734H186L300 339L335 214H339Q347 247 356 280T374 346L483 734H643L424 0H249Z"  />
<glyph unicode="W" horiz-adv-x="944" d="M180 734L256 387Q257 382 259 372T265 350T270 328T273 313L286 241H292L307 313Q308 317 310 328T316 351T321 373T325 388L405 734H543L622 389Q622 387 627 365T639 316T650 266T656 241H660Q663 256 667 279T677 325T685 364T689 382L767 734H911L737 0H592L504 361Q494 401 487 439T476 497H472Q470 489 466 469T457 427T448 386T442 359L357 0H212L34 734H180Z"  />
<glyph unicode="X" horiz-adv-x="667" d="M237 381L28 734H200L288 579Q291 574 296 564T307 541T318 519T326 504H332L372 580L455 734H630L425 384L644 0H470L372 186Q363 202 358 212T350 229T343 242T336 257H330L292 184L198 0H24L237 381Z"  />
<glyph unicode="Y" horiz-adv-x="667" d="M258 0V290L26 734H199L292 551L334 461H339Q344 473 348 480T356 497T366 517T381 549L470 734H641L420 296V0H258Z"  />
<glyph unicode="Z" horiz-adv-x="611" d="M74 734H562V604L248 137H562V0H50V133L374 600H74V734Z"  />
<glyph unicode="[" horiz-adv-x="389" d="M49 734H340V663H183V-59H338V-131H49V734Z"  />
<glyph unicode="\" horiz-adv-x="278" d="M82 748L315 -20H196L-37 748H82Z"  />
<glyph unicode="]" horiz-adv-x="389" d="M340 -131H51V-59H206V663H49V734H340V-131Z"  />
<glyph unicode="^" horiz-adv-x="600" d="M33 247L247 700H353L567 247H447L300 583L152 247H33Z"  />
<glyph unicode="_" horiz-adv-x="500" d="M0 -125V-75H500V-125H0Z"  />
<glyph unicode="`" horiz-adv-x="278" d="M211 593H110L-37 738H117L211 593Z"  />
<glyph unicode="a" horiz-adv-x="500" d="M30 473Q47 486 65 498T106 521T160 537T233 543Q247 543 267 541T310 533T354 517T392 491Q422 461 427 433T432 383V123Q432 122 433 117T437 106T447 95T463 90V-6H422Q396 -6 378 1T347 18T326 39T313 60H309Q296 43 287 33T260 13Q257 11 249 7T229 -2T201 -10T168 -14Q147 -14 122 -8T76 16T41 62T26 137Q26 155 30 178T47 224T81 269T140 308Q178 325 217 334T292 345Q292 364 292 377T291 400T288 415T282 426Q275 436 260 442T224 449Q201 449 183 444T148 430T120 411T96 391L30 473ZM291 271Q279 269 257 264T214 245T176 211T159 155Q159 128 174 109T215 90Q239 90 254 100T277 126T288 159T291 189V271Z"  />
<glyph unicode="b" horiz-adv-x="556" d="M65 734H206V465H209Q234 495 255 511T295 534T327 543T351 545Q398 545 425 526T465 476T482 411T485 345L486 264Q486 219 485 182T479 112Q477 103 472 83T452 43T411 7T343 -8Q296 -8 261 17T203 86H197V0H65V734ZM206 157Q216 146 235 131T285 116Q306 116 317 125T335 154T342 202T343 272Q343 317 342 348T336 398T319 425T288 434Q278 434 270 432T253 426T233 414T206 394V157Z"  />
<glyph unicode="c" horiz-adv-x="500" d="M315 373Q314 383 312 394T305 413T288 427T258 433Q233 433 220 423T200 398T193 367T192 340V185Q192 135 205 115T260 95Q295 95 307 117T319 171H439Q438 151 435 120T414 59T360 8T256 -14Q245 -14 229 -14T192 -9T152 4T113 30Q78 62 65 106T51 199V324Q51 370 61 410T93 480T152 527T243 544Q255 544 274 543T314 537T356 519T394 486Q419 456 423 427T428 373H315Z"  />
<glyph unicode="d" horiz-adv-x="556" d="M333 465V734H475V0H343V86H337Q319 56 301 38T265 9T229 -4T191 -8Q156 -8 132 4T93 35T71 74T60 112Q55 142 54 177T53 241Q53 314 54 362T64 447Q73 489 103 517T189 545Q222 545 245 537T285 516T311 489T328 465H333ZM333 394Q328 398 320 405T301 418T277 429T251 434Q231 434 220 425T204 397T198 353T197 294Q197 244 197 215T200 170Q205 137 220 127T254 116Q285 116 304 131T333 157V394Z"  />
<glyph unicode="e" horiz-adv-x="500" d="M178 236Q178 216 179 191T189 143T218 106T275 91Q307 91 338 99T416 130L431 24Q411 17 392 11T353 0T311 -8T263 -11Q239 -11 209 -7T149 11T95 52T59 125Q55 140 53 157T49 191T47 218T46 231Q46 301 50 363T82 470Q97 495 118 510T162 533T206 543T244 545Q276 545 300 539T343 523T374 499T397 470Q409 452 415 433T425 387T428 324T429 236H178ZM313 315Q313 345 312 371T304 415T283 445T242 456Q217 456 204 444T185 411T179 365T178 315H313Z"  />
<glyph unicode="f" horiz-adv-x="389" d="M35 530H113V609Q113 620 114 634T120 664T138 693T173 719Q200 732 232 736T283 740Q298 740 316 739T352 736V632Q323 632 304 631T273 626T258 612T253 584V530H352V424H253V0H113V421H35V530Z"  />
<glyph unicode="g" horiz-adv-x="556" d="M161 -37Q166 -44 173 -52T191 -68T214 -81T246 -86Q255 -86 266 -84T289 -77T311 -63T328 -41Q333 -29 334 -15T336 20V100H331Q308 66 274 45T188 24Q165 24 147 31T113 50T88 76T72 105Q64 127 63 153T61 197V345Q61 364 63 398T77 465T117 523T195 548Q235 548 257 535T294 509Q308 498 318 484T341 447H345V537H477V87Q477 49 474 4T449 -81T383 -147T256 -174Q211 -174 179 -165T125 -144T91 -116T74 -89L161 -37ZM336 377Q331 383 322 389T302 400T280 408T261 411Q237 411 226 401T209 376Q206 368 205 356T202 330T200 304T199 284Q199 277 199 261T201 228T204 194T209 171Q217 150 231 142T261 133Q290 133 308 147T336 171V377Z"  />
<glyph unicode="h" horiz-adv-x="556" d="M69 734H210V519L208 447H214Q244 501 281 522T361 543Q393 543 420 530T464 491Q482 464 485 435T488 381V0H348V341Q348 353 347 367T342 392T328 412T300 420Q275 420 257 407T210 368V0H69V734Z"  />
<glyph unicode="i" horiz-adv-x="278" d="M70 530H208V0H70V530ZM208 618H70V738H208V618Z"  />
<glyph unicode="j" horiz-adv-x="333" d="M7 -59Q25 -59 42 -58T74 -51T96 -30T105 10V530H245V-28Q245 -58 238 -87T200 -141Q176 -161 145 -170T54 -179Q43 -179 32 -178T7 -175V-59ZM104 741H245V618H104V741Z"  />
<glyph unicode="k" horiz-adv-x="556" d="M349 530H497L366 292L529 0H373L226 284L349 530ZM70 734H209V0H70V734Z"  />
<glyph unicode="l" horiz-adv-x="278" d="M69 734H210V0H69V734Z"  />
<glyph unicode="m" horiz-adv-x="833" d="M71 530H196V431H200Q220 470 243 492T287 526T326 540T353 543Q387 543 408 532T441 504T459 471T468 444H473Q483 458 496 475T529 508T573 533T633 543Q673 543 703 524T747 466Q751 454 753 437T757 402T759 365T760 334V0H623V361Q623 370 622 380T615 399T599 413T571 419Q556 419 537 411T484 370V0H347V348Q347 356 346 368T341 392T326 412T297 420Q275 420 256 407T208 368V0H71V530Z"  />
<glyph unicode="n" horiz-adv-x="556" d="M69 530H199V432H202Q214 453 229 473T263 508T305 532T354 541Q404 541 431 523T471 480T486 429T488 388V0H347V346Q347 354 347 366T342 389T328 409T301 418Q271 418 251 402T210 363V0H69V530Z"  />
<glyph unicode="o" horiz-adv-x="556" d="M211 230Q211 223 211 211T213 187T215 163T218 145Q222 127 230 117T248 103T266 98T279 97Q304 97 317 106T337 138T345 197T346 287Q346 318 345 346T338 395T319 428T280 440Q254 440 240 429T220 402T212 368T211 334V230ZM69 279Q69 304 70 333T76 392T94 450T129 499T186 533T272 546Q294 546 318 544T367 534T414 510T454 465Q474 433 480 386T487 267Q487 226 486 194T480 134T463 85T430 42Q423 36 413 27T386 11T345 -2T285 -8Q273 -8 257 -8T225 -5T192 2T163 13Q130 32 111 57T83 116T71 190T69 279Z"  />
<glyph unicode="p" horiz-adv-x="556" d="M67 535H197V451H205Q250 546 347 546Q381 546 403 536T440 510T461 476T473 443Q481 409 482 355T484 241Q484 197 484 167T481 115T473 78T458 47Q444 25 419 10T348 -5Q300 -5 268 18T215 73H208V-173H67V535ZM208 145Q225 131 244 119T287 106Q308 106 319 114T336 140T342 184T343 248Q343 255 343 273T342 310T341 347T339 369Q336 388 330 398T317 414T301 421T286 422Q260 422 241 410T208 384V145Z"  />
<glyph unicode="q" horiz-adv-x="556" d="M472 535V-173H331V73H324Q318 64 308 51T283 26T245 4T191 -5Q135 -5 101 24T58 117Q58 120 58 123T57 132T57 148T56 176Q56 180 56 189T55 208T55 228T54 241Q54 245 54 270T55 326T59 390T66 443Q68 452 74 469T93 503T130 533T189 546Q290 546 334 451H343V535H472ZM331 384Q320 398 299 410T254 422Q234 422 223 414T206 390T199 349T197 290Q197 277 197 257T197 218T197 183T198 164Q198 159 200 149T207 130T223 113T252 106Q275 106 294 120T331 155V384Z"  />
<glyph unicode="r" horiz-adv-x="389" d="M58 530H192V410H196Q215 453 234 479T274 520T315 538T354 544V361Q332 361 314 360T277 355T241 341T201 313V0H58V530Z"  />
<glyph unicode="s" horiz-adv-x="444" d="M328 403Q293 427 272 436T225 446Q200 446 186 436T171 405Q171 383 191 371T242 344Q270 331 299 316T351 279T389 227T404 155Q404 104 384 72T336 20T277 -6T224 -14Q188 -14 160 -7T110 10T72 32T46 52L109 148Q129 127 155 108T221 88Q253 88 264 104T276 135Q276 158 261 168T213 194Q126 234 87 276T47 380Q47 420 64 457T122 518Q154 538 181 541T229 544Q254 544 278 539T323 526T360 509T388 490L328 403Z"  />
<glyph unicode="t" horiz-adv-x="389" d="M16 530H95V722H234V530H336V428H234V153Q234 147 235 139T242 124T263 113T304 108Q310 108 315 108T343 111V2Q322 -1 309 -2T288 -4T273 -5T259 -6Q236 -6 208 -3T155 15T112 58T95 139V428H16V530Z"  />
<glyph unicode="u" horiz-adv-x="556" d="M487 530V0H359V90H353Q342 71 329 53T297 20T256 -4T200 -13Q153 -13 127 4T87 44T72 90T69 128V530H209V185Q209 171 211 158T218 135T232 118T257 111Q269 111 283 116T302 125Q321 136 331 147T347 166V530H487Z"  />
<glyph unicode="v" horiz-adv-x="500" d="M175 530L229 321L250 236H255Q259 251 261 262T266 283T271 304T278 331L328 530H463L323 0H187L38 530H175Z"  />
<glyph unicode="w" horiz-adv-x="722" d="M414 530L473 308Q474 303 477 291T484 266T491 240T495 223H499Q502 237 504 247T508 267T513 286T519 311L571 530H696L555 0H449L386 239Q379 264 375 280T366 320H361L340 240L280 0H172L27 530H151L203 315Q208 294 211 282T216 260T221 243T226 223H232Q237 243 240 259T247 289Q249 296 251 305T256 322L308 530H414Z"  />
<glyph unicode="x" horiz-adv-x="500" d="M464 530L324 270L475 0H327Q316 21 309 34T294 63T277 98T252 150H247L235 123L174 0H26L174 269L33 530H180L233 420Q235 416 240 405T247 391H251L263 420L317 530H464Z"  />
<glyph unicode="y" horiz-adv-x="500" d="M167 530L243 269H251L316 530H453L321 39Q303 -29 282 -71T236 -136T179 -167T106 -175Q93 -175 84 -175T68 -174T53 -172T37 -168V-50L88 -56Q106 -56 119 -52T140 -42T153 -30T161 -20Q175 0 177 14T179 52L28 530H167Z"  />
<glyph unicode="z" horiz-adv-x="444" d="M37 97L245 427H46V530H403V433L199 105H407V0H37V97Z"  />
<glyph unicode="{" horiz-adv-x="333" d="M1 346Q10 346 26 348T58 357T86 378T98 416V596Q98 632 113 658T151 701T201 726T251 734H331V644H276Q256 644 245 638T227 622T220 601T218 579V392Q218 370 206 353T177 324T142 306T110 298V295Q123 294 141 290T177 276T206 247T218 199V24Q218 14 219 3T227 -18T244 -34T276 -41H331V-131H251Q228 -131 201 -123T151 -98T113 -55T98 7V186Q98 207 86 219T59 237T27 245T1 247V346Z"  />
<glyph unicode="|" horiz-adv-x="222" d="M51 750H171V-250H51V750Z"  />
<glyph unicode="}" horiz-adv-x="333" d="M332 247Q323 247 307 245T275 237T247 219T235 186V7Q235 -29 220 -55T182 -98T132 -123T82 -131H2V-41H57Q77 -41 88 -35T106 -19T113 2T115 24V199Q115 228 127 246T156 275T191 290T223 295V298Q210 299 192 305T156 324T127 353T115 392V579Q115 589 114 600T106 621T89 637T57 644H2V734H82Q105 734 132 726T182 701T220 658T235 596V416Q235 392 247 379T274 358T306 348T332 346V247Z"  />
<glyph unicode="~" horiz-adv-x="600" d="M556 255Q528 217 494 191T407 164Q380 164 355 174T304 198Q278 211 251 221T192 232Q162 232 141 215T101 171L43 251Q72 289 106 315T192 342Q225 342 253 332T307 308T357 285T407 274Q437 274 459 291T498 335L556 255Z"  />
<glyph unicode="&#xA0;" horiz-adv-x="275" />
<glyph unicode="&#xA1;" horiz-adv-x="389" d="M249 279L276 -189H113L143 279H249ZM121 545H274V388H121V545Z"  />
<glyph unicode="&#xA2;" horiz-adv-x="556" d="M412 685H491L417 506Q425 498 435 487T454 461T469 424T477 375H361L249 106Q259 103 269 100T292 97Q317 97 331 106T352 129T361 155T363 176H486Q486 160 485 137T475 90T447 44T390 8Q365 -2 334 -6T275 -11Q253 -11 237 -9T204 -4L135 -166H56L134 23Q116 39 101 55T76 98T59 165T53 271Q53 329 58 366T71 426T89 463T108 486Q114 493 125 503T155 523T201 540T269 547Q306 547 321 544T350 536L412 685ZM318 429Q308 433 301 434T276 436Q246 436 230 421T207 384T198 334T197 283Q197 248 197 227T199 194T202 175T206 161L318 429Z"  />
<glyph unicode="&#xA3;" horiz-adv-x="556" d="M16 109Q46 112 66 124T99 155T117 196T123 246Q123 257 122 273T117 319H5V410H103Q90 461 88 491T86 539Q86 585 100 623T141 690T208 735T303 751Q333 751 359 745T407 730T449 708T486 685L425 578Q398 609 371 629T305 649Q269 649 249 636T220 606T210 570T208 543Q208 532 209 515T214 479T220 442T228 410H377V319H238Q241 292 241 268Q241 208 231 180T213 138Q221 132 234 124T263 107T299 93T340 87Q366 87 381 95T405 118T417 152T421 194H521Q521 153 514 115T488 48T439 0T362 -18Q319 -18 268 -3T161 54Q151 44 138 32T106 8T66 -10T16 -18V109Z"  />
<glyph unicode="&#xA4;" horiz-adv-x="600" d="M300 416Q255 416 230 386T205 311Q205 266 230 236T300 206Q345 206 370 236T395 311Q395 356 370 386T300 416ZM116 196Q102 219 94 248T85 311Q85 345 94 375T116 426L18 524L87 593L185 495Q208 509 237 517T300 526Q334 526 363 518T415 495L513 593L582 524L484 426Q498 404 506 375T515 311Q515 277 507 248T484 197L582 98L513 29L415 128Q393 114 364 105T300 96Q267 96 238 104T185 127L87 29L18 98L116 196Z"  />
<glyph unicode="&#xA5;" horiz-adv-x="667" d="M92 189V265H255V392L249 402H92V478H213L92 734H225L270 640Q284 612 299 582T331 518H342Q362 559 376 592T400 646L440 734H572L455 478H572V402H420L417 396V265H572V189H417V0H255V189H92Z"  />
<glyph unicode="&#xA6;" horiz-adv-x="222" d="M51 175H171V-175H51V175ZM51 675H171V325H51V675Z"  />
<glyph unicode="&#xA7;" horiz-adv-x="556" d="M171 502Q160 508 148 517T124 540T105 573T97 619Q97 644 107 668T138 712T193 743T274 755Q291 755 313 753T361 740T412 710T463 656L380 614Q374 624 366 636T345 659T316 677T274 684Q240 684 222 669T203 630Q203 600 230 582T306 541Q350 520 386 502T447 463T487 419T501 363Q501 344 496 324T479 286T446 255T391 239V237Q418 218 433 200T456 167T464 138T466 116Q466 89 456 63T423 15T367 -19T283 -32Q258 -32 222 -24T156 4Q129 22 112 43T84 82L178 123Q181 110 188 96T208 69T240 48T288 40Q324 40 344 56T365 101Q365 116 359 126T339 147T303 167T250 192Q212 208 190 219T153 238T131 252T115 265Q109 270 100 279T81 301T66 332T59 373Q59 428 90 460T171 498V502ZM350 274Q382 274 396 293T411 332Q411 348 403 361T380 385T346 406T304 427Q244 457 209 457Q180 457 166 439T151 401Q151 370 176 351T247 309Q291 286 313 280T350 274Z"  />
<glyph unicode="&#xA8;" horiz-adv-x="278" d="M-22 718H105V602H-22V718ZM173 718H300V602H173V718Z"  />
<glyph unicode="&#xA9;" horiz-adv-x="800" d="M588 297Q583 259 567 231T528 184T475 155T415 145Q370 145 333 161T270 205T229 271T215 353Q215 398 228 436T267 502T330 546T413 562Q478 562 525 524T584 413H496Q490 446 466 459T413 472Q369 472 346 441T323 355Q323 303 348 269T415 235Q448 235 471 249T496 297H588ZM114 350Q114 290 136 238T198 147T289 86T400 63Q459 63 511 85T602 147T663 238T686 350Q686 410 664 462T602 553T511 614T400 637Q341 637 289 615T198 553T137 462T114 350ZM400 -12Q327 -12 259 12T139 82T56 196T24 350Q24 436 55 503T139 617T259 688T400 712Q473 712 540 688T660 618T744 504T776 350Q776 264 745 197T661 83T541 12T400 -12Z"  />
<glyph unicode="&#xAA;" horiz-adv-x="400" d="M60 703Q71 711 83 718T110 732T145 741T192 745Q201 745 214 744T242 739T271 729T296 714Q316 696 319 679T322 649V493Q322 491 325 483T342 473V415H315Q282 415 267 429T244 455H242Q234 445 228 439T210 427Q206 425 190 418T150 411Q136 411 120 415T91 429T68 456T58 501Q58 512 60 526T71 554T93 581T132 604Q157 615 182 619T231 626Q231 649 230 658T224 675Q219 680 210 684T186 688Q157 688 137 677T103 654L60 703ZM230 582Q222 580 208 577T180 567T155 546T144 512Q144 495 154 484T181 473Q196 473 206 479T221 495T228 514T230 532V582Z"  />
<glyph unicode="&#xAB;" horiz-adv-x="556" d="M288 426L163 270L292 116H166L37 270L163 426H288ZM517 426L392 270L521 116H395L266 270L392 426H517Z"  />
<glyph unicode="&#xAC;" horiz-adv-x="600" d="M432 305H48V425H552V108H432V305Z"  />
<glyph unicode="&#xAD;" horiz-adv-x="333" d="M37 324H297V194H37V324Z"  />
<glyph unicode="&#xAE;" horiz-adv-x="800" d="M346 383H407Q459 382 459 432Q459 458 447 469T407 481H346V383ZM346 165H254V542H419Q443 542 467 538T510 522T541 492T553 444Q553 407 531 384T471 352V350Q495 348 508 340T529 320T538 290T544 254Q545 245 546 233T549 209T554 185T563 165H468Q463 190 460 215T454 266Q452 282 447 299T423 317H346V165ZM114 350Q114 290 136 238T198 147T289 86T400 63Q459 63 511 85T602 147T663 238T686 350Q686 410 664 462T602 553T511 614T400 637Q341 637 289 615T198 553T137 462T114 350ZM400 -12Q327 -12 259 12T139 82T56 196T24 350Q24 436 55 503T139 617T259 688T400 712Q473 712 540 688T660 618T744 504T776 350Q776 264 745 197T661 83T541 12T400 -12Z"  />
<glyph unicode="&#xAF;" horiz-adv-x="278" d="M-34 698H312V624H-34V698Z"  />
<glyph unicode="&#xB0;" horiz-adv-x="400" d="M43 555Q43 588 55 616T89 666T138 699T200 712Q233 712 261 700T311 666T344 617T357 555Q357 522 345 494T311 444T262 410T200 397Q167 397 139 409T89 443T56 493T43 555ZM291 555Q291 596 266 624T200 652Q159 652 134 624T109 555Q109 514 134 486T200 457Q241 457 266 485T291 555Z"  />
<glyph unicode="&#xB1;" horiz-adv-x="600" d="M240 556H360V400H552V280H360V130H240V280H48V400H240V556ZM48 58H552V-62H48V58Z"  />
<glyph unicode="&#xB2;" horiz-adv-x="350" d="M10 651Q21 669 33 687T64 721T107 745T169 755Q207 755 235 744T283 715T313 674T323 626Q323 600 315 579T293 540T260 506T220 474L159 426Q143 413 139 407T130 387H326V306H16Q19 339 25 363T43 409T77 454T134 507Q158 527 175 542T204 570T220 596T226 625Q226 648 212 666T166 685Q144 685 130 676T108 653T96 627T90 604L10 651Z"  />
<glyph unicode="&#xB3;" horiz-adv-x="350" d="M12 372Q18 371 30 370T71 368Q100 368 129 373T181 390T218 417T233 454Q233 471 227 482T211 499T192 507T174 509Q150 509 135 503T112 493L83 551Q104 560 125 570T168 594Q179 601 194 615T209 649Q209 666 196 676T162 687Q143 687 128 681T100 666T79 647T63 629L15 687Q39 711 76 733T173 755Q190 755 216 751T265 731Q303 706 303 663Q303 641 296 626T277 599T252 581T229 567V564Q247 561 271 552T312 518Q323 502 326 486T329 464Q329 420 308 388T254 335Q211 309 162 301T61 293Q41 293 30 293T12 295V372Z"  />
<glyph unicode="&#xB4;" horiz-adv-x="278" d="M293 738L145 593H44L138 738H293Z"  />
<glyph unicode="&#xB5;" horiz-adv-x="576" d="M403 72H401Q381 35 349 12T275 -12Q243 -12 221 -1T180 36L178 34Q180 11 181 -8T183 -48V-192H43V530H183V197Q183 146 208 115T285 84Q312 84 334 95T371 124T395 165T403 213V530H543V0H403V72Z"  />
<glyph unicode="&#xB6;" horiz-adv-x="620" d="M206 310Q152 310 110 325T40 369T-2 438T-17 528Q-17 578 2 616T54 681T132 720T229 734H543V-157H423V624H326V-157H206V310Z"  />
<glyph unicode="&#xB7;" horiz-adv-x="278" d="M58 329Q58 361 81 385T139 409Q155 409 170 403T196 385T213 360T220 329Q220 296 196 273T139 249Q122 249 107 255T81 273T64 298T58 329Z"  />
<glyph unicode="&#xB8;" horiz-adv-x="278" d="M23 -161Q40 -166 60 -171T100 -177Q126 -177 140 -166T154 -138Q154 -126 148 -119T135 -108T119 -103T108 -102Q97 -102 88 -104T68 -110L47 -90L106 0H160L117 -63Q131 -59 137 -58T154 -57Q170 -57 185 -62T213 -76T233 -100T241 -132Q241 -157 230 -175T201 -205T161 -222T116 -228Q99 -228 87 -227T62 -222T36 -214T5 -203L23 -161Z"  />
<glyph unicode="&#xB9;" horiz-adv-x="350" d="M45 377H137V674H38V745H233V377H320V306H45V377Z"  />
<glyph unicode="&#xBA;" horiz-adv-x="400" d="M156 555Q156 551 156 544T157 530T159 515T161 504Q164 493 169 487T181 479T192 476T200 475Q216 475 225 480T238 499T243 535T244 589Q244 608 244 624T239 653T226 673T201 681Q184 681 175 675T162 659T157 638T156 617V555ZM64 584Q64 606 66 634T80 687T119 728T196 745Q210 745 226 744T258 738T288 723T314 696Q327 676 331 648T336 577Q336 528 331 498T299 442Q294 438 288 433T270 424T243 416T204 412Q188 412 165 414T125 425Q103 436 91 451T73 487T66 531T64 584Z"  />
<glyph unicode="&#xBB;" horiz-adv-x="556" d="M164 426L290 270L161 116H35L164 270L39 426H164ZM393 426L519 270L390 116H264L393 270L268 426H393Z"  />
<glyph unicode="&#xBC;" horiz-adv-x="1000" d="M687 182H807V371L687 182ZM902 439V182H942V110H902V0H807V110H625V202L774 439H902ZM66 377H158V674H59V745H254V377H341V306H66V377ZM774 748L347 -24H275L703 748H774Z"  />
<glyph unicode="&#xBD;" horiz-adv-x="1000" d="M44 377H136V674H37V745H232V377H319V306H44V377ZM739 748L312 -24H240L668 748H739ZM640 343Q651 361 663 379T694 413T737 437T799 447Q837 447 865 436T913 407T943 366T953 318Q953 292 945 271T923 232T890 198T850 166L789 118Q773 105 769 99T760 79H956V0H646Q649 32 655 56T673 101T707 146T764 199Q788 219 805 234T834 262T850 288T856 317Q856 340 842 358T796 377Q774 377 760 368T738 345T726 319T720 296L640 343Z"  />
<glyph unicode="&#xBE;" horiz-adv-x="1000" d="M688 182H808V371L688 182ZM903 439V182H943V110H903V0H808V110H626V202L775 439H903ZM775 748L348 -24H276L704 748H775ZM58 372Q64 371 76 370T117 368Q146 368 175 373T227 390T264 417T279 454Q279 471 273 482T257 499T238 507T220 509Q196 509 181 503T158 493L129 551Q150 560 171 570T214 594Q225 601 240 615T255 649Q255 666 242 676T208 687Q189 687 174 681T146 666T125 647T109 629L61 687Q85 711 122 733T219 755Q236 755 262 751T311 731Q349 706 349 663Q349 641 342 626T323 599T298 581T275 567V564Q293 561 317 552T358 518Q369 502 372 486T375 464Q375 420 354 388T300 335Q257 309 208 301T107 293Q87 293 76 293T58 295V372Z"  />
<glyph unicode="&#xBF;" horiz-adv-x="500" d="M333 277Q333 230 329 199T317 146T296 105T267 65Q253 47 241 34T216 3Q210 -5 205 -18T199 -42Q199 -71 216 -85T261 -100Q279 -100 292 -91T315 -68T331 -40T341 -17L465 -64Q454 -87 439 -112T399 -158T337 -192T246 -206Q190 -206 155 -191T103 -161Q85 -146 75 -130T61 -97T55 -67T54 -44Q54 -21 62 0T82 39T106 70T127 92Q151 117 167 134T192 170T205 213T209 277H333ZM347 389H194V546H347V389Z"  />
<glyph unicode="&#xC0;" horiz-adv-x="667" d="M334 603H330L250 271H415L334 603ZM429 734L641 0H484L447 146H222L184 0H27L234 734H429ZM406 797H305L158 942H312L406 797Z"  />
<glyph unicode="&#xC1;" horiz-adv-x="667" d="M334 603H330L250 271H415L334 603ZM429 734L641 0H484L447 146H222L184 0H27L234 734H429ZM488 942L340 797H239L333 942H488Z"  />
<glyph unicode="&#xC2;" horiz-adv-x="667" d="M334 603H330L250 271H415L334 603ZM429 734L641 0H484L447 146H222L184 0H27L234 734H429ZM511 797H398L334 879L271 797H157L272 942H397L511 797Z"  />
<glyph unicode="&#xC3;" horiz-adv-x="667" d="M334 603H330L250 271H415L334 603ZM429 734L641 0H484L447 146H222L184 0H27L234 734H429ZM364 900Q374 896 385 893T403 889Q418 889 427 894T441 907T449 921T452 931H517Q515 917 509 896T490 856T456 824T404 810Q398 810 393 810T381 813T362 818T332 827L293 839Q285 841 277 843T259 845Q246 845 238 840T224 828T217 814T214 804H151Q160 843 172 866T200 903T233 921T271 926Q281 926 292 924T318 917L364 900Z"  />
<glyph unicode="&#xC4;" horiz-adv-x="667" d="M334 603H330L250 271H415L334 603ZM429 734L641 0H484L447 146H222L184 0H27L234 734H429ZM173 922H300V806H173V922ZM368 922H495V806H368V922Z"  />
<glyph unicode="&#xC5;" horiz-adv-x="667" d="M334 603H330L250 271H415L334 603ZM429 734L641 0H484L447 146H222L184 0H27L234 734H429ZM257 864Q257 896 280 919T335 942Q368 942 391 919T414 864Q414 831 391 808T335 785Q303 785 280 808T257 864ZM369 865Q369 879 360 889T336 899Q322 899 313 889T304 865Q304 851 313 841T336 830Q350 830 359 840T369 865Z"  />
<glyph unicode="&#xC6;" horiz-adv-x="1000" d="M469 617H427L286 289H469V617ZM469 0V164H231L162 0H2L334 734H921V603H622V439H815V309H622V133H942V0H469Z"  />
<glyph unicode="&#xC7;" horiz-adv-x="667" d="M579 250Q579 230 579 218T577 197T575 180T572 160Q570 149 566 134T554 102T532 66T495 29Q475 13 453 4T408 -11T366 -18T335 -20Q329 -20 327 -19L297 -63Q311 -59 317 -58T334 -57Q350 -57 365 -62T393 -76T413 -100T421 -132Q421 -157 410 -175T381 -205T341 -222T296 -228Q279 -228 267 -227T242 -222T216 -214T185 -203L203 -161Q220 -166 240 -171T280 -177Q306 -177 320 -166T334 -138Q334 -126 328 -119T315 -108T299 -103T288 -102Q277 -102 268 -104T248 -110L227 -90L276 -15Q234 -10 203 5T145 45Q134 56 122 70T99 110T83 172T76 266V487Q76 614 142 682T337 750Q353 750 373 748T415 741T457 726T498 701Q523 681 537 656T560 603T570 549T574 500H413Q413 513 411 533T401 571T377 603T330 616Q315 616 298 610T269 593Q259 584 254 573T246 552T243 531T242 513V234Q242 219 243 199T253 161T279 130T331 117Q356 117 372 126T399 153T413 195T417 250H579Z"  />
<glyph unicode="&#xC8;" horiz-adv-x="667" d="M88 734H581V600H248V444H477V310H250V137H604V0H88V734ZM406 797H305L158 942H312L406 797Z"  />
<glyph unicode="&#xC9;" horiz-adv-x="667" d="M88 734H581V600H248V444H477V310H250V137H604V0H88V734ZM488 942L340 797H239L333 942H488Z"  />
<glyph unicode="&#xCA;" horiz-adv-x="667" d="M88 734H581V600H248V444H477V310H250V137H604V0H88V734ZM511 797H398L334 879L271 797H157L272 942H397L511 797Z"  />
<glyph unicode="&#xCB;" horiz-adv-x="667" d="M88 734H581V600H248V444H477V310H250V137H604V0H88V734ZM173 922H300V806H173V922ZM368 922H495V806H368V922Z"  />
<glyph unicode="&#xCC;" horiz-adv-x="389" d="M27 0V65H113V670H27V734H362V670H275V67H362V0H27ZM267 797H166L19 942H173L267 797Z"  />
<glyph unicode="&#xCD;" horiz-adv-x="389" d="M27 0V65H113V670H27V734H362V670H275V67H362V0H27ZM349 942L201 797H100L194 942H349Z"  />
<glyph unicode="&#xCE;" horiz-adv-x="389" d="M27 0V65H113V670H27V734H362V670H275V67H362V0H27ZM372 797H259L195 879L132 797H18L133 942H258L372 797Z"  />
<glyph unicode="&#xCF;" horiz-adv-x="389" d="M27 0V65H113V670H27V734H362V670H275V67H362V0H27ZM34 922H161V806H34V922ZM229 922H356V806H229V922Z"  />
<glyph unicode="&#xD0;" horiz-adv-x="667" d="M318 334H245V131H291Q315 131 338 135T380 154T410 200T422 284Q422 303 423 329T424 374Q424 440 420 486T397 559Q385 576 372 585T342 598T301 603T245 604V436H318V334ZM0 334V436H81V734H259Q326 734 373 728T452 709T506 680T543 639Q555 621 563 601T577 552T584 480T587 376L586 251Q586 220 582 189T566 129T535 78T485 39Q445 19 409 13T328 2Q320 1 298 1T242 0T168 0T81 0V334H0Z"  />
<glyph unicode="&#xD1;" horiz-adv-x="722" d="M96 734H250L439 391L464 341Q466 336 472 322T480 303H485L481 377Q480 396 480 407T479 427T478 443T478 461V734H626V0H494L299 356Q293 367 289 374T280 394T266 425T244 477H239Q239 469 240 450T242 410T243 370T244 344V0H96V734ZM391 900Q401 896 412 893T430 889Q445 889 454 894T468 907T476 921T479 931H544Q542 917 536 896T517 856T483 824T431 810Q425 810 420 810T408 813T389 818T359 827L320 839Q312 841 304 843T286 845Q273 845 265 840T251 828T244 814T241 804H178Q187 843 199 866T227 903T260 921T298 926Q308 926 319 924T345 917L391 900Z"  />
<glyph unicode="&#xD2;" horiz-adv-x="667" d="M245 245Q245 216 248 192T261 151T288 123T332 113Q365 113 382 126T408 160T417 203T419 245V500Q419 519 418 539T408 575T383 602T334 613Q301 613 283 600T256 568T247 530T245 500V245ZM81 475Q81 532 94 584T145 678Q180 716 228 732T329 748Q386 748 435 733T522 677Q553 644 569 592T586 450V272Q586 194 572 143T523 53Q500 28 473 14T420 -8T369 -18T327 -20Q300 -20 267 -14T201 8T141 54T100 130Q88 169 85 211T81 278V475ZM406 797H305L158 942H312L406 797Z"  />
<glyph unicode="&#xD3;" horiz-adv-x="667" d="M245 245Q245 216 248 192T261 151T288 123T332 113Q365 113 382 126T408 160T417 203T419 245V500Q419 519 418 539T408 575T383 602T334 613Q301 613 283 600T256 568T247 530T245 500V245ZM81 475Q81 532 94 584T145 678Q180 716 228 732T329 748Q386 748 435 733T522 677Q553 644 569 592T586 450V272Q586 194 572 143T523 53Q500 28 473 14T420 -8T369 -18T327 -20Q300 -20 267 -14T201 8T141 54T100 130Q88 169 85 211T81 278V475ZM488 942L340 797H239L333 942H488Z"  />
<glyph unicode="&#xD4;" horiz-adv-x="667" d="M245 245Q245 216 248 192T261 151T288 123T332 113Q365 113 382 126T408 160T417 203T419 245V500Q419 519 418 539T408 575T383 602T334 613Q301 613 283 600T256 568T247 530T245 500V245ZM81 475Q81 532 94 584T145 678Q180 716 228 732T329 748Q386 748 435 733T522 677Q553 644 569 592T586 450V272Q586 194 572 143T523 53Q500 28 473 14T420 -8T369 -18T327 -20Q300 -20 267 -14T201 8T141 54T100 130Q88 169 85 211T81 278V475ZM511 797H398L334 879L271 797H157L272 942H397L511 797Z"  />
<glyph unicode="&#xD5;" horiz-adv-x="667" d="M245 245Q245 216 248 192T261 151T288 123T332 113Q365 113 382 126T408 160T417 203T419 245V500Q419 519 418 539T408 575T383 602T334 613Q301 613 283 600T256 568T247 530T245 500V245ZM81 475Q81 532 94 584T145 678Q180 716 228 732T329 748Q386 748 435 733T522 677Q553 644 569 592T586 450V272Q586 194 572 143T523 53Q500 28 473 14T420 -8T369 -18T327 -20Q300 -20 267 -14T201 8T141 54T100 130Q88 169 85 211T81 278V475ZM364 900Q374 896 385 893T403 889Q418 889 427 894T441 907T449 921T452 931H517Q515 917 509 896T490 856T456 824T404 810Q398 810 393 810T381 813T362 818T332 827L293 839Q285 841 277 843T259 845Q246 845 238 840T224 828T217 814T214 804H151Q160 843 172 866T200 903T233 921T271 926Q281 926 292 924T318 917L364 900Z"  />
<glyph unicode="&#xD6;" horiz-adv-x="667" d="M245 245Q245 216 248 192T261 151T288 123T332 113Q365 113 382 126T408 160T417 203T419 245V500Q419 519 418 539T408 575T383 602T334 613Q301 613 283 600T256 568T247 530T245 500V245ZM81 475Q81 532 94 584T145 678Q180 716 228 732T329 748Q386 748 435 733T522 677Q553 644 569 592T586 450V272Q586 194 572 143T523 53Q500 28 473 14T420 -8T369 -18T327 -20Q300 -20 267 -14T201 8T141 54T100 130Q88 169 85 211T81 278V475ZM173 922H300V806H173V922ZM368 922H495V806H368V922Z"  />
<glyph unicode="&#xD7;" horiz-adv-x="600" d="M59 412L141 494L300 335L459 494L541 412L381 253L541 94L459 12L300 172L141 12L59 94L218 253L59 412Z"  />
<glyph unicode="&#xD8;" horiz-adv-x="667" d="M257 162Q265 139 283 126T332 113Q365 113 382 126T408 160T417 203T419 245V430L257 162ZM245 298L409 575Q401 592 384 602T334 613Q301 613 283 600T256 568T247 530T245 500V298ZM551 636Q568 604 577 560T586 450V272Q586 194 572 143T523 53Q500 28 473 14T420 -8T369 -18T327 -20Q296 -20 258 -12T184 19L116 -96H1L115 94Q106 110 100 130Q88 169 85 211T81 278V475Q81 532 94 584T145 678Q180 716 228 732T329 748Q371 748 410 740T482 711L527 787H641L551 636Z"  />
<glyph unicode="&#xD9;" horiz-adv-x="722" d="M95 734H262V250Q262 233 263 210T274 166T304 130T361 115Q373 115 390 117T424 131T452 171T464 249V734H627V248Q627 231 626 205T617 149T595 90T551 37Q513 6 467 -6T370 -19Q312 -19 258 -5T169 42Q142 67 128 95T106 151T97 206T95 259V734ZM433 797H332L185 942H339L433 797Z"  />
<glyph unicode="&#xDA;" horiz-adv-x="722" d="M95 734H262V250Q262 233 263 210T274 166T304 130T361 115Q373 115 390 117T424 131T452 171T464 249V734H627V248Q627 231 626 205T617 149T595 90T551 37Q513 6 467 -6T370 -19Q312 -19 258 -5T169 42Q142 67 128 95T106 151T97 206T95 259V734ZM515 942L367 797H266L360 942H515Z"  />
<glyph unicode="&#xDB;" horiz-adv-x="722" d="M95 734H262V250Q262 233 263 210T274 166T304 130T361 115Q373 115 390 117T424 131T452 171T464 249V734H627V248Q627 231 626 205T617 149T595 90T551 37Q513 6 467 -6T370 -19Q312 -19 258 -5T169 42Q142 67 128 95T106 151T97 206T95 259V734ZM538 797H425L361 879L298 797H184L299 942H424L538 797Z"  />
<glyph unicode="&#xDC;" horiz-adv-x="722" d="M95 734H262V250Q262 233 263 210T274 166T304 130T361 115Q373 115 390 117T424 131T452 171T464 249V734H627V248Q627 231 626 205T617 149T595 90T551 37Q513 6 467 -6T370 -19Q312 -19 258 -5T169 42Q142 67 128 95T106 151T97 206T95 259V734ZM200 922H327V806H200V922ZM395 922H522V806H395V922Z"  />
<glyph unicode="&#xDD;" horiz-adv-x="667" d="M258 0V290L26 734H199L292 551L334 461H339Q344 473 348 480T356 497T366 517T381 549L470 734H641L420 296V0H258ZM488 942L340 797H239L333 942H488Z"  />
<glyph unicode="&#xDE;" horiz-adv-x="667" d="M250 248Q266 248 284 248T320 248T351 250T375 256Q379 258 389 263T409 280T426 311T434 358Q434 386 429 403T417 431T401 445T385 453Q375 457 367 459T344 462T308 463T250 463V248ZM250 0H88V734H250V584H330Q411 584 458 568T535 526Q570 495 586 452T602 353Q602 310 592 278T566 224T535 187T506 165Q466 141 414 135T308 127L250 125V0Z"  />
<glyph unicode="&#xDF;" horiz-adv-x="611" d="M84 491Q84 548 92 594T122 673T184 724T289 742Q334 742 380 730T458 681Q474 662 483 643T496 607T500 574T501 547Q501 509 490 483T464 439T434 414T412 404V400Q437 395 454 387T482 371T500 355T508 343Q523 320 529 281T536 206Q536 181 534 153T524 99T501 49T461 13Q453 9 442 6T418 -1T394 -5T373 -7Q354 -7 334 -4T296 2V104Q305 100 314 98T334 95Q356 95 368 104T386 129T393 161T394 193Q394 221 394 237T394 264T392 279T389 291Q383 310 373 320T351 336T326 342T299 345V442Q314 442 325 446T345 460T358 488T362 536Q362 549 361 567T353 601T334 629T297 640Q271 640 257 630T237 605T229 576T228 550V0H84V491Z"  />
<glyph unicode="&#xE0;" horiz-adv-x="500" d="M30 473Q47 486 65 498T106 521T160 537T233 543Q247 543 267 541T310 533T354 517T392 491Q422 461 427 433T432 383V123Q432 122 433 117T437 106T447 95T463 90V-6H422Q396 -6 378 1T347 18T326 39T313 60H309Q296 43 287 33T260 13Q257 11 249 7T229 -2T201 -10T168 -14Q147 -14 122 -8T76 16T41 62T26 137Q26 155 30 178T47 224T81 269T140 308Q178 325 217 334T292 345Q292 364 292 377T291 400T288 415T282 426Q275 436 260 442T224 449Q201 449 183 444T148 430T120 411T96 391L30 473ZM291 271Q279 269 257 264T214 245T176 211T159 155Q159 128 174 109T215 90Q239 90 254 100T277 126T288 159T291 189V271ZM322 593H221L74 738H228L322 593Z"  />
<glyph unicode="&#xE1;" horiz-adv-x="500" d="M30 473Q47 486 65 498T106 521T160 537T233 543Q247 543 267 541T310 533T354 517T392 491Q422 461 427 433T432 383V123Q432 122 433 117T437 106T447 95T463 90V-6H422Q396 -6 378 1T347 18T326 39T313 60H309Q296 43 287 33T260 13Q257 11 249 7T229 -2T201 -10T168 -14Q147 -14 122 -8T76 16T41 62T26 137Q26 155 30 178T47 224T81 269T140 308Q178 325 217 334T292 345Q292 364 292 377T291 400T288 415T282 426Q275 436 260 442T224 449Q201 449 183 444T148 430T120 411T96 391L30 473ZM291 271Q279 269 257 264T214 245T176 211T159 155Q159 128 174 109T215 90Q239 90 254 100T277 126T288 159T291 189V271ZM404 738L256 593H155L249 738H404Z"  />
<glyph unicode="&#xE2;" horiz-adv-x="500" d="M30 473Q47 486 65 498T106 521T160 537T233 543Q247 543 267 541T310 533T354 517T392 491Q422 461 427 433T432 383V123Q432 122 433 117T437 106T447 95T463 90V-6H422Q396 -6 378 1T347 18T326 39T313 60H309Q296 43 287 33T260 13Q257 11 249 7T229 -2T201 -10T168 -14Q147 -14 122 -8T76 16T41 62T26 137Q26 155 30 178T47 224T81 269T140 308Q178 325 217 334T292 345Q292 364 292 377T291 400T288 415T282 426Q275 436 260 442T224 449Q201 449 183 444T148 430T120 411T96 391L30 473ZM291 271Q279 269 257 264T214 245T176 211T159 155Q159 128 174 109T215 90Q239 90 254 100T277 126T288 159T291 189V271ZM427 593H314L250 675L187 593H73L188 738H313L427 593Z"  />
<glyph unicode="&#xE3;" horiz-adv-x="500" d="M30 473Q47 486 65 498T106 521T160 537T233 543Q247 543 267 541T310 533T354 517T392 491Q422 461 427 433T432 383V123Q432 122 433 117T437 106T447 95T463 90V-6H422Q396 -6 378 1T347 18T326 39T313 60H309Q296 43 287 33T260 13Q257 11 249 7T229 -2T201 -10T168 -14Q147 -14 122 -8T76 16T41 62T26 137Q26 155 30 178T47 224T81 269T140 308Q178 325 217 334T292 345Q292 364 292 377T291 400T288 415T282 426Q275 436 260 442T224 449Q201 449 183 444T148 430T120 411T96 391L30 473ZM291 271Q279 269 257 264T214 245T176 211T159 155Q159 128 174 109T215 90Q239 90 254 100T277 126T288 159T291 189V271ZM280 696Q290 692 301 689T319 685Q334 685 343 690T357 703T365 717T368 727H433Q431 713 425 692T406 652T372 620T320 606Q314 606 309 606T297 609T278 614T248 623L209 635Q201 637 193 639T175 641Q162 641 154 636T140 624T133 610T130 600H67Q76 639 88 662T116 699T149 717T187 722Q197 722 208 720T234 713L280 696Z"  />
<glyph unicode="&#xE4;" horiz-adv-x="500" d="M30 473Q47 486 65 498T106 521T160 537T233 543Q247 543 267 541T310 533T354 517T392 491Q422 461 427 433T432 383V123Q432 122 433 117T437 106T447 95T463 90V-6H422Q396 -6 378 1T347 18T326 39T313 60H309Q296 43 287 33T260 13Q257 11 249 7T229 -2T201 -10T168 -14Q147 -14 122 -8T76 16T41 62T26 137Q26 155 30 178T47 224T81 269T140 308Q178 325 217 334T292 345Q292 364 292 377T291 400T288 415T282 426Q275 436 260 442T224 449Q201 449 183 444T148 430T120 411T96 391L30 473ZM291 271Q279 269 257 264T214 245T176 211T159 155Q159 128 174 109T215 90Q239 90 254 100T277 126T288 159T291 189V271ZM89 718H216V602H89V718ZM284 718H411V602H284V718Z"  />
<glyph unicode="&#xE5;" horiz-adv-x="500" d="M30 473Q47 486 65 498T106 521T160 537T233 543Q247 543 267 541T310 533T354 517T392 491Q422 461 427 433T432 383V123Q432 122 433 117T437 106T447 95T463 90V-6H422Q396 -6 378 1T347 18T326 39T313 60H309Q296 43 287 33T260 13Q257 11 249 7T229 -2T201 -10T168 -14Q147 -14 122 -8T76 16T41 62T26 137Q26 155 30 178T47 224T81 269T140 308Q178 325 217 334T292 345Q292 364 292 377T291 400T288 415T282 426Q275 436 260 442T224 449Q201 449 183 444T148 430T120 411T96 391L30 473ZM291 271Q279 269 257 264T214 245T176 211T159 155Q159 128 174 109T215 90Q239 90 254 100T277 126T288 159T291 189V271ZM173 660Q173 692 196 715T251 738Q284 738 307 715T330 660Q330 627 307 604T251 581Q219 581 196 604T173 660ZM285 661Q285 675 276 685T252 695Q238 695 229 685T220 661Q220 647 229 637T252 626Q266 626 275 636T285 661Z"  />
<glyph unicode="&#xE6;" horiz-adv-x="778" d="M709 20Q670 4 630 -4T542 -13Q540 -13 519 -12T471 -2T417 23T373 72H367Q335 39 292 13T191 -13Q116 -13 78 26T39 142Q39 224 112 281Q131 295 152 305T197 323T252 335T319 343V388Q319 406 311 417T290 435T264 444T237 447Q215 447 198 443T165 431T137 414T112 394L47 473Q58 481 76 492T117 515T168 533T230 541Q278 541 314 528T388 486H395Q410 498 423 507T452 524T485 534T529 538Q574 538 605 525T656 491T686 442T702 388T708 335T709 292Q709 283 709 277T709 265T709 252T711 234H444Q443 213 445 187T459 139T494 101T560 86Q597 86 630 96T693 125L709 20ZM317 269Q269 264 241 250T197 218T178 184T174 159Q174 137 180 124T195 103T216 92T238 89Q259 89 273 98T297 122T311 153T316 188L317 269ZM589 310Q589 337 589 353T588 379T585 397T579 412Q577 415 574 421T563 434T545 445T516 450Q488 450 474 437T452 403T445 358T444 310H589Z"  />
<glyph unicode="&#xE7;" horiz-adv-x="500" d="M439 171Q438 151 435 120T414 59T360 8T256 -14H251L217 -63Q231 -59 237 -58T254 -57Q270 -57 285 -62T313 -76T333 -100T341 -132Q341 -157 330 -175T301 -205T261 -222T216 -228Q199 -228 187 -227T162 -222T136 -214T105 -203L123 -161Q140 -166 160 -171T200 -177Q226 -177 240 -166T254 -138Q254 -126 248 -119T235 -108T219 -103T208 -102Q197 -102 188 -104T168 -110L147 -90L200 -9Q179 -7 156 2T113 30Q78 62 65 106T51 199V324Q51 370 61 410T93 480T152 527T243 544Q255 544 274 543T314 537T356 519T394 486Q419 456 423 427T428 373H315Q314 383 312 394T305 413T288 427T258 433Q233 433 220 423T200 398T193 367T192 340V185Q192 135 205 115T260 95Q295 95 307 117T319 171H439Z"  />
<glyph unicode="&#xE8;" horiz-adv-x="500" d="M178 236Q178 216 179 191T189 143T218 106T275 91Q307 91 338 99T416 130L431 24Q411 17 392 11T353 0T311 -8T263 -11Q239 -11 209 -7T149 11T95 52T59 125Q55 140 53 157T49 191T47 218T46 231Q46 301 50 363T82 470Q97 495 118 510T162 533T206 543T244 545Q276 545 300 539T343 523T374 499T397 470Q409 452 415 433T425 387T428 324T429 236H178ZM313 315Q313 345 312 371T304 415T283 445T242 456Q217 456 204 444T185 411T179 365T178 315H313ZM322 593H221L74 738H228L322 593Z"  />
<glyph unicode="&#xE9;" horiz-adv-x="500" d="M178 236Q178 216 179 191T189 143T218 106T275 91Q307 91 338 99T416 130L431 24Q411 17 392 11T353 0T311 -8T263 -11Q239 -11 209 -7T149 11T95 52T59 125Q55 140 53 157T49 191T47 218T46 231Q46 301 50 363T82 470Q97 495 118 510T162 533T206 543T244 545Q276 545 300 539T343 523T374 499T397 470Q409 452 415 433T425 387T428 324T429 236H178ZM313 315Q313 345 312 371T304 415T283 445T242 456Q217 456 204 444T185 411T179 365T178 315H313ZM404 738L256 593H155L249 738H404Z"  />
<glyph unicode="&#xEA;" horiz-adv-x="500" d="M178 236Q178 216 179 191T189 143T218 106T275 91Q307 91 338 99T416 130L431 24Q411 17 392 11T353 0T311 -8T263 -11Q239 -11 209 -7T149 11T95 52T59 125Q55 140 53 157T49 191T47 218T46 231Q46 301 50 363T82 470Q97 495 118 510T162 533T206 543T244 545Q276 545 300 539T343 523T374 499T397 470Q409 452 415 433T425 387T428 324T429 236H178ZM313 315Q313 345 312 371T304 415T283 445T242 456Q217 456 204 444T185 411T179 365T178 315H313ZM427 593H314L250 675L187 593H73L188 738H313L427 593Z"  />
<glyph unicode="&#xEB;" horiz-adv-x="500" d="M178 236Q178 216 179 191T189 143T218 106T275 91Q307 91 338 99T416 130L431 24Q411 17 392 11T353 0T311 -8T263 -11Q239 -11 209 -7T149 11T95 52T59 125Q55 140 53 157T49 191T47 218T46 231Q46 301 50 363T82 470Q97 495 118 510T162 533T206 543T244 545Q276 545 300 539T343 523T374 499T397 470Q409 452 415 433T425 387T428 324T429 236H178ZM313 315Q313 345 312 371T304 415T283 445T242 456Q217 456 204 444T185 411T179 365T178 315H313ZM89 718H216V602H89V718ZM284 718H411V602H284V718Z"  />
<glyph unicode="&#xEC;" horiz-adv-x="278" d="M70 530H208V0H70V530ZM211 593H110L-37 738H117L211 593Z"  />
<glyph unicode="&#xED;" horiz-adv-x="278" d="M70 530H208V0H70V530ZM293 738L145 593H44L138 738H293Z"  />
<glyph unicode="&#xEE;" horiz-adv-x="278" d="M70 530H208V0H70V530ZM316 593H203L139 675L76 593H-38L77 738H202L316 593Z"  />
<glyph unicode="&#xEF;" horiz-adv-x="278" d="M70 530H208V0H70V530ZM-22 718H105V602H-22V718ZM173 718H300V602H173V718Z"  />
<glyph unicode="&#xF0;" horiz-adv-x="556" d="M211 230Q211 223 211 211T213 187T215 163T218 145Q222 127 230 117T248 103T266 98T279 97Q304 97 317 106T337 138T345 197T346 287Q346 318 345 346T338 395T319 428T280 440Q254 440 240 429T220 402T212 368T211 334V230ZM304 780Q317 768 329 753T350 726L433 763L470 697L396 665Q425 617 443 567T470 467T483 366T487 267Q487 226 486 194T480 134T463 85T430 42Q423 36 413 27T386 11T345 -2T285 -8Q273 -8 257 -8T225 -5T192 2T163 13Q130 32 111 57T83 116T71 190T69 279Q69 316 72 361T92 445T146 510T250 536Q279 536 298 529T335 505L342 508Q337 534 326 562T297 624L218 592L181 655L261 689Q251 705 240 718T215 743L304 780Z"  />
<glyph unicode="&#xF1;" horiz-adv-x="556" d="M69 530H199V432H202Q214 453 229 473T263 508T305 532T354 541Q404 541 431 523T471 480T486 429T488 388V0H347V346Q347 354 347 366T342 389T328 409T301 418Q271 418 251 402T210 363V0H69V530ZM308 696Q318 692 329 689T347 685Q362 685 371 690T385 703T393 717T396 727H461Q459 713 453 692T434 652T400 620T348 606Q342 606 337 606T325 609T306 614T276 623L237 635Q229 637 221 639T203 641Q190 641 182 636T168 624T161 610T158 600H95Q104 639 116 662T144 699T177 717T215 722Q225 722 236 720T262 713L308 696Z"  />
<glyph unicode="&#xF2;" horiz-adv-x="556" d="M211 230Q211 223 211 211T213 187T215 163T218 145Q222 127 230 117T248 103T266 98T279 97Q304 97 317 106T337 138T345 197T346 287Q346 318 345 346T338 395T319 428T280 440Q254 440 240 429T220 402T212 368T211 334V230ZM69 279Q69 304 70 333T76 392T94 450T129 499T186 533T272 546Q294 546 318 544T367 534T414 510T454 465Q474 433 480 386T487 267Q487 226 486 194T480 134T463 85T430 42Q423 36 413 27T386 11T345 -2T285 -8Q273 -8 257 -8T225 -5T192 2T163 13Q130 32 111 57T83 116T71 190T69 279ZM350 593H249L102 738H256L350 593Z"  />
<glyph unicode="&#xF3;" horiz-adv-x="556" d="M211 230Q211 223 211 211T213 187T215 163T218 145Q222 127 230 117T248 103T266 98T279 97Q304 97 317 106T337 138T345 197T346 287Q346 318 345 346T338 395T319 428T280 440Q254 440 240 429T220 402T212 368T211 334V230ZM69 279Q69 304 70 333T76 392T94 450T129 499T186 533T272 546Q294 546 318 544T367 534T414 510T454 465Q474 433 480 386T487 267Q487 226 486 194T480 134T463 85T430 42Q423 36 413 27T386 11T345 -2T285 -8Q273 -8 257 -8T225 -5T192 2T163 13Q130 32 111 57T83 116T71 190T69 279ZM432 738L284 593H183L277 738H432Z"  />
<glyph unicode="&#xF4;" horiz-adv-x="556" d="M211 230Q211 223 211 211T213 187T215 163T218 145Q222 127 230 117T248 103T266 98T279 97Q304 97 317 106T337 138T345 197T346 287Q346 318 345 346T338 395T319 428T280 440Q254 440 240 429T220 402T212 368T211 334V230ZM69 279Q69 304 70 333T76 392T94 450T129 499T186 533T272 546Q294 546 318 544T367 534T414 510T454 465Q474 433 480 386T487 267Q487 226 486 194T480 134T463 85T430 42Q423 36 413 27T386 11T345 -2T285 -8Q273 -8 257 -8T225 -5T192 2T163 13Q130 32 111 57T83 116T71 190T69 279ZM455 593H342L278 675L215 593H101L216 738H341L455 593Z"  />
<glyph unicode="&#xF5;" horiz-adv-x="556" d="M211 230Q211 223 211 211T213 187T215 163T218 145Q222 127 230 117T248 103T266 98T279 97Q304 97 317 106T337 138T345 197T346 287Q346 318 345 346T338 395T319 428T280 440Q254 440 240 429T220 402T212 368T211 334V230ZM69 279Q69 304 70 333T76 392T94 450T129 499T186 533T272 546Q294 546 318 544T367 534T414 510T454 465Q474 433 480 386T487 267Q487 226 486 194T480 134T463 85T430 42Q423 36 413 27T386 11T345 -2T285 -8Q273 -8 257 -8T225 -5T192 2T163 13Q130 32 111 57T83 116T71 190T69 279ZM308 696Q318 692 329 689T347 685Q362 685 371 690T385 703T393 717T396 727H461Q459 713 453 692T434 652T400 620T348 606Q342 606 337 606T325 609T306 614T276 623L237 635Q229 637 221 639T203 641Q190 641 182 636T168 624T161 610T158 600H95Q104 639 116 662T144 699T177 717T215 722Q225 722 236 720T262 713L308 696Z"  />
<glyph unicode="&#xF6;" horiz-adv-x="556" d="M211 230Q211 223 211 211T213 187T215 163T218 145Q222 127 230 117T248 103T266 98T279 97Q304 97 317 106T337 138T345 197T346 287Q346 318 345 346T338 395T319 428T280 440Q254 440 240 429T220 402T212 368T211 334V230ZM69 279Q69 304 70 333T76 392T94 450T129 499T186 533T272 546Q294 546 318 544T367 534T414 510T454 465Q474 433 480 386T487 267Q487 226 486 194T480 134T463 85T430 42Q423 36 413 27T386 11T345 -2T285 -8Q273 -8 257 -8T225 -5T192 2T163 13Q130 32 111 57T83 116T71 190T69 279ZM117 718H244V602H117V718ZM312 718H439V602H312V718Z"  />
<glyph unicode="&#xF7;" horiz-adv-x="600" d="M48 193V313H552V193H48ZM208 460Q208 479 215 496T235 525T265 545T301 553Q319 553 336 546T365 525T385 496T393 460Q393 443 386 427T366 397T337 376T302 368Q283 368 266 375T236 395T216 424T208 460ZM208 46Q208 65 215 82T235 111T265 131T301 138Q319 138 336 131T365 111T385 82T393 46Q393 29 386 12T366 -18T337 -39T302 -47Q283 -47 266 -40T236 -20T216 10T208 46Z"  />
<glyph unicode="&#xF8;" horiz-adv-x="556" d="M332 408Q318 440 280 440Q254 440 240 429T220 402T212 368T211 334V230Q211 228 211 225T212 217L332 408ZM227 124Q239 104 256 101T279 97Q304 97 317 106T337 138T345 197T346 287V306L227 124ZM456 462Q474 430 480 383T487 267Q487 226 486 194T480 134T463 85T430 42Q423 36 413 27T386 11T345 -2T285 -8Q274 -8 260 -8T230 -5T199 0T170 10L120 -70H16L105 68Q79 106 74 158T69 279Q69 304 70 333T76 392T94 450T129 499T186 533T272 546Q300 546 332 543T393 523L437 591H539L456 462Z"  />
<glyph unicode="&#xF9;" horiz-adv-x="556" d="M487 530V0H359V90H353Q342 71 329 53T297 20T256 -4T200 -13Q153 -13 127 4T87 44T72 90T69 128V530H209V185Q209 171 211 158T218 135T232 118T257 111Q269 111 283 116T302 125Q321 136 331 147T347 166V530H487ZM350 593H249L102 738H256L350 593Z"  />
<glyph unicode="&#xFA;" horiz-adv-x="556" d="M487 530V0H359V90H353Q342 71 329 53T297 20T256 -4T200 -13Q153 -13 127 4T87 44T72 90T69 128V530H209V185Q209 171 211 158T218 135T232 118T257 111Q269 111 283 116T302 125Q321 136 331 147T347 166V530H487ZM432 738L284 593H183L277 738H432Z"  />
<glyph unicode="&#xFB;" horiz-adv-x="556" d="M487 530V0H359V90H353Q342 71 329 53T297 20T256 -4T200 -13Q153 -13 127 4T87 44T72 90T69 128V530H209V185Q209 171 211 158T218 135T232 118T257 111Q269 111 283 116T302 125Q321 136 331 147T347 166V530H487ZM455 593H342L278 675L215 593H101L216 738H341L455 593Z"  />
<glyph unicode="&#xFC;" horiz-adv-x="556" d="M487 530V0H359V90H353Q342 71 329 53T297 20T256 -4T200 -13Q153 -13 127 4T87 44T72 90T69 128V530H209V185Q209 171 211 158T218 135T232 118T257 111Q269 111 283 116T302 125Q321 136 331 147T347 166V530H487ZM117 718H244V602H117V718ZM312 718H439V602H312V718Z"  />
<glyph unicode="&#xFD;" horiz-adv-x="500" d="M167 530L243 269H251L316 530H453L321 39Q303 -29 282 -71T236 -136T179 -167T106 -175Q93 -175 84 -175T68 -174T53 -172T37 -168V-50L88 -56Q106 -56 119 -52T140 -42T153 -30T161 -20Q175 0 177 14T179 52L28 530H167ZM404 738L256 593H155L249 738H404Z"  />
<glyph unicode="&#xFE;" horiz-adv-x="556" d="M67 734H208V474H217Q228 490 240 503T269 525Q285 535 304 540T347 546Q381 546 403 536T440 510T461 476T473 443Q481 409 482 355T484 241Q484 197 484 167T481 115T473 78T458 47Q444 25 419 10T348 -5Q300 -5 268 18T215 73H208V-173H67V734ZM208 145Q225 131 244 119T287 106Q308 106 319 114T336 140T342 184T343 248Q343 255 343 273T342 310T341 347T339 369Q336 388 330 398T317 414T301 421T286 422Q260 422 241 410T208 384V145Z"  />
<glyph unicode="&#xFF;" horiz-adv-x="500" d="M167 530L243 269H251L316 530H453L321 39Q303 -29 282 -71T236 -136T179 -167T106 -175Q93 -175 84 -175T68 -174T53 -172T37 -168V-50L88 -56Q106 -56 119 -52T140 -42T153 -30T161 -20Q175 0 177 14T179 52L28 530H167ZM89 718H216V602H89V718ZM284 718H411V602H284V718Z"  />
<glyph unicode="&#x131;" horiz-adv-x="278" d="M70 530H208V0H70V530Z"  />
<glyph unicode="&#x152;" horiz-adv-x="944" d="M421 491Q421 512 419 532T408 569T383 596T337 606Q295 606 272 585T239 529T226 452T224 370Q224 309 227 264T242 190T274 147T330 132Q364 132 382 144T409 176T419 219T421 263V491ZM903 5H343Q319 5 291 6T234 15T177 36T124 77Q102 101 91 127T74 181T67 234T66 284V491Q66 503 67 525T74 575T94 630T134 681Q156 701 180 711T226 727T268 733T299 734H875V605H580V446H771V314H580V140H903V5Z"  />
<glyph unicode="&#x153;" horiz-adv-x="778" d="M718 20Q669 2 629 -5T549 -13Q516 -13 492 -6T451 12T423 35T405 58H398Q389 47 378 35T348 13T304 -5T241 -12Q228 -12 210 -10T172 -1T132 18T96 51Q80 71 71 94T58 146T52 207T50 281Q50 315 51 343T58 396T72 441T96 481Q115 504 137 517T180 536T216 543T235 544Q273 544 305 536T366 503Q368 501 374 497T386 486Q390 481 394 485L408 500Q411 504 421 511T446 526T481 538T526 543Q609 543 657 499T714 378Q716 360 717 338T719 295T720 257T720 231H463Q463 210 464 185T475 139T508 103T573 88Q584 88 618 93T703 126L718 20ZM262 96Q287 96 301 107T321 138T329 184T330 240Q330 298 329 336T322 396T301 426T260 435Q237 435 224 425T203 394T193 340T190 260Q190 210 193 178T205 128T227 103T262 96ZM597 310Q597 344 596 370T588 414T567 441T526 451Q499 451 486 437T466 404Q465 401 464 392T463 369T462 340T461 310H597Z"  />
<glyph unicode="&#x160;" horiz-adv-x="611" d="M425 537Q408 570 375 594T298 619Q266 619 249 609T224 587T214 563T212 548Q212 528 220 514T241 490T271 473T305 459L398 425Q431 413 466 391T523 339Q526 334 533 323T547 296T559 258T564 210Q564 198 563 175T551 125T520 69T460 16Q444 6 425 -1T387 -12T351 -19T319 -21Q271 -21 232 -15T160 9T100 55T48 128L173 211Q193 164 228 138T312 111Q325 111 342 114T374 127T399 153T410 194Q410 215 404 228T381 253T338 276T270 304Q228 320 191 338T125 384T80 449T63 541Q63 586 79 624T126 690T201 733T302 749Q383 749 442 716T546 617L425 537ZM244 797L129 942H243L306 860L370 942H483L369 797H244Z"  />
<glyph unicode="&#x161;" horiz-adv-x="444" d="M328 403Q293 427 272 436T225 446Q200 446 186 436T171 405Q171 383 191 371T242 344Q270 331 299 316T351 279T389 227T404 155Q404 104 384 72T336 20T277 -6T224 -14Q188 -14 160 -7T110 10T72 32T46 52L109 148Q129 127 155 108T221 88Q253 88 264 104T276 135Q276 158 261 168T213 194Q126 234 87 276T47 380Q47 420 64 457T122 518Q154 538 181 541T229 544Q254 544 278 539T323 526T360 509T388 490L328 403ZM160 593L45 738H159L222 656L286 738H399L285 593H160Z"  />
<glyph unicode="&#x178;" horiz-adv-x="667" d="M258 0V290L26 734H199L292 551L334 461H339Q344 473 348 480T356 497T366 517T381 549L470 734H641L420 296V0H258ZM173 922H300V806H173V922ZM368 922H495V806H368V922Z"  />
<glyph unicode="&#x17D;" horiz-adv-x="611" d="M74 734H562V604L248 137H562V0H50V133L374 600H74V734ZM244 797L129 942H243L306 860L370 942H483L369 797H244Z"  />
<glyph unicode="&#x17E;" horiz-adv-x="444" d="M37 97L245 427H46V530H403V433L199 105H407V0H37V97ZM160 593L45 738H159L222 656L286 738H399L285 593H160Z"  />
<glyph unicode="&#x192;" horiz-adv-x="556" d="M118 479H214Q223 538 227 566T236 610Q244 638 257 663T291 706T338 734T399 745Q443 745 472 736T529 714L498 611Q487 618 480 622T466 629T452 633T433 634Q413 634 401 626T381 599T368 551T355 479H475V373H347L300 7Q292 -57 268 -91T215 -142T157 -160T110 -163Q56 -163 -2 -143L27 -28Q33 -36 49 -44T85 -53Q108 -53 121 -45T142 -22T154 14T161 61L200 373H118V479Z"  />
<glyph unicode="&#x2C6;" horiz-adv-x="278" d="M316 593H203L139 675L76 593H-38L77 738H202L316 593Z"  />
<glyph unicode="&#x2C7;" horiz-adv-x="278" d="M77 593L-38 738H76L139 656L203 738H316L202 593H77Z"  />
<glyph unicode="&#x2DA;" horiz-adv-x="278" d="M62 660Q62 692 85 715T140 738Q173 738 196 715T219 660Q219 627 196 604T140 581Q108 581 85 604T62 660ZM174 661Q174 675 165 685T141 695Q127 695 118 685T109 661Q109 647 118 637T141 626Q155 626 164 636T174 661Z"  />
<glyph unicode="&#x2DC;" horiz-adv-x="278" d="M169 696Q179 692 190 689T208 685Q223 685 232 690T246 703T254 717T257 727H322Q320 713 314 692T295 652T261 620T209 606Q203 606 198 606T186 609T167 614T137 623L98 635Q90 637 82 639T64 641Q51 641 43 636T29 624T22 610T19 600H-44Q-35 639 -23 662T5 699T38 717T76 722Q86 722 97 720T123 713L169 696Z"  />
<glyph unicode="&#x2013;" horiz-adv-x="500" d="M500 313V220H-1V313H500Z"  />
<glyph unicode="&#x2014;" horiz-adv-x="1000" d="M875 220H125V313H875V220Z"  />
<glyph unicode="&#x2018;" horiz-adv-x="278" d="M218 553V403H63V571L147 734H219L151 553H218Z"  />
<glyph unicode="&#x2019;" horiz-adv-x="278" d="M60 584V734H215V566L131 403H59L127 584H60Z"  />
<glyph unicode="&#x201A;" horiz-adv-x="278" d="M60 181V331H215V163L131 0H59L127 181H60Z"  />
<glyph unicode="&#x201C;" horiz-adv-x="556" d="M218 553V403H63V571L147 734H219L151 553H218ZM485 553V403H330V571L414 734H486L418 553H485Z"  />
<glyph unicode="&#x201D;" horiz-adv-x="556" d="M71 584V734H226V566L142 403H70L138 584H71ZM338 584V734H493V566L409 403H337L405 584H338Z"  />
<glyph unicode="&#x201E;" horiz-adv-x="556" d="M60 18V168H215V0L131 -163H59L127 18H60ZM330 18V168H485V0L401 -163H329L397 18H330Z"  />
<glyph unicode="&#x2020;" horiz-adv-x="556" d="M86 597L258 556L213 755H342L297 556L470 597V472L297 514Q299 508 303 493T311 460T319 428T325 407Q326 404 328 397T334 381T339 365T341 353Q341 349 338 337T332 316Q329 298 327 287T324 266T321 245T318 216L296 -29H258L248 105Q245 138 243 165T237 218T229 268T221 319Q219 326 216 337T213 353Q213 357 214 359L228 405Q232 420 235 430T241 452T248 477T258 516L86 470V597Z"  />
<glyph unicode="&#x2021;" horiz-adv-x="556" d="M86 598L258 554L215 755H344L297 554L470 600V473L299 515Q304 491 307 477T312 452T316 433T322 415Q324 410 326 402T330 389Q337 374 338 370T340 365Q340 364 338 358T333 343T328 328T324 317Q316 291 310 264T300 211L470 256V128L301 172L341 -29H215L256 172L86 128V256L259 211Q257 224 252 245T240 288T228 330T216 365Q244 436 258 515L86 470V598Z"  />
<glyph unicode="&#x2022;" horiz-adv-x="500" d="M420 350Q420 315 407 284T370 230T316 194T250 180Q215 180 184 193T130 229T94 283T80 350Q80 385 93 416T129 470T183 506T250 520Q285 520 316 507T370 470T406 416T420 350Z"  />
<glyph unicode="&#x2026;" horiz-adv-x="1000" d="M90 157H243V0H90V157ZM424 157H577V0H424V157ZM758 157H911V0H758V157Z"  />
<glyph unicode="&#x2030;" horiz-adv-x="1000" d="M161 646Q135 646 116 628T97 582Q97 555 115 537T161 519Q187 519 206 537T225 582Q225 609 206 627T161 646ZM8 586Q8 617 20 644T53 691T101 723T161 735Q192 735 220 723T269 691T302 643T314 584Q314 554 303 526T271 477T222 442T161 429Q131 429 103 440T54 472T21 522T8 586ZM459 206Q433 206 415 188T396 142Q396 115 414 97T459 79Q485 79 504 97T523 142Q523 169 504 187T459 206ZM307 146Q307 177 319 204T351 251T399 283T459 295Q491 295 519 283T567 251T600 203T612 144Q612 114 601 86T569 37T520 4T459 -9Q429 -9 402 2T353 33T320 82T307 146ZM832 206Q806 206 788 188T769 142Q769 115 787 97T832 79Q858 79 877 97T896 142Q896 169 877 187T832 206ZM679 146Q679 177 691 204T724 251T773 283T832 295Q864 295 892 283T940 251T973 203T985 144Q985 114 974 86T942 37T893 4T832 -9Q802 -9 775 2T726 33T692 82T679 146ZM515 745H586L108 -20H36L515 745Z"  />
<glyph unicode="&#x2039;" horiz-adv-x="333" d="M274 426L149 270L278 116H152L23 270L149 426H274Z"  />
<glyph unicode="&#x203A;" horiz-adv-x="333" d="M184 426L310 270L181 116H55L184 270L59 426H184Z"  />
<glyph unicode="&#x20AC;" horiz-adv-x="556" d="M512 581Q495 597 464 609T381 622Q258 622 239 491H481L448 392H227Q227 386 227 379T226 364Q226 355 226 346T227 330H426L394 231H239Q258 97 382 97Q430 97 462 109T512 138V8Q498 -2 460 -12T360 -23Q254 -23 187 37T101 231H18L51 330H91Q90 337 90 345T89 363Q89 371 89 378T91 392H18L51 491H99Q118 611 181 677T360 744Q416 744 455 732T512 709V581Z"  />
<glyph unicode="&#x2122;" horiz-adv-x="1000" d="M380 610H268V288H148V610H36V700H380V610ZM719 461L808 700H964V288H856V558H854L763 288H675L584 558H582V288H474V700H630L719 461Z"  />

</font>
</defs>
</svg>
