<?xml  version="1.0" encoding="UTF-8"?>
<!DOCTYPE svg PUBLIC "-//W3C//DTD SVG 1.0//EN" "http://www.w3.org/TR/2001/REC-SVG-20010904/DTD/svg10.dtd" >
<svg xmlns="http://www.w3.org/2000/svg" >
<metadata>
<version>1.0</version>
<id><![CDATA[News Gothic MT W01 Bold Italic]]></id>
<vendor>Monotype Imaging Inc.</vendor>
<credits>
<name>Fonts.com WebFonts</name>
<URL>http://webfonts.fonts.com</URL>
<role>Home of the Web fonts</role>
</credits>
<license>
<URL>http://webfonts.fonts.com/Legal</URL>
</license>
<copyright><![CDATA[Copyright 1996 The Monotype Corporation. All rights reserved.]]></copyright>
<trademark><![CDATA[News Gothic  is a trademark of Monotype Imaging, Inc. and may be registered in certain jurisdictions; Monotype is a trademark of Monotype Imaging, Inc. Registered in U.S. Patent and Trademark Office and may be registered in certain other jurisdictions.]]></trademark>
<licensee>
<name></name>
</licensee>
</metadata>
<defs >
<font horiz-adv-x="477" id="b3a4469c-29b6-4c2e-94dc-839a00dccec6">
<font-face font-family="" panose-1="2 11 8 3 2 1 3 9 2 3" ascent="982" descent="-215" units-per-em="1000" alphabetic="0">
</font-face>
<missing-glyph horiz-adv-x="293" />

<glyph unicode="&#xA;" />
<glyph unicode="&#xD;" />
<glyph unicode=" " horiz-adv-x="293" />
<glyph unicode="!" horiz-adv-x="365" d="M354 747L229 266H137L204 747H354ZM236 160L204 0H58L90 160H236Z"  />
<glyph unicode="&quot;" horiz-adv-x="489" d="M224 487H127V621L154 762H300L273 621L224 487ZM454 487H357V621L384 762H530L503 621L454 487Z"  />
<glyph unicode="#" horiz-adv-x="666" d="M236 277H404L465 426H297L236 277ZM613 186H464L389 0H294L369 186H201L126 0H31L106 186H30V277H142L203 426H77V517H238L314 705H408L333 517H501L576 705H671L596 517H668V426H560L499 277H613V186Z"  />
<glyph unicode="$" horiz-adv-x="626" d="M350 656Q237 647 237 563Q237 550 239 538T250 515T274 492T313 468L350 656ZM315 108Q376 113 402 139T429 201Q429 228 414 254T352 299L315 108ZM449 792L442 757Q482 749 512 732T563 693T598 647T620 600L514 552Q506 577 483 605T421 648L380 441Q425 426 460 408T520 366T558 310T572 235Q572 176 551 131T492 55T403 6T291 -14L265 -147H193L220 -10Q144 3 96 47T21 158L154 207Q158 196 166 184T185 158T211 134T245 116L285 322Q192 357 147 404T102 523Q102 581 122 625T178 699T263 744T371 762L377 792H449Z"  />
<glyph unicode="%" horiz-adv-x="978" d="M799 308Q840 308 873 295T929 257T965 198T978 120Q978 70 963 23T920 -62T849 -121T752 -143Q713 -143 681 -130T625 -91T590 -31T577 47Q577 98 592 145T636 228T706 286T799 308ZM790 224Q767 224 750 207T721 162T703 99T697 29Q697 -11 715 -33T761 -56Q782 -56 800 -43T832 -5T853 52T861 124Q861 175 842 199T790 224ZM208 -178L691 654Q625 622 574 614T471 618Q478 591 478 561Q478 504 462 454T416 368T346 310T256 288Q220 288 188 300T132 335T94 393T80 475Q80 529 96 577T141 662T210 719T301 740Q332 740 358 732T411 706Q432 693 459 681T530 668Q557 668 592 675T662 697Q681 704 695 713T722 733T745 756T767 782H846L291 -178H208ZM292 653Q257 653 237 625T205 540Q200 517 198 500T196 460Q196 421 213 398T260 375Q302 375 331 423T361 562Q361 610 342 631T292 653Z"  />
<glyph unicode="&amp;" horiz-adv-x="755" d="M242 -14Q197 -14 158 -3T91 30T47 86T31 164Q31 211 47 250T91 322T154 381T229 427Q223 439 218 455T209 490T203 525T200 557Q200 601 218 639T268 704T340 748T424 764Q503 764 551 727T600 616Q600 565 582 528T534 464T466 418T388 383Q411 340 439 299T496 223Q527 251 552 294T592 376L698 341Q681 293 650 242T575 145Q582 136 595 128T624 115T655 107T680 104H685L676 -9Q667 -10 656 -10T633 -11Q580 -11 543 7T470 53Q422 21 362 4T242 -14ZM488 605Q488 629 471 649T425 670Q403 670 384 662T351 639T328 605T320 564Q320 539 326 518T346 470Q372 478 397 490T443 518T475 556T488 605ZM388 138Q343 198 314 251T268 334Q221 304 200 273T179 200Q179 158 203 131T279 104Q303 104 333 112T388 138Z"  />
<glyph unicode="&apos;" horiz-adv-x="240" d="M214 487H117V621L144 762H290L263 621L214 487Z"  />
<glyph unicode="(" horiz-adv-x="400" d="M471 687Q411 637 361 587T275 481T218 359T197 215Q196 101 228 16T310 -137L246 -201Q201 -162 166 -113T106 -10T68 102T55 216Q55 310 82 389T157 534T271 656T418 756L471 687Z"  />
<glyph unicode=")" horiz-adv-x="400" d="M-66 -132Q-6 -83 44 -33T130 74T187 196T208 340Q208 397 200 446T177 539T141 620T95 692L159 756Q204 717 239 668T299 565T337 453T350 339Q350 246 323 167T248 22T133 -100T-13 -201L-66 -132Z"  />
<glyph unicode="*" horiz-adv-x="469" d="M506 493L318 532L450 394L355 337L293 520L234 337L136 394L269 532L80 493V604L269 563L136 704L234 758L293 577L355 758L450 704L318 563L506 604V493Z"  />
<glyph unicode="+" horiz-adv-x="667" d="M83 322V427H302V646H407V427H627V322H407V103H302V322H83Z"  />
<glyph unicode="&#x2c;" horiz-adv-x="273" d="M12 0L43 164H190L159 0L38 -161H-17L94 0H12Z"  />
<glyph unicode="-" horiz-adv-x="366" d="M45 211L69 336H327L303 211H45Z"  />
<glyph unicode="." horiz-adv-x="273" d="M12 0L43 160H190L159 0H12Z"  />
<glyph unicode="/" horiz-adv-x="507" d="M-41 0L467 747H589L81 0H-41Z"  />
<glyph unicode="0" horiz-adv-x="635" d="M627 519Q627 471 620 413T597 296T554 180T489 81T398 12T278 -15Q158 -15 104 46T49 226Q49 278 57 337T82 457T126 572T191 669T281 736T397 762Q517 762 572 702T627 519ZM484 513Q484 540 480 563T466 603T437 631T391 641Q354 641 325 620T273 565T236 487T211 398T197 309T192 232Q192 206 196 183T210 143T239 116T286 106Q324 106 353 127T405 184T442 263T466 353T480 440T484 513Z"  />
<glyph unicode="1" horiz-adv-x="635" d="M540 109L519 0H44L65 109H242L339 604Q293 585 246 576T144 564L165 673Q210 674 264 690T391 747H508L383 109H540Z"  />
<glyph unicode="2" horiz-adv-x="635" d="M106 555Q141 657 218 709T407 762Q453 762 491 750T557 713T600 653T615 572Q615 517 594 472T538 389T459 317T370 252T281 189T206 122H546L522 0H3L8 24Q21 86 60 136T151 230T259 313T363 390T441 469T472 558Q472 610 447 630T377 650Q350 650 326 640T283 611T248 570T222 519L106 555Z"  />
<glyph unicode="3" horiz-adv-x="635" d="M173 324L198 441H272Q302 441 334 448T394 470T438 511T456 571Q456 606 429 627T358 649Q321 649 287 632T220 564L119 615Q148 656 177 684T238 729T308 753T391 761Q447 761 486 746T551 706T587 651T599 591Q599 556 583 524T542 464T483 416T415 387Q439 378 461 364T500 331T527 286T537 227Q537 166 517 121T461 46T373 2T258 -13Q212 -13 174 -2T105 28T48 73T2 129L116 193Q142 151 182 125T265 99Q293 99 317 107T360 131T388 170T399 222Q399 255 386 275T352 306T301 320T238 324H173Z"  />
<glyph unicode="4" horiz-adv-x="635" d="M612 270L588 148H482L453 0H324L353 148H5L29 270L426 747H599L506 270H612ZM441 598L173 270H377L441 598Z"  />
<glyph unicode="5" horiz-adv-x="635" d="M614 747L591 630H293L241 447Q281 476 318 486T393 497Q432 497 464 481T519 439T554 378T567 308Q567 240 546 182T487 80T395 12T279 -13Q195 -13 133 16T32 114L147 182Q164 147 197 123T273 99Q309 99 337 116T385 159T414 219T424 286Q424 340 398 364T324 388Q286 388 254 368T202 324L95 347L204 747H614Z"  />
<glyph unicode="6" horiz-adv-x="635" d="M455 229Q456 234 456 238T457 248Q457 296 430 323T344 351Q308 351 268 336T194 285Q193 278 193 272T193 258Q193 216 204 187T232 139T270 113T309 105Q343 105 369 115T413 142T442 182T455 229ZM564 569Q543 605 510 622T422 640Q387 640 355 626T295 583T247 511T214 412Q230 426 252 437T298 456T346 468T390 472Q445 472 484 456T549 411T587 343T600 260Q600 208 580 159T522 70T430 8T307 -16Q254 -16 209 -1T130 48T77 134T58 258Q58 351 83 441T156 602T276 717T438 761Q481 761 514 755T574 737T621 708T661 666L564 569Z"  />
<glyph unicode="7" horiz-adv-x="635" d="M638 747L613 620L210 0H50L473 618H97L122 747H638Z"  />
<glyph unicode="8" horiz-adv-x="635" d="M116 548Q116 598 138 638T198 705T286 747T395 762Q446 762 490 749T566 711T617 654T636 582Q636 512 587 464T460 387Q526 359 558 312T590 214Q590 149 560 106T484 36T384 -1T282 -13Q228 -13 180 0T96 38T40 99T19 181Q19 219 35 250T80 306T145 351T223 387Q171 426 144 463T116 548ZM493 567Q493 600 464 625T388 650Q365 650 343 644T301 626T271 595T259 551Q259 518 282 490T346 439Q364 444 389 455T438 483T477 521T493 567ZM447 209Q447 251 415 284T331 339Q303 331 274 318T221 288T182 247T167 196Q167 173 177 156T204 126T244 108T293 102Q325 102 353 108T402 128T435 162T447 209Z"  />
<glyph unicode="9" horiz-adv-x="635" d="M477 456Q478 464 478 471T479 486Q479 531 467 560T436 608T396 633T356 641Q288 641 253 600T218 493Q218 446 247 421T330 395Q367 395 404 408T477 456ZM111 177Q125 161 139 148T169 126T206 111T253 106Q295 106 329 123T388 172T431 244T459 332Q439 317 416 306T370 288T325 278T285 274Q237 274 198 290T132 335T90 402T75 485Q75 537 93 587T148 676T236 738T357 762Q415 762 463 743T545 689T598 602T617 488Q617 395 595 305T526 144T407 29T237 -15Q194 -15 162 -9T104 10T57 40T14 80L111 177Z"  />
<glyph unicode=":" horiz-adv-x="365" d="M128 372L159 532H307L276 372H128ZM57 0L88 164H236L205 0H57Z"  />
<glyph unicode=";" horiz-adv-x="365" d="M127 372L158 532H304L273 372H127ZM56 0L87 160H233L202 0L77 -160H22L133 0H56Z"  />
<glyph unicode="&lt;" horiz-adv-x="667" d="M605 214V100L62 327V422L605 648V535L205 374L605 214Z"  />
<glyph unicode="=" horiz-adv-x="667" d="M83 439V544H626V439H83ZM83 206V311H626V206H83Z"  />
<glyph unicode="&gt;" horiz-adv-x="667" d="M100 535V648L643 422V327L100 100V214L500 374L100 535Z"  />
<glyph unicode="?" horiz-adv-x="469" d="M118 645Q160 702 208 732T323 762Q361 762 391 750T441 716T473 668T484 612Q484 582 473 554T443 499T403 451T358 412Q328 389 310 372T279 338T261 303T250 261H135Q141 295 149 323T171 377T205 427T254 475Q282 498 299 513T325 540T338 565T341 595Q341 621 325 631T286 641Q266 641 241 627T194 582L118 645ZM247 160L216 0H71L102 160H247Z"  />
<glyph unicode="@" horiz-adv-x="1024" d="M612 374Q597 392 580 401T542 411Q510 411 489 393T455 349T436 291T430 234Q430 184 452 164T505 144Q546 144 585 190L612 374ZM447 39Q413 39 386 53T339 92T310 151T299 226Q299 273 313 324T354 419T422 491T517 520Q580 520 626 472L632 519H761L723 246Q717 204 717 181Q717 152 725 143T751 133Q775 133 798 146T841 186T873 251T885 344Q885 409 863 468T799 571T695 642T552 669Q468 669 398 640T276 559T195 437T166 283Q166 198 192 127T268 5T390 -74T552 -103Q615 -103 677 -89T785 -47L845 -118Q816 -136 781 -151T707 -176T628 -191T552 -197Q437 -197 346 -164T192 -69T94 83T60 283Q60 384 97 471T199 624T355 726T552 763Q652 763 732 730T870 640T957 507T988 344Q988 280 971 225T920 128T833 63T710 39Q671 39 642 57T598 102Q585 87 567 76T529 56T488 44T447 39Z"  />
<glyph unicode="A" horiz-adv-x="690" d="M623 0H472L449 175H210L119 0H-35L369 747H518L623 0ZM436 284L401 545L266 284H436Z"  />
<glyph unicode="B" horiz-adv-x="721" d="M317 117Q351 117 385 121T447 140T492 180T509 248Q509 272 497 289T464 317T416 333T360 338H252L208 117H317ZM404 455Q431 455 456 461T500 480T532 515T544 567Q544 590 534 603T506 623T468 632T425 634H309L274 455H404ZM39 0L185 747H456Q506 747 550 738T628 710T680 661T700 590Q700 512 654 464T536 397Q602 376 632 336T662 245Q662 180 637 134T570 58T474 14T361 0H39Z"  />
<glyph unicode="C" horiz-adv-x="682" d="M651 214Q599 99 519 42T334 -15Q206 -15 135 56T64 270Q64 368 91 457T171 614T301 722T480 762Q530 762 571 747T643 703T690 638T711 557L566 519Q563 580 533 610T449 641Q392 641 349 608T276 525T232 414T217 297Q217 210 250 165T354 119Q396 119 440 151T522 252L651 214Z"  />
<glyph unicode="D" horiz-adv-x="740" d="M400 747Q463 747 520 729T620 673T689 582T715 457Q715 359 688 276T607 131T474 35T290 0H39L185 747H400ZM309 129Q371 129 418 155T498 223T546 321T562 433Q562 528 511 574T374 621H308L212 129H309Z"  />
<glyph unicode="E" horiz-adv-x="612" d="M644 747L618 618H306L275 454H478L456 332H250L211 129H553L528 0H39L185 747H644Z"  />
<glyph unicode="F" horiz-adv-x="560" d="M633 747L608 618H307L268 423H448L423 294H243L186 0H39L185 747H633Z"  />
<glyph unicode="G" horiz-adv-x="783" d="M550 91Q498 34 445 10T325 -14Q263 -14 215 7T133 66T82 156T64 272Q64 376 92 465T175 621T310 724T496 762Q546 762 589 748T665 706T718 637T743 543L618 503Q614 532 605 556T578 599T536 627T476 637Q405 637 356 608T276 529T231 416T217 284Q217 196 258 153T386 110Q416 110 446 121T504 154T553 204T585 270H389L411 383H725L650 0H532L550 91Z"  />
<glyph unicode="H" horiz-adv-x="748" d="M754 747L608 0H461L524 323H248L185 0H38L184 747H331L273 452H549L607 747H754Z"  />
<glyph unicode="I" horiz-adv-x="327" d="M332 747L186 0H39L185 747H332Z"  />
<glyph unicode="J" horiz-adv-x="511" d="M520 747L412 198Q400 138 376 97T319 32T244 -4T157 -15Q128 -15 98 -7T42 20T-5 67T-35 135L83 205Q92 156 116 135T164 114Q183 114 200 118T231 135T255 170T273 228L374 747H520Z"  />
<glyph unicode="K" horiz-adv-x="689" d="M785 747L449 443L638 0H485L345 352L234 248L185 0H38L184 747H331L272 442L600 747H785Z"  />
<glyph unicode="L" horiz-adv-x="564" d="M518 129L493 0H38L184 747H331L211 129H518Z"  />
<glyph unicode="M" horiz-adv-x="894" d="M900 747L754 0H614L744 665L434 0H356L307 665L177 0H38L184 747H413L448 284L663 747H900Z"  />
<glyph unicode="N" horiz-adv-x="785" d="M791 747L645 0H510L287 525L184 0H38L184 747H328L546 241L645 747H791Z"  />
<glyph unicode="O" horiz-adv-x="760" d="M741 474Q741 379 716 291T639 136T510 28T330 -13Q268 -13 218 6T133 62T79 148T60 261Q60 351 85 441T160 602T286 718T461 763Q597 763 669 687T741 474ZM588 481Q588 560 550 597T449 634Q406 634 372 617T312 572T267 507T236 430T219 348T213 269Q213 191 249 154T349 116Q413 116 458 151T532 241T574 359T588 481Z"  />
<glyph unicode="P" horiz-adv-x="690" d="M451 747Q499 747 544 739T626 708T684 647T706 548Q706 482 681 434T613 354T517 308T404 293H243L186 0H38L184 747H451ZM398 415Q431 415 459 422T508 444T541 484T553 542Q553 566 544 581T520 604T484 615T441 618H307L267 415H398Z"  />
<glyph unicode="Q" horiz-adv-x="760" d="M545 -190Q532 -191 518 -192Q506 -193 491 -193T461 -194Q392 -194 349 -183T281 -153T247 -105T238 -42Q238 -32 238 -23T240 -2Q155 23 108 92T60 261Q60 351 85 441T160 602T286 718T461 763Q597 763 669 687T741 474Q741 385 719 303T653 154T542 44T386 -11V-27Q386 -46 388 -60T403 -83T441 -98T511 -103Q522 -103 532 -103T550 -101Q559 -100 567 -99L545 -190ZM588 481Q588 560 550 597T449 634Q406 634 372 617T312 572T267 507T236 430T219 348T213 269Q213 191 249 154T349 116Q413 116 458 151T532 241T574 359T588 481Z"  />
<glyph unicode="R" horiz-adv-x="693" d="M446 747Q495 747 539 737T616 706T668 649T688 564Q688 516 674 477T636 409T578 358T504 325L611 0H455L366 299H244L185 0H38L184 747H446ZM374 416Q449 416 492 449T535 542Q535 587 511 602T433 618H305L266 416H374Z"  />
<glyph unicode="S" horiz-adv-x="621" d="M156 208Q163 190 174 172T202 140T244 116T303 107Q328 107 349 115T386 138T411 169T420 205Q420 220 417 235T398 266T354 297T274 328Q219 344 185 366T133 414T108 468T101 523Q101 583 124 628T187 703T279 748T389 763Q492 763 549 716T614 593L481 560Q468 605 441 629T362 654Q341 654 320 648T282 630T255 600T244 556Q244 538 248 524T266 496T304 471T368 446Q429 426 469 404T532 355T564 299T573 235Q573 171 550 124T488 47T395 1T282 -14Q176 -14 111 33T21 158L156 208Z"  />
<glyph unicode="T" horiz-adv-x="606" d="M680 747L655 618H445L324 0H177L298 618H89L114 747H680Z"  />
<glyph unicode="U" horiz-adv-x="763" d="M774 747L681 278Q651 127 565 57T327 -13Q208 -13 146 44T83 202Q83 211 84 223T86 250T90 277T94 300L180 747H327L238 291Q235 274 233 260T231 231Q231 176 260 146T353 116Q388 116 418 126T472 161T514 224T544 323L627 747H774Z"  />
<glyph unicode="V" horiz-adv-x="636" d="M710 747L332 0H192L104 747H249L303 215L554 747H710Z"  />
<glyph unicode="W" horiz-adv-x="932" d="M992 747L666 0H546L516 570L273 0H153L116 747H260L278 303L464 747H639L658 299L843 747H992Z"  />
<glyph unicode="X" horiz-adv-x="659" d="M719 747L431 381L592 0H437L333 257L136 0H-35L274 394L125 747H280L372 519L548 747H719Z"  />
<glyph unicode="Y" horiz-adv-x="603" d="M673 747L379 333L314 0H167L232 333L101 747H248L329 474L514 747H673Z"  />
<glyph unicode="Z" horiz-adv-x="625" d="M661 747L638 632L206 129H569L544 0H-13L7 100L454 618H106L131 747H661Z"  />
<glyph unicode="[" horiz-adv-x="390" d="M463 747L442 634H313L170 -84H299L279 -197H8L192 747H463Z"  />
<glyph unicode="\" horiz-adv-x="506" d="M340 0L102 747H207L445 0H340Z"  />
<glyph unicode="]" horiz-adv-x="390" d="M385 747L201 -196H-70L-47 -83H82L221 634H92L114 747H385Z"  />
<glyph unicode="^" horiz-adv-x="583" d="M196 357H86L270 747H378L557 357H449L322 653L196 357Z"  />
<glyph unicode="_" horiz-adv-x="500" d="M436 -125H-76V-75H436V-125Z"  />
<glyph unicode="`" horiz-adv-x="333" d="M291 570H217L97 734H248L291 570Z"  />
<glyph unicode="a" horiz-adv-x="567" d="M320 55Q289 26 249 9T162 -9Q133 -9 108 -1T64 24T34 65T23 121Q23 180 53 217T133 278T244 313T370 331L374 351Q376 358 377 367T379 385Q379 416 361 432T302 449Q268 449 232 431T164 381L99 459Q200 543 321 543Q416 543 463 506T510 403Q510 385 508 359T499 303L461 109Q458 94 457 76T456 41Q456 30 456 19T458 0H322Q321 6 321 15Q320 23 320 33T320 55ZM356 255Q258 244 206 216T154 132Q154 109 168 96T206 82Q233 82 261 92T331 131L356 255Z"  />
<glyph unicode="b" horiz-adv-x="608" d="M163 0H28L176 758H311L254 468Q293 503 330 521T405 540Q440 540 470 527T521 490T555 429T568 347Q568 290 552 227T502 112T419 25T303 -9Q260 -9 228 10T175 62L163 0ZM194 158Q207 130 229 117T279 103Q320 103 349 125T397 182T424 256T433 330Q433 381 409 406T346 431Q316 431 290 416T236 375L194 158Z"  />
<glyph unicode="c" horiz-adv-x="510" d="M471 143Q426 70 372 31T237 -9Q190 -9 155 6T95 47T58 111T45 194Q45 272 67 336T129 445T222 516T337 541Q364 541 391 534T442 511T481 469T505 404L402 366Q390 397 371 416T323 436Q282 436 255 411T211 350T187 277T180 214Q180 157 199 130T262 103Q330 103 375 195L471 143Z"  />
<glyph unicode="d" horiz-adv-x="608" d="M353 61Q288 -8 202 -8Q130 -8 87 45T43 193Q43 251 59 312T107 425T189 508T306 541Q384 541 433 471L489 758H624L476 0H341L353 61ZM414 377Q397 400 377 414T329 429Q289 429 261 408T214 355T187 285T178 212Q178 158 201 130T267 101Q296 101 321 113T370 143L414 377Z"  />
<glyph unicode="e" horiz-adv-x="583" d="M515 128Q482 67 425 29T272 -9Q225 -9 184 6T112 50T64 122T46 221Q46 283 66 341T125 443T218 514T342 541Q435 541 490 490T545 349Q545 323 540 294T528 243H183Q181 235 181 228T181 213Q181 156 213 128T294 100Q337 100 367 120T414 174L515 128ZM423 323Q424 329 424 335T425 347Q425 373 417 392T396 423T368 441T337 447Q315 447 293 441T252 419T219 381T197 323H423Z"  />
<glyph unicode="f" horiz-adv-x="341" d="M425 758L406 664H383Q347 664 327 645T300 599L285 532H371L352 435H266L181 0H46L131 435H65L84 532H150Q160 583 175 624T216 696T277 742T364 758H425Z"  />
<glyph unicode="g" horiz-adv-x="573" d="M623 558L606 467H580Q540 467 506 454Q528 417 528 370Q528 317 506 280T449 219T368 184T277 173Q256 173 237 175T200 183Q170 170 160 157T150 135Q150 123 155 116T177 103T225 95T307 91Q401 89 450 61T500 -37Q500 -88 477 -122T414 -176T325 -205T220 -214Q91 -214 26 -180T-39 -90Q-39 -64 -30 -44T-4 -10T34 15T82 31Q59 44 46 60T33 99Q33 120 43 137T69 168T104 192T140 209Q105 231 86 264T66 340Q66 388 85 425T139 488T218 527T313 541Q363 541 400 530T463 500Q480 516 501 527T543 545T581 555T610 558H623ZM401 367Q401 405 376 431T307 457Q258 457 226 429T193 349Q193 307 216 284T288 260Q307 260 327 265T363 282T390 315T401 367ZM377 -52Q377 -32 364 -22T328 -8T272 -3T203 1Q187 3 170 4T136 9Q114 0 94 -19T74 -65Q74 -94 111 -110T219 -127Q236 -127 262 -126T314 -117T358 -94T377 -52Z"  />
<glyph unicode="h" horiz-adv-x="596" d="M250 448Q291 489 337 515T424 541Q458 541 481 531T520 503T542 463T549 416Q549 406 548 396T545 376L471 0H336L403 341Q406 357 406 372Q406 401 393 416T350 432Q339 432 325 427T295 412T263 391T234 364L163 0H28L175 758H310L250 448Z"  />
<glyph unicode="i" horiz-adv-x="292" d="M311 758L285 626H150L176 758H311ZM267 532L163 0H28L132 532H267Z"  />
<glyph unicode="j" horiz-adv-x="292" d="M310 758L284 626H149L175 758H310ZM267 532L152 -61Q138 -135 84 -174T-53 -214H-115L-95 -109Q-72 -109 -53 -107T-19 -98T5 -78T20 -42L132 532H267Z"  />
<glyph unicode="k" horiz-adv-x="549" d="M592 532L358 311L504 0H369L271 231L193 167L163 0H28L176 758H311L229 337L435 532H592Z"  />
<glyph unicode="l" horiz-adv-x="292" d="M311 758L163 0H28L176 758H311Z"  />
<glyph unicode="m" horiz-adv-x="920" d="M247 428Q294 482 336 512T435 542Q486 542 521 515T557 425Q604 479 649 510T750 542Q782 542 805 533T844 506T866 466T873 417Q873 400 870 382T862 346L795 0H660L725 333Q727 345 728 355T730 374Q730 406 716 419T674 433Q643 433 614 411T547 347L479 0H344L409 333Q411 345 412 355T414 374Q414 406 400 419T359 433Q328 433 299 411T231 346L163 0H28L132 532H267L247 428Z"  />
<glyph unicode="n" horiz-adv-x="596" d="M250 448Q291 489 337 515T424 541Q458 541 481 531T520 503T542 463T549 416Q549 406 548 396T545 376L471 0H336L403 341Q406 357 406 372Q406 401 393 416T350 432Q339 432 325 427T295 412T263 391T234 364L163 0H28L132 532H267L250 448Z"  />
<glyph unicode="o" horiz-adv-x="587" d="M549 345Q549 276 531 213T476 100T384 21T252 -9Q205 -9 166 4T100 43T57 106T41 194Q41 258 60 320T116 432T208 512T336 542Q439 542 494 490T549 345ZM414 338Q414 392 391 420T330 448Q289 448 260 421T212 354T185 270T176 192Q176 139 198 112T258 85Q298 85 327 112T376 178T404 261T414 338Z"  />
<glyph unicode="p" horiz-adv-x="608" d="M254 467Q291 502 329 521T408 541Q438 541 466 530T517 494T553 431T567 341Q567 302 559 261T536 181T498 108T446 47T380 6T303 -9Q281 -9 261 -1T225 20T196 46T176 71L122 -214H-13L132 532H267L254 467ZM192 144Q215 125 238 114T289 103Q324 103 351 125T396 180T423 251T432 323Q432 372 410 399T349 426Q325 426 296 417T238 385L192 144Z"  />
<glyph unicode="q" horiz-adv-x="608" d="M446 532H581L436 -214H301L354 62Q312 22 275 7T203 -8Q133 -8 88 43T43 197Q43 257 60 318T110 428T192 509T308 540Q345 540 375 523T434 474L446 532ZM417 384Q396 401 376 414T325 428Q286 428 259 405T213 348T187 276T178 207Q178 159 199 130T262 101Q275 101 290 104T319 113T346 126T369 139L417 384Z"  />
<glyph unicode="r" horiz-adv-x="410" d="M231 387Q285 469 336 503T442 541L404 395H392Q347 395 302 372T219 287L163 0H28L132 532H259L231 387Z"  />
<glyph unicode="s" horiz-adv-x="478" d="M85 149Q101 126 133 107T205 88Q219 88 236 90T269 98T294 117T305 151Q305 174 282 188T214 214Q190 220 162 231T111 260T73 305T57 366Q57 402 73 434T119 490T191 528T287 542Q323 542 353 533T406 511T446 480T471 448L394 384Q373 410 342 429T281 448Q266 448 250 446T220 436T197 416T188 382Q188 366 195 356T215 337T245 324T283 312Q313 304 340 292T389 261T423 217T436 159Q436 126 422 96T378 42T306 5T205 -9Q179 -9 149 -3T91 15T40 45T1 87L85 149Z"  />
<glyph unicode="t" horiz-adv-x="353" d="M373 532L354 435H261L210 173Q205 151 205 140Q205 118 216 110T252 101Q261 101 271 102T295 105L274 -5Q263 -7 248 -7T223 -8Q189 -8 161 -3T111 16T79 52T67 108Q67 118 68 129T71 152L126 435H44L63 532H145L178 704H313L280 532H373Z"  />
<glyph unicode="u" horiz-adv-x="596" d="M347 80Q304 37 261 14T182 -9Q156 -9 134 -2T94 22T68 65T58 130Q58 146 60 163T66 201L131 532H266L201 203Q196 181 196 163Q196 140 207 123T249 106Q277 106 306 119T365 174L435 532H570L466 0H331L347 80Z"  />
<glyph unicode="v" horiz-adv-x="479" d="M512 532L260 0H117L59 532H189L219 166L378 532H512Z"  />
<glyph unicode="w" horiz-adv-x="750" d="M780 532L516 0H416L379 337L222 0H127L66 532H186L220 224L367 532H467L500 215L647 532H780Z"  />
<glyph unicode="x" horiz-adv-x="475" d="M507 532L302 266L405 0H278L218 159L104 0H-39L173 275L72 532H202L257 383L364 532H507Z"  />
<glyph unicode="y" horiz-adv-x="507" d="M538 532L273 -9Q247 -63 220 -101T160 -165T85 -202T-15 -214H-73L-52 -114H-6Q41 -114 76 -89T134 -16L63 532H195L233 162L402 532H538Z"  />
<glyph unicode="z" horiz-adv-x="494" d="M510 532L489 424L154 109H427L406 0H-20L1 109L338 423H75L96 532H510Z"  />
<glyph unicode="{" horiz-adv-x="406" d="M398 -191H372Q346 -191 320 -190T268 -180Q223 -165 199 -130T173 -43Q171 23 171 71T161 152T130 201T64 220V337Q108 339 130 356T161 405T170 486T173 599Q175 650 199 685T268 736Q294 744 320 745T372 747H398V630H392Q355 630 336 626T308 609T298 570T296 501Q295 456 292 423T280 364T254 318T207 278Q235 262 252 242T279 194T292 133T296 56Q296 13 298 -13T309 -52T337 -70T392 -74H398V-191Z"  />
<glyph unicode="|" horiz-adv-x="583" d="M239 -214V747H345V-214H239Z"  />
<glyph unicode="}" horiz-adv-x="406" d="M97 747Q123 747 149 746T201 736Q246 721 270 686T296 599Q297 534 298 486T308 405T339 356T405 337V220Q361 218 339 201T308 152T298 72T296 -43Q293 -149 201 -180Q175 -188 149 -189T97 -191H71V-74H78Q110 -74 128 -71T155 -59T166 -38T171 -4Q174 38 174 79T179 156T204 224T262 278Q237 294 220 312T193 355T178 416T173 501Q173 546 171 572T160 610T132 626T78 630H71V747H97Z"  />
<glyph unicode="~" horiz-adv-x="656" d="M231 383Q161 383 83 311V420Q163 488 238 488Q271 488 303 476T365 449T425 422T482 409Q517 409 552 428T625 481V372Q586 340 550 322T477 304Q443 304 410 316T346 343T285 370T231 383Z"  />
<glyph unicode="&#xA0;" horiz-adv-x="293" />
<glyph unicode="&#xA1;" horiz-adv-x="365" d="M310 542L279 382H133L164 542H310ZM231 276L164 -205H12L138 276H231Z"  />
<glyph unicode="&#xA2;" horiz-adv-x="475" d="M363 496Q408 483 434 450T465 374L377 341Q372 359 361 375T333 402L233 89Q271 91 298 109T347 166L416 128Q380 55 328 24T202 -9L136 -215H93L160 -5Q140 -1 119 11T81 45T53 102T41 187Q41 254 60 312T116 412T202 479T313 503H322L385 701H428L363 496ZM293 412Q255 411 228 392T184 343T159 274T150 195Q150 165 158 137T192 96L293 412Z"  />
<glyph unicode="&#xA3;" horiz-adv-x="625" d="M79 -13Q32 -13 6 14T-20 83Q-20 114 -9 138T21 178T66 203T120 211Q144 211 165 204T206 190Q216 216 220 245T224 317Q224 324 224 331T223 346H101L120 443H217Q216 447 216 450T217 458Q217 525 232 581T280 677T361 739T477 761Q508 761 535 752T583 724T614 675T626 604Q626 596 625 589T623 574L503 565Q506 584 506 600Q506 632 494 649T450 667Q416 667 396 649T366 604T352 542T348 475Q348 467 348 459T350 443H509L490 346H352Q352 280 335 235T292 152Q331 132 359 120T406 108Q437 108 454 125T472 181H584Q582 148 568 114T528 51T463 5T373 -13Q338 -13 301 0T225 56Q213 44 198 32T165 10T125 -6T79 -13ZM165 102Q148 117 131 127T94 137Q77 137 63 128T49 101Q49 77 59 67T85 57Q105 57 125 69T165 102Z"  />
<glyph unicode="&#xA4;" horiz-adv-x="647" d="M569 175Q553 160 538 144T507 112Q490 129 473 146T438 180Q412 163 382 155T323 146Q297 146 267 153T208 180Q191 163 174 146T139 112Q123 128 108 144T77 175Q94 192 111 208T146 241Q128 270 120 299T112 354Q112 380 119 409T146 467Q129 484 112 500T77 534Q93 549 108 565T139 597Q156 580 173 563T208 529Q237 548 267 555T323 563Q350 563 380 555T437 529Q455 546 472 563T507 597Q523 581 538 565T569 534Q535 500 499 467Q519 437 526 407T534 354Q534 329 526 300T499 241Q517 225 534 209T569 175ZM445 355Q445 381 435 403T407 441T368 466T323 475Q297 475 275 466T236 440T210 402T200 355Q200 330 209 308T236 270T275 243T323 233Q348 233 370 242T409 268T435 307T445 355Z"  />
<glyph unicode="&#xA5;" horiz-adv-x="635" d="M697 747L514 488H646L632 416H463L404 332L393 274H605L591 202H379L339 0H191L231 202H19L33 274H245L256 332L229 416H60L74 488H207L125 747H274L355 470L540 747H697Z"  />
<glyph unicode="&#xA6;" horiz-adv-x="583" d="M239 -214V143H345V-214H239ZM239 391V747H345V391H239Z"  />
<glyph unicode="&#xA7;" horiz-adv-x="552" d="M148 575Q148 621 166 656T216 714T286 750T367 762Q455 762 498 722T544 603L416 585Q416 627 398 646T353 665Q341 665 330 661T308 650T292 632T286 609Q286 596 289 585T302 561T332 529T386 485Q420 459 443 437T480 395T501 354T508 310Q508 270 497 239T466 181T418 134T356 94Q371 77 381 62T397 31T405 1T407 -33Q407 -74 389 -107T341 -164T272 -201T191 -214Q110 -214 61 -173T12 -53L140 -34Q140 -76 156 -96T201 -117Q235 -117 253 -102T272 -60Q272 -45 269 -33T256 -7T228 23T179 62Q108 114 80 155T51 240Q51 278 62 310T94 370T141 419T202 459Q177 487 163 515T148 575ZM377 270Q377 288 369 303T346 334T309 367T259 406Q244 395 230 382T204 353T185 320T178 282Q178 263 186 248T211 217T249 185T299 147Q314 158 328 171T353 200T370 233T377 270Z"  />
<glyph unicode="&#xA8;" horiz-adv-x="333" d="M422 697L402 592H296L316 697H422ZM187 697L167 592H60L80 697H187Z"  />
<glyph unicode="&#xA9;" horiz-adv-x="848" d="M614 306Q575 179 441 179Q406 179 374 192T316 231T276 296T261 388Q261 434 274 472T311 538T371 581T450 596Q512 596 552 566T614 476L534 458Q521 492 500 509T447 526Q399 526 374 490T348 394Q348 322 372 286T443 249Q475 249 499 269T535 332L614 306ZM444 762Q522 762 590 733T708 653T788 534T818 388Q818 310 789 242T708 124T589 44T444 14Q366 14 298 43T180 123T100 242T70 388Q70 466 99 534T179 652T298 732T444 762ZM444 688Q382 688 327 665T232 601T168 505T144 388Q144 326 167 271T231 175T327 111T444 87Q506 87 561 110T657 175T721 271T745 388Q745 450 721 505T656 600T561 664T444 688Z"  />
<glyph unicode="&#xAA;" horiz-adv-x="410" d="M79 464Q79 506 104 533T166 578T246 605T324 618L328 637Q329 642 329 645T330 653Q330 673 317 684T275 695Q250 695 225 683T180 645L133 692Q142 700 155 711T187 734T231 753T289 761Q356 761 388 736T420 664Q420 656 419 648T416 631L381 456Q376 433 376 408Q376 400 377 393T379 379H290Q289 387 289 395T289 411V418Q267 397 238 385T177 373Q136 373 108 396T79 464ZM314 565Q294 562 270 557T223 542T186 514T171 472Q171 437 208 437Q227 437 247 444T296 471L314 565Z"  />
<glyph unicode="&#xAB;" horiz-adv-x="558" d="M273 265L434 502H574L414 265L484 30H344L273 265ZM29 265L185 502H332L173 265L242 30H100L29 265Z"  />
<glyph unicode="&#xAC;" horiz-adv-x="667" d="M81 438V543H625V200H520V438H81Z"  />
<glyph unicode="&#xAD;" horiz-adv-x="366" d="M45 211L69 336H327L303 211H45Z"  />
<glyph unicode="&#xAE;" horiz-adv-x="848" d="M371 188H290V585H478Q545 585 579 554T613 472Q613 431 586 400T505 361Q534 350 550 328T589 267L636 188H536L503 252Q486 284 473 303T448 333T422 347T392 351H371V188ZM371 522V413H436Q455 413 471 415T500 423T519 440T526 471Q526 493 507 507T444 522H371ZM444 762Q522 762 590 733T708 652T788 533T818 388Q818 310 789 242T709 124T590 44T444 14Q366 14 298 43T180 123T100 242T70 388Q70 465 99 533T179 652T298 732T444 762ZM445 689Q383 689 328 666T232 601T168 506T144 388Q144 326 167 271T232 175T328 111T445 87Q507 87 562 110T657 175T721 271T745 388Q745 451 722 505T658 601T562 665T445 689Z"  />
<glyph unicode="&#xAF;" horiz-adv-x="333" d="M409 702L391 611H76L94 702H409Z"  />
<glyph unicode="&#xB0;" horiz-adv-x="396" d="M108 606Q108 638 120 666T154 716T203 749T264 762Q296 762 324 750T374 716T407 667T420 606Q420 574 408 546T374 496T325 463T264 450Q232 450 204 462T154 496T121 545T108 606ZM186 606Q186 574 209 551T264 528Q296 528 318 550T341 606Q341 638 319 660T264 683Q231 683 209 661T186 606Z"  />
<glyph unicode="&#xB1;" horiz-adv-x="667" d="M61 411V516H280V735H385V516H605V411H385V191H280V411H61ZM61 16V121H605V16H61Z"  />
<glyph unicode="&#xB2;" horiz-adv-x="313" d="M97 671Q123 714 164 734T252 754Q295 754 324 735T354 670Q354 629 330 600T274 547T208 499T157 446H322L308 374H62Q71 423 90 458T133 518T182 560T227 591T261 619T274 650Q274 670 266 679T231 688Q208 688 185 675T148 641L97 671Z"  />
<glyph unicode="&#xB3;" horiz-adv-x="313" d="M144 533L156 598H193Q206 598 222 600T253 610T276 628T286 658Q286 675 272 685T236 696Q218 696 200 687T162 655L125 699Q155 727 184 740T253 753Q281 753 300 745T332 725T350 698T356 668Q356 651 349 635T330 605T301 583T265 571Q326 548 326 486Q326 424 285 395T181 365Q138 365 108 386T58 436L118 470Q130 445 149 434T190 422Q218 422 237 438T256 483Q256 498 248 508T228 523T202 531T176 533H144Z"  />
<glyph unicode="&#xB4;" horiz-adv-x="333" d="M465 734L249 570H158L301 734H465Z"  />
<glyph unicode="&#xB5;" horiz-adv-x="596" d="M347 80Q313 37 284 15T223 -8Q200 -8 189 -2T162 17L116 -214H-18L132 532H266L204 219Q202 206 199 192T196 163Q196 134 210 119T248 104Q286 104 314 124T365 174L435 532H570L466 0H331L347 80Z"  />
<glyph unicode="&#xB6;" horiz-adv-x="642" d="M331 618V-215H232V346Q185 349 147 365T80 406T36 467T20 544Q20 606 45 645T111 707T202 738T301 747H622V618H537V-215H441V618H331Z"  />
<glyph unicode="&#xB7;" horiz-adv-x="347" d="M111 323L142 483H289L258 323H111Z"  />
<glyph unicode="&#xB8;" horiz-adv-x="333" d="M143 -39Q177 -49 193 -67T210 -110Q210 -138 196 -157T161 -189T113 -208T64 -214Q20 -214 -19 -206T-92 -180L-45 -122Q-21 -136 1 -140T55 -144Q69 -144 85 -137T101 -112Q101 -99 86 -90T42 -81Q37 -81 32 -81T21 -82L89 5H175L143 -39Z"  />
<glyph unicode="&#xB9;" horiz-adv-x="313" d="M311 444L297 375H75L89 444H164L206 660Q193 655 174 649T123 643L137 712Q170 717 187 725T222 743H295L237 444H311Z"  />
<glyph unicode="&#xBA;" horiz-adv-x="412" d="M441 622Q441 567 428 522T389 443T324 392T231 373Q171 373 131 409T91 516Q91 560 104 604T143 682T207 738T294 760Q367 760 404 724T441 622ZM348 618Q348 656 333 675T291 695Q262 695 242 676T209 629T191 570T185 514Q185 477 200 458T241 439Q269 439 289 458T323 505T342 563T348 618Z"  />
<glyph unicode="&#xBB;" horiz-adv-x="558" d="M143 266L73 502H215L283 266L125 30H-17L143 266ZM390 266L320 502H460L530 266L370 30H230L390 266Z"  />
<glyph unicode="&#xBC;" horiz-adv-x="938" d="M849 729L191 -123L137 -91L797 766L849 729ZM865 384L802 58H858L842 -22H786L767 -123H672L691 -22H462L477 52L751 384H865ZM317 363L302 283H45L60 363H142L201 668Q178 660 159 657T121 653L136 730Q162 732 187 738T235 758H315L238 363H317ZM751 284L564 58H707L751 284Z"  />
<glyph unicode="&#xBD;" horiz-adv-x="938" d="M574 258Q608 328 656 355T767 383Q827 383 862 350T897 268Q897 238 885 212T855 164T814 122T770 86Q747 69 730 56T697 30T667 4T635 -26H845L826 -123H499L512 -57Q529 -22 568 17T664 108Q678 121 700 136T742 169T778 208T793 252Q793 273 781 287T743 302Q733 302 721 300T697 292T673 273T652 240L574 258ZM826 729L168 -122L113 -90L772 762L826 729ZM327 364L312 284H54L69 364H153L213 668Q187 659 169 657T135 654L150 734Q173 736 196 742T247 762H327L249 364H327Z"  />
<glyph unicode="&#xBE;" horiz-adv-x="938" d="M849 727L192 -124L137 -93L796 762L849 727ZM871 381L808 55H862L847 -22H793L773 -124H678L698 -22H469L483 50L754 381H871ZM134 683Q176 720 219 739T311 758Q344 758 367 748T404 721T422 681T422 633Q414 589 385 565T313 523Q355 507 374 482T386 411Q380 381 363 358T321 317T265 291T202 282Q156 282 117 301T58 363L131 411Q149 389 168 376T214 363Q239 363 260 379T286 420Q292 451 266 468T182 485H163L178 562H207Q260 562 289 578T324 621Q328 642 311 656T272 671Q231 671 185 630L134 683ZM757 285L570 55H713L757 285Z"  />
<glyph unicode="&#xBF;" horiz-adv-x="469" d="M401 542L370 382H225L256 542H401ZM352 -93Q310 -150 262 -179T147 -209Q109 -209 80 -197T30 -164T-2 -116T-13 -60Q-13 -30 -2 -2T27 53T67 101T112 140Q142 162 160 179T191 214T209 249T221 291H336Q329 257 321 229T299 175T265 125T216 77Q204 67 189 56T161 31T139 -1T130 -43Q130 -69 145 -78T183 -88Q204 -88 229 -75T276 -30L352 -93Z"  />
<glyph unicode="&#xC0;" horiz-adv-x="690" d="M623 0H472L449 175H210L119 0H-35L369 747H518L623 0ZM436 284L401 545L266 284H436ZM537 801H463L343 965H494L537 801Z"  />
<glyph unicode="&#xC1;" horiz-adv-x="690" d="M623 0H472L449 175H210L119 0H-35L369 747H518L623 0ZM436 284L401 545L266 284H436ZM657 965L441 801H350L493 965H657Z"  />
<glyph unicode="&#xC2;" horiz-adv-x="690" d="M623 0H472L449 175H210L119 0H-35L369 747H518L623 0ZM436 284L401 545L266 284H436ZM629 800H547L486 868L368 800H274L459 955H535L629 800Z"  />
<glyph unicode="&#xC3;" horiz-adv-x="690" d="M623 0H472L449 175H210L119 0H-35L369 747H518L623 0ZM436 284L401 545L266 284H436ZM534 888Q551 888 564 904T585 939H658Q623 806 523 806Q506 806 491 814T463 833T436 851T407 860Q394 860 378 846T356 807H280Q299 873 333 907T419 941Q439 941 454 933T482 915T507 897T534 888Z"  />
<glyph unicode="&#xC4;" horiz-adv-x="690" d="M623 0H472L449 175H210L119 0H-35L369 747H518L623 0ZM436 284L401 545L266 284H436ZM645 928L625 823H519L539 928H645ZM410 928L390 823H283L303 928H410Z"  />
<glyph unicode="&#xC5;" horiz-adv-x="690" d="M623 0H472L449 175H210L119 0H-35L369 747H518L623 0ZM436 284L401 545L266 284H436ZM470 982Q491 982 510 974T543 952T565 920T573 880Q573 859 565 841T543 808T510 786T470 778Q449 778 431 786T398 807T376 839T368 879Q368 902 377 921T401 953T434 974T470 982ZM471 942Q444 942 426 923T408 879Q408 853 426 836T470 818Q496 818 514 835T533 879Q533 906 514 924T471 942Z"  />
<glyph unicode="&#xC6;" horiz-adv-x="944" d="M976 747L951 618H656L627 454H814L790 332H600L561 129H886L860 0H390L422 175H221L119 0H-35L409 747H976ZM511 618H478L285 284H444L511 618Z"  />
<glyph unicode="&#xC7;" horiz-adv-x="682" d="M345 -39Q379 -49 395 -67T412 -110Q412 -138 398 -157T363 -189T315 -208T266 -214Q222 -214 183 -206T110 -180L157 -122Q181 -136 203 -140T257 -144Q271 -144 287 -137T303 -112Q303 -99 288 -90T244 -81Q239 -81 234 -81T223 -82L278 -11Q175 4 120 74T64 270Q64 368 91 457T171 614T301 722T480 762Q530 762 571 747T643 703T690 638T711 557L566 519Q563 580 533 610T449 641Q392 641 349 608T276 525T232 414T217 297Q217 210 250 165T354 119Q396 119 440 151T522 252L651 214Q603 107 530 51T363 -14L345 -39Z"  />
<glyph unicode="&#xC8;" horiz-adv-x="612" d="M644 747L618 618H306L275 454H478L456 332H250L211 129H553L528 0H39L185 747H644ZM482 801H408L288 965H439L482 801Z"  />
<glyph unicode="&#xC9;" horiz-adv-x="612" d="M644 747L618 618H306L275 454H478L456 332H250L211 129H553L528 0H39L185 747H644ZM636 965L420 801H329L472 965H636Z"  />
<glyph unicode="&#xCA;" horiz-adv-x="612" d="M644 747L618 618H306L275 454H478L456 332H250L211 129H553L528 0H39L185 747H644ZM601 800H519L458 868L340 800H246L431 955H507L601 800Z"  />
<glyph unicode="&#xCB;" horiz-adv-x="612" d="M644 747L618 618H306L275 454H478L456 332H250L211 129H553L528 0H39L185 747H644ZM622 928L602 823H496L516 928H622ZM387 928L367 823H260L280 928H387Z"  />
<glyph unicode="&#xCC;" horiz-adv-x="327" d="M332 747L186 0H39L185 747H332ZM357 801H283L163 965H314L357 801Z"  />
<glyph unicode="&#xCD;" horiz-adv-x="327" d="M332 747L186 0H39L185 747H332ZM471 965L255 801H164L307 965H471Z"  />
<glyph unicode="&#xCE;" horiz-adv-x="327" d="M332 747L186 0H39L185 747H332ZM437 800H355L294 868L176 800H82L267 955H343L437 800Z"  />
<glyph unicode="&#xCF;" horiz-adv-x="327" d="M332 747L186 0H39L185 747H332ZM461 928L441 823H335L355 928H461ZM226 928L206 823H99L119 928H226Z"  />
<glyph unicode="&#xD0;" horiz-adv-x="740" d="M400 747Q463 747 520 729T620 676T689 588T715 467Q715 364 685 278T600 131T466 35T290 0H39L101 315H47L64 406H118L185 747H400ZM309 129Q365 129 411 155T491 223T543 320T562 433Q562 528 511 574T374 621H309L267 406H397L387 315H250L214 129H309Z"  />
<glyph unicode="&#xD1;" horiz-adv-x="785" d="M791 747L645 0H510L287 525L184 0H38L184 747H328L546 241L645 747H791ZM570 888Q587 888 600 904T621 939H694Q659 806 559 806Q542 806 527 814T499 833T472 851T443 860Q430 860 414 846T392 807H316Q335 873 369 907T455 941Q475 941 490 933T518 915T543 897T570 888Z"  />
<glyph unicode="&#xD2;" horiz-adv-x="760" d="M741 474Q741 379 716 291T639 136T510 28T330 -13Q268 -13 218 6T133 62T79 148T60 261Q60 351 85 441T160 602T286 718T461 763Q597 763 669 687T741 474ZM588 481Q588 560 550 597T449 634Q406 634 372 617T312 572T267 507T236 430T219 348T213 269Q213 191 249 154T349 116Q413 116 458 151T532 241T574 359T588 481ZM580 801H506L386 965H537L580 801Z"  />
<glyph unicode="&#xD3;" horiz-adv-x="760" d="M741 474Q741 379 716 291T639 136T510 28T330 -13Q268 -13 218 6T133 62T79 148T60 261Q60 351 85 441T160 602T286 718T461 763Q597 763 669 687T741 474ZM588 481Q588 560 550 597T449 634Q406 634 372 617T312 572T267 507T236 430T219 348T213 269Q213 191 249 154T349 116Q413 116 458 151T532 241T574 359T588 481ZM694 965L478 801H387L530 965H694Z"  />
<glyph unicode="&#xD4;" horiz-adv-x="760" d="M741 474Q741 379 716 291T639 136T510 28T330 -13Q268 -13 218 6T133 62T79 148T60 261Q60 351 85 441T160 602T286 718T461 763Q597 763 669 687T741 474ZM588 481Q588 560 550 597T449 634Q406 634 372 617T312 572T267 507T236 430T219 348T213 269Q213 191 249 154T349 116Q413 116 458 151T532 241T574 359T588 481ZM669 800H587L526 868L408 800H314L499 955H575L669 800Z"  />
<glyph unicode="&#xD5;" horiz-adv-x="760" d="M741 474Q741 379 716 291T639 136T510 28T330 -13Q268 -13 218 6T133 62T79 148T60 261Q60 351 85 441T160 602T286 718T461 763Q597 763 669 687T741 474ZM588 481Q588 560 550 597T449 634Q406 634 372 617T312 572T267 507T236 430T219 348T213 269Q213 191 249 154T349 116Q413 116 458 151T532 241T574 359T588 481ZM573 888Q590 888 603 904T624 939H697Q662 806 562 806Q545 806 530 814T502 833T475 851T446 860Q433 860 417 846T395 807H319Q338 873 372 907T458 941Q478 941 493 933T521 915T546 897T573 888Z"  />
<glyph unicode="&#xD6;" horiz-adv-x="760" d="M741 474Q741 379 716 291T639 136T510 28T330 -13Q268 -13 218 6T133 62T79 148T60 261Q60 351 85 441T160 602T286 718T461 763Q597 763 669 687T741 474ZM588 481Q588 560 550 597T449 634Q406 634 372 617T312 572T267 507T236 430T219 348T213 269Q213 191 249 154T349 116Q413 116 458 151T532 241T574 359T588 481ZM691 928L671 823H565L585 928H691ZM456 928L436 823H329L349 928H456Z"  />
<glyph unicode="&#xD7;" horiz-adv-x="667" d="M280 373L97 556L171 630L354 447L537 630L611 556L428 373L609 192L536 118L354 299L173 118L99 192L280 373Z"  />
<glyph unicode="&#xD8;" horiz-adv-x="760" d="M245 158Q279 116 349 116Q413 116 458 151T532 241T574 359T588 481Q588 503 585 521L245 158ZM555 591Q518 634 449 634Q406 634 372 617T312 572T267 507T236 430T219 348T213 269Q213 247 216 228L555 591ZM764 713L698 642Q741 571 741 474Q741 379 716 291T639 136T510 28T330 -13Q277 -13 231 4T148 53L85 -14L36 35L103 107Q83 139 72 177T60 261Q60 351 85 441T160 602T286 718T461 763Q521 763 569 746T653 696L715 762L764 713Z"  />
<glyph unicode="&#xD9;" horiz-adv-x="763" d="M774 747L681 278Q651 127 565 57T327 -13Q208 -13 146 44T83 202Q83 211 84 223T86 250T90 277T94 300L180 747H327L238 291Q235 274 233 260T231 231Q231 176 260 146T353 116Q388 116 418 126T472 161T514 224T544 323L627 747H774ZM545 801H471L351 965H502L545 801Z"  />
<glyph unicode="&#xDA;" horiz-adv-x="763" d="M774 747L681 278Q651 127 565 57T327 -13Q208 -13 146 44T83 202Q83 211 84 223T86 250T90 277T94 300L180 747H327L238 291Q235 274 233 260T231 231Q231 176 260 146T353 116Q388 116 418 126T472 161T514 224T544 323L627 747H774ZM704 965L488 801H397L540 965H704Z"  />
<glyph unicode="&#xDB;" horiz-adv-x="763" d="M774 747L681 278Q651 127 565 57T327 -13Q208 -13 146 44T83 202Q83 211 84 223T86 250T90 277T94 300L180 747H327L238 291Q235 274 233 260T231 231Q231 176 260 146T353 116Q388 116 418 126T472 161T514 224T544 323L627 747H774ZM659 800H577L516 868L398 800H304L489 955H565L659 800Z"  />
<glyph unicode="&#xDC;" horiz-adv-x="763" d="M774 747L681 278Q651 127 565 57T327 -13Q208 -13 146 44T83 202Q83 211 84 223T86 250T90 277T94 300L180 747H327L238 291Q235 274 233 260T231 231Q231 176 260 146T353 116Q388 116 418 126T472 161T514 224T544 323L627 747H774ZM676 928L656 823H550L570 928H676ZM441 928L421 823H314L334 928H441Z"  />
<glyph unicode="&#xDD;" horiz-adv-x="603" d="M673 747L379 333L314 0H167L232 333L101 747H248L329 474L514 747H673ZM615 964L399 800H308L451 964H615Z"  />
<glyph unicode="&#xDE;" horiz-adv-x="690" d="M420 601Q468 601 513 593T595 562T653 501T675 402Q675 336 650 288T582 208T486 162T373 147H212L185 0H38L183 747H330L300 601H420ZM367 269Q400 269 428 276T477 298T510 338T522 396Q522 420 513 435T489 458T453 469T410 472H276L236 269H367Z"  />
<glyph unicode="&#xDF;" horiz-adv-x="611" d="M462 600Q462 664 393 664Q363 664 342 653T305 623T279 576T263 518L163 0H28L124 497Q150 631 220 694T397 758Q498 758 545 718T593 606Q593 571 582 544T550 495T503 457T445 428Q477 417 499 398T535 354T555 301T562 242Q562 194 546 148T500 65T424 7T319 -15Q304 -15 288 -12T257 -3T229 9T206 23L271 110Q280 102 291 96T316 90Q350 90 371 106T405 149T422 208T427 273Q427 296 420 316T399 350T369 373T331 381L349 474Q401 479 431 514T462 600Z"  />
<glyph unicode="&#xE0;" horiz-adv-x="567" d="M320 55Q289 26 249 9T162 -9Q133 -9 108 -1T64 24T34 65T23 121Q23 180 53 217T133 278T244 313T370 331L374 351Q376 358 377 367T379 385Q379 416 361 432T302 449Q268 449 232 431T164 381L99 459Q200 543 321 543Q416 543 463 506T510 403Q510 385 508 359T499 303L461 109Q458 94 457 76T456 41Q456 30 456 19T458 0H322Q321 6 321 15Q320 23 320 33T320 55ZM356 255Q258 244 206 216T154 132Q154 109 168 96T206 82Q233 82 261 92T331 131L356 255ZM425 599H351L231 763H382L425 599Z"  />
<glyph unicode="&#xE1;" horiz-adv-x="567" d="M320 55Q289 26 249 9T162 -9Q133 -9 108 -1T64 24T34 65T23 121Q23 180 53 217T133 278T244 313T370 331L374 351Q376 358 377 367T379 385Q379 416 361 432T302 449Q268 449 232 431T164 381L99 459Q200 543 321 543Q416 543 463 506T510 403Q510 385 508 359T499 303L461 109Q458 94 457 76T456 41Q456 30 456 19T458 0H322Q321 6 321 15Q320 23 320 33T320 55ZM356 255Q258 244 206 216T154 132Q154 109 168 96T206 82Q233 82 261 92T331 131L356 255ZM561 763L345 599H254L397 763H561Z"  />
<glyph unicode="&#xE2;" horiz-adv-x="567" d="M320 55Q289 26 249 9T162 -9Q133 -9 108 -1T64 24T34 65T23 121Q23 180 53 217T133 278T244 313T370 331L374 351Q376 358 377 367T379 385Q379 416 361 432T302 449Q268 449 232 431T164 381L99 459Q200 543 321 543Q416 543 463 506T510 403Q510 385 508 359T499 303L461 109Q458 94 457 76T456 41Q456 30 456 19T458 0H322Q321 6 321 15Q320 23 320 33T320 55ZM356 255Q258 244 206 216T154 132Q154 109 168 96T206 82Q233 82 261 92T331 131L356 255ZM514 598H432L371 666L253 598H159L344 753H420L514 598Z"  />
<glyph unicode="&#xE3;" horiz-adv-x="567" d="M320 55Q289 26 249 9T162 -9Q133 -9 108 -1T64 24T34 65T23 121Q23 180 53 217T133 278T244 313T370 331L374 351Q376 358 377 367T379 385Q379 416 361 432T302 449Q268 449 232 431T164 381L99 459Q200 543 321 543Q416 543 463 506T510 403Q510 385 508 359T499 303L461 109Q458 94 457 76T456 41Q456 30 456 19T458 0H322Q321 6 321 15Q320 23 320 33T320 55ZM356 255Q258 244 206 216T154 132Q154 109 168 96T206 82Q233 82 261 92T331 131L356 255ZM419 686Q436 686 449 702T470 737H543Q508 604 408 604Q391 604 376 612T348 631T321 649T292 658Q279 658 263 644T241 605H165Q184 671 218 705T304 739Q324 739 339 731T367 713T392 695T419 686Z"  />
<glyph unicode="&#xE4;" horiz-adv-x="567" d="M320 55Q289 26 249 9T162 -9Q133 -9 108 -1T64 24T34 65T23 121Q23 180 53 217T133 278T244 313T370 331L374 351Q376 358 377 367T379 385Q379 416 361 432T302 449Q268 449 232 431T164 381L99 459Q200 543 321 543Q416 543 463 506T510 403Q510 385 508 359T499 303L461 109Q458 94 457 76T456 41Q456 30 456 19T458 0H322Q321 6 321 15Q320 23 320 33T320 55ZM356 255Q258 244 206 216T154 132Q154 109 168 96T206 82Q233 82 261 92T331 131L356 255ZM536 726L516 621H410L430 726H536ZM301 726L281 621H174L194 726H301Z"  />
<glyph unicode="&#xE5;" horiz-adv-x="567" d="M320 55Q289 26 249 9T162 -9Q133 -9 108 -1T64 24T34 65T23 121Q23 180 53 217T133 278T244 313T370 331L374 351Q376 358 377 367T379 385Q379 416 361 432T302 449Q268 449 232 431T164 381L99 459Q200 543 321 543Q416 543 463 506T510 403Q510 385 508 359T499 303L461 109Q458 94 457 76T456 41Q456 30 456 19T458 0H322Q321 6 321 15Q320 23 320 33T320 55ZM356 255Q258 244 206 216T154 132Q154 109 168 96T206 82Q233 82 261 92T331 131L356 255ZM365 800Q386 800 405 792T438 770T460 738T468 698Q468 677 460 659T438 626T405 604T365 596Q344 596 326 604T293 625T271 657T263 697Q263 720 272 739T296 771T329 792T365 800ZM366 760Q339 760 321 741T303 697Q303 671 321 654T365 636Q391 636 409 653T428 697Q428 724 409 742T366 760Z"  />
<glyph unicode="&#xE6;" horiz-adv-x="885" d="M356 255Q258 244 206 216T154 132Q154 109 168 96T206 82Q233 82 261 92T331 131L356 255ZM644 541Q737 541 792 490T847 349Q847 323 842 294T830 243H485Q482 226 482 213Q482 156 515 128T596 100Q639 100 669 120T716 174L817 128Q784 67 727 29T574 -9Q512 -9 462 15T383 89Q350 62 323 44T270 14T219 -3T162 -9Q133 -9 108 -1T64 24T34 65T23 121Q23 180 53 217T133 278T244 313T370 331L374 351Q376 358 377 367T379 385Q379 416 361 432T302 449Q268 449 232 431T164 381L99 459Q200 543 321 543Q351 543 374 539T415 526T448 504T477 474Q509 503 551 522T644 541ZM725 323Q726 329 726 335T727 347Q727 373 719 392T698 423T670 441T639 447Q617 447 595 441T554 419T521 381T499 323H725Z"  />
<glyph unicode="&#xE7;" horiz-adv-x="510" d="M262 -39Q296 -49 312 -67T329 -110Q329 -138 315 -157T280 -189T232 -208T183 -214Q139 -214 100 -206T27 -180L74 -122Q98 -136 120 -140T174 -144Q188 -144 204 -137T220 -112Q220 -99 205 -90T161 -81Q156 -81 151 -81T140 -82L199 -6Q124 5 85 59T45 194Q45 272 67 336T129 445T222 516T337 541Q364 541 391 534T442 511T481 469T505 404L402 366Q390 397 371 416T323 436Q282 436 255 411T211 350T187 277T180 214Q180 157 199 130T262 103Q330 103 375 195L471 143Q434 82 391 44T287 -5L262 -39Z"  />
<glyph unicode="&#xE8;" horiz-adv-x="583" d="M515 128Q482 67 425 29T272 -9Q225 -9 184 6T112 50T64 122T46 221Q46 283 66 341T125 443T218 514T342 541Q435 541 490 490T545 349Q545 323 540 294T528 243H183Q181 235 181 228T181 213Q181 156 213 128T294 100Q337 100 367 120T414 174L515 128ZM423 323Q424 329 424 335T425 347Q425 373 417 392T396 423T368 441T337 447Q315 447 293 441T252 419T219 381T197 323H423ZM421 599H347L227 763H378L421 599Z"  />
<glyph unicode="&#xE9;" horiz-adv-x="583" d="M515 128Q482 67 425 29T272 -9Q225 -9 184 6T112 50T64 122T46 221Q46 283 66 341T125 443T218 514T342 541Q435 541 490 490T545 349Q545 323 540 294T528 243H183Q181 235 181 228T181 213Q181 156 213 128T294 100Q337 100 367 120T414 174L515 128ZM423 323Q424 329 424 335T425 347Q425 373 417 392T396 423T368 441T337 447Q315 447 293 441T252 419T219 381T197 323H423ZM555 763L339 599H248L391 763H555Z"  />
<glyph unicode="&#xEA;" horiz-adv-x="583" d="M515 128Q482 67 425 29T272 -9Q225 -9 184 6T112 50T64 122T46 221Q46 283 66 341T125 443T218 514T342 541Q435 541 490 490T545 349Q545 323 540 294T528 243H183Q181 235 181 228T181 213Q181 156 213 128T294 100Q337 100 367 120T414 174L515 128ZM423 323Q424 329 424 335T425 347Q425 373 417 392T396 423T368 441T337 447Q315 447 293 441T252 419T219 381T197 323H423ZM534 598H452L391 666L273 598H179L364 753H440L534 598Z"  />
<glyph unicode="&#xEB;" horiz-adv-x="583" d="M515 128Q482 67 425 29T272 -9Q225 -9 184 6T112 50T64 122T46 221Q46 283 66 341T125 443T218 514T342 541Q435 541 490 490T545 349Q545 323 540 294T528 243H183Q181 235 181 228T181 213Q181 156 213 128T294 100Q337 100 367 120T414 174L515 128ZM423 323Q424 329 424 335T425 347Q425 373 417 392T396 423T368 441T337 447Q315 447 293 441T252 419T219 381T197 323H423ZM555 726L535 621H429L449 726H555ZM320 726L300 621H193L213 726H320Z"  />
<glyph unicode="&#xEC;" horiz-adv-x="292" d="M266 532L162 0H28L132 532H266ZM312 599H238L118 763H269L312 599Z"  />
<glyph unicode="&#xED;" horiz-adv-x="292" d="M266 532L162 0H28L132 532H266ZM420 763L204 599H113L256 763H420Z"  />
<glyph unicode="&#xEE;" horiz-adv-x="292" d="M266 532L162 0H28L132 532H266ZM384 598H302L241 666L123 598H29L214 753H290L384 598Z"  />
<glyph unicode="&#xEF;" horiz-adv-x="292" d="M266 532L162 0H28L132 532H266ZM406 726L386 621H280L300 726H406ZM171 726L151 621H44L64 726H171Z"  />
<glyph unicode="&#xF0;" horiz-adv-x="573" d="M417 688Q451 641 477 592T518 491T536 383T528 269Q515 202 488 151T422 64T336 10T234 -9Q184 -9 143 9T76 62T41 148T45 268Q58 333 83 384T145 470T228 524T328 543Q343 543 357 541T385 537Q375 567 363 593T330 649L203 592L182 640L300 693Q279 718 257 737T223 766H340Q344 764 351 758T366 745Q375 737 384 728L467 766L488 720L417 688ZM398 277Q406 319 404 351T392 405T364 438T323 449Q216 449 180 262Q163 174 182 130T251 85Q302 85 340 133T398 277Z"  />
<glyph unicode="&#xF1;" horiz-adv-x="596" d="M250 448Q291 489 337 515T424 541Q458 541 481 531T520 503T542 463T549 416Q549 406 548 396T545 376L471 0H336L403 341Q406 357 406 372Q406 401 393 416T350 432Q339 432 325 427T295 412T263 391T234 364L163 0H28L132 532H267L250 448ZM453 686Q470 686 483 702T504 737H577Q542 604 442 604Q425 604 410 612T382 631T355 649T326 658Q313 658 297 644T275 605H199Q218 671 252 705T338 739Q358 739 373 731T401 713T426 695T453 686Z"  />
<glyph unicode="&#xF2;" horiz-adv-x="587" d="M549 345Q549 276 531 213T476 100T384 21T252 -9Q205 -9 166 4T100 43T57 106T41 194Q41 258 60 320T116 432T208 512T336 542Q439 542 494 490T549 345ZM414 338Q414 392 391 420T330 448Q289 448 260 421T212 354T185 270T176 192Q176 139 198 112T258 85Q298 85 327 112T376 178T404 261T414 338ZM441 599H367L247 763H398L441 599Z"  />
<glyph unicode="&#xF3;" horiz-adv-x="587" d="M549 345Q549 276 531 213T476 100T384 21T252 -9Q205 -9 166 4T100 43T57 106T41 194Q41 258 60 320T116 432T208 512T336 542Q439 542 494 490T549 345ZM414 338Q414 392 391 420T330 448Q289 448 260 421T212 354T185 270T176 192Q176 139 198 112T258 85Q298 85 327 112T376 178T404 261T414 338ZM564 763L348 599H257L400 763H564Z"  />
<glyph unicode="&#xF4;" horiz-adv-x="587" d="M549 345Q549 276 531 213T476 100T384 21T252 -9Q205 -9 166 4T100 43T57 106T41 194Q41 258 60 320T116 432T208 512T336 542Q439 542 494 490T549 345ZM414 338Q414 392 391 420T330 448Q289 448 260 421T212 354T185 270T176 192Q176 139 198 112T258 85Q298 85 327 112T376 178T404 261T414 338ZM534 598H452L391 666L273 598H179L364 753H440L534 598Z"  />
<glyph unicode="&#xF5;" horiz-adv-x="587" d="M549 345Q549 276 531 213T476 100T384 21T252 -9Q205 -9 166 4T100 43T57 106T41 194Q41 258 60 320T116 432T208 512T336 542Q439 542 494 490T549 345ZM414 338Q414 392 391 420T330 448Q289 448 260 421T212 354T185 270T176 192Q176 139 198 112T258 85Q298 85 327 112T376 178T404 261T414 338ZM444 686Q461 686 474 702T495 737H568Q533 604 433 604Q416 604 401 612T373 631T346 649T317 658Q304 658 288 644T266 605H190Q209 671 243 705T329 739Q349 739 364 731T392 713T417 695T444 686Z"  />
<glyph unicode="&#xF6;" horiz-adv-x="587" d="M549 345Q549 276 531 213T476 100T384 21T252 -9Q205 -9 166 4T100 43T57 106T41 194Q41 258 60 320T116 432T208 512T336 542Q439 542 494 490T549 345ZM414 338Q414 392 391 420T330 448Q289 448 260 421T212 354T185 270T176 192Q176 139 198 112T258 85Q298 85 327 112T376 178T404 261T414 338ZM554 726L534 621H428L448 726H554ZM319 726L299 621H192L212 726H319Z"  />
<glyph unicode="&#xF7;" horiz-adv-x="667" d="M82 324V424H626V324H82ZM299 508V640H418V508H299ZM299 108V240H418V108H299Z"  />
<glyph unicode="&#xF8;" horiz-adv-x="587" d="M578 492L524 440Q549 398 549 345Q549 276 531 213T476 100T384 21T252 -9Q215 -9 177 3T109 40L58 -10L11 42L65 93Q54 114 48 139T41 194Q41 258 60 320T116 432T208 512T336 542Q378 542 414 529T479 493L531 543L578 492ZM192 120Q203 103 220 94T258 85Q297 85 326 111T374 175T402 256T413 333L192 120ZM396 412Q373 448 330 448Q290 448 262 422T214 358T186 277T176 200L396 412Z"  />
<glyph unicode="&#xF9;" horiz-adv-x="596" d="M347 80Q304 37 261 14T182 -9Q156 -9 134 -2T94 22T68 65T58 130Q58 146 60 163T66 201L131 532H266L201 203Q196 181 196 163Q196 140 207 123T249 106Q277 106 306 119T365 174L435 532H570L466 0H331L347 80ZM425 599H351L231 763H382L425 599Z"  />
<glyph unicode="&#xFA;" horiz-adv-x="596" d="M347 80Q304 37 261 14T182 -9Q156 -9 134 -2T94 22T68 65T58 130Q58 146 60 163T66 201L131 532H266L201 203Q196 181 196 163Q196 140 207 123T249 106Q277 106 306 119T365 174L435 532H570L466 0H331L347 80ZM586 763L370 599H279L422 763H586Z"  />
<glyph unicode="&#xFB;" horiz-adv-x="596" d="M347 80Q304 37 261 14T182 -9Q156 -9 134 -2T94 22T68 65T58 130Q58 146 60 163T66 201L131 532H266L201 203Q196 181 196 163Q196 140 207 123T249 106Q277 106 306 119T365 174L435 532H570L466 0H331L347 80ZM534 598H452L391 666L273 598H179L364 753H440L534 598Z"  />
<glyph unicode="&#xFC;" horiz-adv-x="596" d="M347 80Q304 37 261 14T182 -9Q156 -9 134 -2T94 22T68 65T58 130Q58 146 60 163T66 201L131 532H266L201 203Q196 181 196 163Q196 140 207 123T249 106Q277 106 306 119T365 174L435 532H570L466 0H331L347 80ZM556 726L536 621H430L450 726H556ZM321 726L301 621H194L214 726H321Z"  />
<glyph unicode="&#xFD;" horiz-adv-x="507" d="M538 532L273 -9Q247 -63 220 -101T160 -165T85 -202T-15 -214H-73L-52 -114H-6Q41 -114 76 -89T134 -16L63 532H195L233 162L402 532H538ZM535 764L319 600H228L371 764H535Z"  />
<glyph unicode="&#xFE;" horiz-adv-x="608" d="M255 467Q292 502 330 521T409 541Q439 541 467 530T518 494T554 431T568 341Q568 302 560 261T537 181T499 108T447 47T381 6T304 -9Q282 -9 262 -1T226 20T197 46T177 71L123 -214H-13L174 760H310L255 467ZM193 144Q216 125 239 114T290 103Q325 103 352 125T397 180T424 251T433 323Q433 372 411 399T350 426Q326 426 297 417T239 385L193 144Z"  />
<glyph unicode="&#xFF;" horiz-adv-x="507" d="M538 532L273 -9Q247 -63 220 -101T160 -165T85 -202T-15 -214H-73L-52 -114H-6Q41 -114 76 -89T134 -16L63 532H195L233 162L402 532H538ZM501 726L481 621H375L395 726H501ZM266 726L246 621H139L159 726H266Z"  />
<glyph unicode="&#x131;" horiz-adv-x="292" d="M266 532L162 0H28L132 532H266Z"  />
<glyph unicode="&#x152;" horiz-adv-x="1058" d="M568 481Q568 560 537 597T449 634Q406 634 372 617T312 572T267 507T236 430T219 348T213 269Q213 191 249 154T349 116Q409 116 451 151T519 241T556 359T568 481ZM631 747H1090L1064 618H752L721 454H924L902 332H696L657 129H999L974 0H485L495 50Q475 31 457 19T419 0T378 -10T330 -13Q268 -13 218 6T133 62T79 148T60 261Q60 351 85 441T160 602T286 718T461 763Q489 763 513 756T558 738T594 713T619 685L631 747Z"  />
<glyph unicode="&#x153;" horiz-adv-x="934" d="M414 338Q414 392 391 420T330 448Q289 448 260 421T212 354T185 270T176 192Q176 139 198 112T258 85Q298 85 327 112T376 178T404 261T414 338ZM693 541Q786 541 841 490T896 349Q896 323 891 294T879 243H534Q531 226 531 213Q531 156 564 128T645 100Q688 100 718 120T765 174L866 128Q833 67 776 29T623 -9Q569 -9 528 13T451 87Q406 40 361 16T252 -9Q205 -9 166 4T100 43T57 106T41 194Q41 258 60 320T116 432T208 512T336 542Q394 542 432 522T505 455Q553 501 595 521T693 541ZM774 323Q775 329 775 335T776 347Q776 373 768 392T747 423T719 441T688 447Q666 447 644 441T603 419T570 381T548 323H774Z"  />
<glyph unicode="&#x160;" horiz-adv-x="621" d="M156 208Q163 190 174 172T202 140T244 116T303 107Q328 107 349 115T386 138T411 169T420 205Q420 220 417 235T398 266T354 297T274 328Q219 344 185 366T133 414T108 468T101 523Q101 583 124 628T187 703T279 748T389 763Q492 763 549 716T614 593L481 560Q468 605 441 629T362 654Q341 654 320 648T282 630T255 600T244 556Q244 538 248 524T266 496T304 471T368 446Q429 426 469 404T532 355T564 299T573 235Q573 171 550 124T488 47T395 1T282 -14Q176 -14 111 33T21 158L156 208ZM599 956L414 801H338L244 956H326L387 888L505 956H599Z"  />
<glyph unicode="&#x161;" horiz-adv-x="478" d="M85 149Q101 126 133 107T205 88Q219 88 236 90T269 98T294 117T305 151Q305 174 282 188T214 214Q190 220 162 231T111 260T73 305T57 366Q57 402 73 434T119 490T191 528T287 542Q323 542 353 533T406 511T446 480T471 448L394 384Q373 410 342 429T281 448Q266 448 250 446T220 436T197 416T188 382Q188 366 195 356T215 337T245 324T283 312Q313 304 340 292T389 261T423 217T436 159Q436 126 422 96T378 42T306 5T205 -9Q179 -9 149 -3T91 15T40 45T1 87L85 149ZM499 756L314 601H238L144 756H226L287 688L405 756H499Z"  />
<glyph unicode="&#x178;" horiz-adv-x="603" d="M673 747L379 333L314 0H167L232 333L101 747H248L329 474L514 747H673ZM590 928L570 823H464L484 928H590ZM355 928L335 823H228L248 928H355Z"  />
<glyph unicode="&#x17D;" horiz-adv-x="625" d="M661 747L638 632L206 129H569L544 0H-13L7 100L454 618H106L131 747H661ZM629 956L444 801H368L274 956H356L417 888L535 956H629Z"  />
<glyph unicode="&#x17E;" horiz-adv-x="494" d="M510 532L489 424L154 109H427L406 0H-20L1 109L338 423H75L96 532H510ZM539 756L354 601H278L184 756H266L327 688L445 756H539Z"  />
<glyph unicode="&#x192;" horiz-adv-x="398" d="M458 629Q441 637 422 639T382 642Q356 642 342 627T319 574L312 545H414L392 440H292L191 -56Q177 -128 138 -169T26 -210Q-9 -210 -46 -204T-109 -189L-78 -80Q-63 -86 -48 -89T-12 -92Q28 -92 43 -70T67 -4L156 440H57L78 545H177L187 590Q196 632 208 664T239 718T287 751T360 763Q398 763 430 757T489 741L458 629Z"  />
<glyph unicode="&#x2C6;" horiz-adv-x="333" d="M400 569H318L257 637L139 569H45L230 724H306L400 569Z"  />
<glyph unicode="&#x2C7;" horiz-adv-x="333" d="M439 726L254 571H178L84 726H166L227 658L345 726H439Z"  />
<glyph unicode="&#x2DA;" horiz-adv-x="333" d="M246 771Q267 771 286 763T319 741T341 709T349 669Q349 648 341 630T319 597T286 575T246 567Q225 567 207 575T174 596T152 628T144 668Q144 691 153 710T177 742T210 763T246 771ZM247 731Q220 731 202 712T184 668Q184 642 202 625T246 607Q272 607 290 624T309 668Q309 695 290 713T247 731Z"  />
<glyph unicode="&#x2DC;" horiz-adv-x="361" d="M304 657Q321 657 334 673T355 708H428Q393 575 293 575Q276 575 261 583T233 602T206 620T177 629Q164 629 148 615T126 576H50Q69 642 103 676T189 710Q209 710 224 702T252 684T277 666T304 657Z"  />
<glyph unicode="&#x2013;" horiz-adv-x="500" d="M0 212V334H500V212H0Z"  />
<glyph unicode="&#x2014;" horiz-adv-x="1000" d="M0 212V334H1000V212H0Z"  />
<glyph unicode="&#x2018;" horiz-adv-x="313" d="M147 602L275 762H328L214 603H294L264 443H117L147 602Z"  />
<glyph unicode="&#x2019;" horiz-adv-x="313" d="M145 587L175 747H321L291 587L166 428H111L223 587H145Z"  />
<glyph unicode="&#x201A;" horiz-adv-x="313" d="M32 0L63 164H210L179 0L58 -161H3L114 0H32Z"  />
<glyph unicode="&#x201C;" horiz-adv-x="548" d="M384 601L509 762H563L448 602H529L499 442H354L384 601ZM147 601L273 762H326L212 602H292L262 442H117L147 601Z"  />
<glyph unicode="&#x201D;" horiz-adv-x="548" d="M145 587L175 747H321L291 587L166 426H111L223 587H145ZM381 587L411 747H557L527 587L402 426H347L462 587H381Z"  />
<glyph unicode="&#x201E;" horiz-adv-x="548" d="M32 0L63 160H208L177 0L54 -160H-2L110 0H32ZM268 0L299 160H445L414 0L289 -160H234L348 0H268Z"  />
<glyph unicode="&#x2020;" horiz-adv-x="521" d="M510 396L316 428L238 -200H102L266 428L60 397L82 510L276 478L296 747H411L326 478L532 510L510 396Z"  />
<glyph unicode="&#x2021;" horiz-adv-x="521" d="M532 553L512 448L323 479L308 274L243 71L444 102L425 0L235 29L227 -198H114L195 29L-6 0L13 102L203 71L218 274L283 479L81 448L101 553L291 523L298 747H411L331 523L532 553Z"  />
<glyph unicode="&#x2022;" horiz-adv-x="399" d="M362 353Q362 323 351 297T319 251T273 220T217 209Q187 209 161 220T115 250T84 296T73 353Q73 383 84 409T114 455T160 486T217 498Q247 498 273 487T319 456T350 410T362 353Z"  />
<glyph unicode="&#x2026;" horiz-adv-x="938" d="M78 0L109 160H256L225 0H78ZM350 0L381 160H528L497 0H350ZM617 0L648 160H795L764 0H617Z"  />
<glyph unicode="&#x2030;" horiz-adv-x="1447" d="M799 308Q840 308 873 295T929 257T965 198T978 120Q978 70 963 23T920 -62T849 -121T752 -143Q713 -143 681 -130T625 -91T590 -31T577 47Q577 98 592 145T636 228T706 286T799 308ZM790 224Q767 224 750 207T721 162T703 99T697 29Q697 -11 715 -33T761 -56Q782 -56 800 -43T832 -5T853 52T861 124Q861 175 842 199T790 224ZM208 -178L691 654Q625 622 574 614T471 618Q478 591 478 561Q478 504 462 454T416 368T346 310T256 288Q220 288 188 300T132 335T94 393T80 475Q80 529 96 577T141 662T210 719T301 740Q332 740 358 732T411 706Q432 693 459 681T530 668Q557 668 592 675T662 697Q681 704 695 713T722 733T745 756T767 782H846L291 -178H208ZM292 653Q257 653 237 625T205 540Q200 517 198 500T196 460Q196 421 213 398T260 375Q302 375 331 423T361 562Q361 610 342 631T292 653ZM1268 308Q1309 308 1342 295T1398 257T1434 198T1447 120Q1447 70 1432 23T1389 -62T1318 -121T1221 -143Q1182 -143 1150 -130T1094 -91T1059 -31T1046 47Q1046 98 1061 145T1105 228T1175 286T1268 308ZM1259 224Q1235 224 1218 207T1189 162T1172 99T1166 29Q1166 -11 1184 -33T1230 -56Q1251 -56 1269 -43T1301 -5T1322 52T1330 124Q1330 175 1311 199T1259 224Z"  />
<glyph unicode="&#x2039;" horiz-adv-x="314" d="M29 265L190 502H330L170 265L240 30H100L29 265Z"  />
<glyph unicode="&#x203A;" horiz-adv-x="314" d="M144 266L74 502H214L284 266L124 30H-16L144 266Z"  />
<glyph unicode="&#x20AC;" horiz-adv-x="635" d="M599 188Q545 82 476 34T311 -15Q191 -15 128 58T64 271H19L34 343H68Q70 358 71 371T77 404H19L34 476H95Q118 544 153 597T234 687T334 743T448 762Q539 762 594 714T666 570L535 537Q521 595 498 618T426 641Q366 641 319 599T240 476H556L541 404H219Q216 390 214 377T210 343H531L516 271H208Q219 106 326 106Q370 106 405 133T475 223L599 188Z"  />
<glyph unicode="&#x2122;" horiz-adv-x="760" d="M277 417H210V690H108V747H376V690H277V417ZM498 417H436V747H541L600 520L660 747H765V417H701V680L630 417H569L498 680V417Z"  />

</font>
</defs>
</svg>
