<?xml  version="1.0" encoding="UTF-8"?>
<!DOCTYPE svg PUBLIC "-//W3C//DTD SVG 1.0//EN" "http://www.w3.org/TR/2001/REC-SVG-20010904/DTD/svg10.dtd" >
<svg xmlns="http://www.w3.org/2000/svg" >
<metadata>
<version>1.0</version>
<id><![CDATA[News Gothic MT W01]]></id>
<vendor>Monotype Imaging Inc.</vendor>
<credits>
<name>Fonts.com WebFonts</name>
<URL>http://webfonts.fonts.com</URL>
<role>Home of the Web fonts</role>
</credits>
<license>
<URL>http://webfonts.fonts.com/Legal</URL>
</license>
<copyright><![CDATA[Copyright 1996 The Monotype Corporation. All rights reserved.]]></copyright>
<trademark><![CDATA[News Gothic  is a trademark of Monotype Imaging, Inc. and may be registered in certain jurisdictions; Monotype is a trademark of Monotype Imaging, Inc. Registered in U.S. Patent and Trademark Office and may be registered in certain other jurisdictions.]]></trademark>
<licensee>
<name></name>
</licensee>
</metadata>
<defs >
<font horiz-adv-x="471" id="a5f40cdb-c908-4500-81c7-a7e69f01df8c">
<font-face font-family="" panose-1="2 11 5 3 2 1 3 2 2 3" ascent="972" descent="-213" units-per-em="1000" alphabetic="0">
</font-face>
<missing-glyph horiz-adv-x="313" />

<glyph unicode="&#xA;" />
<glyph unicode="&#xD;" />
<glyph unicode=" " horiz-adv-x="313" />
<glyph unicode="!" horiz-adv-x="313" d="M182 227H125L105 740H202L182 227ZM202 0H105V112H202V0Z"  />
<glyph unicode="&quot;" horiz-adv-x="373" d="M75 506L61 639V755H132V639L118 506H75ZM255 506L239 639V755H314V639L298 506H255Z"  />
<glyph unicode="#" horiz-adv-x="667" d="M43 437V497H202L244 694H304L262 497H467L509 694H569L527 497H623V437H515L477 256H623V196H465L424 0H364L406 196H199L159 0H98L140 196H43V256H152L190 437H43ZM456 437H249L212 256H418L456 437Z"  />
<glyph unicode="$" horiz-adv-x="625" d="M287 352Q229 371 189 394T123 442T85 495T73 553Q73 576 82 607T116 666T182 716T287 740V789H351V740Q388 737 418 726T472 699T515 662T551 622L494 581Q465 615 432 639T351 667V413Q414 395 456 372T524 322T561 263T572 200Q572 163 557 127T514 62T445 13T351 -11V-133H287V-11Q248 -9 217 0T158 27T106 72T52 136L115 173Q134 146 152 126T190 93T234 72T287 61V352ZM287 669Q249 667 223 656T180 628T156 592T148 555Q148 517 179 487T287 436V669ZM351 64Q392 68 420 82T465 116T489 156T497 197Q497 214 491 233T468 271T423 304T351 330V64Z"  />
<glyph unicode="%" horiz-adv-x="938" d="M354 551Q354 601 327 635T251 669Q215 669 189 650T145 603T120 543T111 483Q111 452 120 429T143 390T176 366T215 358Q246 358 271 377T315 425T344 488T354 551ZM443 693Q519 693 590 716T716 780H773L227 -170H169L663 685Q617 666 565 657T459 647Q440 647 422 648T385 652Q398 632 405 608T412 558Q412 514 398 469T358 386T296 325T217 301Q182 301 152 314T100 350T66 407T53 482Q53 524 66 567T105 646T166 704T247 726Q286 726 318 711Q379 693 443 693ZM823 129Q823 179 796 213T720 247Q684 247 658 228T614 181T589 121T580 61Q580 30 589 7T612 -32T645 -56T684 -64Q715 -64 740 -45T784 3T813 66T823 129ZM881 136Q881 92 867 47T827 -36T765 -97T686 -121Q651 -121 621 -108T569 -72T535 -15T522 60Q522 102 535 145T574 224T635 282T716 304Q753 304 783 291T836 254T869 201T881 136Z"  />
<glyph unicode="&amp;" horiz-adv-x="725" d="M695 -12Q666 -9 644 -4T602 11T562 33T517 66Q499 50 478 36T431 10T372 -7T300 -14Q240 -14 193 3T112 50T62 119T44 201Q44 239 57 270T93 327T150 376T223 423Q201 457 186 494T170 582Q170 620 181 651T214 706T266 742T334 755Q406 755 448 714T491 607Q491 574 479 547T446 495T395 447T330 400Q372 337 416 284T509 180Q542 228 557 271T582 368H661Q656 340 650 311T633 252T607 190T567 125Q602 96 629 84T695 68V-12ZM290 463Q319 482 342 498T382 532T407 569T416 615Q416 648 393 670T338 692Q297 692 271 662T245 581Q245 565 248 552T258 524T272 496T290 463ZM263 360Q231 341 206 324T162 289T134 248T124 197Q124 169 138 144T176 99T232 69T303 57Q354 57 389 75T458 119Q389 190 343 251T263 360Z"  />
<glyph unicode="&apos;" horiz-adv-x="192" d="M75 507L61 638V755H132V638L120 507H75Z"  />
<glyph unicode="(" horiz-adv-x="353" d="M337 695Q288 654 250 608T185 510T145 397T131 268Q131 10 338 -159L298 -210Q271 -187 238 -158T169 -80Q111 -1 81 88T51 267Q51 355 80 443T166 609Q201 658 235 690T297 745L337 695Z"  />
<glyph unicode=")" horiz-adv-x="353" d="M55 747Q173 654 238 534T304 278Q304 131 242 12T56 -210L15 -158Q118 -70 171 33T224 268Q224 359 197 442T119 594Q90 632 64 656T15 697L55 747Z"  />
<glyph unicode="*" horiz-adv-x="469" d="M214 532L25 509V580L214 555L98 708L162 744L233 568L308 744L370 708L255 555L444 580V509L255 532L370 380L308 344L233 520L162 344L98 380L214 532Z"  />
<glyph unicode="+" horiz-adv-x="667" d="M300 338H67V402H300V636H364V402H599V338H364V106H300V338Z"  />
<glyph unicode="&#x2c;" horiz-adv-x="218" d="M113 0H66V112H163V0L88 -147H48L113 0Z"  />
<glyph unicode="-" horiz-adv-x="349" d="M299 239H50V310H299V239Z"  />
<glyph unicode="." horiz-adv-x="227" d="M162 0H65V112H162V0Z"  />
<glyph unicode="/" horiz-adv-x="453" d="M82 0H15L371 740H438L82 0Z"  />
<glyph unicode="0" horiz-adv-x="625" d="M312 -13Q252 -13 203 12T120 86T66 205T47 367Q47 460 65 532T118 654T201 730T309 756Q369 756 419 730T504 655T559 533T579 370Q579 279 560 208T506 87T422 13T312 -13ZM314 58Q355 58 389 79T447 140T485 238T499 371Q499 446 486 504T448 603T390 664T315 685Q230 685 179 603T127 368Q127 293 141 235T179 138T238 79T314 58Z"  />
<glyph unicode="1" horiz-adv-x="625" d="M285 64V653Q259 644 227 636T152 624V688Q189 694 219 704T285 740H360V64H477V0H152V64H285Z"  />
<glyph unicode="2" horiz-adv-x="625" d="M63 0V59Q63 74 74 99T113 157T184 232T294 320Q343 355 376 382T431 433T461 482T471 536Q471 566 461 593T431 640T387 673T330 685Q295 685 267 674T216 641T173 592T136 529L69 546Q69 550 75 567T94 607T127 657T176 705T242 741T328 756Q393 756 436 733T504 676T540 604T551 537Q551 492 537 459T497 397T437 342T362 284Q267 212 209 162T140 64H553V0H63Z"  />
<glyph unicode="3" horiz-adv-x="625" d="M184 359L192 430H241Q341 430 395 467T449 562Q449 587 437 609T404 648T355 675T295 685Q267 685 244 679T199 661T159 634T121 601L62 641Q109 692 164 724T300 756Q351 756 393 740T466 697T512 635T529 561Q529 501 493 461T390 393Q424 379 452 363T500 326T532 276T543 210Q543 166 524 126T472 55T392 6T290 -13Q243 -13 205 -3T136 27T79 74T30 134L89 174Q132 123 179 91T292 58Q328 58 359 70T413 102T450 149T463 203Q463 254 435 284T369 331T298 353T252 359H184Z"  />
<glyph unicode="4" horiz-adv-x="625" d="M35 177V248L339 740H457V248H590V177H457V0H382V177H35ZM112 248H382V683L112 248Z"  />
<glyph unicode="5" horiz-adv-x="625" d="M128 162Q147 139 165 120T204 87T249 66T305 58Q342 58 373 72T426 112T460 173T473 249Q473 288 461 320T427 375T376 412T314 425Q259 425 224 399T155 331L99 353L128 740H514L508 669H188L170 428Q207 457 246 476T337 496Q384 496 424 477T492 425T537 346T553 246Q553 190 534 143T481 61T403 7T307 -13Q225 -13 169 25T67 129L128 162Z"  />
<glyph unicode="6" horiz-adv-x="625" d="M497 652Q478 663 446 674T378 685Q339 685 297 669T221 616T164 516T142 362Q166 389 189 408T237 440T292 458T358 464Q407 464 448 448T517 402T562 331T578 241Q578 188 561 142T513 61T438 6T342 -14Q283 -14 232 11T144 83T86 199T65 353Q65 444 87 518T151 645T252 727T383 756Q431 756 469 741T541 707L497 652ZM147 269Q156 209 177 169T226 104T283 68T338 57Q375 57 406 71T459 110T495 168T508 240Q508 275 497 304T464 354T415 386T352 398Q318 398 290 389T237 363T190 322T147 269Z"  />
<glyph unicode="7" horiz-adv-x="625" d="M471 669H82V740H547V669L228 0H152L471 669Z"  />
<glyph unicode="8" horiz-adv-x="625" d="M68 570Q68 609 85 642T136 701T215 741T319 756Q375 756 419 741T494 701T541 642T557 570Q557 510 516 465T388 392Q434 375 471 356T535 312T576 258T591 188Q591 146 572 110T516 46T427 2T311 -14Q248 -14 197 1T111 44T56 107T37 185Q37 262 85 310T218 392Q185 409 157 427T110 466T79 512T68 570ZM280 367Q201 335 159 292T117 190Q117 162 131 138T171 96T233 68T316 57Q361 57 397 68T458 97T497 139T511 189Q511 217 495 240T450 284T377 325T280 367ZM314 420Q352 437 382 452T433 483T465 518T477 563Q477 588 466 610T433 649T382 675T313 685Q275 685 245 676T193 651T160 614T148 567Q148 542 160 522T193 485T245 452T314 420Z"  />
<glyph unicode="9" horiz-adv-x="625" d="M128 90Q156 76 185 67T248 57Q284 57 324 73T399 126T457 226T480 380Q457 355 435 336T387 304T332 283T264 276Q217 276 177 294T107 342T62 414T45 503Q45 554 63 599T114 680T190 735T285 756Q344 756 395 732T483 660T542 546T564 392Q564 299 540 224T474 96T374 15T248 -14Q196 -14 157 1T83 35L128 90ZM478 477Q467 540 445 580T396 643T340 676T287 685Q251 685 220 671T167 631T133 573T120 503Q120 469 131 441T162 391T211 359T273 347Q309 347 338 357T391 385T437 426T478 477Z"  />
<glyph unicode=":" horiz-adv-x="313" d="M205 416H108V525H205V416ZM205 0H108V112H205V0Z"  />
<glyph unicode=";" horiz-adv-x="313" d="M109 413V525H206V413H109ZM109 0V112H206V3L130 -147H90L156 0H109Z"  />
<glyph unicode="&lt;" horiz-adv-x="667" d="M154 371L598 188V119L68 342V400L598 623V553L154 371Z"  />
<glyph unicode="=" horiz-adv-x="667" d="M598 455H68V519H598V455ZM598 226H68V290H598V226Z"  />
<glyph unicode="&gt;" horiz-adv-x="667" d="M512 370L68 553V623L598 399V342L68 119V188L512 370Z"  />
<glyph unicode="?" horiz-adv-x="417" d="M42 644Q77 693 118 724T217 755Q248 755 276 743T324 709T356 658T368 595Q368 544 345 502T285 416Q263 390 250 373T228 338T216 294T212 228H148Q147 241 147 249T147 271Q147 301 151 324T163 368T184 405T212 441Q227 458 242 475T268 511T286 549T293 591Q293 609 286 626T268 655T241 676T208 684Q173 684 150 663T105 607L42 644ZM236 0H139V112H236V0Z"  />
<glyph unicode="@" horiz-adv-x="1018" d="M502 511Q536 511 571 492T636 425L648 511H726L687 254Q684 234 682 213T679 174Q679 107 739 107Q771 107 799 122T849 167T882 237T894 329Q894 406 869 471T797 585T683 660T534 687Q448 687 375 656T247 571T161 443T130 283Q130 187 158 112T238 -16T367 -96T540 -124Q609 -124 668 -105T785 -54L826 -120Q751 -161 677 -178T540 -195Q426 -195 336 -163T184 -69T88 82T55 283Q55 385 91 473T192 625T347 725T544 762Q635 762 712 730T845 640T932 506T964 339Q964 273 947 219T898 125T825 65T731 44Q683 44 653 67T606 136Q580 111 560 94T521 66T481 50T430 45Q400 45 374 58T328 97T297 155T286 230Q286 289 302 340T348 429T416 489T502 511ZM627 358Q603 400 577 424T520 448Q485 448 457 431T408 384T377 315T366 230Q366 167 389 138T464 108Q494 108 531 132T609 210L627 358Z"  />
<glyph unicode="A" horiz-adv-x="631" d="M90 0H15L260 740H373L618 0H538L463 231H164L90 0ZM188 302H440L315 691L188 302Z"  />
<glyph unicode="B" horiz-adv-x="697" d="M103 0V740H336Q410 740 464 725T553 685T606 625T623 554Q623 494 587 453T487 382Q560 350 601 307T642 200Q642 158 624 122T571 58T484 16T364 0H103ZM178 416H308Q543 416 543 546Q543 600 496 634T360 669H178V416ZM178 71H380Q465 71 513 107T562 206Q562 269 507 307T347 345H178V71Z"  />
<glyph unicode="C" horiz-adv-x="667" d="M637 220Q622 161 595 118T530 45T448 1T355 -14Q290 -14 236 13T141 91T79 213T56 372Q56 459 77 530T138 651T231 729T351 756Q385 756 425 747T504 712T574 642T624 528L549 517Q524 599 481 642T357 685Q307 685 267 665T197 604T152 507T136 375Q136 300 152 241T197 141T266 79T356 57Q401 57 434 70T491 107T531 164T560 236L637 220Z"  />
<glyph unicode="D" horiz-adv-x="720" d="M103 740H314Q396 740 461 715T571 644T640 530T664 377Q664 299 645 231T585 111T478 30T319 0H103V740ZM178 71H329Q387 71 434 91T515 149T566 244T584 372Q584 517 516 593T318 669H178V71Z"  />
<glyph unicode="E" horiz-adv-x="593" d="M573 0H102V740H538V669H177V428H445V357H177V71H573V0Z"  />
<glyph unicode="F" horiz-adv-x="553" d="M177 0H102V740H533V669H177V427H439V356H177V0Z"  />
<glyph unicode="G" horiz-adv-x="718" d="M382 357H637V0H566V96Q554 78 535 59T488 23T427 -3T353 -14Q285 -14 231 12T137 88T77 208T56 368Q56 460 79 532T143 654T239 730T359 756Q394 756 436 746T518 709T590 640T638 530L559 514Q546 553 529 584T489 638T435 673T364 685Q316 685 274 664T202 603T154 505T136 374Q136 300 153 241T200 141T271 79T362 57Q392 57 429 67T497 104T549 175T566 286H382V357Z"  />
<glyph unicode="H" horiz-adv-x="740" d="M177 0H102V740H177V427H563V740H638V0H563V356H177V0Z"  />
<glyph unicode="I" horiz-adv-x="279" d="M177 0H102V740H177V0Z"  />
<glyph unicode="J" horiz-adv-x="461" d="M366 239Q366 175 352 128T311 49T248 2T169 -14Q134 -14 107 -6T58 17T19 52T-14 95L48 130Q72 98 99 78T169 57Q226 57 258 101T291 239V740H366V239Z"  />
<glyph unicode="K" horiz-adv-x="657" d="M177 0H102V740H177V359L523 740H616L361 460L650 0H564L313 406L177 257V0Z"  />
<glyph unicode="L" horiz-adv-x="550" d="M530 0H102V740H177V71H530V0Z"  />
<glyph unicode="M" horiz-adv-x="881" d="M174 0H103V740H225L441 144L655 740H779V0H704V674L460 0H417L174 674V0Z"  />
<glyph unicode="N" horiz-adv-x="761" d="M177 0H102V740H217L584 136V740H659V0H584L177 676V0Z"  />
<glyph unicode="O" horiz-adv-x="726" d="M365 -14Q297 -14 241 13T143 91T79 210T56 364Q56 454 79 526T143 650T241 728T366 756Q432 756 487 728T583 649T647 527T670 368Q670 280 646 210T581 90T484 13T365 -14ZM358 57Q409 57 452 78T525 139T573 236T590 365Q590 440 574 499T528 600T456 663T363 685Q313 685 272 664T200 603T153 503T136 369Q136 294 153 236T199 139T269 78T358 57Z"  />
<glyph unicode="P" horiz-adv-x="646" d="M177 0H102V740H347Q409 740 458 725T541 684T593 620T611 539Q611 494 592 456T537 391T450 349T335 334H177V0ZM177 405H329Q531 405 531 539Q531 611 478 640T319 669H177V405Z"  />
<glyph unicode="Q" horiz-adv-x="726" d="M613 -124V-195H557Q452 -195 393 -150T328 -11Q300 -6 269 2T203 36Q136 84 96 170T56 363Q56 450 78 522T141 646T238 727T360 756Q429 756 486 728T584 649T648 527T671 368Q671 305 658 250T621 150T563 70T487 14Q460 0 439 -4T400 -11Q404 -68 440 -96T551 -124H613ZM360 57Q411 57 453 78T526 139T574 237T591 369Q591 444 575 502T529 601T457 663T364 685Q314 685 272 664T200 602T153 502T136 369Q136 295 153 237T200 139T271 78T360 57Z"  />
<glyph unicode="R" horiz-adv-x="670" d="M177 0H102V740H362Q422 740 468 724T547 679T595 615T612 538Q612 501 601 473T568 422T517 382T449 351L639 0H552L377 336H177V0ZM177 407H332Q532 407 532 540Q532 600 488 634T358 669H177V407Z"  />
<glyph unicode="S" horiz-adv-x="629" d="M124 208Q135 176 149 148T186 100T240 69T319 57Q361 57 394 68T449 98T483 142T495 197Q495 235 479 260T435 303T369 332T287 352Q241 361 202 380T135 425T90 484T73 555Q73 595 89 631T136 696T209 740T305 756Q370 756 415 737T489 690T535 632T557 577L482 554Q461 616 421 650T306 685Q269 685 241 675T193 649T163 611T153 566Q153 540 163 518T197 476T259 442T354 415Q424 400 467 376T535 322T567 262T575 201Q575 154 556 115T503 47T422 2T319 -14Q248 -14 198 9T116 64T68 130T47 188L124 208Z"  />
<glyph unicode="T" horiz-adv-x="585" d="M565 740V669H331V0H256V669H20V740H565Z"  />
<glyph unicode="U" horiz-adv-x="723" d="M631 740V266Q631 200 613 148T560 60T476 5T365 -14Q301 -14 251 5T165 59T111 144T92 256V740H167V277Q167 57 361 57Q458 57 507 112T556 277V740H631Z"  />
<glyph unicode="V" horiz-adv-x="609" d="M338 0H270L15 740H95L306 117L516 740H594L338 0Z"  />
<glyph unicode="W" horiz-adv-x="900" d="M290 0H225L30 740H108L259 150L415 740H487L641 150L794 740H870L672 0H610L450 608L290 0Z"  />
<glyph unicode="X" horiz-adv-x="614" d="M15 0L265 396L49 740H138L306 461L477 740H565L347 396L599 0H512L306 331L104 0H15Z"  />
<glyph unicode="Y" horiz-adv-x="590" d="M260 0V322L15 740H101L296 397L491 740H575L331 322V0H260Z"  />
<glyph unicode="Z" horiz-adv-x="589" d="M471 669H66V740H553V669L116 71H553V0H32V72L471 669Z"  />
<glyph unicode="[" horiz-adv-x="379" d="M354 -200H102V740H354V676H173V-133H354V-200Z"  />
<glyph unicode="\" horiz-adv-x="454" d="M372 0L15 740H82L439 0H372Z"  />
<glyph unicode="]" horiz-adv-x="378" d="M206 676H25V740H277V-200H25V-136H206V676Z"  />
<glyph unicode="^" horiz-adv-x="583" d="M292 671L128 351H56L258 741H331L527 351H457L292 671Z"  />
<glyph unicode="_" horiz-adv-x="500" d="M506 -75V-125H-6V-75H506Z"  />
<glyph unicode="`" horiz-adv-x="333" d="M133 738L240 577H179L24 738H133Z"  />
<glyph unicode="a" horiz-adv-x="550" d="M393 347Q393 384 386 409T364 450T332 472T291 479Q237 479 193 454T107 390L55 434Q77 455 101 473T152 506T210 528T278 536Q324 536 359 522T417 485T453 431T465 369V126Q465 92 468 61T479 0H408Q399 31 397 51T394 88Q372 67 350 49T302 18T250 -3T191 -11Q157 -11 130 0T83 30T53 75T42 131Q42 169 56 197T95 247T151 282T217 307T286 324T350 338L393 347ZM394 296Q337 283 287 269T199 237T139 193T117 131Q117 96 143 74T211 52Q259 52 302 73T394 129V296Z"  />
<glyph unicode="b" horiz-adv-x="617" d="M166 0H95V740H166V458Q250 536 345 536Q392 536 432 516T503 460T550 374T567 264Q567 202 550 151T503 64T432 9T343 -11Q288 -11 247 12T166 69V0ZM166 129Q208 96 247 74T337 52Q371 52 400 66T449 108T480 174T492 262Q492 361 448 417T332 473Q281 473 242 449T166 393V129Z"  />
<glyph unicode="c" horiz-adv-x="516" d="M488 127Q470 97 450 72T406 29T352 0T282 -11Q232 -11 190 8T117 64T68 150T50 264Q50 325 68 375T117 461T191 516T283 536Q322 536 352 526T406 498T451 455T488 401L426 367Q412 391 398 411T366 447T329 470T282 479Q249 479 221 464T171 421T137 351T125 258Q125 213 137 175T170 110T219 67T280 52Q307 52 328 60T367 83T399 118T426 162L488 127Z"  />
<glyph unicode="d" horiz-adv-x="617" d="M271 537Q328 537 370 514T451 458V740H522V164Q522 115 526 74T540 0H467Q462 15 460 32T455 73Q414 38 371 14T270 -10Q224 -10 184 9T114 63T67 149T50 261Q50 323 67 374T113 461T183 517T271 537ZM451 395Q412 429 372 451T281 474Q210 474 168 421T125 268Q125 165 168 109T281 53Q327 53 368 76T451 134V395Z"  />
<glyph unicode="e" horiz-adv-x="538" d="M492 118Q469 90 446 67T397 26T341 -1T276 -11Q229 -11 188 8T117 62T68 149T50 265Q50 328 67 378T115 463T185 517T269 536Q299 536 337 524T410 481T468 395T492 256H121Q125 193 141 153T180 91T227 60T272 52Q326 52 363 81T434 159L492 118ZM418 320Q412 361 398 391T365 440T321 469T271 479Q245 479 221 470T176 440T142 390T124 320H418Z"  />
<glyph unicode="f" horiz-adv-x="314" d="M22 461V525H120V607Q120 674 165 709T306 739V672Q297 674 288 674T273 674Q191 674 191 601V525H300V461H191V0H120V461H22Z"  />
<glyph unicode="g" horiz-adv-x="563" d="M65 350Q65 389 80 423T123 482T190 522T278 537Q328 537 361 525T423 492Q461 512 491 517T556 525V463H535Q516 463 499 462T459 451Q470 433 477 410T485 354Q485 313 470 278T427 217T360 177T272 162Q246 162 219 166T169 178Q149 171 138 161T127 135Q127 109 167 103T288 90Q361 84 407 71T481 37T518 -8T529 -62Q529 -127 472 -168T303 -210Q240 -210 191 -199T108 -167T57 -119T39 -58Q39 -21 57 4T103 52Q83 66 70 80T57 119Q57 151 78 171T131 209Q99 237 82 271T65 350ZM275 225Q308 225 334 235T378 262T405 303T415 353Q415 377 407 399T381 437T339 464T279 474Q210 474 173 441T135 350Q135 293 174 259T275 225ZM164 30Q135 16 118 -3T101 -54Q101 -71 112 -88T147 -118T205 -139T288 -147Q373 -147 416 -125T459 -61Q459 -35 441 -19T386 6T294 21T164 30Z"  />
<glyph unicode="h" horiz-adv-x="607" d="M167 0H96V740H167V467Q222 495 270 515T370 536Q436 536 475 491T514 361V0H443V352Q443 377 440 399T427 436T399 461T351 470Q304 470 260 452T167 406V0Z"  />
<glyph unicode="i" horiz-adv-x="261" d="M166 648H95V733H166V648ZM166 0H95V525H166V0Z"  />
<glyph unicode="j" horiz-adv-x="261" d="M167 648H96V733H167V648ZM167 -62Q167 -95 158 -122T133 -169T93 -200T41 -211Q37 -211 30 -211T17 -209V-129Q19 -129 25 -130T35 -131Q62 -131 79 -110T96 -55V525H167V-62Z"  />
<glyph unicode="k" horiz-adv-x="526" d="M166 0H95V740H166V257L405 525H498L325 341L516 0H436L280 294L166 174V0Z"  />
<glyph unicode="l" horiz-adv-x="261" d="M166 0H95V740H166V0Z"  />
<glyph unicode="m" horiz-adv-x="947" d="M167 442Q227 482 277 509T378 536Q407 536 427 529T462 510T487 480T505 442Q534 461 561 478T614 508T666 528T721 536Q780 536 817 496T854 391V0H783V370Q783 414 759 443T700 473Q660 473 614 447T511 380V0H440V370Q440 389 435 407T420 440T394 464T357 473Q318 473 272 447T167 380V0H96V525H167V442Z"  />
<glyph unicode="n" horiz-adv-x="607" d="M166 0H95V525H166V464Q227 499 277 517T366 536Q399 536 426 524T472 491T503 438T514 369V0H443V350Q443 410 422 440T353 470Q306 470 260 452T166 406V0Z"  />
<glyph unicode="o" horiz-adv-x="572" d="M294 -11Q241 -11 197 9T120 65T69 151T50 261Q50 324 68 375T117 462T192 517T287 537Q336 537 379 517T454 460T504 372T522 258Q522 197 504 148T454 63T382 8T294 -11ZM287 52Q321 52 350 66T401 108T435 175T447 265Q447 363 404 418T289 474Q252 474 222 459T170 417T137 351T125 264Q125 215 137 176T170 109T221 67T287 52Z"  />
<glyph unicode="p" horiz-adv-x="617" d="M166 455Q208 490 251 513T345 536Q392 536 432 517T503 462T550 376T567 263Q567 200 550 150T503 64T433 9T345 -11Q288 -11 246 12T166 69V-200H95V525H166V455ZM166 128Q206 96 247 74T339 52Q372 52 400 66T448 107T480 173T492 263Q492 312 480 351T447 417T397 458T335 473Q290 473 250 451T166 393V128Z"  />
<glyph unicode="q" horiz-adv-x="617" d="M451 525H522V-200H451V68Q413 36 371 13T271 -10Q224 -10 184 9T113 65T66 152T49 265Q49 326 66 376T114 462T185 517T271 537Q299 537 323 531T368 513T410 487T451 456V525ZM451 393Q411 427 371 450T276 474Q210 474 167 419T124 261Q124 161 165 107T275 53Q328 53 369 76T451 132V393Z"  />
<glyph unicode="r" horiz-adv-x="395" d="M165 525V406Q188 442 211 467T261 507T318 530T387 536L376 457Q368 458 363 458T350 459Q309 459 275 440T217 388T179 316T165 233V0H94V525H165Z"  />
<glyph unicode="s" horiz-adv-x="483" d="M91 134Q126 99 163 76T255 52Q308 52 339 77T370 139Q370 173 337 197T235 240Q202 249 169 259T108 285T65 327T48 394Q48 424 60 450T96 495T152 526T226 537Q262 537 290 530T342 512T383 485T417 455L363 407Q337 436 307 455T227 474Q176 474 147 453T118 400Q118 375 132 360T168 335T215 319T260 307Q292 298 324 286T382 255T424 209T440 142Q440 110 427 83T390 34T332 1T256 -11Q218 -11 187 -3T128 19T78 51T30 91L91 134Z"  />
<glyph unicode="t" horiz-adv-x="337" d="M114 525V716H185V525H315V461H185V137Q185 96 202 73T264 49Q278 49 291 51T315 56V-8Q303 -10 287 -12T253 -14Q180 -14 147 16T114 121V461H22V525H114Z"  />
<glyph unicode="u" horiz-adv-x="607" d="M440 84Q386 42 338 16T242 -11Q174 -11 134 35T94 168V525H165V176Q165 122 192 89T261 55Q305 55 347 81T440 149V525H511V0H440V84Z"  />
<glyph unicode="v" horiz-adv-x="488" d="M276 0H211L25 525H104L245 100L386 525H463L276 0Z"  />
<glyph unicode="w" horiz-adv-x="737" d="M241 0H193L25 525H101L218 138L340 525H395L518 128L638 525H712L541 0H491L366 402L241 0Z"  />
<glyph unicode="x" horiz-adv-x="491" d="M20 0L204 272L31 525H117L246 327L373 525H459L287 272L471 0H386L246 218L107 0H20Z"  />
<glyph unicode="y" horiz-adv-x="518" d="M284 -34Q269 -75 255 -108T218 -164T161 -200T73 -213Q53 -213 36 -210T5 -205L23 -137Q35 -139 48 -140T74 -142Q113 -142 136 -133T175 -106T200 -62T222 0L20 525H99L259 96L418 525H498L284 -34Z"  />
<glyph unicode="z" horiz-adv-x="501" d="M371 454H56V525H456V454L117 71H471V0H30V72L371 454Z"  />
<glyph unicode="{" horiz-adv-x="333" d="M310 -199H286Q241 -199 211 -189T164 -156T139 -98T132 -13Q132 49 131 94T119 169T88 215T27 235V307Q67 311 88 327T119 374T130 453T132 565Q132 614 140 647T167 701T215 731T286 740H310V669H299Q271 669 254 665T226 650T211 618T207 566V493Q207 438 201 403T182 343T148 303T96 271Q127 257 148 241T182 199T201 138T207 48V-24Q207 -56 210 -76T224 -107T252 -123T299 -128H310V-199Z"  />
<glyph unicode="|" horiz-adv-x="531" d="M298 -200H234V740H298V-200Z"  />
<glyph unicode="}" horiz-adv-x="333" d="M202 488Q202 436 207 402T225 348T258 319T306 307V235Q266 231 245 215T214 168T203 89T201 -24Q201 -73 192 -106T165 -160T117 -190T47 -199H23V-128H34Q62 -128 80 -124T108 -108T123 -76T127 -24V48Q127 101 132 137T150 198T184 240T236 271Q205 286 184 302T151 342T133 402T127 493V566Q127 599 123 619T108 650T79 665T34 669H23V740H47Q88 740 117 731T165 702T193 648T202 565V488Z"  />
<glyph unicode="~" horiz-adv-x="656" d="M64 409Q102 441 140 455T208 470Q238 470 271 458T335 431T397 404T451 391Q489 391 523 410T593 460V389Q556 358 521 343T453 328Q421 328 388 340T323 367T262 394T207 407Q172 407 137 389T64 339V409Z"  />
<glyph unicode="&#xA0;" horiz-adv-x="313" />
<glyph unicode="&#xA1;" horiz-adv-x="313" d="M110 413V525H207V413H110ZM109 -209L129 305H186L205 -209H109Z"  />
<glyph unicode="&#xA2;" horiz-adv-x="483" d="M142 31Q53 101 53 222Q53 274 68 322T110 408T176 467T259 490Q273 490 287 487T313 481L413 740H462L354 461Q408 427 435 363L382 342Q373 362 362 378T334 405L206 69Q216 64 230 59T265 53Q306 53 339 79T404 147L450 117Q412 52 361 21T258 -10Q235 -10 216 -5T182 6L99 -210H50L142 31ZM293 426Q285 427 280 427T267 427Q232 427 206 411T161 368T133 304T123 229Q123 183 133 154T167 99L293 426Z"  />
<glyph unicode="&#xA3;" horiz-adv-x="625" d="M442 423V362H304Q308 339 311 313T314 254Q314 208 308 181T296 136Q344 105 382 86T453 66Q525 66 534 176H606Q598 77 557 32T446 -14Q417 -14 394 -7T349 13T308 41T266 72Q239 35 209 11T133 -14Q90 -14 63 14T35 88Q35 135 66 165T146 195Q170 195 192 187T240 168Q241 180 242 194T244 220Q244 278 236 311T223 362H70V423H210Q202 460 196 494T189 565Q189 606 202 641T238 701T294 741T366 755Q409 755 439 742T490 705T521 647T537 571L461 567Q458 595 452 618T434 657T404 683T359 692Q316 692 290 662T264 580Q264 554 272 516T291 423H442ZM218 106Q196 119 175 128T133 138Q111 138 96 124T81 87Q81 67 95 54T132 40Q163 40 182 58T218 106Z"  />
<glyph unicode="&#xA4;" horiz-adv-x="643" d="M543 174Q532 163 523 153T502 132Q469 166 435 199Q385 160 318 160Q293 160 262 168T201 199L134 132Q124 143 115 153T94 174Q111 190 128 206T162 238Q144 264 134 293T123 354Q123 386 133 416T162 470Q145 487 128 502T94 535Q105 546 114 556T134 577L201 510Q232 532 262 540T318 549Q346 549 378 540T435 510Q452 527 468 543T502 577Q513 566 522 556T543 535Q526 518 509 503T475 470Q495 442 504 413T514 354Q514 322 504 293T475 238Q492 222 509 206T543 174ZM456 355Q456 385 445 410T414 453T370 481T319 491Q289 491 264 480T221 451T192 407T181 355Q181 327 192 302T221 258T265 228T318 217Q346 217 371 228T415 258T445 302T456 355Z"  />
<glyph unicode="&#xA5;" horiz-adv-x="634" d="M515 740H594L415 430H594V366H378L353 322V236H594V172H353V0H282V172H40V236H282V322L256 366H40V430H219L40 740H120L317 398L515 740Z"  />
<glyph unicode="&#xA6;" horiz-adv-x="531" d="M234 -200V154H298V-200H234ZM234 386V740H298V386H234Z"  />
<glyph unicode="&#xA7;" horiz-adv-x="521" d="M443 -59Q443 -91 430 -118T393 -166T334 -198T257 -210Q212 -210 181 -200T129 -170T95 -124T71 -64L145 -49Q152 -70 162 -88T186 -119T220 -139T268 -147Q312 -147 340 -124T368 -66Q368 -40 350 -18T293 28Q242 59 199 86T123 141T73 204T55 282Q55 313 64 337T91 382T133 421T187 458Q164 474 146 488T114 519T94 555T86 599Q86 630 98 658T134 707T191 742T268 755Q314 755 345 745T398 715T433 668T456 607L381 592Q373 613 364 631T341 662T308 682T261 689Q216 689 189 667T161 609Q161 559 232 517Q285 485 329 458T405 401T454 339T472 260Q472 229 463 205T436 161T395 123T342 85Q364 69 383 54T415 21T435 -15T443 -59ZM233 428Q182 393 151 361T120 289Q120 266 132 245T168 202T223 160T295 116Q344 150 375 180T407 252Q407 277 395 298T360 341T305 383T233 428Z"  />
<glyph unicode="&#xA8;" horiz-adv-x="333" d="M109 596H24V681H109V596ZM309 596H224V681H309V596Z"  />
<glyph unicode="&#xA9;" horiz-adv-x="837" d="M531 463Q516 497 491 517T417 537Q362 537 327 496T292 382Q292 311 326 272T419 232Q459 232 490 254T537 326L597 308Q577 240 532 208T420 175Q329 175 278 232T227 392Q227 437 240 474T279 538T341 579T423 594Q489 594 529 565T589 478L531 463ZM419 756Q495 756 562 727T679 648T759 530T788 386Q788 310 759 243T680 126T563 46T419 17Q342 17 275 46T158 125T79 242T50 386Q50 462 79 529T158 647T276 727T419 756ZM419 693Q356 693 300 669T202 604T136 506T112 386Q112 322 136 267T201 170T299 104T419 80Q483 80 539 104T636 169T702 266T726 386Q726 450 702 506T636 603T538 669T419 693Z"  />
<glyph unicode="&#xAA;" horiz-adv-x="396" d="M295 379Q290 392 288 404T284 431Q250 402 216 387T143 371Q95 371 66 400T36 474Q36 508 51 530T89 568T141 592T197 608Q218 613 239 617T283 627V646Q283 673 264 690T215 708Q182 708 152 691T85 645L41 681Q79 719 121 737T206 755Q269 755 306 721T344 624V454Q344 440 346 420T356 379H295ZM283 581Q194 563 148 540T101 475Q101 450 116 438T161 425Q190 425 219 438T283 474V581Z"  />
<glyph unicode="&#xAB;" horiz-adv-x="491" d="M34 262L175 495H255L115 262L255 30H175L34 262ZM238 262L377 495H457L317 262L457 30H377L238 262Z"  />
<glyph unicode="&#xAC;" horiz-adv-x="667" d="M536 462H68V526H600V224H536V462Z"  />
<glyph unicode="&#xAD;" horiz-adv-x="349" d="M299 239H50V310H299V239Z"  />
<glyph unicode="&#xAE;" horiz-adv-x="837" d="M339 350V182H275V579H411Q443 579 470 577T519 565Q546 553 564 528T582 474Q582 431 555 399T468 359Q498 345 517 322T560 260L608 182H530L495 245Q479 273 467 293T441 326T413 344T377 350H339ZM339 405H417Q465 405 488 419T512 466Q512 501 487 513T412 525H339V405ZM419 756Q495 756 562 727T679 648T759 530T788 386Q788 310 759 243T680 126T563 46T419 17Q342 17 275 46T158 125T79 242T50 386Q50 462 79 529T158 647T276 727T419 756ZM419 693Q356 693 300 669T202 604T136 506T112 386Q112 322 136 267T201 170T299 104T419 80Q483 80 539 104T636 169T702 266T726 386Q726 450 702 506T636 603T538 669T419 693Z"  />
<glyph unicode="&#xAF;" horiz-adv-x="333" d="M22 625V686H311V625H22Z"  />
<glyph unicode="&#xB0;" horiz-adv-x="396" d="M62 619Q62 647 72 672T101 715T145 744T198 755Q226 755 250 745T293 716T322 672T333 619Q333 591 323 567T294 524T251 495T198 484Q170 484 145 494T102 523T73 566T62 619ZM115 619Q115 585 139 561T198 537Q232 537 256 560T280 619Q280 653 257 677T198 702Q164 702 140 678T115 619Z"  />
<glyph unicode="&#xB1;" horiz-adv-x="667" d="M300 420H67V484H300V718H364V484H599V420H364V187H300V420ZM599 25H67V89H599V25Z"  />
<glyph unicode="&#xB2;" horiz-adv-x="369" d="M31 368V404Q31 413 38 426T58 454T85 483T115 506Q158 533 188 551T237 584T264 611T273 640Q273 666 251 686T194 707Q171 707 154 700T124 682T102 657T83 629L31 640Q57 694 95 725T193 757Q221 757 246 748T290 723T320 686T331 641Q331 614 317 592T281 552T231 518T177 486T127 453T92 414H332V368H31Z"  />
<glyph unicode="&#xB3;" horiz-adv-x="369" d="M108 596H142Q199 596 229 612T260 653Q260 674 235 690T174 707Q139 707 116 694T72 665L26 691Q38 702 52 713T83 735T124 751T177 757Q209 757 235 749T279 726T308 692T318 653Q318 598 250 570Q326 543 326 479Q326 456 315 435T283 398T234 371T171 361Q137 361 112 368T67 388T34 414T8 443L54 469Q75 448 102 430T172 411Q192 411 209 416T240 431T260 451T268 475Q268 490 258 502T229 525T188 540T140 546Q132 546 122 546T103 544L108 596Z"  />
<glyph unicode="&#xB4;" horiz-adv-x="333" d="M154 577H93L200 738H309L154 577Z"  />
<glyph unicode="&#xB5;" horiz-adv-x="609" d="M442 79Q429 64 414 48T382 19T345 -3T305 -12Q283 -12 266 -10T234 -3T202 11T167 34V-200H96V525H167V209Q167 143 201 101T294 59Q326 59 349 69T390 96T419 132T442 170V525H513V0H442V79Z"  />
<glyph unicode="&#xB6;" horiz-adv-x="621" d="M244 -200V329Q227 330 207 331T166 339Q99 358 62 410T25 537Q25 583 41 620T88 684T161 725T259 740H596V669H497V-200H438V669H304V-200H244Z"  />
<glyph unicode="&#xB7;" horiz-adv-x="296" d="M197 316H100V428H197V316Z"  />
<glyph unicode="&#xB8;" horiz-adv-x="333" d="M177 -44Q225 -49 245 -70T265 -123Q265 -158 235 -182T156 -207Q119 -207 85 -201T15 -180L41 -134Q61 -145 89 -151T146 -157Q171 -157 185 -150T200 -125Q200 -102 177 -93T111 -84L158 0H202L177 -44Z"  />
<glyph unicode="&#xB9;" horiz-adv-x="313" d="M235 410V361H94V410H138V669Q125 664 114 663T94 661V707Q114 710 130 714T163 732H190V410H235Z"  />
<glyph unicode="&#xBA;" horiz-adv-x="407" d="M211 373Q171 373 139 387T84 426T49 486T36 564Q36 607 48 642T82 702T135 742T204 756Q241 756 271 742T324 701T358 638T371 560Q371 516 358 481T323 422T271 386T211 373ZM203 706Q154 706 124 667T94 564Q94 497 126 460T203 423Q253 423 283 462T313 568Q313 634 282 670T203 706Z"  />
<glyph unicode="&#xBB;" horiz-adv-x="491" d="M175 262L34 495H115L255 262L115 30H34L175 262ZM377 262L237 495H317L457 262L317 30H237L377 262Z"  />
<glyph unicode="&#xBC;" horiz-adv-x="938" d="M160 313V695Q144 689 124 684T76 677V722Q100 726 119 732T161 756H212V313H286V267H76V313H160ZM238 -99L702 756L748 734L281 -123L238 -99ZM543 -7V43L738 366H815V44H901V-7H815V-123H764V-7H543ZM599 44H764V320L599 44Z"  />
<glyph unicode="&#xBD;" horiz-adv-x="938" d="M160 313V695Q144 689 124 684T76 677V722Q100 726 119 732T161 756H212V313H286V267H76V313H160ZM559 -123V-82Q559 -63 595 -15T707 91Q764 133 791 164T818 231Q818 270 794 298T731 326Q686 326 659 298T609 224L563 235Q563 239 572 262T601 310T652 356T730 377Q772 377 799 362T843 324T867 276T874 231Q874 204 867 184T846 146T814 113T773 79Q768 75 763 72T753 63Q694 16 658 -15T614 -77H875V-123H559ZM198 -99L662 756L708 734L241 -123L198 -99Z"  />
<glyph unicode="&#xBE;" horiz-adv-x="938" d="M248 -99L712 756L758 734L291 -123L248 -99ZM543 -7V43L738 366H815V44H901V-7H815V-123H764V-7H543ZM599 44H764V320L599 44ZM156 492L161 542H194Q257 542 290 566T324 627Q324 643 317 657T297 682T267 699T229 705Q193 705 167 690T118 651L78 678Q109 713 144 734T232 756Q265 756 292 745T338 716T369 675T380 626Q380 587 358 561T296 516Q338 499 363 473T389 396Q389 367 377 340T343 293T291 260T226 247Q165 247 126 274T57 345L98 375Q125 342 155 320T227 298Q249 298 268 306T302 327T325 356T333 391Q333 424 315 444T275 474T230 488T201 492H156Z"  />
<glyph unicode="&#xBF;" horiz-adv-x="417" d="M276 413H179V525H276V413ZM374 -98Q338 -148 297 -179T198 -211Q167 -211 140 -199T91 -165T58 -114T46 -52Q46 -6 68 38T131 131Q152 155 165 171T186 206T197 249T202 317H267V296Q267 251 263 222T248 169T218 122T170 65Q147 39 134 10T121 -45Q121 -63 128 -80T146 -110T173 -132T206 -140Q236 -140 261 -119T309 -61L374 -98Z"  />
<glyph unicode="&#xC0;" horiz-adv-x="631" d="M90 0H15L260 740H373L618 0H538L463 231H164L90 0ZM188 302H440L315 691L188 302ZM292 953L399 792H338L183 953H292Z"  />
<glyph unicode="&#xC1;" horiz-adv-x="631" d="M90 0H15L260 740H373L618 0H538L463 231H164L90 0ZM188 302H440L315 691L188 302ZM305 792H244L351 953H460L305 792Z"  />
<glyph unicode="&#xC2;" horiz-adv-x="631" d="M90 0H15L260 740H373L618 0H538L463 231H164L90 0ZM188 302H440L315 691L188 302ZM353 948L472 792H427L321 880L213 792H168L292 948H353Z"  />
<glyph unicode="&#xC3;" horiz-adv-x="631" d="M90 0H15L260 740H373L618 0H538L463 231H164L90 0ZM188 302H440L315 691L188 302ZM388 871Q411 871 423 888T444 933H484Q482 873 454 841T385 808Q365 808 348 817T316 839T287 860T258 870Q238 870 224 853T203 810H163Q163 842 171 865T193 903T224 925T259 933Q279 933 297 924T330 902T360 881T388 871Z"  />
<glyph unicode="&#xC4;" horiz-adv-x="631" d="M90 0H15L260 740H373L618 0H538L463 231H164L90 0ZM188 302H440L315 691L188 302ZM258 811H173V896H258V811ZM458 811H373V896H458V811Z"  />
<glyph unicode="&#xC5;" horiz-adv-x="631" d="M90 0H15L260 740H373L618 0H538L463 231H164L90 0ZM188 302H440L315 691L188 302ZM319 773Q275 773 247 802T218 872Q218 914 247 943T318 972Q360 972 388 943T417 872Q417 851 409 833T388 801T356 781T319 773ZM316 805Q345 805 364 825T384 872Q384 900 365 920T317 940Q289 940 270 921T251 873Q251 844 270 825T316 805Z"  />
<glyph unicode="&#xC6;" horiz-adv-x="889" d="M15 0L353 740H834V669H512V429H750V358H512V71H869V0H437V231H198L96 0H15ZM437 669H395L230 302H437V669Z"  />
<glyph unicode="&#xC7;" horiz-adv-x="667" d="M354 -44Q402 -49 422 -70T442 -123Q442 -158 412 -182T333 -207Q296 -207 262 -201T192 -180L218 -134Q238 -145 266 -151T323 -157Q348 -157 362 -150T377 -125Q377 -102 354 -93T288 -84L328 -13Q268 -7 218 23T132 103T76 221T56 372Q56 456 76 526T135 648T228 727T351 756Q403 756 447 741T527 696T588 624T626 529L549 517Q526 602 476 643T357 685Q308 685 268 665T198 605T152 508T136 375Q136 299 152 240T198 139T267 77T356 55Q430 55 483 98T560 235L637 220Q622 163 596 120T535 48T458 4T371 -14L354 -44Z"  />
<glyph unicode="&#xC8;" horiz-adv-x="593" d="M573 0H102V740H538V669H177V428H445V357H177V71H573V0ZM289 953L396 792H335L180 953H289Z"  />
<glyph unicode="&#xC9;" horiz-adv-x="593" d="M573 0H102V740H538V669H177V428H445V357H177V71H573V0ZM300 792H239L346 953H455L300 792Z"  />
<glyph unicode="&#xCA;" horiz-adv-x="593" d="M573 0H102V740H538V669H177V428H445V357H177V71H573V0ZM341 948L460 792H415L309 880L201 792H156L280 948H341Z"  />
<glyph unicode="&#xCB;" horiz-adv-x="593" d="M573 0H102V740H538V669H177V428H445V357H177V71H573V0ZM255 811H170V896H255V811ZM455 811H370V896H455V811Z"  />
<glyph unicode="&#xCC;" horiz-adv-x="279" d="M177 0H102V740H177V0ZM102 953L209 792H148L-7 953H102Z"  />
<glyph unicode="&#xCD;" horiz-adv-x="279" d="M177 0H102V740H177V0ZM135 792H74L181 953H290L135 792Z"  />
<glyph unicode="&#xCE;" horiz-adv-x="279" d="M177 0H102V740H177V0ZM175 948L294 792H249L143 880L35 792H-10L114 948H175Z"  />
<glyph unicode="&#xCF;" horiz-adv-x="279" d="M177 0H102V740H177V0ZM79 811H-6V896H79V811ZM279 811H194V896H279V811Z"  />
<glyph unicode="&#xD0;" horiz-adv-x="720" d="M103 0V341H18V405H103V740H314Q397 740 462 715T572 643T640 528T664 377Q664 263 630 184T524 56Q476 23 419 12T289 0H103ZM329 71Q383 71 429 89T510 144T564 237T584 372Q584 448 565 504T512 596T428 651T318 669H178V405H331V341H178V71H329Z"  />
<glyph unicode="&#xD1;" horiz-adv-x="761" d="M177 0H102V740H217L584 136V740H659V0H584L177 676V0ZM451 871Q474 871 486 888T507 933H547Q545 873 517 841T448 808Q428 808 411 817T379 839T350 860T321 870Q301 870 287 853T266 810H226Q226 842 234 865T256 903T287 925T322 933Q342 933 360 924T393 902T423 881T451 871Z"  />
<glyph unicode="&#xD2;" horiz-adv-x="726" d="M365 -14Q297 -14 241 13T143 91T79 210T56 364Q56 454 79 526T143 650T241 728T366 756Q432 756 487 728T583 649T647 527T670 368Q670 280 646 210T581 90T484 13T365 -14ZM358 57Q409 57 452 78T525 139T573 236T590 365Q590 440 574 499T528 600T456 663T363 685Q313 685 272 664T200 603T153 503T136 369Q136 294 153 236T199 139T269 78T358 57ZM349 953L456 792H395L240 953H349Z"  />
<glyph unicode="&#xD3;" horiz-adv-x="726" d="M365 -14Q297 -14 241 13T143 91T79 210T56 364Q56 454 79 526T143 650T241 728T366 756Q432 756 487 728T583 649T647 527T670 368Q670 280 646 210T581 90T484 13T365 -14ZM358 57Q409 57 452 78T525 139T573 236T590 365Q590 440 574 499T528 600T456 663T363 685Q313 685 272 664T200 603T153 503T136 369Q136 294 153 236T199 139T269 78T358 57ZM344 792H283L390 953H499L344 792Z"  />
<glyph unicode="&#xD4;" horiz-adv-x="726" d="M365 -14Q297 -14 241 13T143 91T79 210T56 364Q56 454 79 526T143 650T241 728T366 756Q432 756 487 728T583 649T647 527T670 368Q670 280 646 210T581 90T484 13T365 -14ZM358 57Q409 57 452 78T525 139T573 236T590 365Q590 440 574 499T528 600T456 663T363 685Q313 685 272 664T200 603T153 503T136 369Q136 294 153 236T199 139T269 78T358 57ZM401 948L520 792H475L369 880L261 792H216L340 948H401Z"  />
<glyph unicode="&#xD5;" horiz-adv-x="726" d="M365 -14Q297 -14 241 13T143 91T79 210T56 364Q56 454 79 526T143 650T241 728T366 756Q432 756 487 728T583 649T647 527T670 368Q670 280 646 210T581 90T484 13T365 -14ZM358 57Q409 57 452 78T525 139T573 236T590 365Q590 440 574 499T528 600T456 663T363 685Q313 685 272 664T200 603T153 503T136 369Q136 294 153 236T199 139T269 78T358 57ZM433 871Q456 871 468 888T489 933H529Q527 873 499 841T430 808Q410 808 393 817T361 839T332 860T303 870Q283 870 269 853T248 810H208Q208 842 216 865T238 903T269 925T304 933Q324 933 342 924T375 902T405 881T433 871Z"  />
<glyph unicode="&#xD6;" horiz-adv-x="726" d="M365 -14Q297 -14 241 13T143 91T79 210T56 364Q56 454 79 526T143 650T241 728T366 756Q432 756 487 728T583 649T647 527T670 368Q670 280 646 210T581 90T484 13T365 -14ZM358 57Q409 57 452 78T525 139T573 236T590 365Q590 440 574 499T528 600T456 663T363 685Q313 685 272 664T200 603T153 503T136 369Q136 294 153 236T199 139T269 78T358 57ZM305 811H220V896H305V811ZM505 811H420V896H505V811Z"  />
<glyph unicode="&#xD7;" horiz-adv-x="667" d="M289 361L90 561L135 606L334 406L534 606L579 560L380 361L577 163L532 118L334 316L136 118L91 163L289 361Z"  />
<glyph unicode="&#xD8;" horiz-adv-x="726" d="M528 601Q499 641 458 663T364 685Q315 685 273 665T201 604T153 505T136 369Q136 314 145 270T170 190L528 601ZM198 141Q230 98 271 78T358 57Q410 57 452 78T526 139T574 236T591 365Q591 473 556 551L198 141ZM703 719L610 612Q639 563 655 502T671 368Q671 297 654 235T606 123T531 41T433 -5Q413 -10 392 -12T366 -14Q298 -14 244 12T149 84L65 -12L24 23L117 129Q88 177 72 236T56 364Q56 451 78 523T140 647T238 727T366 756Q431 756 484 730T577 657L662 754L703 719Z"  />
<glyph unicode="&#xD9;" horiz-adv-x="723" d="M631 740V266Q631 200 613 148T560 60T476 5T365 -14Q301 -14 251 5T165 59T111 144T92 256V740H167V277Q167 57 361 57Q458 57 507 112T556 277V740H631ZM319 953L426 792H365L210 953H319Z"  />
<glyph unicode="&#xDA;" horiz-adv-x="723" d="M631 740V266Q631 200 613 148T560 60T476 5T365 -14Q301 -14 251 5T165 59T111 144T92 256V740H167V277Q167 57 361 57Q458 57 507 112T556 277V740H631ZM358 792H297L404 953H513L358 792Z"  />
<glyph unicode="&#xDB;" horiz-adv-x="723" d="M631 740V266Q631 200 613 148T560 60T476 5T365 -14Q301 -14 251 5T165 59T111 144T92 256V740H167V277Q167 57 361 57Q458 57 507 112T556 277V740H631ZM395 948L514 792H469L363 880L255 792H210L334 948H395Z"  />
<glyph unicode="&#xDC;" horiz-adv-x="723" d="M631 740V266Q631 200 613 148T560 60T476 5T365 -14Q301 -14 251 5T165 59T111 144T92 256V740H167V277Q167 57 361 57Q458 57 507 112T556 277V740H631ZM305 811H220V896H305V811ZM505 811H420V896H505V811Z"  />
<glyph unicode="&#xDD;" horiz-adv-x="590" d="M260 0V322L15 740H101L296 397L491 740H575L331 322V0H260ZM300 792H239L346 953H455L300 792Z"  />
<glyph unicode="&#xDE;" horiz-adv-x="646" d="M102 0V740H177V580H347Q406 580 455 565T539 521T593 456T612 373Q612 328 593 289T538 222T450 177T330 161H177V0H102ZM326 232Q429 232 480 268T532 370Q532 404 517 432T473 478Q445 496 407 502T320 509H177V232H326Z"  />
<glyph unicode="&#xDF;" horiz-adv-x="621" d="M566 204Q566 159 552 120T514 52T456 6T383 -11Q328 -11 294 19T234 106L293 132Q310 96 330 74T382 52Q403 52 422 62T457 93T482 143T491 208Q491 295 444 339T303 386V449Q346 449 376 458T424 484T451 520T460 564Q460 611 425 644T322 677Q167 677 167 515V0H96V493Q96 511 98 536T107 589T128 644T166 692T226 727T314 740Q365 740 405 727T475 691T519 636T535 567Q535 519 506 479T421 417Q493 385 529 333T566 204Z"  />
<glyph unicode="&#xE0;" horiz-adv-x="550" d="M393 347Q393 384 386 409T364 450T332 472T291 479Q237 479 193 454T107 390L55 434Q77 455 101 473T152 506T210 528T278 536Q324 536 359 522T417 485T453 431T465 369V126Q465 92 468 61T479 0H408Q399 31 397 51T394 88Q372 67 350 49T302 18T250 -3T191 -11Q157 -11 130 0T83 30T53 75T42 131Q42 169 56 197T95 247T151 282T217 307T286 324T350 338L393 347ZM394 296Q337 283 287 269T199 237T139 193T117 131Q117 96 143 74T211 52Q259 52 302 73T394 129V296ZM244 752L351 591H290L135 752H244Z"  />
<glyph unicode="&#xE1;" horiz-adv-x="550" d="M393 347Q393 384 386 409T364 450T332 472T291 479Q237 479 193 454T107 390L55 434Q77 455 101 473T152 506T210 528T278 536Q324 536 359 522T417 485T453 431T465 369V126Q465 92 468 61T479 0H408Q399 31 397 51T394 88Q372 67 350 49T302 18T250 -3T191 -11Q157 -11 130 0T83 30T53 75T42 131Q42 169 56 197T95 247T151 282T217 307T286 324T350 338L393 347ZM394 296Q337 283 287 269T199 237T139 193T117 131Q117 96 143 74T211 52Q259 52 302 73T394 129V296ZM254 591H193L300 752H409L254 591Z"  />
<glyph unicode="&#xE2;" horiz-adv-x="550" d="M393 347Q393 384 386 409T364 450T332 472T291 479Q237 479 193 454T107 390L55 434Q77 455 101 473T152 506T210 528T278 536Q324 536 359 522T417 485T453 431T465 369V126Q465 92 468 61T479 0H408Q399 31 397 51T394 88Q372 67 350 49T302 18T250 -3T191 -11Q157 -11 130 0T83 30T53 75T42 131Q42 169 56 197T95 247T151 282T217 307T286 324T350 338L393 347ZM394 296Q337 283 287 269T199 237T139 193T117 131Q117 96 143 74T211 52Q259 52 302 73T394 129V296ZM308 747L427 591H382L276 679L168 591H123L247 747H308Z"  />
<glyph unicode="&#xE3;" horiz-adv-x="550" d="M393 347Q393 384 386 409T364 450T332 472T291 479Q237 479 193 454T107 390L55 434Q77 455 101 473T152 506T210 528T278 536Q324 536 359 522T417 485T453 431T465 369V126Q465 92 468 61T479 0H408Q399 31 397 51T394 88Q372 67 350 49T302 18T250 -3T191 -11Q157 -11 130 0T83 30T53 75T42 131Q42 169 56 197T95 247T151 282T217 307T286 324T350 338L393 347ZM394 296Q337 283 287 269T199 237T139 193T117 131Q117 96 143 74T211 52Q259 52 302 73T394 129V296ZM340 670Q363 670 375 687T396 732H436Q434 672 406 640T337 607Q317 607 300 616T268 638T239 659T210 669Q190 669 176 652T155 609H115Q115 641 123 664T145 702T176 724T211 732Q231 732 249 723T282 701T312 680T340 670Z"  />
<glyph unicode="&#xE4;" horiz-adv-x="550" d="M393 347Q393 384 386 409T364 450T332 472T291 479Q237 479 193 454T107 390L55 434Q77 455 101 473T152 506T210 528T278 536Q324 536 359 522T417 485T453 431T465 369V126Q465 92 468 61T479 0H408Q399 31 397 51T394 88Q372 67 350 49T302 18T250 -3T191 -11Q157 -11 130 0T83 30T53 75T42 131Q42 169 56 197T95 247T151 282T217 307T286 324T350 338L393 347ZM394 296Q337 283 287 269T199 237T139 193T117 131Q117 96 143 74T211 52Q259 52 302 73T394 129V296ZM212 610H127V695H212V610ZM412 610H327V695H412V610Z"  />
<glyph unicode="&#xE5;" horiz-adv-x="550" d="M393 347Q393 384 386 409T364 450T332 472T291 479Q237 479 193 454T107 390L55 434Q77 455 101 473T152 506T210 528T278 536Q324 536 359 522T417 485T453 431T465 369V126Q465 92 468 61T479 0H408Q399 31 397 51T394 88Q372 67 350 49T302 18T250 -3T191 -11Q157 -11 130 0T83 30T53 75T42 131Q42 169 56 197T95 247T151 282T217 307T286 324T350 338L393 347ZM394 296Q337 283 287 269T199 237T139 193T117 131Q117 96 143 74T211 52Q259 52 302 73T394 129V296ZM275 572Q231 572 203 601T174 671Q174 713 203 742T274 771Q316 771 344 742T373 671Q373 650 365 632T344 600T312 580T275 572ZM272 604Q301 604 320 624T340 671Q340 699 321 719T273 739Q245 739 226 720T207 672Q207 643 226 624T272 604Z"  />
<glyph unicode="&#xE6;" horiz-adv-x="879" d="M610 536Q644 536 683 522T757 474T812 388T833 256H462Q464 201 478 163T514 100T562 64T613 52Q654 52 694 75T775 159L833 118Q785 53 731 21T617 -11Q588 -11 559 -3T504 22T459 60T431 111Q360 46 303 18T191 -11Q155 -11 127 0T81 31T52 77T42 131Q42 181 65 215T134 273T244 314T394 348V361Q394 370 393 389T381 429T351 464T291 479Q201 479 107 390L55 434Q105 486 162 511T278 536Q328 536 371 517T445 441Q477 492 520 514T610 536ZM759 320Q755 360 741 390T707 439T662 469T612 479Q580 479 554 466T509 430T478 379T465 320H759ZM394 296Q343 284 293 271T204 240T141 197T117 132Q117 97 143 75T211 52Q253 52 298 72T394 129V296Z"  />
<glyph unicode="&#xE7;" horiz-adv-x="516" d="M278 -44Q326 -49 346 -70T366 -123Q366 -158 336 -182T257 -207Q220 -207 186 -201T116 -180L142 -134Q162 -145 190 -151T247 -157Q272 -157 286 -150T301 -125Q301 -102 278 -93T212 -84L254 -9Q211 -4 174 17T110 72T66 155T50 263Q50 325 68 375T119 461T193 516T283 535Q415 535 488 401L426 367Q398 420 364 449T282 478Q251 478 223 464T173 423T138 354T125 259Q125 215 137 177T169 111T218 68T280 52Q373 52 426 162L488 127Q452 63 406 28T297 -11L278 -44Z"  />
<glyph unicode="&#xE8;" horiz-adv-x="538" d="M492 118Q469 90 446 67T397 26T341 -1T276 -11Q229 -11 188 8T117 62T68 149T50 265Q50 328 67 378T115 463T185 517T269 536Q299 536 337 524T410 481T468 395T492 256H121Q125 193 141 153T180 91T227 60T272 52Q326 52 363 81T434 159L492 118ZM418 320Q412 361 398 391T365 440T321 469T271 479Q245 479 221 470T176 440T142 390T124 320H418ZM256 752L363 591H302L147 752H256Z"  />
<glyph unicode="&#xE9;" horiz-adv-x="538" d="M492 118Q469 90 446 67T397 26T341 -1T276 -11Q229 -11 188 8T117 62T68 149T50 265Q50 328 67 378T115 463T185 517T269 536Q299 536 337 524T410 481T468 395T492 256H121Q125 193 141 153T180 91T227 60T272 52Q326 52 363 81T434 159L492 118ZM418 320Q412 361 398 391T365 440T321 469T271 479Q245 479 221 470T176 440T142 390T124 320H418ZM256 591H195L302 752H411L256 591Z"  />
<glyph unicode="&#xEA;" horiz-adv-x="538" d="M492 118Q469 90 446 67T397 26T341 -1T276 -11Q229 -11 188 8T117 62T68 149T50 265Q50 328 67 378T115 463T185 517T269 536Q299 536 337 524T410 481T468 395T492 256H121Q125 193 141 153T180 91T227 60T272 52Q326 52 363 81T434 159L492 118ZM418 320Q412 361 398 391T365 440T321 469T271 479Q245 479 221 470T176 440T142 390T124 320H418ZM306 747L425 591H380L274 679L166 591H121L245 747H306Z"  />
<glyph unicode="&#xEB;" horiz-adv-x="538" d="M492 118Q469 90 446 67T397 26T341 -1T276 -11Q229 -11 188 8T117 62T68 149T50 265Q50 328 67 378T115 463T185 517T269 536Q299 536 337 524T410 481T468 395T492 256H121Q125 193 141 153T180 91T227 60T272 52Q326 52 363 81T434 159L492 118ZM418 320Q412 361 398 391T365 440T321 469T271 479Q245 479 221 470T176 440T142 390T124 320H418ZM212 610H127V695H212V610ZM412 610H327V695H412V610Z"  />
<glyph unicode="&#xEC;" horiz-adv-x="261" d="M95 0V525H166V0H95ZM95 752L202 591H141L-14 752H95Z"  />
<glyph unicode="&#xED;" horiz-adv-x="261" d="M95 0V525H166V0H95ZM124 591H63L170 752H279L124 591Z"  />
<glyph unicode="&#xEE;" horiz-adv-x="261" d="M95 0V525H166V0H95ZM166 747L285 591H240L134 679L26 591H-19L105 747H166Z"  />
<glyph unicode="&#xEF;" horiz-adv-x="261" d="M95 0V525H166V0H95ZM75 610H-10V695H75V610ZM275 610H190V695H275V610Z"  />
<glyph unicode="&#xF0;" horiz-adv-x="573" d="M377 664Q393 647 407 627T432 588T452 553T465 527Q484 486 502 428T520 281Q520 211 503 157T455 66T382 9T289 -11Q238 -11 195 8T120 64T70 150T52 262Q52 322 70 372T119 459T193 516T286 537Q324 537 354 524T413 484Q406 502 396 523T375 564T351 603T329 634L237 577L216 611L303 665Q298 672 288 682T265 704T241 725T222 740H303Q315 729 326 719T350 695L424 740L445 706L377 664ZM445 265Q445 313 434 351T401 417T352 459T289 474Q254 474 225 460T173 419T139 353T127 264Q127 165 171 109T287 52Q322 52 351 67T401 109T433 176T445 265Z"  />
<glyph unicode="&#xF1;" horiz-adv-x="607" d="M166 0H95V525H166V464Q227 499 277 517T366 536Q399 536 426 524T472 491T503 438T514 369V0H443V350Q443 410 422 440T353 470Q306 470 260 452T166 406V0ZM371 670Q394 670 406 687T427 732H467Q465 672 437 640T368 607Q348 607 331 616T299 638T270 659T241 669Q221 669 207 652T186 609H146Q146 641 154 664T176 702T207 724T242 732Q262 732 280 723T313 701T343 680T371 670Z"  />
<glyph unicode="&#xF2;" horiz-adv-x="572" d="M294 -11Q241 -11 197 9T120 65T69 151T50 261Q50 324 68 375T117 462T192 517T287 537Q336 537 379 517T454 460T504 372T522 258Q522 197 504 148T454 63T382 8T294 -11ZM287 52Q321 52 350 66T401 108T435 175T447 265Q447 363 404 418T289 474Q252 474 222 459T170 417T137 351T125 264Q125 215 137 176T170 109T221 67T287 52ZM263 752L370 591H309L154 752H263Z"  />
<glyph unicode="&#xF3;" horiz-adv-x="572" d="M294 -11Q241 -11 197 9T120 65T69 151T50 261Q50 324 68 375T117 462T192 517T287 537Q336 537 379 517T454 460T504 372T522 258Q522 197 504 148T454 63T382 8T294 -11ZM287 52Q321 52 350 66T401 108T435 175T447 265Q447 363 404 418T289 474Q252 474 222 459T170 417T137 351T125 264Q125 215 137 176T170 109T221 67T287 52ZM274 591H213L320 752H429L274 591Z"  />
<glyph unicode="&#xF4;" horiz-adv-x="572" d="M294 -11Q241 -11 197 9T120 65T69 151T50 261Q50 324 68 375T117 462T192 517T287 537Q336 537 379 517T454 460T504 372T522 258Q522 197 504 148T454 63T382 8T294 -11ZM287 52Q321 52 350 66T401 108T435 175T447 265Q447 363 404 418T289 474Q252 474 222 459T170 417T137 351T125 264Q125 215 137 176T170 109T221 67T287 52ZM325 747L444 591H399L293 679L185 591H140L264 747H325Z"  />
<glyph unicode="&#xF5;" horiz-adv-x="572" d="M294 -11Q241 -11 197 9T120 65T69 151T50 261Q50 324 68 375T117 462T192 517T287 537Q336 537 379 517T454 460T504 372T522 258Q522 197 504 148T454 63T382 8T294 -11ZM287 52Q321 52 350 66T401 108T435 175T447 265Q447 363 404 418T289 474Q252 474 222 459T170 417T137 351T125 264Q125 215 137 176T170 109T221 67T287 52ZM357 670Q380 670 392 687T413 732H453Q451 672 423 640T354 607Q334 607 317 616T285 638T256 659T227 669Q207 669 193 652T172 609H132Q132 641 140 664T162 702T193 724T228 732Q248 732 266 723T299 701T329 680T357 670Z"  />
<glyph unicode="&#xF6;" horiz-adv-x="572" d="M294 -11Q241 -11 197 9T120 65T69 151T50 261Q50 324 68 375T117 462T192 517T287 537Q336 537 379 517T454 460T504 372T522 258Q522 197 504 148T454 63T382 8T294 -11ZM287 52Q321 52 350 66T401 108T435 175T447 265Q447 363 404 418T289 474Q252 474 222 459T170 417T137 351T125 264Q125 215 137 176T170 109T221 67T287 52ZM229 610H144V695H229V610ZM429 610H344V695H429V610Z"  />
<glyph unicode="&#xF7;" horiz-adv-x="667" d="M68 340V401H599V340H68ZM296 528V613H371V528H296ZM296 128V213H371V128H296Z"  />
<glyph unicode="&#xF8;" horiz-adv-x="572" d="M399 425Q379 448 352 461T290 474Q249 474 219 458T168 413T137 346T126 264Q126 231 131 203T147 149L399 425ZM176 102Q220 52 288 52Q321 52 350 66T401 107T435 174T448 265Q448 330 428 378L176 102ZM538 499L476 431Q499 396 511 353T523 258Q523 193 504 143T452 59T379 7T295 -11Q247 -11 205 5T131 53L73 -11L35 26L97 94Q75 128 63 170T51 261Q51 325 69 376T120 463T195 518T288 537Q333 537 372 520T442 473L500 536L538 499Z"  />
<glyph unicode="&#xF9;" horiz-adv-x="607" d="M440 84Q386 42 338 16T242 -11Q174 -11 134 35T94 168V525H165V176Q165 122 192 89T261 55Q305 55 347 81T440 149V525H511V0H440V84ZM269 752L376 591H315L160 752H269Z"  />
<glyph unicode="&#xFA;" horiz-adv-x="607" d="M440 84Q386 42 338 16T242 -11Q174 -11 134 35T94 168V525H165V176Q165 122 192 89T261 55Q305 55 347 81T440 149V525H511V0H440V84ZM285 591H224L331 752H440L285 591Z"  />
<glyph unicode="&#xFB;" horiz-adv-x="607" d="M440 84Q386 42 338 16T242 -11Q174 -11 134 35T94 168V525H165V176Q165 122 192 89T261 55Q305 55 347 81T440 149V525H511V0H440V84ZM334 747L453 591H408L302 679L194 591H149L273 747H334Z"  />
<glyph unicode="&#xFC;" horiz-adv-x="607" d="M440 84Q386 42 338 16T242 -11Q174 -11 134 35T94 168V525H165V176Q165 122 192 89T261 55Q305 55 347 81T440 149V525H511V0H440V84ZM247 610H162V695H247V610ZM447 610H362V695H447V610Z"  />
<glyph unicode="&#xFD;" horiz-adv-x="518" d="M284 -34Q269 -75 255 -108T218 -164T161 -200T73 -213Q53 -213 36 -210T5 -205L23 -137Q35 -139 48 -140T74 -142Q113 -142 136 -133T175 -106T200 -62T222 0L20 525H99L259 96L418 525H498L284 -34ZM243 591H182L289 752H398L243 591Z"  />
<glyph unicode="&#xFE;" horiz-adv-x="615" d="M165 740V460Q207 495 249 515T343 535Q391 535 431 515T502 459T549 373T566 261Q566 200 550 150T503 64T432 9T343 -11Q287 -11 247 11T165 69V-200H94V740H165ZM165 128Q207 94 247 73T335 52Q408 52 449 108T491 263Q491 313 479 352T446 417T397 458T337 472Q292 472 251 452T165 393V128Z"  />
<glyph unicode="&#xFF;" horiz-adv-x="518" d="M284 -34Q269 -75 255 -108T218 -164T161 -200T73 -213Q53 -213 36 -210T5 -205L23 -137Q35 -139 48 -140T74 -142Q113 -142 136 -133T175 -106T200 -62T222 0L20 525H99L259 96L418 525H498L284 -34ZM202 610H117V695H202V610ZM402 610H317V695H402V610Z"  />
<glyph unicode="&#x131;" horiz-adv-x="261" d="M95 0V525H166V0H95Z"  />
<glyph unicode="&#x152;" horiz-adv-x="937" d="M523 97Q485 46 436 20T330 -6Q274 -6 225 16T140 85T82 204T60 374Q60 465 80 535T137 653T222 725T328 750Q391 750 439 722T523 646V740H900V669H599V430H812V359H599V71H917V0H523V97ZM327 65Q418 65 471 143T524 370Q524 520 473 599T334 679Q289 679 253 658T192 598T154 501T140 371Q140 298 153 241T192 145T251 86T327 65Z"  />
<glyph unicode="&#x153;" horiz-adv-x="926" d="M666 536Q699 536 736 523T806 477T859 390T880 254H513Q515 201 529 163T565 100T612 64T664 52Q701 52 742 77T820 157L877 114Q779 -11 664 -11Q543 -11 475 119Q438 56 393 23T280 -11Q234 -11 192 7T119 60T69 145T50 260Q50 323 67 374T116 461T191 517T287 537Q419 537 475 408Q508 475 559 505T666 536ZM806 318Q801 358 788 388T755 437T711 466T660 476Q629 476 603 464T558 430T529 379T517 318H806ZM282 52Q315 52 344 66T395 108T429 176T442 268Q442 318 430 356T397 421T348 460T286 474Q255 474 226 462T175 423T139 356T125 262Q125 208 138 169T174 103T225 65T282 52Z"  />
<glyph unicode="&#x160;" horiz-adv-x="629" d="M124 208Q135 176 149 148T186 100T240 69T319 57Q361 57 394 68T449 98T483 142T495 197Q495 235 479 260T435 303T369 332T287 352Q241 361 202 380T135 425T90 484T73 555Q73 595 89 631T136 696T209 740T305 756Q370 756 415 737T489 690T535 632T557 577L482 554Q461 616 421 650T306 685Q269 685 241 675T193 649T163 611T153 566Q153 540 163 518T197 476T259 442T354 415Q424 400 467 376T535 322T567 262T575 201Q575 154 556 115T503 47T422 2T319 -14Q248 -14 198 9T116 64T68 130T47 188L124 208ZM288 792L169 948H213L320 861L428 948H473L349 792H288Z"  />
<glyph unicode="&#x161;" horiz-adv-x="483" d="M91 134Q126 99 163 76T255 52Q308 52 339 77T370 139Q370 173 337 197T235 240Q202 249 169 259T108 285T65 327T48 394Q48 424 60 450T96 495T152 526T226 537Q262 537 290 530T342 512T383 485T417 455L363 407Q337 436 307 455T227 474Q176 474 147 453T118 400Q118 375 132 360T168 335T215 319T260 307Q292 298 324 286T382 255T424 209T440 142Q440 110 427 83T390 34T332 1T256 -11Q218 -11 187 -3T128 19T78 51T30 91L91 134ZM209 591L90 747H134L241 660L349 747H394L270 591H209Z"  />
<glyph unicode="&#x178;" horiz-adv-x="590" d="M260 0V322L15 740H101L296 397L491 740H575L331 322V0H260ZM245 811H160V896H245V811ZM445 811H360V896H445V811Z"  />
<glyph unicode="&#x17D;" horiz-adv-x="589" d="M471 669H66V740H553V669L116 71H553V0H32V72L471 669ZM268 792L149 948H193L300 861L408 948H453L329 792H268Z"  />
<glyph unicode="&#x17E;" horiz-adv-x="501" d="M371 454H56V525H456V454L117 71H471V0H30V72L371 454ZM233 591L114 747H158L265 660L373 747H418L294 591H233Z"  />
<glyph unicode="&#x192;" horiz-adv-x="538" d="M294 595Q303 632 312 661T337 712T376 744T438 755Q467 755 490 750T534 738L522 676Q505 681 486 686T444 692Q425 692 413 687T393 670T379 640T366 595L354 547H463L451 493H343L223 -54Q195 -184 85 -184Q53 -184 30 -179T-10 -168L3 -110Q20 -115 38 -118T77 -121Q96 -121 109 -116T132 -95T150 -49T170 30L271 493H189L200 547H282L294 595Z"  />
<glyph unicode="&#x2C6;" horiz-adv-x="333" d="M205 733L324 577H279L173 665L65 577H20L144 733H205Z"  />
<glyph unicode="&#x2C7;" horiz-adv-x="333" d="M139 577L20 733H64L171 646L279 733H324L200 577H139Z"  />
<glyph unicode="&#x2DA;" horiz-adv-x="333" d="M172 558Q128 558 100 587T71 657Q71 699 100 728T171 757Q213 757 241 728T270 657Q270 636 262 618T241 586T209 566T172 558ZM169 590Q198 590 217 610T237 657Q237 685 218 705T170 725Q142 725 123 706T104 658Q104 629 123 610T169 590Z"  />
<glyph unicode="&#x2DC;" horiz-adv-x="333" d="M237 656Q260 656 272 673T293 718H333Q331 658 303 626T234 593Q214 593 197 602T165 624T136 645T107 655Q87 655 73 638T52 595H12Q12 627 20 650T42 688T73 710T108 718Q128 718 146 709T179 687T209 666T237 656Z"  />
<glyph unicode="&#x2013;" horiz-adv-x="500" d="M500 242H0V306H500V242Z"  />
<glyph unicode="&#x2014;" horiz-adv-x="1000" d="M1000 242H0V306H1000V242Z"  />
<glyph unicode="&#x2018;" horiz-adv-x="281" d="M88 485V593L162 740H204L138 593H185V485H88Z"  />
<glyph unicode="&#x2019;" horiz-adv-x="280" d="M95 632V740H192V632L117 484H77L141 632H95Z"  />
<glyph unicode="&#x201A;" horiz-adv-x="280" d="M95 0V108H192V0L117 -148H77L141 0H95Z"  />
<glyph unicode="&#x201C;" horiz-adv-x="469" d="M88 606L162 750H202L137 607H182V495H88V606ZM279 606L352 750H392L326 607H372V495H279V606Z"  />
<glyph unicode="&#x201D;" horiz-adv-x="469" d="M98 634V740H191V634L117 486H77L144 634H98ZM287 634V740H381V634L307 486H267L333 634H287Z"  />
<glyph unicode="&#x201E;" horiz-adv-x="469" d="M98 0V106H191V0L117 -148H77L144 0H98ZM287 0V106H381V0L307 -148H267L333 0H287Z"  />
<glyph unicode="&#x2020;" horiz-adv-x="521" d="M39 488L240 472L224 740H297L281 472L482 488V415L281 430L303 -200H216L240 430L39 415V488Z"  />
<glyph unicode="&#x2021;" horiz-adv-x="521" d="M54 513L244 498L229 740H301L285 498L477 513V439L285 455L296 273L285 86L477 101V28L285 44L301 -200H229L244 44L54 28V101L244 86L234 273L244 455L54 439V513Z"  />
<glyph unicode="&#x2022;" horiz-adv-x="357" d="M55 351Q55 376 65 398T91 438T130 464T179 474Q204 474 226 465T266 438T292 399T302 351Q302 326 293 304T267 264T228 237T179 227Q153 227 131 237T92 263T65 302T55 351Z"  />
<glyph unicode="&#x2026;" horiz-adv-x="938" d="M212 0H115V112H212V0ZM523 0H426V112H523V0ZM833 0H736V112H833V0Z"  />
<glyph unicode="&#x2030;" horiz-adv-x="1352" d="M354 551Q354 601 327 635T251 669Q215 669 189 650T145 603T120 543T111 483Q111 452 120 429T143 390T176 366T215 358Q246 358 271 377T315 425T344 488T354 551ZM443 693Q519 693 590 716T716 780H773L228 -170H169L663 685Q617 666 565 657T459 647Q440 647 422 648T385 652Q398 632 405 608T412 558Q412 514 398 469T358 386T296 325T217 301Q182 301 152 314T100 350T66 407T53 482Q53 524 66 567T105 646T166 704T247 726Q286 726 318 711Q379 693 443 693ZM1255 129Q1255 179 1228 213T1152 247Q1116 247 1090 228T1046 181T1021 121T1012 61Q1012 30 1021 7T1044 -32T1077 -56T1116 -64Q1147 -64 1172 -45T1216 3T1245 66T1255 129ZM1313 136Q1313 92 1299 47T1259 -36T1197 -97T1118 -121Q1083 -121 1053 -108T1001 -72T967 -15T954 60Q954 102 967 145T1006 224T1067 282T1148 304Q1185 304 1215 291T1268 254T1301 201T1313 136ZM823 129Q823 179 796 213T720 247Q684 247 658 228T614 181T589 121T580 61Q580 30 589 7T612 -32T645 -56T684 -64Q715 -64 740 -45T784 3T813 66T823 129ZM881 136Q881 92 867 47T827 -36T765 -97T686 -121Q651 -121 621 -108T569 -72T535 -15T522 60Q522 102 535 145T574 224T635 282T716 304Q753 304 783 291T836 254T869 201T881 136Z"  />
<glyph unicode="&#x2039;" horiz-adv-x="288" d="M34 262L174 495H254L113 262L254 30H174L34 262Z"  />
<glyph unicode="&#x203A;" horiz-adv-x="288" d="M174 262L34 495H114L254 262L114 30H34L174 262Z"  />
<glyph unicode="&#x20AC;" horiz-adv-x="625" d="M510 549Q478 622 440 653T342 685Q184 685 143 465H510L497 401H137Q136 393 136 387T136 375Q136 363 136 357T137 341H488L476 277H144Q161 173 213 116T342 58Q471 58 518 194L595 178Q524 -13 340 -13Q287 -13 241 7T159 65T99 156T64 277H-2L10 341H57Q56 351 56 358T56 372Q56 380 56 386T57 401H-2L10 465H63Q86 605 157 680T336 756Q517 756 584 566L510 549Z"  />
<glyph unicode="&#x2122;" horiz-adv-x="761" d="M200 410H145V691H38V740H307V691H200V410ZM417 410H367V740H448L531 476L611 740H691V410H640V687L556 410H506L417 691V410Z"  />

</font>
</defs>
</svg>
