<?xml  version="1.0" encoding="UTF-8"?>
<!DOCTYPE svg PUBLIC "-//W3C//DTD SVG 1.0//EN" "http://www.w3.org/TR/2001/REC-SVG-20010904/DTD/svg10.dtd" >
<svg xmlns="http://www.w3.org/2000/svg" >
<metadata>
<version>1.0</version>
<id><![CDATA[News Gothic MT W01 Bold]]></id>
<vendor>Monotype Imaging Inc.</vendor>
<credits>
<name>Fonts.com WebFonts</name>
<URL>http://webfonts.fonts.com</URL>
<role>Home of the Web fonts</role>
</credits>
<license>
<URL>http://webfonts.fonts.com/Legal</URL>
</license>
<copyright><![CDATA[Copyright 1996 The Monotype Corporation. All rights reserved.]]></copyright>
<trademark><![CDATA[News Gothic  is a trademark of Monotype Imaging, Inc. and may be registered in certain jurisdictions; Monotype is a trademark of Monotype Imaging, Inc. Registered in U.S. Patent and Trademark Office and may be registered in certain other jurisdictions.]]></trademark>
<licensee>
<name></name>
</licensee>
</metadata>
<defs >
<font horiz-adv-x="479" id="9937da80-c9ad-405a-b7ad-ed7552fbc86a">
<font-face font-family="" panose-1="2 11 8 3 2 1 3 2 2 3" ascent="978" descent="-221" units-per-em="1000" alphabetic="0">
</font-face>
<missing-glyph horiz-adv-x="293" />

<glyph unicode="&#xA;" />
<glyph unicode="&#xD;" />
<glyph unicode=" " horiz-adv-x="293" />
<glyph unicode="!" horiz-adv-x="365" d="M133 266L106 747H256L225 266H133ZM106 0V160H253V0H106Z"  />
<glyph unicode="&quot;" horiz-adv-x="489" d="M182 487H81L55 621V762H205V621L182 487ZM412 487H311L285 621V762H435V621L412 487Z"  />
<glyph unicode="#" horiz-adv-x="667" d="M38 426V517H189L230 705H322L281 517H454L494 705H587L546 517H629V426H529L498 277H629V186H480L440 0H347L388 186H213L175 0H82L121 186H38V277H140L171 426H38ZM436 426H263L232 277H406L436 426Z"  />
<glyph unicode="$" horiz-adv-x="634" d="M280 318Q220 331 177 354T107 407T66 473T52 550Q52 594 71 632T121 698T194 743T280 762V792H352V762Q387 755 415 745T467 721T513 687T559 644L456 573Q432 594 408 610T352 636V452Q419 435 464 409T536 351T574 283T586 209Q586 150 563 108T504 38T427 -2T352 -15V-147H280V-15Q237 -10 203 0T140 28T85 72T33 134L139 208Q170 163 206 139T280 105V318ZM280 642Q247 636 227 627T195 606T179 581T174 554Q174 535 181 522T203 499T236 482T280 469V642ZM352 103Q382 107 402 117T435 141T452 170T457 201Q457 238 430 262T352 301V103Z"  />
<glyph unicode="%" horiz-adv-x="978" d="M759 307Q841 307 889 257T938 120Q938 70 923 23T880 -62T809 -121T712 -143Q673 -143 641 -130T587 -91T552 -31T539 47Q539 98 554 145T597 228T666 285T759 307ZM750 225Q727 225 710 208T680 162T662 99T656 29Q656 -11 675 -33T721 -56Q742 -56 760 -43T792 -5T813 52T821 124Q821 175 802 200T750 225ZM168 -178L651 654Q585 622 534 614T431 618Q438 591 438 561Q438 504 422 454T376 368T306 310T216 288Q180 288 148 300T92 335T54 393T40 475Q40 529 56 577T101 662T170 719T261 740Q292 740 318 732T371 706Q392 693 419 681T490 668Q517 668 552 675T622 697Q641 704 655 713T682 733T705 756T727 782H806L251 -178H168ZM252 653Q217 653 197 625T165 540Q160 517 159 500T157 460Q157 421 174 398T220 375Q262 375 291 423T321 562Q321 610 302 631T252 653Z"  />
<glyph unicode="&amp;" horiz-adv-x="740" d="M139 584Q139 620 153 652T195 709T259 748T343 763Q385 763 418 751T474 717T509 667T521 605Q521 539 477 487T356 383Q388 340 422 302T492 228Q519 267 537 308T570 393L686 356Q673 300 651 250T590 145Q619 125 647 115T702 104H707L720 -9Q712 -10 701 -10T678 -11Q625 -11 584 7T502 53Q451 24 399 5T287 -14Q237 -14 192 0T114 41T61 106T41 193Q41 268 79 322T193 418Q160 472 150 510T139 584ZM293 474Q348 504 380 534T412 601Q412 630 391 650T338 671Q300 671 276 646T251 584Q251 564 261 535T293 474ZM255 318Q180 274 180 216Q180 195 190 175T217 140T256 114T301 104Q325 104 353 113T404 138Q347 198 312 243T255 318Z"  />
<glyph unicode="&apos;" horiz-adv-x="240" d="M172 487H71L45 621V762H195V621L172 487Z"  />
<glyph unicode="(" horiz-adv-x="384" d="M366 691Q272 597 230 495T187 272Q187 194 204 133T247 24T305 -63T366 -137L314 -206Q176 -114 108 5T40 278Q40 433 106 548T303 758L366 691Z"  />
<glyph unicode=")" horiz-adv-x="384" d="M16 -141Q58 -93 91 -48T148 45T183 148T196 267Q196 340 184 399T148 508T92 603T16 692L79 758Q108 737 144 709T218 635Q280 560 312 470T344 277Q344 196 327 129T275 2T191 -108T74 -207L16 -141Z"  />
<glyph unicode="*" horiz-adv-x="469" d="M76 704L174 758L233 577L295 758L390 704L258 563L446 604V493L258 532L390 394L295 337L233 520L174 337L76 394L209 532L20 493V604L209 563L76 704Z"  />
<glyph unicode="+" horiz-adv-x="667" d="M61 322V427H279V646H386V427H605V322H386V103H279V322H61Z"  />
<glyph unicode="&#x2c;" horiz-adv-x="273" d="M63 0V164H210V0L120 -161H68L148 0H63Z"  />
<glyph unicode="-" horiz-adv-x="366" d="M54 211V336H312V211H54Z"  />
<glyph unicode="." horiz-adv-x="273" d="M63 0V160H210V0H63Z"  />
<glyph unicode="/" horiz-adv-x="507" d="M10 0L383 747H497L123 0H10Z"  />
<glyph unicode="0" horiz-adv-x="635" d="M311 762Q451 762 522 666T593 375Q593 180 523 83T324 -15Q186 -15 115 79T43 368Q43 566 113 664T311 762ZM319 641Q272 641 246 613T206 544T189 458T185 379Q185 336 188 288T203 200T243 133T318 106Q363 106 389 132T429 197T447 278T451 354Q451 398 449 448T434 541T394 612T319 641Z"  />
<glyph unicode="1" horiz-adv-x="635" d="M282 604Q231 585 188 577T100 564V673Q141 682 191 696T311 747H417V109H565V0H100V109H282V604Z"  />
<glyph unicode="2" horiz-adv-x="635" d="M49 24Q49 85 77 137T147 234T238 320T330 399T400 474T428 550Q428 589 398 616T317 644Q219 644 173 514L55 544Q95 661 164 711T325 762Q379 762 424 747T502 704T552 639T570 558Q570 512 553 474T508 403T444 338T368 273T290 203T218 122H568V0H49V24Z"  />
<glyph unicode="3" horiz-adv-x="635" d="M166 332V457H200Q303 457 354 482T405 555Q405 573 396 589T373 617T339 637T300 644Q228 644 156 567L66 654Q93 678 120 697T176 731T238 754T310 762Q367 762 410 745T483 701T528 638T544 568Q544 514 507 468T394 402Q479 370 516 314T553 190Q553 145 535 108T483 43T402 1T297 -14Q208 -14 147 23T34 129L141 196Q182 151 220 126T302 101Q324 101 344 108T379 129T404 160T414 202Q414 243 394 268T344 308T278 327T211 332H166Z"  />
<glyph unicode="4" horiz-adv-x="635" d="M25 270L328 747H502V270H608V148H502V0H373V148H25V270ZM373 270V598L169 270H373Z"  />
<glyph unicode="5" horiz-adv-x="635" d="M75 347L113 747H523V630H225L208 447Q246 471 284 484T361 497Q407 497 445 479T510 427T553 349T568 252Q568 195 550 146T497 62T415 7T306 -13Q223 -13 165 19T55 110L181 175Q230 102 297 102Q323 102 346 112T387 142T415 189T426 251Q426 281 417 306T393 350T357 378T313 388Q275 388 247 371T193 324L75 347Z"  />
<glyph unicode="6" horiz-adv-x="635" d="M494 561Q467 596 437 615T364 634Q329 634 298 619T241 573T200 498T180 392Q274 472 374 472Q416 472 456 456T527 409T576 337T595 242Q595 188 576 141T522 59T440 4T336 -16Q279 -16 227 6T134 72T71 183T47 339Q47 432 70 509T135 643T233 731T355 763Q420 763 475 739T577 666L494 561ZM191 239Q208 171 245 138T334 105Q362 105 384 115T421 142T445 182T453 231Q453 256 445 278T423 316T388 341T342 351Q293 351 254 320T191 239Z"  />
<glyph unicode="7" horiz-adv-x="635" d="M60 618V747H566V620L274 0H124L416 618H60Z"  />
<glyph unicode="8" horiz-adv-x="635" d="M56 566Q56 612 76 648T131 709T213 748T317 762Q373 762 420 748T502 709T555 648T574 569Q574 507 541 464T446 386Q521 357 559 308T597 197Q597 152 578 114T523 47T434 3T314 -13Q248 -13 196 3T108 47T54 114T35 198Q35 264 71 310T177 391Q121 420 89 460T56 566ZM310 439Q370 460 401 491T432 560Q432 597 403 623T321 650Q266 650 235 626T203 560Q203 518 231 491T310 439ZM315 339Q249 314 213 284T177 207Q177 159 213 131T315 102Q375 102 415 130T455 206Q455 232 445 251T417 286T372 314T315 339Z"  />
<glyph unicode="9" horiz-adv-x="635" d="M140 192Q169 155 201 136T271 116Q298 116 328 127T385 167T431 243T456 362Q409 318 362 299T263 279Q217 279 177 296T106 344T59 417T41 509Q41 565 61 611T117 691T200 743T302 762Q354 762 405 741T497 676T563 565T588 404Q588 312 564 236T498 104T398 18T274 -13Q211 -13 156 11T56 85L140 192ZM444 513Q425 581 388 614T301 647Q247 647 215 613T183 522Q183 468 213 434T292 400Q385 400 444 513Z"  />
<glyph unicode=":" horiz-adv-x="365" d="M109 372V532H256V372H109ZM109 0V164H256V0H109Z"  />
<glyph unicode=";" horiz-adv-x="365" d="M107 372V532H254V372H107ZM107 0V160H254V0L159 -160H107L187 0H107Z"  />
<glyph unicode="&lt;" horiz-adv-x="667" d="M605 214V100L62 327V422L605 648V535L205 374L605 214Z"  />
<glyph unicode="=" horiz-adv-x="667" d="M62 439V544H605V439H62ZM62 206V311H605V206H62Z"  />
<glyph unicode="&gt;" horiz-adv-x="667" d="M62 535V648L605 422V327L62 100V214L462 374L62 535Z"  />
<glyph unicode="?" horiz-adv-x="469" d="M140 261Q140 295 143 323T154 377T178 427T218 475Q253 510 267 534T282 585Q282 604 269 620T230 637Q204 637 182 621T137 582L49 645Q67 668 87 689T130 726T180 752T241 762Q284 762 318 747T375 706T411 648T424 583Q424 568 420 549T406 508T379 461T334 412Q309 389 294 372T270 338T258 303T255 261H140ZM124 0V160H271V0H124Z"  />
<glyph unicode="@" horiz-adv-x="1024" d="M602 374Q587 391 570 401T532 411Q500 411 479 393T445 349T427 291T421 234Q421 184 442 164T495 144Q536 144 575 190L602 374ZM713 246Q707 204 707 181Q707 152 715 142T741 132H740Q764 132 788 145T831 185T863 251T875 344Q875 409 853 468T789 572T685 643T542 670Q458 670 388 641T266 560T185 437T156 283Q156 198 182 127T258 5T380 -75T542 -104Q605 -104 667 -89T775 -47L835 -118Q807 -136 772 -150T697 -175T618 -190T542 -196Q427 -196 336 -163T182 -68T84 83T50 283Q50 384 87 471T189 623T345 725T542 762Q642 762 722 729T860 639T947 506T978 344Q978 280 961 225T910 128T823 63T700 39Q660 39 631 57T588 102Q575 87 557 76T519 56T478 44T437 39Q403 39 376 53T329 92T299 151T288 226Q288 273 302 324T343 419T412 491T507 520Q570 520 616 472L622 519H751L713 246Z"  />
<glyph unicode="A" horiz-adv-x="693" d="M15 0L267 747H420L678 0H517L460 175H221L164 0H15ZM425 284L340 545L255 284H425Z"  />
<glyph unicode="B" horiz-adv-x="727" d="M92 0V747H410Q446 747 489 742T570 717T633 663T659 566Q659 531 648 505T619 458T574 422T518 397Q602 372 639 320T677 205Q677 164 662 127T615 62T535 17T421 0H92ZM395 455Q444 455 475 479T506 545Q506 587 477 610T391 634H239V455H395ZM356 117Q524 117 524 229Q524 280 487 309T386 338H239V117H356Z"  />
<glyph unicode="C" horiz-adv-x="680" d="M511 519Q496 580 460 610T370 641Q329 641 298 621T246 564T215 478T204 368Q204 306 216 260T250 183T298 136T356 120Q407 120 451 151T519 252L655 214Q626 99 551 42T373 -15Q305 -15 246 9T144 80T76 198T51 361Q51 460 76 535T146 661T250 736T377 762Q410 762 451 752T532 717T603 654T648 556L511 519Z"  />
<glyph unicode="D" horiz-adv-x="742" d="M93 0V747H354Q430 747 492 720T599 643T667 527T691 379Q691 302 670 234T606 113T494 31T332 0H93ZM343 129Q389 129 425 149T486 203T524 284T538 381Q538 437 521 481T474 557T403 605T313 622H240V129H343Z"  />
<glyph unicode="E" horiz-adv-x="630" d="M92 0V747H593V618H239V454H455V332H239V129H593V0H92Z"  />
<glyph unicode="F" horiz-adv-x="571" d="M93 0V747H551V618H240V423H419V294H240V0H93Z"  />
<glyph unicode="G" horiz-adv-x="761" d="M578 91Q530 39 475 13T353 -14Q294 -14 240 6T143 71T76 184T51 352Q51 454 75 531T143 659T251 736T394 762Q434 762 478 751T562 715T635 647T684 542L566 503Q544 569 505 603T398 637Q204 637 204 375Q204 334 211 288T238 203T295 137T390 111Q421 111 450 120T505 148T550 197T578 270H382V383H696V0H578V91Z"  />
<glyph unicode="H" horiz-adv-x="759" d="M92 0V747H239V452H520V747H667V0H520V323H239V0H92Z"  />
<glyph unicode="I" horiz-adv-x="331" d="M92 0V747H239V0H92Z"  />
<glyph unicode="J" horiz-adv-x="511" d="M87 192Q114 157 140 136T198 114Q233 114 259 142T285 228V747H432V228Q432 169 413 124T362 47T289 1T206 -15Q90 -15 -8 107L87 192Z"  />
<glyph unicode="K" horiz-adv-x="707" d="M92 0V747H239V417L508 747H670L436 459L697 0H544L351 353L239 223V0H92Z"  />
<glyph unicode="L" horiz-adv-x="567" d="M92 0V747H239V129H547V0H92Z"  />
<glyph unicode="M" horiz-adv-x="900" d="M92 0V747H325L450 284L575 747H808V0H669V665L488 0H410L231 665V0H92Z"  />
<glyph unicode="N" horiz-adv-x="792" d="M92 0V747H248L554 246V747H701V0H554L239 521V0H92Z"  />
<glyph unicode="O" horiz-adv-x="757" d="M364 763Q530 763 618 662T707 369Q707 277 685 206T620 86T518 12T381 -13Q306 -13 245 11T141 85T74 206T50 373Q50 467 73 540T139 662T238 737T364 763ZM376 634Q293 634 248 569T203 373Q203 241 250 179T380 116Q460 116 507 179T554 372Q554 507 506 570T376 634Z"  />
<glyph unicode="P" horiz-adv-x="693" d="M93 0V747H329Q354 747 388 746T459 739T530 720T594 682T639 619T656 526Q656 474 637 431T581 358T491 310T371 293H240V0H93ZM361 415Q424 415 463 443T503 522Q503 618 364 618H240V415H361Z"  />
<glyph unicode="Q" horiz-adv-x="757" d="M640 -194H571Q490 -194 438 -181T354 -142T310 -82T292 -2Q244 9 200 35T123 106T70 217T50 376Q50 482 78 555T152 675T256 742T374 763Q443 763 503 741T609 672T680 551T707 371Q707 286 688 220T634 105T550 29T439 -9Q444 -31 453 -49T483 -79T541 -98T640 -102V-194ZM376 634Q293 634 248 569T203 373Q203 241 250 179T380 116Q460 116 507 179T554 372Q554 507 506 570T376 634Z"  />
<glyph unicode="R" horiz-adv-x="707" d="M92 0V747H282Q339 747 377 746T444 740T495 728T544 709Q563 700 582 685T616 647T640 594T650 524Q650 482 642 452T617 399T573 360T510 328L655 0H499L374 299H239V0H92ZM357 416Q418 416 457 444T497 520Q497 565 462 591T357 618H239V416H357Z"  />
<glyph unicode="S" horiz-adv-x="634" d="M442 570Q419 605 384 629T306 654Q255 654 226 627T197 561Q197 545 203 533T227 509T274 485T351 457Q399 442 441 422T516 373T567 307T586 218Q586 173 569 131T517 57T433 6T317 -14Q217 -14 149 29T37 158L168 209Q183 186 198 168T232 136T274 115T326 107Q385 107 417 136T450 205Q450 216 447 228T426 256T373 289T272 328Q159 365 110 418T61 544Q61 594 80 634T132 703T212 747T312 763Q396 763 460 728T566 620L442 570Z"  />
<glyph unicode="T" horiz-adv-x="606" d="M20 618V747H586V618H376V0H229V618H20Z"  />
<glyph unicode="U" horiz-adv-x="760" d="M677 269Q677 132 603 59T388 -14Q83 -14 83 266V747H230V291Q230 207 269 164T378 121Q449 121 489 164T530 291V747H677V269Z"  />
<glyph unicode="V" horiz-adv-x="648" d="M253 0L15 747H168L324 223L481 747H633L395 0H253Z"  />
<glyph unicode="W" horiz-adv-x="923" d="M210 0L23 747H174L275 310L378 747H545L648 306L749 747H900L713 0H598L463 570L325 0H210Z"  />
<glyph unicode="X" horiz-adv-x="635" d="M463 0L318 261L170 0H6L240 391L26 747H191L318 519L444 747H609L395 391L629 0H463Z"  />
<glyph unicode="Y" horiz-adv-x="600" d="M227 333L4 747H167L301 478L433 747H596L374 333V0H227V333Z"  />
<glyph unicode="Z" horiz-adv-x="625" d="M49 618V747H579V632L231 129H588V0H31V100L391 618H49Z"  />
<glyph unicode="[" horiz-adv-x="383" d="M93 -197V747H363V634H232V-84H363V-197H93Z"  />
<glyph unicode="\" horiz-adv-x="506" d="M383 0L10 747H123L496 0H383Z"  />
<glyph unicode="]" horiz-adv-x="383" d="M20 634V747H290V-196H20V-83H151V634H20Z"  />
<glyph unicode="^" horiz-adv-x="583" d="M166 357H56L240 747H348L527 357H419L292 653L166 357Z"  />
<glyph unicode="_" horiz-adv-x="500" d="M506 -125H-6V-75H506V-125Z"  />
<glyph unicode="`" horiz-adv-x="333" d="M156 570L-6 734H155L246 570H156Z"  />
<glyph unicode="a" horiz-adv-x="563" d="M183 315Q225 331 267 338T352 350V366Q352 404 328 426T262 449Q224 449 195 431T139 378L51 445Q93 494 150 517T269 541Q318 541 358 529T427 493T471 436T487 358V109Q487 97 488 82T492 52T497 24T504 0H370Q366 13 363 27T357 55Q323 26 286 9T201 -9Q166 -9 136 2T84 32T49 79T36 138Q36 195 74 241T183 315ZM352 274Q256 256 213 226T169 149Q169 118 186 101T233 83Q260 83 290 98T352 141V274Z"  />
<glyph unicode="b" horiz-adv-x="615" d="M82 758H217V468Q249 503 284 521T364 540Q406 540 443 522T507 469T550 384T566 271Q566 200 549 147T504 60T439 8T364 -9Q321 -9 286 10T217 62V0H82V758ZM217 158Q240 132 264 118T315 103Q366 103 396 146T427 276Q427 350 397 390T318 431Q288 431 264 416T217 375V158Z"  />
<glyph unicode="c" horiz-adv-x="510" d="M372 375Q355 402 335 417T286 433Q242 433 213 395T184 284Q184 193 213 148T290 103Q323 103 348 125T387 195L493 143Q463 70 416 31T288 -9Q233 -9 188 11T112 69T63 155T45 264Q45 324 63 374T114 462T192 521T292 542Q365 542 409 507T486 406L372 375Z"  />
<glyph unicode="d" horiz-adv-x="615" d="M397 61Q332 -9 250 -9Q208 -9 171 10T107 66T65 152T49 265Q49 326 64 377T107 465T172 522T252 542Q291 542 328 524T397 471V758H532V0H397V61ZM397 377Q375 400 352 413T300 427Q251 427 220 387T188 262Q188 224 197 194T221 143T256 111T301 100Q330 100 353 115T397 153V377Z"  />
<glyph unicode="e" horiz-adv-x="573" d="M183 243Q185 171 218 136T300 100Q338 100 363 119T406 174L516 128Q479 59 425 25T299 -9Q245 -9 199 10T119 67T66 155T46 272Q46 333 64 382T114 467T192 522T293 542Q346 542 389 525T463 475T511 396T528 293Q528 278 528 268T526 243H183ZM406 323Q403 387 371 418T295 450Q250 450 219 418T182 323H406Z"  />
<glyph unicode="f" horiz-adv-x="330" d="M32 532H93Q95 576 101 616T126 688T179 739T273 758H324V664H301Q228 664 228 609V532H309V435H228V0H93V435H32V532Z"  />
<glyph unicode="g" horiz-adv-x="574" d="M65 117Q65 146 83 168T137 204Q95 232 74 269T53 357Q53 397 66 430T107 488T178 526T281 540Q328 540 363 534T431 507Q466 533 499 545T555 557H568V466H542Q528 466 512 464T482 453Q495 433 501 410T508 358Q508 316 493 282T448 224T379 187T287 173Q268 173 250 175T214 179Q199 171 189 161T179 135Q179 125 183 119T203 108T252 101T343 96Q409 94 451 85T518 57T552 13T562 -47Q562 -129 494 -171T290 -214Q32 -214 32 -76Q32 -34 56 -8T129 31Q100 46 83 65T65 117ZM198 7Q174 -4 162 -20T149 -55Q149 -122 304 -122Q445 -122 445 -60Q445 -34 427 -24T376 -9T298 -4T198 7ZM282 458Q259 458 241 450T208 428T187 396T179 358Q179 337 187 320T209 289T241 268T281 260Q302 260 320 267T352 288T374 319T382 358Q382 379 374 397T351 429T319 450T282 458Z"  />
<glyph unicode="h" horiz-adv-x="601" d="M82 0V758H217V460Q264 500 309 520T405 541Q461 541 492 506T524 406V0H389V373Q389 402 377 417T341 432Q315 432 284 415T217 366V0H82Z"  />
<glyph unicode="i" horiz-adv-x="298" d="M82 626V758H217V626H82ZM82 0V532H217V0H82Z"  />
<glyph unicode="j" horiz-adv-x="299" d="M82 621V758H217V621H82ZM-20 -119Q31 -117 56 -102T82 -42V532H217V-61Q217 -135 171 -174T42 -214H-20V-119Z"  />
<glyph unicode="k" horiz-adv-x="560" d="M82 0V758H217V312L393 532H532L363 317L560 0H413L291 224L217 143V0H82Z"  />
<glyph unicode="l" horiz-adv-x="299" d="M82 0V758H217V0H82Z"  />
<glyph unicode="m" horiz-adv-x="926" d="M533 0H398V333Q398 383 382 408T338 433Q307 433 277 411T217 346V0H82V532H217V428Q239 453 260 474T304 510T351 533T403 542Q434 542 455 534T490 511T513 474T528 423Q551 449 572 470T614 508T661 532T719 541Q785 541 817 497T849 361V0H714V339Q714 384 699 406T651 429Q619 429 592 407T533 346V0Z"  />
<glyph unicode="n" horiz-adv-x="601" d="M217 459Q258 498 302 519T402 541Q524 541 524 406V0H389V371Q389 401 378 416T340 432Q310 432 281 414T217 364V0H82V532H217V459Z"  />
<glyph unicode="o" horiz-adv-x="573" d="M274 542Q397 542 462 469T528 269Q528 202 510 151T459 64T382 10T288 -9Q238 -9 194 9T117 62T65 148T46 268Q46 333 63 384T110 470T182 523T274 542ZM287 444Q233 444 206 400T179 263Q179 175 208 132T286 89Q337 89 366 135T395 278Q395 363 365 403T287 444Z"  />
<glyph unicode="p" horiz-adv-x="615" d="M222 477Q292 541 362 541Q399 541 435 524T501 472T548 387T566 270Q566 205 548 154T501 66T436 11T364 -9Q324 -9 291 10T222 61V-214H87V532H222V477ZM222 154Q248 135 274 124T327 112Q372 112 402 152T433 273Q433 345 403 385T325 426Q301 426 276 415T222 385V154Z"  />
<glyph unicode="q" horiz-adv-x="604" d="M526 -214H391V62Q312 -9 244 -9Q207 -9 172 11T108 69T63 158T46 273Q46 339 65 389T115 472T181 523T252 540Q289 540 323 523T391 474V532H526V-214ZM391 384Q367 401 343 413T288 425Q240 425 210 384T179 268Q179 196 209 154T289 112Q315 112 340 124T391 154V384Z"  />
<glyph unicode="r" horiz-adv-x="405" d="M218 532V405Q259 473 298 505T390 541V405H378Q333 405 289 378T218 287V0H83V532H218Z"  />
<glyph unicode="s" horiz-adv-x="499" d="M372 401Q337 424 310 437T254 450Q218 450 197 432T175 388Q175 370 186 358T215 338T256 325T304 314Q341 306 371 295T424 267T458 224T471 162Q471 127 457 96T415 42T346 5T251 -9Q213 -9 183 -3T126 17T78 47T33 88L115 145Q147 120 178 105T250 89Q290 89 312 104T335 143Q335 169 310 185T238 207Q196 211 161 225T100 260T60 311T46 376Q46 409 61 439T104 492T168 528T251 542Q312 542 359 520T450 466L372 401Z"  />
<glyph unicode="t" horiz-adv-x="367" d="M104 532V704H239V532H332V435H239V152Q239 120 264 112T332 102V-8Q322 -8 310 -8T287 -9Q261 -9 238 -7T194 3Q153 19 129 59T104 152V435H22V532H104Z"  />
<glyph unicode="u" horiz-adv-x="601" d="M384 532H519V0H384V80Q336 32 290 12T207 -9Q180 -9 157 0T117 29T90 76T80 140V532H215V167Q215 141 230 124T271 106Q302 106 328 124T384 174V532Z"  />
<glyph unicode="v" horiz-adv-x="501" d="M172 0L20 532H156L250 179L345 532H481L328 0H172Z"  />
<glyph unicode="w" horiz-adv-x="772" d="M194 0L25 532H155L246 234L336 532H436L527 230L616 532H747L577 0H483L386 321L289 0H194Z"  />
<glyph unicode="x" horiz-adv-x="502" d="M183 271L25 532H175L252 392L329 532H478L321 271L482 0H335L252 151L169 0H20L183 271Z"  />
<glyph unicode="y" horiz-adv-x="520" d="M61 -117Q115 -117 150 -94T197 -16L20 532H157L261 191L364 532H500L340 32Q318 -37 295 -84T243 -160T176 -201T83 -214H35V-117H61Z"  />
<glyph unicode="z" horiz-adv-x="490" d="M52 423V532H456V424L189 109H456V0H30V109L299 423H52Z"  />
<glyph unicode="{" horiz-adv-x="385" d="M363 -191H337Q311 -191 285 -190T233 -180Q188 -165 164 -130T138 -43Q136 23 136 71T126 152T95 201T29 220V337Q73 339 95 356T126 405T135 486T138 599Q140 650 164 685T233 736Q259 744 285 745T337 747H363V630H357Q320 630 301 626T273 609T263 570T261 501Q260 456 257 423T245 364T219 318T172 278Q200 262 217 242T244 194T257 133T261 56Q261 13 263 -13T274 -52T302 -70T357 -74H363V-191Z"  />
<glyph unicode="|" horiz-adv-x="583" d="M239 -214V747H346V-214H239Z"  />
<glyph unicode="}" horiz-adv-x="385" d="M48 747Q74 747 100 746T152 736Q197 721 221 686T247 599Q248 534 249 486T259 405T290 356T356 337V220Q312 218 290 201T259 152T249 72T247 -43Q244 -149 152 -180Q126 -188 100 -189T48 -191H22V-74H29Q61 -74 79 -71T106 -59T117 -38T122 -4Q125 38 125 79T130 156T155 224T213 278Q188 294 171 312T144 355T129 416T124 501Q124 546 122 572T111 610T83 626T29 630H22V747H48Z"  />
<glyph unicode="~" horiz-adv-x="656" d="M205 383Q135 383 57 311V420Q137 488 212 488Q245 488 277 476T339 449T399 422T456 409Q491 409 526 428T599 481V372Q560 340 524 322T451 304Q417 304 384 316T320 343T259 370T205 383Z"  />
<glyph unicode="&#xA0;" horiz-adv-x="293" />
<glyph unicode="&#xA1;" horiz-adv-x="365" d="M110 381V541H257V381H110ZM104 -206L136 275H229L256 -206H104Z"  />
<glyph unicode="&#xA2;" horiz-adv-x="469" d="M446 756L355 476Q390 452 406 429T434 374L352 341Q347 352 342 361T325 384L229 90Q231 90 237 90T248 89Q279 89 305 107T346 166L421 128Q359 -9 232 -9Q222 -9 213 -8T198 -5L133 -203H89L159 10Q99 43 70 108T40 252Q40 312 57 358T103 437T172 486T257 503Q278 503 292 500T316 493L402 756H446ZM288 406Q283 408 275 409T258 411Q231 411 207 399T169 364Q155 343 152 316T149 257Q149 203 158 171T192 111L288 406Z"  />
<glyph unicode="&#xA3;" horiz-adv-x="625" d="M58 346V443H175Q167 470 163 499T158 552Q158 599 171 638T211 704T276 747T363 763Q442 763 488 716T546 574L428 565Q425 613 410 639T355 665Q322 665 303 644T284 585Q284 565 289 529T308 443H457V346H329Q331 330 332 312T334 273Q334 242 330 211T317 152Q360 132 390 120T439 108Q460 108 474 125T491 181H603Q602 153 598 123T573 61Q550 26 515 7T440 -13Q367 -13 268 56Q239 24 209 6T136 -13Q82 -13 50 17T18 96Q18 145 49 178T133 212Q157 212 179 205T223 190Q223 195 224 199T225 208Q225 228 219 265T200 346H58ZM200 102Q180 117 161 127T122 137Q107 137 96 127T85 99Q85 80 98 69T128 57Q148 57 166 69T200 102Z"  />
<glyph unicode="&#xA4;" horiz-adv-x="647" d="M569 175Q553 160 538 144T507 112Q490 129 473 146T438 180Q412 163 382 155T323 146Q297 146 267 153T208 180Q191 163 174 146T139 112Q123 128 108 144T77 175Q94 192 111 208T146 241Q128 270 120 299T112 354Q112 380 119 409T146 467Q129 484 112 500T77 534Q93 549 108 565T139 597Q156 580 173 563T208 529Q237 548 267 555T323 563Q350 563 380 555T437 529Q455 546 472 563T507 597Q523 581 538 565T569 534Q535 500 499 467Q519 437 526 407T534 354Q534 329 526 300T499 241Q517 225 534 209T569 175ZM445 355Q445 381 435 403T407 441T368 466T323 475Q297 475 275 466T236 440T210 402T200 355Q200 330 209 308T236 270T275 243T323 233Q348 233 370 242T409 268T435 307T445 355Z"  />
<glyph unicode="&#xA5;" horiz-adv-x="652" d="M612 747L480 488H612V416H443L400 332V274H612V202H400V0H253V202H40V274H253V332L209 416H40V488H173L40 747H193L327 488L459 747H612Z"  />
<glyph unicode="&#xA6;" horiz-adv-x="583" d="M239 -214V143H346V-214H239ZM239 391V747H346V391H239Z"  />
<glyph unicode="&#xA7;" horiz-adv-x="537" d="M77 603Q77 637 89 666T127 716T188 750T272 763Q359 763 406 722T470 603L346 585Q338 627 316 646T267 665Q244 665 227 652T210 617Q210 593 240 564T340 488Q377 463 405 442T452 396T482 344T492 277Q492 242 484 215T462 167T427 128T381 94Q415 62 437 27T459 -55Q459 -90 446 -119T407 -170T346 -202T266 -214Q185 -214 133 -173T66 -53L190 -34Q198 -76 218 -96T267 -116Q292 -116 309 -101T326 -67Q326 -47 311 -29T270 9T207 55T126 116Q108 131 93 146T68 180T51 220T45 270Q45 394 156 459Q120 492 99 526T77 603ZM223 406Q197 382 181 357T165 300Q165 277 175 259T204 224T251 188T314 147Q340 170 355 195T370 252Q370 274 361 292T334 327T288 363T223 406Z"  />
<glyph unicode="&#xA8;" horiz-adv-x="333" d="M6 592V697H113V592H6ZM221 592V697H328V592H221Z"  />
<glyph unicode="&#xA9;" horiz-adv-x="848" d="M594 306Q555 179 421 179Q386 179 354 192T296 231T256 296T241 388Q241 434 254 472T291 538T351 581T430 596Q492 596 532 566T594 476L514 458Q501 492 480 509T427 526Q379 526 353 490T327 394Q327 322 352 286T423 249Q455 249 479 269T515 332L594 306ZM424 763Q502 763 570 734T688 653T768 534T798 388Q798 310 769 242T688 123T569 43T424 13Q346 13 278 42T160 123T80 242T50 388Q50 466 79 534T159 653T278 733T424 763ZM424 688Q362 688 307 665T212 601T148 505T124 388Q124 326 147 271T211 176T307 112T424 88Q486 88 541 111T637 175T701 271T725 388Q725 450 701 505T636 600T541 664T424 688Z"  />
<glyph unicode="&#xAA;" horiz-adv-x="394" d="M270 400Q267 407 264 416T259 439Q233 416 206 404T149 392Q126 392 105 400T69 423T44 456T35 497Q35 532 57 564T122 616Q154 631 188 637T259 648Q258 681 244 698T195 716Q163 716 142 703T102 666L47 714Q76 746 110 763T195 780Q341 780 341 648V465Q341 452 344 435T354 400H270ZM259 594Q193 581 158 560T122 503Q122 483 135 470T169 457Q192 457 214 469T259 500V594Z"  />
<glyph unicode="&#xAB;" horiz-adv-x="558" d="M273 265L389 502H529L414 265L529 30H389L273 265ZM29 265L140 502H287L173 265L287 30H145L29 265Z"  />
<glyph unicode="&#xAC;" horiz-adv-x="667" d="M61 438V543H606V200H499V438H61Z"  />
<glyph unicode="&#xAD;" horiz-adv-x="366" d="M54 211V336H312V211H54Z"  />
<glyph unicode="&#xAE;" horiz-adv-x="848" d="M351 188H270V585H458Q525 585 558 554T592 472Q592 431 565 400T485 361Q514 350 530 328T569 267L616 188H516L483 252Q466 284 453 303T428 333T402 347T372 351H351V188ZM351 522V413H416Q435 413 451 415T480 423T499 440T506 471Q506 493 487 507T424 522H351ZM424 763Q502 763 570 734T688 653T768 534T798 388Q798 310 769 242T689 123T570 43T424 13Q346 13 278 42T160 123T80 242T50 388Q50 465 79 533T159 653T278 733T424 763ZM425 688Q363 688 308 665T212 601T148 506T124 388Q124 326 147 271T212 176T308 112T425 88Q487 88 542 111T637 175T701 271T725 388Q725 451 702 505T638 600T542 664T425 688Z"  />
<glyph unicode="&#xAF;" horiz-adv-x="333" d="M324 611H9V702H324V611Z"  />
<glyph unicode="&#xB0;" horiz-adv-x="396" d="M42 606Q42 638 54 666T88 716T137 749T198 762Q230 762 258 750T308 716T342 667T355 606Q355 574 343 546T309 496T259 463T198 450Q166 450 138 462T88 496T55 545T42 606ZM120 606Q120 574 143 551T198 528Q230 528 252 550T274 606Q274 638 252 660T198 683Q165 683 143 661T120 606Z"  />
<glyph unicode="&#xB1;" horiz-adv-x="667" d="M61 411V516H279V735H386V516H605V411H386V191H279V411H61ZM61 16V121H605V16H61Z"  />
<glyph unicode="&#xB2;" horiz-adv-x="313" d="M39 374Q39 409 44 436T60 484T87 524T124 560Q149 580 163 592T184 614T193 630T195 648Q195 662 186 673T158 684Q135 684 121 672T96 644L39 667Q59 706 89 730T165 754Q187 754 207 747T242 727T267 696T276 653Q276 629 268 611T247 577T218 549T186 522Q159 499 144 481T120 446H275V374H39Z"  />
<glyph unicode="&#xB3;" horiz-adv-x="313" d="M110 532V593Q197 596 197 648Q197 669 181 680T148 692Q131 692 115 683T84 656L36 692Q64 722 93 738T158 754Q208 754 238 728T268 660Q268 624 246 603T186 566Q231 553 255 529T280 467Q280 444 270 425T242 393T203 372T156 364Q118 364 89 383T36 439L90 463Q115 425 151 425Q172 425 185 437T199 471Q199 497 179 514T122 532H110Z"  />
<glyph unicode="&#xB4;" horiz-adv-x="333" d="M83 570L176 734H336L174 570H83Z"  />
<glyph unicode="&#xB5;" horiz-adv-x="608" d="M391 68Q373 34 346 13T286 -9Q266 -9 249 1T217 29V-214H82V532H217V204Q217 183 219 166T229 137T251 119T289 112Q314 112 339 128T391 174V532H526V0H391V68Z"  />
<glyph unicode="&#xB6;" horiz-adv-x="642" d="M331 618V-215H232V346Q185 349 147 365T80 406T36 467T20 544Q20 606 45 645T111 707T202 738T301 747H622V618H537V-215H441V618H331Z"  />
<glyph unicode="&#xB7;" horiz-adv-x="347" d="M100 323V483H247V323H100Z"  />
<glyph unicode="&#xB8;" horiz-adv-x="333" d="M148 5H234L210 -39Q252 -50 272 -73T292 -125Q292 -167 257 -190T165 -214Q121 -214 82 -205T3 -180L38 -122Q69 -132 95 -138T143 -144Q159 -144 171 -138T183 -117Q183 -100 161 -89T97 -82L148 5Z"  />
<glyph unicode="&#xB9;" horiz-adv-x="313" d="M126 660Q112 657 93 652T47 643V712Q85 726 126 743H199V444H273V375H51V444H126V660Z"  />
<glyph unicode="&#xBA;" horiz-adv-x="409" d="M209 781Q288 781 331 731T374 589Q374 542 361 506T325 444T272 406T207 393Q172 393 141 405T87 442T49 503T35 588Q35 636 48 672T85 732T140 768T209 781ZM206 711Q129 711 129 587Q129 527 148 495T204 463Q280 463 280 589Q280 653 261 682T206 711Z"  />
<glyph unicode="&#xBB;" horiz-adv-x="558" d="M143 266L28 502H170L283 266L170 30H28L143 266ZM390 266L275 502H415L530 266L415 30H275L390 266Z"  />
<glyph unicode="&#xBC;" horiz-adv-x="938" d="M509 52L719 384H834V58H889V-22H834V-123H738V-22H509V52ZM738 58V284L595 58H738ZM195 -92L688 762L749 727L257 -123L195 -92ZM125 668Q102 659 84 657T50 654V734Q72 736 94 742T141 762H221V364H299V284H41V364H125V668Z"  />
<glyph unicode="&#xBD;" horiz-adv-x="938" d="M565 -57Q576 -22 606 18T685 108Q712 135 731 152T763 182T782 208T788 237Q788 263 772 281T727 300Q707 300 688 284T656 234L575 252Q595 315 633 348T735 382Q769 382 797 371T845 340T877 296T889 243Q889 224 884 207T867 172T836 132T788 86Q769 69 754 56T727 30T702 4T675 -26H892V-123H565V-57ZM125 668Q102 659 84 657T50 654V734Q72 736 94 742T141 762H221V364H299V284H41V364H125V668ZM175 -92L668 762L729 727L237 -123L175 -92Z"  />
<glyph unicode="&#xBE;" horiz-adv-x="938" d="M509 52L719 384H834V58H889V-22H834V-123H738V-22H509V52ZM738 58V284L595 58H738ZM59 698Q89 722 129 742T214 762Q243 762 270 753T319 727T354 688T367 638Q367 609 348 579T279 525Q374 492 374 406Q374 374 362 347T328 299T276 268T208 257Q154 257 106 279T27 351L114 396Q120 387 129 378T150 361T176 348T205 343Q232 343 252 360T273 407Q273 438 244 458T163 479H136V555H175Q220 555 243 577T267 625Q267 654 247 669T203 685Q181 685 155 671T115 640L59 698ZM756 727L266 -123L206 -89L694 762L756 727Z"  />
<glyph unicode="&#xBF;" horiz-adv-x="469" d="M332 280Q332 246 329 218T318 164T294 114T254 66Q219 31 205 7T190 -44Q190 -63 203 -79T242 -96Q268 -96 290 -80T335 -41L423 -104Q405 -127 385 -148T342 -185T292 -211T231 -221Q188 -221 154 -206T97 -165T61 -107T48 -42Q48 -27 52 -8T66 33T93 80T138 129Q163 151 178 168T202 203T214 238T217 280H332ZM348 541V381H201V541H348Z"  />
<glyph unicode="&#xC0;" horiz-adv-x="693" d="M15 0L267 747H420L678 0H517L460 175H221L164 0H15ZM425 284L340 545L255 284H425ZM342 801L180 965H341L432 801H342Z"  />
<glyph unicode="&#xC1;" horiz-adv-x="693" d="M15 0L267 747H420L678 0H517L460 175H221L164 0H15ZM425 284L340 545L255 284H425ZM253 801L346 965H506L344 801H253Z"  />
<glyph unicode="&#xC2;" horiz-adv-x="693" d="M15 0L267 747H420L678 0H517L460 175H221L164 0H15ZM425 284L340 545L255 284H425ZM165 800L307 955H383L520 800H433L344 868L256 800H165Z"  />
<glyph unicode="&#xC3;" horiz-adv-x="693" d="M15 0L267 747H420L678 0H517L460 175H221L164 0H15ZM425 284L340 545L255 284H425ZM411 888Q428 888 434 904T444 939H517Q512 873 488 840T414 806Q397 806 382 811T352 824T320 841T282 859Q277 861 270 859T257 850T246 833T241 807H165Q171 873 195 907T272 942Q297 942 317 934T353 915T384 897T411 888Z"  />
<glyph unicode="&#xC4;" horiz-adv-x="693" d="M15 0L267 747H420L678 0H517L460 175H221L164 0H15ZM425 284L340 545L255 284H425ZM181 823V928H288V823H181ZM396 823V928H503V823H396Z"  />
<glyph unicode="&#xC5;" horiz-adv-x="693" d="M15 0L267 747H420L678 0H517L460 175H221L164 0H15ZM425 284L340 545L255 284H425ZM343 978Q364 978 383 970T416 948T438 916T446 876Q446 855 438 837T416 804T383 782T343 774Q322 774 304 782T271 803T249 835T241 875Q241 898 250 917T274 949T307 970T343 978ZM344 938Q317 938 299 919T281 875Q281 849 299 832T343 814Q369 814 387 831T406 875Q406 902 387 920T344 938Z"  />
<glyph unicode="&#xC6;" horiz-adv-x="928" d="M15 0L301 747H891V618H581V456H766V334H581V129H891V0H431V175H228L160 0H15ZM431 618H398L270 284H431V618Z"  />
<glyph unicode="&#xC7;" horiz-adv-x="680" d="M512 517Q497 577 460 609T372 641Q332 641 301 621T249 565T217 477T206 362Q206 246 248 182T359 118Q406 118 450 149T518 250L654 211Q629 111 570 57T411 -11L393 -42Q437 -53 458 -75T479 -126Q479 -163 443 -188T344 -214Q266 -214 178 -180L215 -120Q243 -129 269 -136T318 -144Q339 -144 352 -137T365 -117Q365 -101 347 -92T303 -83Q300 -83 292 -84T278 -85L322 -11Q191 11 121 106T50 359Q50 453 73 528T137 652Q179 703 242 732T374 762Q418 762 459 750T534 716T593 665T633 601Q638 590 641 578T647 556L512 517Z"  />
<glyph unicode="&#xC8;" horiz-adv-x="630" d="M92 0V747H593V618H239V454H455V332H239V129H593V0H92ZM347 801L185 965H346L437 801H347Z"  />
<glyph unicode="&#xC9;" horiz-adv-x="630" d="M92 0V747H593V618H239V454H455V332H239V129H593V0H92ZM234 801L327 965H487L325 801H234Z"  />
<glyph unicode="&#xCA;" horiz-adv-x="630" d="M92 0V747H593V618H239V454H455V332H239V129H593V0H92ZM168 800L310 955H386L523 800H436L347 868L259 800H168Z"  />
<glyph unicode="&#xCB;" horiz-adv-x="630" d="M92 0V747H593V618H239V454H455V332H239V129H593V0H92ZM187 823V928H294V823H187ZM402 823V928H509V823H402Z"  />
<glyph unicode="&#xCC;" horiz-adv-x="331" d="M92 0V747H239V0H92ZM172 801L10 965H171L262 801H172Z"  />
<glyph unicode="&#xCD;" horiz-adv-x="331" d="M92 0V747H239V0H92ZM71 801L164 965H324L162 801H71Z"  />
<glyph unicode="&#xCE;" horiz-adv-x="331" d="M92 0V747H239V0H92ZM-12 800L130 955H206L343 800H256L167 868L79 800H-12Z"  />
<glyph unicode="&#xCF;" horiz-adv-x="331" d="M92 0V747H239V0H92ZM7 823V928H114V823H7ZM222 823V928H329V823H222Z"  />
<glyph unicode="&#xD0;" horiz-adv-x="740" d="M90 0V333H46V424H90V747H361Q435 747 495 720T598 643T664 527T688 379Q688 298 665 229T603 111Q559 57 492 29T337 0H90ZM340 129Q386 129 422 149T483 203T521 284T535 381Q535 437 518 481T471 557T400 604T310 621H237V424H386V333H237V129H340Z"  />
<glyph unicode="&#xD1;" horiz-adv-x="792" d="M92 0V747H248L554 246V747H701V0H554L239 521V0H92ZM473 888Q490 888 496 904T506 939H579Q574 873 550 840T476 806Q459 806 444 811T414 824T382 841T344 859Q339 861 332 859T319 850T308 833T303 807H227Q233 873 257 907T334 942Q359 942 379 934T415 915T446 897T473 888Z"  />
<glyph unicode="&#xD2;" horiz-adv-x="757" d="M364 763Q530 763 618 662T707 369Q707 277 685 206T620 86T518 12T381 -13Q306 -13 245 11T141 85T74 206T50 373Q50 467 73 540T139 662T238 737T364 763ZM376 634Q293 634 248 569T203 373Q203 241 250 179T380 116Q460 116 507 179T554 372Q554 507 506 570T376 634ZM395 801L233 965H394L485 801H395Z"  />
<glyph unicode="&#xD3;" horiz-adv-x="757" d="M364 763Q530 763 618 662T707 369Q707 277 685 206T620 86T518 12T381 -13Q306 -13 245 11T141 85T74 206T50 373Q50 467 73 540T139 662T238 737T364 763ZM376 634Q293 634 248 569T203 373Q203 241 250 179T380 116Q460 116 507 179T554 372Q554 507 506 570T376 634ZM292 801L385 965H545L383 801H292Z"  />
<glyph unicode="&#xD4;" horiz-adv-x="757" d="M364 763Q530 763 618 662T707 369Q707 277 685 206T620 86T518 12T381 -13Q306 -13 245 11T141 85T74 206T50 373Q50 467 73 540T139 662T238 737T364 763ZM376 634Q293 634 248 569T203 373Q203 241 250 179T380 116Q460 116 507 179T554 372Q554 507 506 570T376 634ZM196 800L338 955H414L551 800H464L375 868L287 800H196Z"  />
<glyph unicode="&#xD5;" horiz-adv-x="757" d="M364 763Q530 763 618 662T707 369Q707 277 685 206T620 86T518 12T381 -13Q306 -13 245 11T141 85T74 206T50 373Q50 467 73 540T139 662T238 737T364 763ZM376 634Q293 634 248 569T203 373Q203 241 250 179T380 116Q460 116 507 179T554 372Q554 507 506 570T376 634ZM445 888Q462 888 468 904T478 939H551Q546 873 522 840T448 806Q431 806 416 811T386 824T354 841T316 859Q311 861 304 859T291 850T280 833T275 807H199Q205 873 229 907T306 942Q331 942 351 934T387 915T418 897T445 888Z"  />
<glyph unicode="&#xD6;" horiz-adv-x="757" d="M364 763Q530 763 618 662T707 369Q707 277 685 206T620 86T518 12T381 -13Q306 -13 245 11T141 85T74 206T50 373Q50 467 73 540T139 662T238 737T364 763ZM376 634Q293 634 248 569T203 373Q203 241 250 179T380 116Q460 116 507 179T554 372Q554 507 506 570T376 634ZM215 823V928H322V823H215ZM430 823V928H537V823H430Z"  />
<glyph unicode="&#xD7;" horiz-adv-x="667" d="M260 373L77 556L151 630L334 447L517 630L591 556L408 373L589 192L516 118L334 299L153 118L79 192L260 373Z"  />
<glyph unicode="&#xD8;" horiz-adv-x="757" d="M255 172Q278 143 309 130T379 116Q460 116 507 179T554 372Q554 412 549 445T536 507L255 172ZM503 574Q480 605 448 619T376 634Q292 634 247 569T202 373Q202 292 220 237L503 574ZM45 28L117 114Q85 162 67 226T49 373Q49 467 72 540T138 662T237 737T363 763Q436 763 494 743T595 684L660 762L712 716L641 631Q673 582 690 517T707 369Q707 277 685 206T620 86T518 12T381 -13Q247 -13 163 62L99 -14L45 28Z"  />
<glyph unicode="&#xD9;" horiz-adv-x="760" d="M677 269Q677 132 603 59T388 -14Q83 -14 83 266V747H230V291Q230 207 269 164T378 121Q449 121 489 164T530 291V747H677V269ZM380 801L218 965H379L470 801H380Z"  />
<glyph unicode="&#xDA;" horiz-adv-x="760" d="M677 269Q677 132 603 59T388 -14Q83 -14 83 266V747H230V291Q230 207 269 164T378 121Q449 121 489 164T530 291V747H677V269ZM297 801L390 965H550L388 801H297Z"  />
<glyph unicode="&#xDB;" horiz-adv-x="760" d="M677 269Q677 132 603 59T388 -14Q83 -14 83 266V747H230V291Q230 207 269 164T378 121Q449 121 489 164T530 291V747H677V269ZM202 800L344 955H420L557 800H470L381 868L293 800H202Z"  />
<glyph unicode="&#xDC;" horiz-adv-x="760" d="M677 269Q677 132 603 59T388 -14Q83 -14 83 266V747H230V291Q230 207 269 164T378 121Q449 121 489 164T530 291V747H677V269ZM220 823V928H327V823H220ZM435 823V928H542V823H435Z"  />
<glyph unicode="&#xDD;" horiz-adv-x="600" d="M227 333L4 747H167L301 478L433 747H596L374 333V0H227V333ZM209 801L302 965H462L300 801H209Z"  />
<glyph unicode="&#xDE;" horiz-adv-x="703" d="M93 0V747H240V602H324Q374 602 415 600T490 589T552 565T604 525Q632 496 644 462T656 384Q656 272 579 210T365 148H240V0H93ZM351 270Q424 270 463 298T503 377Q503 428 468 450T359 473H240V270H351Z"  />
<glyph unicode="&#xDF;" horiz-adv-x="611" d="M566 209Q566 161 552 121T512 50T452 3T376 -14Q337 -14 312 -3T266 23L321 106Q330 101 340 96T363 91Q390 91 408 123T427 218Q427 264 420 294T399 342T366 368T321 381V474Q359 481 380 502T402 572Q402 618 381 642T318 666Q288 666 269 655T239 623T223 576T218 518V0H83V497Q83 630 138 694T314 758Q368 758 409 744T478 706T520 651T535 584Q535 530 505 492T416 428Q487 394 526 343T566 209Z"  />
<glyph unicode="&#xE0;" horiz-adv-x="563" d="M183 315Q225 331 267 338T352 350V366Q352 404 328 426T262 449Q224 449 195 431T139 378L51 445Q93 494 150 517T269 541Q318 541 358 529T427 493T471 436T487 358V109Q487 97 488 82T492 52T497 24T504 0H370Q366 13 363 27T357 55Q323 26 286 9T201 -9Q166 -9 136 2T84 32T49 79T36 138Q36 195 74 241T183 315ZM352 274Q256 256 213 226T169 149Q169 118 186 101T233 83Q260 83 290 98T352 141V274ZM291 599L129 763H290L381 599H291Z"  />
<glyph unicode="&#xE1;" horiz-adv-x="563" d="M183 315Q225 331 267 338T352 350V366Q352 404 328 426T262 449Q224 449 195 431T139 378L51 445Q93 494 150 517T269 541Q318 541 358 529T427 493T471 436T487 358V109Q487 97 488 82T492 52T497 24T504 0H370Q366 13 363 27T357 55Q323 26 286 9T201 -9Q166 -9 136 2T84 32T49 79T36 138Q36 195 74 241T183 315ZM352 274Q256 256 213 226T169 149Q169 118 186 101T233 83Q260 83 290 98T352 141V274ZM193 599L286 763H446L284 599H193Z"  />
<glyph unicode="&#xE2;" horiz-adv-x="563" d="M183 315Q225 331 267 338T352 350V366Q352 404 328 426T262 449Q224 449 195 431T139 378L51 445Q93 494 150 517T269 541Q318 541 358 529T427 493T471 436T487 358V109Q487 97 488 82T492 52T497 24T504 0H370Q366 13 363 27T357 55Q323 26 286 9T201 -9Q166 -9 136 2T84 32T49 79T36 138Q36 195 74 241T183 315ZM352 274Q256 256 213 226T169 149Q169 118 186 101T233 83Q260 83 290 98T352 141V274ZM102 598L244 753H320L457 598H370L281 666L193 598H102Z"  />
<glyph unicode="&#xE3;" horiz-adv-x="563" d="M183 315Q225 331 267 338T352 350V366Q352 404 328 426T262 449Q224 449 195 431T139 378L51 445Q93 494 150 517T269 541Q318 541 358 529T427 493T471 436T487 358V109Q487 97 488 82T492 52T497 24T504 0H370Q366 13 363 27T357 55Q323 26 286 9T201 -9Q166 -9 136 2T84 32T49 79T36 138Q36 195 74 241T183 315ZM352 274Q256 256 213 226T169 149Q169 118 186 101T233 83Q260 83 290 98T352 141V274ZM351 686Q368 686 374 702T384 737H457Q452 671 428 638T354 604Q337 604 322 609T292 622T260 639T222 657Q217 659 210 657T197 648T186 631T181 605H105Q111 671 135 705T212 740Q237 740 257 732T293 713T324 695T351 686Z"  />
<glyph unicode="&#xE4;" horiz-adv-x="563" d="M183 315Q225 331 267 338T352 350V366Q352 404 328 426T262 449Q224 449 195 431T139 378L51 445Q93 494 150 517T269 541Q318 541 358 529T427 493T471 436T487 358V109Q487 97 488 82T492 52T497 24T504 0H370Q366 13 363 27T357 55Q323 26 286 9T201 -9Q166 -9 136 2T84 32T49 79T36 138Q36 195 74 241T183 315ZM352 274Q256 256 213 226T169 149Q169 118 186 101T233 83Q260 83 290 98T352 141V274ZM119 621V726H226V621H119ZM334 621V726H441V621H334Z"  />
<glyph unicode="&#xE5;" horiz-adv-x="563" d="M183 315Q225 331 267 338T352 350V366Q352 404 328 426T262 449Q224 449 195 431T139 378L51 445Q93 494 150 517T269 541Q318 541 358 529T427 493T471 436T487 358V109Q487 97 488 82T492 52T497 24T504 0H370Q366 13 363 27T357 55Q323 26 286 9T201 -9Q166 -9 136 2T84 32T49 79T36 138Q36 195 74 241T183 315ZM352 274Q256 256 213 226T169 149Q169 118 186 101T233 83Q260 83 290 98T352 141V274ZM282 800Q303 800 322 792T355 770T377 738T385 698Q385 677 377 659T355 626T322 604T282 596Q261 596 243 604T210 625T188 657T180 697Q180 720 189 739T213 771T246 792T282 800ZM283 760Q256 760 238 741T220 697Q220 671 238 654T282 636Q308 636 326 653T345 697Q345 724 326 742T283 760Z"  />
<glyph unicode="&#xE6;" horiz-adv-x="905" d="M207 -9Q171 -9 140 2T86 32T50 79T37 140Q37 224 118 280Q168 314 228 325T364 344Q365 394 345 422T269 450Q225 450 195 432T138 378L51 445Q95 493 150 517T276 542Q338 542 376 521T448 461Q483 501 522 521T621 542Q706 542 764 500T844 385Q855 348 857 313T860 242H499Q504 170 535 135T621 100Q662 100 689 119T735 175L849 126Q809 59 754 25T625 -9Q559 -9 515 15T430 82Q375 43 323 17T207 -9ZM735 325Q730 389 698 419T620 450Q572 450 539 419T501 325H735ZM364 266Q170 233 170 143Q170 112 189 93T238 73Q267 73 298 88T364 132V266Z"  />
<glyph unicode="&#xE7;" horiz-adv-x="510" d="M493 143Q467 80 430 43T332 -5L314 -39Q356 -50 376 -73T396 -125Q396 -167 361 -190T269 -214Q225 -214 186 -205T107 -180L142 -122Q173 -132 199 -138T247 -144Q263 -144 275 -138T287 -117Q287 -100 265 -89T201 -82L246 -6Q200 2 163 25T100 84T59 165T45 264Q45 324 63 374T114 462T192 521T292 542Q365 542 409 507T486 406L372 375Q355 402 335 417T286 433Q242 433 213 395T184 284Q184 193 213 148T290 103Q323 103 348 125T387 195L493 143Z"  />
<glyph unicode="&#xE8;" horiz-adv-x="573" d="M183 243Q185 171 218 136T300 100Q338 100 363 119T406 174L516 128Q479 59 425 25T299 -9Q245 -9 199 10T119 67T66 155T46 272Q46 333 64 382T114 467T192 522T293 542Q346 542 389 525T463 475T511 396T528 293Q528 278 528 268T526 243H183ZM406 323Q403 387 371 418T295 450Q250 450 219 418T182 323H406ZM294 599L132 763H293L384 599H294Z"  />
<glyph unicode="&#xE9;" horiz-adv-x="573" d="M183 243Q185 171 218 136T300 100Q338 100 363 119T406 174L516 128Q479 59 425 25T299 -9Q245 -9 199 10T119 67T66 155T46 272Q46 333 64 382T114 467T192 522T293 542Q346 542 389 525T463 475T511 396T528 293Q528 278 528 268T526 243H183ZM406 323Q403 387 371 418T295 450Q250 450 219 418T182 323H406ZM198 599L291 763H451L289 599H198Z"  />
<glyph unicode="&#xEA;" horiz-adv-x="573" d="M183 243Q185 171 218 136T300 100Q338 100 363 119T406 174L516 128Q479 59 425 25T299 -9Q245 -9 199 10T119 67T66 155T46 272Q46 333 64 382T114 467T192 522T293 542Q346 542 389 525T463 475T511 396T528 293Q528 278 528 268T526 243H183ZM406 323Q403 387 371 418T295 450Q250 450 219 418T182 323H406ZM105 598L247 753H323L460 598H373L284 666L196 598H105Z"  />
<glyph unicode="&#xEB;" horiz-adv-x="573" d="M183 243Q185 171 218 136T300 100Q338 100 363 119T406 174L516 128Q479 59 425 25T299 -9Q245 -9 199 10T119 67T66 155T46 272Q46 333 64 382T114 467T192 522T293 542Q346 542 389 525T463 475T511 396T528 293Q528 278 528 268T526 243H183ZM406 323Q403 387 371 418T295 450Q250 450 219 418T182 323H406ZM124 621V726H231V621H124ZM339 621V726H446V621H339Z"  />
<glyph unicode="&#xEC;" horiz-adv-x="298" d="M82 0V532H217V0H82ZM159 599L-3 763H158L249 599H159Z"  />
<glyph unicode="&#xED;" horiz-adv-x="298" d="M82 0V532H217V0H82ZM68 599L161 763H321L159 599H68Z"  />
<glyph unicode="&#xEE;" horiz-adv-x="298" d="M82 0V532H217V0H82ZM-28 598L114 753H190L327 598H240L151 666L63 598H-28Z"  />
<glyph unicode="&#xEF;" horiz-adv-x="298" d="M82 0V532H217V0H82ZM-10 621V726H97V621H-10ZM205 621V726H312V621H205Z"  />
<glyph unicode="&#xF0;" horiz-adv-x="573" d="M353 680Q388 639 419 591T474 490T512 382T526 271Q526 208 509 157T461 69T386 12T290 -9Q238 -9 194 9T118 63T67 149T49 262Q49 343 76 406T153 502Q183 521 211 529T261 540T298 541T314 540H329Q315 566 299 591T263 640L139 584L119 632L227 680Q206 703 183 722T136 758H273Q284 749 294 740T316 720L403 758L424 712L353 680ZM393 273Q393 361 364 407T288 453Q233 453 206 405T178 265Q178 178 207 134T288 89Q339 89 366 136T393 273Z"  />
<glyph unicode="&#xF1;" horiz-adv-x="601" d="M217 459Q258 498 302 519T402 541Q524 541 524 406V0H389V371Q389 401 378 416T340 432Q310 432 281 414T217 364V0H82V532H217V459ZM372 686Q389 686 395 702T405 737H478Q473 671 449 638T375 604Q358 604 343 609T313 622T281 639T243 657Q238 659 231 657T218 648T207 631T202 605H126Q132 671 156 705T233 740Q258 740 278 732T314 713T345 695T372 686Z"  />
<glyph unicode="&#xF2;" horiz-adv-x="573" d="M274 542Q397 542 462 469T528 269Q528 202 510 151T459 64T382 10T288 -9Q238 -9 194 9T117 62T65 148T46 268Q46 333 63 384T110 470T182 523T274 542ZM287 444Q233 444 206 400T179 263Q179 175 208 132T286 89Q337 89 366 135T395 278Q395 363 365 403T287 444ZM296 599L134 763H295L386 599H296Z"  />
<glyph unicode="&#xF3;" horiz-adv-x="573" d="M274 542Q397 542 462 469T528 269Q528 202 510 151T459 64T382 10T288 -9Q238 -9 194 9T117 62T65 148T46 268Q46 333 63 384T110 470T182 523T274 542ZM287 444Q233 444 206 400T179 263Q179 175 208 132T286 89Q337 89 366 135T395 278Q395 363 365 403T287 444ZM203 599L296 763H456L294 599H203Z"  />
<glyph unicode="&#xF4;" horiz-adv-x="573" d="M274 542Q397 542 462 469T528 269Q528 202 510 151T459 64T382 10T288 -9Q238 -9 194 9T117 62T65 148T46 268Q46 333 63 384T110 470T182 523T274 542ZM287 444Q233 444 206 400T179 263Q179 175 208 132T286 89Q337 89 366 135T395 278Q395 363 365 403T287 444ZM107 598L249 753H325L462 598H375L286 666L198 598H107Z"  />
<glyph unicode="&#xF5;" horiz-adv-x="573" d="M274 542Q397 542 462 469T528 269Q528 202 510 151T459 64T382 10T288 -9Q238 -9 194 9T117 62T65 148T46 268Q46 333 63 384T110 470T182 523T274 542ZM287 444Q233 444 206 400T179 263Q179 175 208 132T286 89Q337 89 366 135T395 278Q395 363 365 403T287 444ZM356 686Q373 686 379 702T389 737H462Q457 671 433 638T359 604Q342 604 327 609T297 622T265 639T227 657Q222 659 215 657T202 648T191 631T186 605H110Q116 671 140 705T217 740Q242 740 262 732T298 713T329 695T356 686Z"  />
<glyph unicode="&#xF6;" horiz-adv-x="573" d="M274 542Q397 542 462 469T528 269Q528 202 510 151T459 64T382 10T288 -9Q238 -9 194 9T117 62T65 148T46 268Q46 333 63 384T110 470T182 523T274 542ZM287 444Q233 444 206 400T179 263Q179 175 208 132T286 89Q337 89 366 135T395 278Q395 363 365 403T287 444ZM126 621V726H233V621H126ZM341 621V726H448V621H341Z"  />
<glyph unicode="&#xF7;" horiz-adv-x="667" d="M61 324V424H605V324H61ZM278 508V640H397V508H278ZM278 108V240H397V108H278Z"  />
<glyph unicode="&#xF8;" horiz-adv-x="573" d="M91 95Q46 163 46 268Q46 333 63 384T110 470T182 523T274 542Q328 542 370 528T444 487L495 543L544 496L488 435Q528 370 528 269Q528 202 510 151T459 64T382 10T288 -9Q244 -9 205 4T134 45L81 -14L30 28L91 95ZM211 130Q238 89 286 89Q337 89 366 135T395 278Q395 305 392 329L211 130ZM366 400Q352 423 332 433T287 444Q233 444 206 400T179 263Q179 246 181 230T185 200L366 400Z"  />
<glyph unicode="&#xF9;" horiz-adv-x="601" d="M384 532H519V0H384V80Q336 32 290 12T207 -9Q180 -9 157 0T117 29T90 76T80 140V532H215V167Q215 141 230 124T271 106Q302 106 328 124T384 174V532ZM305 599L143 763H304L395 599H305Z"  />
<glyph unicode="&#xFA;" horiz-adv-x="601" d="M384 532H519V0H384V80Q336 32 290 12T207 -9Q180 -9 157 0T117 29T90 76T80 140V532H215V167Q215 141 230 124T271 106Q302 106 328 124T384 174V532ZM212 599L305 763H465L303 599H212Z"  />
<glyph unicode="&#xFB;" horiz-adv-x="601" d="M384 532H519V0H384V80Q336 32 290 12T207 -9Q180 -9 157 0T117 29T90 76T80 140V532H215V167Q215 141 230 124T271 106Q302 106 328 124T384 174V532ZM122 598L264 753H340L477 598H390L301 666L213 598H122Z"  />
<glyph unicode="&#xFC;" horiz-adv-x="601" d="M384 532H519V0H384V80Q336 32 290 12T207 -9Q180 -9 157 0T117 29T90 76T80 140V532H215V167Q215 141 230 124T271 106Q302 106 328 124T384 174V532ZM141 621V726H248V621H141ZM356 621V726H463V621H356Z"  />
<glyph unicode="&#xFD;" horiz-adv-x="520" d="M61 -117Q115 -117 150 -94T197 -16L20 532H157L261 191L364 532H500L340 32Q318 -37 295 -84T243 -160T176 -201T83 -214H35V-117H61ZM182 599L275 763H435L273 599H182Z"  />
<glyph unicode="&#xFE;" horiz-adv-x="615" d="M221 758V475Q256 507 290 524T361 541Q396 541 432 524T498 474T547 389T566 269Q566 200 547 148T498 61T433 9T364 -9Q328 -9 293 10T221 62V-214H86V758H221ZM221 154Q247 137 271 125T325 112Q374 112 403 153T433 272Q433 342 404 384T325 426Q295 426 270 414T221 384V154Z"  />
<glyph unicode="&#xFF;" horiz-adv-x="520" d="M61 -117Q115 -117 150 -94T197 -16L20 532H157L261 191L364 532H500L340 32Q318 -37 295 -84T243 -160T176 -201T83 -214H35V-117H61ZM100 621V726H207V621H100ZM315 621V726H422V621H315Z"  />
<glyph unicode="&#x131;" horiz-adv-x="298" d="M82 0V532H217V0H82Z"  />
<glyph unicode="&#x152;" horiz-adv-x="972" d="M492 46Q458 23 421 7T330 -9Q267 -9 215 16T125 89T68 206T47 365Q47 474 73 549T139 671T230 737T330 758Q364 758 389 753T433 739T466 719T492 697V747H935V618H641V452H817V343H641V129H935V0H492V46ZM343 626Q268 626 234 563T200 371Q200 246 234 183T343 120Q418 120 456 186T494 380Q494 504 452 565T343 626Z"  />
<glyph unicode="&#x153;" horiz-adv-x="927" d="M290 -9Q241 -9 198 9T122 63T70 148T51 264Q51 326 67 377T115 464T191 521T292 541Q357 541 397 518T470 450Q490 472 509 489T550 518T595 536T651 542Q702 542 744 526T818 477T866 394T884 275V242H542Q544 168 575 134T653 100Q688 100 715 118T763 174L873 127Q835 59 781 25T652 -9Q619 -9 593 -3T546 16T507 45T470 84Q451 63 433 46T393 17T346 -2T290 -9ZM763 322Q761 356 751 380T725 419T690 442T649 450Q604 450 576 418T543 322H763ZM291 443Q239 443 212 401T184 271Q184 89 289 89Q343 89 371 136T400 275Q400 363 371 403T291 443Z"  />
<glyph unicode="&#x160;" horiz-adv-x="634" d="M442 570Q419 605 384 629T306 654Q255 654 226 627T197 561Q197 545 203 533T227 509T274 485T351 457Q399 442 441 422T516 373T567 307T586 218Q586 173 569 131T517 57T433 6T317 -14Q217 -14 149 29T37 158L168 209Q183 186 198 168T232 136T274 115T326 107Q385 107 417 136T450 205Q450 216 447 228T426 256T373 289T272 328Q159 365 110 418T61 544Q61 594 80 634T132 703T212 747T312 763Q396 763 460 728T566 620L442 570ZM340 803L218 959H296L381 894L467 959H552L421 803H340Z"  />
<glyph unicode="&#x161;" horiz-adv-x="499" d="M372 401Q337 424 310 437T254 450Q218 450 197 432T175 388Q175 370 186 358T215 338T256 325T304 314Q341 306 371 295T424 267T458 224T471 162Q471 127 457 96T415 42T346 5T251 -9Q213 -9 183 -3T126 17T78 47T33 88L115 145Q147 120 178 105T250 89Q290 89 312 104T335 143Q335 169 310 185T238 207Q196 211 161 225T100 260T60 311T46 376Q46 409 61 439T104 492T168 528T251 542Q312 542 359 520T450 466L372 401ZM196 601L74 757H152L237 692L323 757H408L277 601H196Z"  />
<glyph unicode="&#x178;" horiz-adv-x="600" d="M227 333L4 747H167L301 478L433 747H596L374 333V0H227V333ZM142 823V928H249V823H142ZM357 823V928H464V823H357Z"  />
<glyph unicode="&#x17D;" horiz-adv-x="625" d="M49 618V747H579V632L231 129H588V0H31V100L391 618H49ZM277 803L155 959H233L318 894L404 959H489L358 803H277Z"  />
<glyph unicode="&#x17E;" horiz-adv-x="490" d="M52 423V532H456V424L189 109H456V0H30V109L299 423H52ZM210 601L88 757H166L251 692L337 757H422L291 601H210Z"  />
<glyph unicode="&#x192;" horiz-adv-x="563" d="M234 439H135L153 544H252L260 590Q266 625 273 656T296 711T343 748T428 762Q458 762 492 757T559 741L532 627Q513 633 494 637T455 641Q437 641 427 636T410 622T401 601T395 573L389 544H491L473 439H373L289 -56Q283 -92 274 -121T246 -169T200 -199T128 -210Q93 -210 55 -204T-9 -189L19 -78Q39 -82 59 -85T101 -89Q119 -89 129 -84T145 -67T154 -40T161 -3L234 439Z"  />
<glyph unicode="&#x2C6;" horiz-adv-x="333" d="M-13 569L129 724H205L342 569H255L166 637L78 569H-13Z"  />
<glyph unicode="&#x2C7;" horiz-adv-x="333" d="M131 572L9 728H87L172 663L258 728H343L212 572H131Z"  />
<glyph unicode="&#x2DA;" horiz-adv-x="333" d="M167 771Q188 771 207 763T240 741T262 709T270 669Q270 648 262 630T240 597T207 575T167 567Q146 567 128 575T95 596T73 628T65 668Q65 691 74 710T98 742T131 763T167 771ZM168 731Q141 731 123 712T105 668Q105 642 123 625T167 607Q193 607 211 624T230 668Q230 695 211 713T168 731Z"  />
<glyph unicode="&#x2DC;" horiz-adv-x="333" d="M236 657Q253 657 259 673T269 708H342Q337 642 313 609T239 575Q222 575 207 580T177 593T145 610T107 628Q102 630 95 628T82 619T71 602T66 576H-10Q-4 642 20 676T97 711Q122 711 142 703T178 684T209 666T236 657Z"  />
<glyph unicode="&#x2013;" horiz-adv-x="500" d="M0 212V334H500V212H0Z"  />
<glyph unicode="&#x2014;" horiz-adv-x="1000" d="M0 212V334H1000V212H0Z"  />
<glyph unicode="&#x2018;" horiz-adv-x="313" d="M83 602L180 762H230L147 603H230V443H83V602Z"  />
<glyph unicode="&#x2019;" horiz-adv-x="313" d="M83 587V747H230V587L135 428H83L164 587H83Z"  />
<glyph unicode="&#x201A;" horiz-adv-x="313" d="M83 0V164H230V0L140 -161H88L168 0H83Z"  />
<glyph unicode="&#x201C;" horiz-adv-x="548" d="M319 601L414 762H465L381 602H466V442H319V601ZM82 601L178 762H228L145 602H229V442H82V601Z"  />
<glyph unicode="&#x201D;" horiz-adv-x="548" d="M83 587V747H230V587L135 426H83L164 587H83ZM319 587V747H466V587L371 426H319L403 587H319Z"  />
<glyph unicode="&#x201E;" horiz-adv-x="548" d="M82 0V160H229V0L136 -160H83L164 0H82ZM319 0V160H466V0L371 -160H319L402 0H319Z"  />
<glyph unicode="&#x2020;" horiz-adv-x="521" d="M236 478L203 747H319L285 478L486 510V396L285 428L330 -200H193L236 428L35 396V510L236 478Z"  />
<glyph unicode="&#x2021;" horiz-adv-x="521" d="M239 523L202 747H315L279 523L474 553V448L279 479L304 274L279 71L474 102V0L279 29L315 -198H202L239 29L43 0V102L239 71L214 274L239 479L43 448V553L239 523Z"  />
<glyph unicode="&#x2022;" horiz-adv-x="399" d="M344 353Q344 323 333 297T301 251T255 220T199 209Q169 209 143 220T97 250T66 296T55 353Q55 383 66 409T96 455T142 486T199 498Q229 498 255 487T301 456T332 410T344 353Z"  />
<glyph unicode="&#x2026;" horiz-adv-x="938" d="M129 0V160H276V0H129ZM401 0V160H548V0H401ZM668 0V160H815V0H668Z"  />
<glyph unicode="&#x2030;" horiz-adv-x="1447" d="M759 307Q841 307 889 257T938 120Q938 70 923 23T880 -62T809 -121T712 -143Q673 -143 641 -130T587 -91T552 -31T539 47Q539 98 554 145T597 228T666 285T759 307ZM750 225Q727 225 710 208T680 162T662 99T656 29Q656 -11 675 -33T721 -56Q742 -56 760 -43T792 -5T813 52T821 124Q821 175 802 200T750 225ZM168 -178L651 654Q585 622 534 614T431 618Q438 591 438 561Q438 504 422 454T376 368T306 310T216 288Q180 288 148 300T92 335T54 393T40 475Q40 529 56 577T101 662T170 719T261 740Q292 740 318 732T371 706Q392 693 419 681T490 668Q517 668 552 675T622 697Q641 704 655 713T682 733T705 756T727 782H806L251 -178H168ZM252 653Q217 653 197 625T165 540Q160 517 159 500T157 460Q157 421 174 398T220 375Q262 375 291 423T321 562Q321 610 302 631T252 653ZM1228 307Q1310 307 1358 257T1407 120Q1407 70 1392 23T1349 -62T1278 -121T1181 -143Q1142 -143 1110 -130T1056 -91T1021 -31T1008 47Q1008 98 1023 145T1066 228T1135 285T1228 307ZM1219 225Q1195 225 1178 208T1149 162T1131 99T1125 29Q1125 -11 1144 -33T1190 -56Q1211 -56 1229 -43T1261 -5T1282 52T1290 124Q1290 175 1271 200T1219 225Z"  />
<glyph unicode="&#x2039;" horiz-adv-x="314" d="M29 265L145 502H285L170 265L285 30H145L29 265Z"  />
<glyph unicode="&#x203A;" horiz-adv-x="314" d="M144 266L29 502H169L284 266L169 30H29L144 266Z"  />
<glyph unicode="&#x20AC;" horiz-adv-x="635" d="M473 542Q438 641 352 641Q296 641 258 599T203 476H524L510 404H194Q193 393 193 386T193 368Q193 363 193 357T194 343H499L485 271H202Q217 191 252 149T338 106Q386 106 422 135T478 216L610 178Q548 -15 352 -15Q234 -15 158 59T59 271H-1L13 343H52L51 361Q50 378 50 384T53 404H-1L13 476H61Q73 543 99 596T164 686T252 742T359 762Q401 762 439 750T510 714T566 656T605 580L473 542Z"  />
<glyph unicode="&#x2122;" horiz-adv-x="760" d="M207 417H140V690H38V747H306V690H207V417ZM428 417H366V747H471L530 520L590 747H695V417H631V680L560 417H499L428 680V417Z"  />

</font>
</defs>
</svg>
