<?xml  version="1.0" encoding="UTF-8"?>
<!DOCTYPE svg PUBLIC "-//W3C//DTD SVG 1.0//EN" "http://www.w3.org/TR/2001/REC-SVG-20010904/DTD/svg10.dtd" >
<svg xmlns="http://www.w3.org/2000/svg" >
<metadata>
<version>1.0</version>
<id><![CDATA[Centaur W01 Bold]]></id>
<vendor>Monotype Imaging Inc.</vendor>
<credits>
<name>Fonts.com WebFonts</name>
<URL>http://webfonts.fonts.com</URL>
<role>Home of the Web fonts</role>
</credits>
<license>
<URL>http://webfonts.fonts.com/Legal</URL>
</license>
<copyright><![CDATA[Font software Copyright 1991, 2002 Adobe Systems Incorporated. Type design Copyright 1990, 2002 The Monotype Corporation. All rights reserved.]]></copyright>
<trademark><![CDATA[Centaur is a registered trademark of The Monotype Corporation in the United States and/or other countries.]]></trademark>
<licensee>
<name></name>
</licensee>
</metadata>
<defs >
<font horiz-adv-x="501" id="93a8fe55-c3da-4c05-959a-08dadc02313c">
<font-face font-family="" panose-1="2 2 8 3 5 4 5 2 3 4" ascent="844" descent="-289" units-per-em="1000" alphabetic="0">
</font-face>
<missing-glyph horiz-adv-x="260" />

<glyph unicode="&#xA;" />
<glyph unicode="&#xD;" horiz-adv-x="260" />
<glyph unicode=" " horiz-adv-x="260" />
<glyph unicode="!" horiz-adv-x="208" d="M132 283Q130 272 129 265T127 252T124 238T120 219Q115 192 114 184T110 163H82Q83 181 83 211T84 297Q84 308 84 334T83 391T80 448T75 490Q72 502 67 507T55 517L60 533Q87 538 116 546T172 566L181 555Q181 554 178 537T171 495T161 441T152 387T144 345T140 327L132 283ZM162 30Q151 22 141 15T118 -8Q108 -20 103 -24T92 -28Q84 -28 80 -24T68 -5Q61 6 55 12T40 24Q35 27 30 31T24 42Q24 47 29 52T40 61Q43 64 50 72T66 89T82 105T95 112Q101 112 104 109T115 93Q116 91 120 87T128 77T138 67T146 59Q148 57 154 53T164 45L162 30Z"  />
<glyph unicode="&quot;" horiz-adv-x="552" d="M177 335H140L104 485Q98 510 97 524T95 545Q95 578 112 599T158 620Q190 620 207 599T225 547Q225 539 224 530T220 511T216 495T213 483L177 335ZM413 335H376L340 485Q334 510 333 524T331 545Q331 578 348 599T394 620Q426 620 443 599T461 547Q461 539 460 530T456 511T452 495T449 483L413 335Z"  />
<glyph unicode="#" horiz-adv-x="667" d="M43 475H202L244 672H304L262 475H467L509 672H569L527 475H623V415H515L478 234H623V174H466L424 -22H364L406 174H200L158 -22H98L140 174H43V234H152L190 415H43V475ZM455 415H250L212 234H418L455 415Z"  />
<glyph unicode="$" horiz-adv-x="500" d="M233 -1Q202 0 174 10T121 36T74 74T32 118L97 210L119 196Q116 191 114 185T111 171Q111 155 122 129T155 73Q169 54 189 45T232 30L235 284Q232 286 229 288T223 292Q191 311 164 328T116 364T85 407T73 462Q73 477 79 501T104 550T154 594T240 620V667L270 668L269 621Q336 620 376 603T445 565Q425 543 411 525T387 480L364 482Q365 487 365 491T366 500Q366 503 365 515T354 542T326 570T270 591L267 379L279 371Q309 354 339 335T394 292T434 239T450 173Q450 154 442 127T413 72T356 24T263 -2V-76H232L233 -1ZM264 29Q296 31 319 42T356 68T378 102T385 135Q385 152 380 167T362 199T325 231T266 268L264 29ZM238 591Q211 588 193 579T165 558T150 531T145 504Q145 476 160 455T216 408Q221 404 227 400T236 394L238 591Z"  />
<glyph unicode="%" horiz-adv-x="781" d="M190 634Q228 634 256 621T302 585T330 534T339 478Q339 447 329 417T300 362T251 323T181 308Q145 308 118 321T71 356T41 406T31 465Q31 505 44 536T80 589T130 622T190 634ZM181 612Q152 612 131 589T110 514Q110 481 113 448T126 389T151 347T192 331Q204 331 216 336T239 353T255 384T261 432Q261 473 257 506T244 563T219 599T181 612ZM601 308Q639 308 667 295T713 259T741 209T750 153Q750 122 740 92T711 37T662 -3T592 -18Q556 -18 529 -5T482 30T452 80T442 139Q442 179 455 210T491 263T541 296T601 308ZM592 286Q563 286 542 263T521 189Q521 156 524 123T537 64T562 21T603 5Q615 5 627 10T650 27T666 58T672 106Q672 147 668 180T655 237T630 273T592 286ZM163 -37Q217 46 270 136T370 310T452 460T505 564Q507 568 514 582T529 612T544 643T554 664Q568 665 587 668T617 674Q566 592 520 513T436 365T370 242T325 155Q306 116 290 84T263 28T244 -9T236 -24Q223 -26 213 -29T186 -43L163 -37Z"  />
<glyph unicode="&amp;" horiz-adv-x="635" d="M624 102Q619 89 610 71T587 36T551 7T500 -5Q457 -5 427 19T378 82Q367 68 352 53T317 23T268 0T203 -9Q151 -9 118 6T66 43T39 93T31 146Q31 189 45 220T78 274T118 310T152 332Q128 347 115 364T95 396T88 422T87 437Q87 460 95 478T116 510T139 532T157 544Q163 548 174 553T198 564T220 573T233 577Q234 577 251 573T290 556T328 522T345 466Q345 454 343 445T333 426T310 399T269 358Q297 344 316 333T350 305T379 266T413 205Q428 237 441 267T465 323T482 369T489 403Q489 414 478 421T442 439L452 458Q483 449 505 444T543 437T572 433T597 432V411Q576 408 566 406T551 399Q547 396 543 389T534 373T525 355T517 340L480 261Q471 241 464 227T452 201T442 182T432 164Q435 158 436 157T438 153L459 107Q461 102 467 92T482 70T502 51T528 42Q542 42 553 49T573 67T589 90T602 113L624 102ZM333 167Q315 203 301 225T270 263T233 289T185 312Q173 303 160 293T137 270T119 240T112 201Q112 173 122 145T151 95T195 60T252 46Q286 46 313 66T359 114L333 167ZM233 374Q239 377 246 382T261 394T274 412T279 435Q279 450 271 466T250 495T222 517T191 526Q179 526 169 520T150 505T137 486T132 469Q132 448 144 432T173 404T207 385T233 374Z"  />
<glyph unicode="&apos;" horiz-adv-x="281" d="M160 335H123L87 485Q81 510 80 524T78 545Q78 578 95 599T141 620Q173 620 190 599T208 547Q208 539 207 530T203 511T199 495T196 483L160 335Z"  />
<glyph unicode="(" horiz-adv-x="354" d="M303 -279Q214 -224 161 -161T81 -36T45 83T36 184Q36 245 48 310T90 439T172 560T304 664L335 616Q307 596 269 565T195 483T134 361T109 189Q109 112 126 49T174 -65T246 -158T335 -231L303 -279Z"  />
<glyph unicode=")" horiz-adv-x="354" d="M51 664Q140 609 193 546T273 421T309 302T318 201Q318 140 306 75T264 -54T182 -175T50 -279L19 -231Q47 -211 85 -180T159 -98T220 24T245 196Q245 272 228 335T180 450T108 543T19 616L51 664Z"  />
<glyph unicode="*" horiz-adv-x="396" d="M186 290Q179 322 172 342T150 386Q137 386 127 385T105 382T80 377T49 368L35 390Q50 404 60 414T77 434T90 451T101 472Q84 500 70 515T35 548L49 571Q81 561 103 558T150 554Q166 582 173 601T186 648H212Q219 616 225 597T246 554Q275 554 298 557T348 571L361 548Q324 516 312 497T295 466Q313 438 327 422T361 390L348 368Q317 378 296 382T246 386Q233 365 224 341T212 290H186ZM199 533Q173 533 155 515T137 470Q137 444 155 426T199 408Q225 408 243 426T262 470Q262 496 244 514T199 533Z"  />
<glyph unicode="+" horiz-adv-x="667" d="M68 298H301V532H365V298H599V234H365V0H301V234H68V298Z"  />
<glyph unicode="&#x2c;" horiz-adv-x="188" d="M109 122Q117 103 127 96T138 87Q151 82 160 75T170 60Q170 57 169 55T162 46Q157 40 156 34T150 9Q144 -21 130 -43T97 -82T62 -110T32 -128L14 -99Q59 -76 71 -56T84 -25Q84 -18 81 -9T62 13Q50 24 40 33T30 53Q30 56 32 58T42 66Q60 75 71 88T84 122H109Z"  />
<glyph unicode="-" horiz-adv-x="313" d="M33 142V222H283V142H33Z"  />
<glyph unicode="." horiz-adv-x="188" d="M162 30Q151 22 141 15T118 -8Q108 -20 103 -24T92 -28Q84 -28 80 -24T68 -5Q61 6 55 12T40 24Q35 27 30 31T24 42Q24 47 29 52T40 61Q43 64 50 72T66 89T82 105T95 112Q101 112 104 109T115 93Q116 91 120 87T128 77T138 67T146 59Q148 57 154 53T164 45L162 30Z"  />
<glyph unicode="/" horiz-adv-x="566" d="M481 664H547L85 -279H19L481 664Z"  />
<glyph unicode="0" horiz-adv-x="520" d="M487 323Q487 266 473 207T431 101T358 23T253 -7Q200 -7 159 19T90 88T48 185T33 297Q33 371 51 431T102 533T177 599T268 622Q325 622 366 595T434 525T474 429T487 323ZM144 392Q144 365 145 327T149 249T161 168T183 97T218 46T271 26Q283 26 300 32T335 60T364 122T376 231Q376 238 376 257T374 303T371 361T364 424Q361 443 356 471T340 526T308 572T254 591Q233 591 213 581T178 547T153 485T144 392Z"  />
<glyph unicode="1" horiz-adv-x="520" d="M420 -3Q405 -2 393 -2T366 -1Q353 0 338 0T301 0Q235 0 187 -1T107 -5V24Q153 24 171 36T197 63Q202 74 205 99T210 158T213 230T215 304T216 369T216 415Q216 462 216 488T214 527T210 544T204 553Q198 559 187 562T162 567T135 569T111 568V597Q152 597 179 598T235 602T301 609T399 622L407 595Q381 589 366 586T343 578T330 566T323 547Q320 536 318 514T315 462T312 401T311 340T310 286T309 249Q309 235 309 206T310 146T313 89T320 55Q323 49 327 45T341 37T370 30T421 24L420 -3Z"  />
<glyph unicode="2" horiz-adv-x="520" d="M28 12Q45 28 72 56T130 116T187 178T229 226Q248 249 265 272T296 320T316 371T324 428Q324 454 315 476T289 514T250 540T201 550Q169 550 147 538T100 505L77 526Q105 557 130 576T179 605T224 618T264 622Q310 622 341 608T391 571T418 524T427 476Q427 443 417 413T388 352T344 292T287 230L182 119Q180 117 171 107T158 94Q220 94 257 94T318 93Q357 93 381 94T420 102T445 118T466 147Q468 151 470 155T475 161L497 147Q494 142 482 119T455 68T427 14T408 -24H383Q375 -6 363 -3T327 1L121 2Q79 2 37 -4L28 12Z"  />
<glyph unicode="3" horiz-adv-x="520" d="M204 307Q219 317 238 332T274 367T303 408T315 454Q315 478 305 498T280 532T244 554T205 562Q176 562 156 550T120 527L101 550Q113 560 128 572T165 596T212 614T272 622Q308 622 334 612T376 585T400 549T408 512Q408 482 392 450T340 378Q359 364 379 348T415 312T441 266T452 204Q452 161 435 123T387 55T314 9T224 -8Q172 -8 125 13T44 74Q48 80 56 93T74 122T91 151T103 170L126 155Q124 152 122 147T120 137Q120 127 134 110T172 75T222 45T277 32Q296 32 312 41T341 65T361 101T369 145Q369 187 343 226T253 304L224 283L204 307Z"  />
<glyph unicode="4" horiz-adv-x="520" d="M496 258L451 164Q446 164 435 164T410 165T386 166T371 166Q371 125 372 100T379 60T396 37T430 23V-2Q415 -1 404 -1T368 0Q324 0 274 -1T181 -5V25Q214 28 232 31T258 43Q261 47 263 53T268 72T271 108T274 169Q231 169 197 169T131 169T72 167T13 162L3 178Q18 194 43 224T99 294T163 378T228 467T286 553T330 627L378 634Q377 620 377 589T376 519T375 436T374 352T373 280T372 232Q399 232 415 233T441 237T458 247T477 266L496 258ZM279 482H277Q244 435 219 401T173 339T133 286T90 233Q91 233 103 233T135 233T176 233T219 232T254 232T276 231L279 482Z"  />
<glyph unicode="5" horiz-adv-x="520" d="M100 159Q100 130 120 106T169 66T225 40T267 31Q289 31 305 44T333 77T349 119T355 158Q355 185 347 207T327 246T299 275T271 296Q250 308 231 315T191 327T147 334T94 339Q101 370 110 401T130 461L157 535Q163 553 167 563T174 581T179 594T184 608H356Q374 608 386 608T406 611T419 617T432 630L461 631L392 519Q385 519 367 519T329 521T290 522T264 523Q235 523 218 519T189 506T171 480T158 440Q192 431 237 418T320 381Q345 366 368 347T409 304T437 255T448 198Q448 160 432 123T386 56T314 8T218 -11Q170 -11 126 6T46 55Q59 93 67 123T77 165L100 159Z"  />
<glyph unicode="6" horiz-adv-x="520" d="M198 332Q204 336 214 343T239 358T271 370T309 376Q340 376 368 363T419 326T454 272T467 204Q467 170 454 133T415 64T352 12T267 -9Q228 -9 190 8T123 56T76 131T58 231Q58 320 95 400T201 537Q248 578 296 600T396 639L407 614Q395 609 372 599T322 571T266 527T214 464T176 379T161 270Q161 220 170 175T197 96T238 42T288 22Q303 22 319 28T348 48T369 83T378 133Q378 170 368 205T341 267T304 310T264 327Q257 327 239 323T199 300L198 332Z"  />
<glyph unicode="7" horiz-adv-x="520" d="M69 468H42Q46 474 55 493T74 538T95 589T112 637H128Q135 630 139 626T148 618Q155 614 170 614H381Q405 614 420 614T447 615T467 618T488 623L504 611Q489 589 462 543T401 432T332 284T263 109L221 -10Q219 -10 213 -10T201 -9T189 -9T180 -8Q165 -8 157 -12T141 -20L121 -10L158 56Q200 131 233 194T293 312T345 419T392 521Q372 523 347 524T300 526T260 527T238 528Q182 528 149 523T90 510L69 468Z"  />
<glyph unicode="8" horiz-adv-x="520" d="M89 469Q89 500 101 528T134 577T187 610T258 622Q288 622 319 615T374 592T415 552T431 494Q431 467 421 446T396 408T364 378T331 355Q394 324 431 279T469 170Q469 134 455 102T413 45T347 6T257 -9Q212 -9 175 2T110 34T68 80T52 138Q52 177 69 206T110 256T158 291T197 312Q164 328 143 348T110 390T94 432T89 469ZM142 512Q142 493 151 477T180 446T231 413T304 372Q315 380 328 397T341 453Q341 480 333 504T312 548T279 578T239 590Q216 590 199 583T168 565T149 540T142 512ZM154 188Q154 159 164 130T192 76T234 37T288 21Q304 21 321 28T354 49T379 84T389 133Q389 163 379 185T348 225T296 260T224 297Q217 293 205 285T182 264T163 233T154 188Z"  />
<glyph unicode="9" horiz-adv-x="520" d="M323 281Q306 266 289 257T256 244T228 238T212 237Q182 237 154 250T103 287T68 342T54 410Q54 446 68 483T108 552T172 602T254 622Q291 622 328 606T396 559T444 485T463 387Q463 328 445 267T387 150T283 49T125 -23L114 1Q126 6 149 17T200 46T255 90T307 152T345 236T360 345Q360 394 351 439T324 518T283 572T233 592Q218 592 202 586T173 565T152 530T143 481Q143 443 153 408T180 346T217 303T257 286Q265 286 283 291T322 314L323 281Z"  />
<glyph unicode=":" horiz-adv-x="188" d="M162 30Q151 22 141 15T118 -8Q108 -20 103 -24T92 -28Q84 -28 80 -24T68 -5Q61 6 55 12T40 24Q35 27 30 31T24 42Q24 47 29 52T40 61Q43 64 50 72T66 89T82 105T95 112Q101 112 104 109T115 93Q116 91 120 87T128 77T138 67T146 59Q148 57 154 53T164 45L162 30ZM106 394Q114 383 121 373T144 350Q156 340 160 335T164 324Q164 316 160 312T141 300Q130 293 124 287T112 272Q109 267 105 262T94 256Q89 256 84 261T75 272Q72 275 64 282T47 298T31 314T24 327Q24 333 27 336T43 347Q44 348 49 352T59 360T69 370T77 378Q79 380 83 386T91 396L106 394Z"  />
<glyph unicode=";" horiz-adv-x="188" d="M134 52Q139 41 142 28T146 -1Q146 -24 137 -45T113 -85T77 -119T35 -143L16 -116Q37 -102 56 -84T76 -36Q76 -17 66 -9T41 3Q33 5 25 8T16 23Q16 27 19 31T31 44Q60 66 70 80T85 106L110 107Q110 105 111 101T113 95L134 52ZM33 336Q44 344 54 351T77 374Q87 386 92 390T103 394Q111 394 115 390T127 371Q134 360 140 354T155 342Q160 339 165 335T171 324Q171 319 166 314T155 305Q152 302 145 294T129 277T113 261T100 254Q94 254 91 257T80 273Q79 274 75 279T67 289T57 299T49 307Q47 309 41 313T31 321L33 336Z"  />
<glyph unicode="&lt;" horiz-adv-x="667" d="M68 296L599 519V449L154 267L599 84V15L68 238V296Z"  />
<glyph unicode="=" horiz-adv-x="667" d="M68 410H599V346H68V410ZM68 186H599V122H68V186Z"  />
<glyph unicode="&gt;" horiz-adv-x="667" d="M598 238L68 15V84L512 267L68 449V519L599 295L598 238Z"  />
<glyph unicode="?" horiz-adv-x="292" d="M55 581H76Q77 579 77 577T79 574Q84 559 90 554T121 544Q187 533 222 492T257 385Q257 346 249 319T227 272T198 241T167 218Q159 213 155 209T148 198T144 180T143 150H117Q117 196 117 220T121 257T130 272T148 278Q174 282 186 286T212 299Q215 310 218 323T222 356Q222 388 211 406T180 434T136 447T86 452Q59 454 53 459T42 475Q38 483 37 485T36 488Q48 504 51 525T55 567V581ZM195 30Q184 22 174 15T151 -8Q141 -20 136 -24T125 -28Q117 -28 113 -24T101 -5Q94 6 88 12T73 24Q68 27 63 31T57 42Q57 47 62 52T73 61Q76 64 83 72T99 89T115 105T128 112Q134 112 137 109T148 93Q149 91 153 87T161 77T171 67T179 59Q181 57 187 53T197 45L195 30Z"  />
<glyph unicode="@" horiz-adv-x="927" d="M606 452L725 457L635 150Q630 133 626 111T621 75Q621 60 631 48T661 35Q685 35 721 55T790 115T847 210T871 338Q871 398 851 453T792 552T694 621T558 647Q454 647 374 609T238 507T155 362T126 196Q126 107 156 36T238 -85T359 -162T508 -189Q559 -189 617 -175T731 -129T833 -46T908 81H938Q909 9 870 -41T789 -124T703 -175T622 -203T554 -214T508 -216Q416 -216 337 -185T200 -98T108 38T75 213Q75 309 109 393T204 541T353 640T547 677Q640 677 706 648T815 573T878 467T898 347Q898 283 878 221T821 110T729 31T606 0Q556 0 531 23T506 87Q506 102 510 121T518 152L516 154Q502 131 485 104T448 54T402 16T349 0Q325 0 310 10T285 37T271 72T267 110Q267 183 294 248T360 363T442 441T519 470Q541 470 554 462T574 442T584 417T588 394H590L606 452ZM533 435Q517 435 501 419T469 375T439 315T415 249T399 185T393 135Q393 113 402 101T422 89Q433 89 448 101T479 134T511 182T539 241T559 305T567 369Q567 407 555 421T533 435Z"  />
<glyph unicode="A" horiz-adv-x="625" d="M150 139Q147 132 143 122T136 102T129 82T126 66Q126 52 134 44T153 30T178 23T202 19V-4Q197 -4 178 -4T136 -2Q114 -1 97 -1T78 0Q73 0 64 0T45 0T24 0T8 -1V19Q20 21 37 28T68 58Q77 72 95 113T137 208T186 323T233 436T270 526T289 573Q297 592 301 606T311 634H337Q342 619 347 602T361 559Q366 544 377 515T402 449T431 372T461 296T486 231T502 189Q524 129 539 96T566 46T590 26T617 19V-1Q599 1 580 2Q569 3 557 3T529 3Q482 3 447 1T389 -4V19Q409 22 424 30T439 56Q439 61 432 84T414 135T396 186T385 215Q378 216 372 216T359 217T340 218T313 218Q285 218 251 217T180 211L150 139ZM198 259Q218 256 246 253T306 250Q331 250 345 251T371 254Q351 310 330 365T283 471L198 259Z"  />
<glyph unicode="B" horiz-adv-x="542" d="M28 23Q45 23 57 25T78 35T92 61T99 110T102 188T103 303Q103 397 102 449T99 527T93 563T82 581Q77 587 70 591T55 597T40 599T28 600V627Q48 625 70 624T130 623Q137 623 155 624T196 626Q217 628 236 628T264 629Q313 629 349 617T407 585T441 538T452 482Q452 459 446 438T424 399T384 366T322 344V342Q385 334 423 312T482 264T508 211T515 166Q515 139 505 110T469 55T397 13T280 -4Q272 -4 251 -4T206 -2Q182 -1 161 -1T130 0Q106 0 91 0T66 -1T47 -3T28 -5V23ZM342 465Q342 488 337 511T319 553T285 583T233 595Q217 595 213 592T206 580Q203 564 202 534T200 471T199 405T199 354Q241 351 269 358T313 381T335 418T342 465ZM407 160Q407 217 385 249T333 297T274 317T233 321Q225 321 216 321T199 319Q199 238 199 188T199 110T200 69T203 50Q206 36 216 33T255 29Q302 29 332 40T378 69T401 111T407 160Z"  />
<glyph unicode="C" horiz-adv-x="635" d="M570 20Q535 10 502 5T441 -4T396 -7T374 -8Q301 -8 239 16T132 83T60 185T34 315Q34 396 64 456T144 557T260 616T395 636Q426 636 455 632T518 614Q526 611 538 607T559 603Q567 603 573 605T586 611L599 607Q597 600 593 581T585 540T576 499T570 471L554 475Q552 491 551 501T547 520T542 533T534 544Q529 550 516 559T482 578T434 594T374 601Q319 601 281 584T218 540T180 480T160 416T153 359T152 320Q152 252 167 204T205 122T256 70T310 41T358 29T389 26Q455 26 506 59T579 158L602 155Q601 144 600 136T594 108Q593 105 591 99T587 85T583 70T581 61L570 20Z"  />
<glyph unicode="D" horiz-adv-x="740" d="M101 251Q101 265 101 297T100 367T98 440T95 494Q93 524 91 542T82 571T64 585T30 591V618L181 621Q196 621 217 623T260 626T302 629T336 631Q415 631 482 608T597 544T673 445T700 319Q700 266 681 210T617 106T502 29T325 -2Q316 -2 294 -1T247 0T201 2T171 3Q164 3 148 3T113 3T78 2T55 2H25V27Q49 28 64 31T87 50T98 97T101 185V251ZM576 316Q576 394 551 448T487 535T402 583T316 598Q299 598 272 595T211 575Q209 551 208 528T205 478T204 416T203 338Q203 321 203 287T203 213T204 131T206 59Q231 51 265 42T337 32Q387 32 430 52T506 110T557 199T576 316Z"  />
<glyph unicode="E" horiz-adv-x="573" d="M466 215H443Q438 247 434 265T413 292T365 303T273 305Q258 305 247 305T228 304T212 302T196 299Q196 294 196 273T195 229T194 187T193 167Q193 125 197 97T205 48Q230 43 265 39T343 34Q399 34 434 46T489 77T519 114T533 147H555Q553 126 550 109T543 74T531 38T512 -6Q462 -3 428 -2T366 2Q338 3 312 3T250 3Q215 3 189 3T136 1T82 -1T17 -6L20 20Q47 25 62 32T82 65Q86 86 88 125T91 209T93 294T94 360Q94 369 93 394T91 447T88 500T87 536Q85 557 83 569T75 588T60 598T37 605Q34 606 31 606T26 608V625H342Q368 625 389 625T429 625T468 627T512 630Q513 604 511 580T506 538T497 508T487 497Q483 497 477 498T466 500Q468 509 470 519T472 539Q472 568 439 581T331 594Q300 594 269 591T205 583Q202 560 201 542T198 505T196 469T195 428Q195 420 195 412T195 394T195 372T196 341Q213 340 237 339T287 338Q340 338 375 342T417 349Q423 352 428 361T436 380T441 398T443 406H466V215Z"  />
<glyph unicode="F" horiz-adv-x="531" d="M199 342Q227 340 250 339T296 338Q342 338 367 340T405 350T419 370T422 402L450 403Q451 389 451 371T452 328Q452 300 451 275T449 229L422 230Q421 251 420 263T413 282T396 292T362 299Q344 301 327 302T291 305T250 306T201 305L199 170V124Q199 97 200 80T212 51T242 34T302 25V0Q267 2 233 2T162 2Q135 2 96 2T25 0V24Q43 28 60 35T83 61Q88 78 91 111T95 183T97 256T97 313Q97 332 97 371T96 452T91 529T82 576Q74 593 53 597T15 603V627Q22 627 35 627T67 627T106 626T148 624Q192 623 230 623T285 622Q341 622 375 622T432 623T470 625T502 629Q500 616 499 605T497 579T495 545T494 499L468 498Q465 523 462 538T449 561Q436 570 415 575T370 584T323 588T284 589Q262 589 245 588T204 585Q203 575 203 561T202 533T201 504T201 478L199 342Z"  />
<glyph unicode="G" horiz-adv-x="688" d="M596 474Q591 485 579 506T544 547T484 583T392 598Q343 598 299 581T220 528T166 440T146 318Q146 249 168 196T227 105T310 48T405 28Q421 28 439 30T475 38T505 52T524 73Q530 85 531 107T532 142Q532 193 530 220T518 260T485 275T422 277L425 306Q435 306 460 306T514 307T568 308T603 309L672 312V284Q659 282 652 278T640 260T635 223T634 157Q634 118 635 96T640 63T647 47T657 38V24Q637 20 602 15T529 5T455 -3T394 -7Q290 -7 221 24T110 104T51 208T33 312Q33 396 67 456T156 556T277 615T409 634Q453 634 483 628T544 613Q556 611 561 614T583 633H600Q602 598 604 573T608 530T612 498T616 474H596Z"  />
<glyph unicode="H" horiz-adv-x="760" d="M196 180Q196 171 196 153T196 114T198 77T202 55Q210 38 230 31T271 19V-4Q261 -3 236 -3T184 -1Q157 0 135 0T107 1Q87 1 65 0T20 -4L11 19Q35 23 49 27T70 37T79 49T82 63Q86 93 89 140T94 239T97 340T98 424Q98 485 96 520T86 573T65 595T28 600L30 626Q38 628 47 628T66 628Q74 628 98 628T150 627Q179 626 204 625T240 624H285V600Q282 599 274 598T257 595T240 591T229 588Q221 585 217 577T208 541Q205 515 203 494T199 451T198 404T198 344Q224 344 264 344T349 343T434 342T501 341Q527 341 539 342T567 345Q567 365 567 387T568 441Q568 495 566 525T556 572T532 594T488 605L493 628Q504 627 515 627T542 624Q558 623 577 623T621 622Q670 622 695 624T738 628V605Q720 603 705 597T683 570Q680 560 678 531T674 463T671 379T670 293T669 218T669 169Q669 121 671 93T680 49T701 27T738 19L736 -4Q727 -2 715 -2T687 0Q671 1 652 1T610 1Q581 1 553 0T493 -4V19Q523 21 536 30T555 57Q559 72 561 98T565 157T567 224T567 294Q548 295 514 296T440 297T359 298T283 298T225 299T198 299L196 180Z"  />
<glyph unicode="I" horiz-adv-x="333" d="M8 25Q34 28 62 33T101 57Q108 70 112 103T117 176T119 253T120 311Q120 322 120 344T120 393T118 449T116 503T112 548T105 574Q103 578 100 582T87 591T61 598T16 601L17 628Q27 628 52 628T105 626Q133 624 155 624T181 623Q190 623 209 623T250 624T290 626T320 627V596Q283 596 268 593T244 581Q235 571 230 538T223 465T221 388T220 331Q220 314 220 275T220 193T222 114T226 67Q229 56 232 49T244 37T269 30T314 25L312 0L153 2Q97 3 64 2T8 0V25Z"  />
<glyph unicode="J" horiz-adv-x="333" d="M13 626Q21 626 43 625T89 624T137 622T169 621Q200 621 237 622T321 626L323 599Q285 595 265 590T236 561Q233 554 232 533T229 485T228 426T227 365T226 312T226 277Q226 271 226 253T226 209T227 156T227 101T228 53T228 22Q228 10 228 3T228 -13T228 -30T227 -54Q225 -57 220 -64T213 -73Q198 -93 177 -119T130 -169T79 -209T29 -225Q23 -225 13 -222T-6 -215T-23 -205T-30 -195Q-30 -190 -22 -183T-3 -168T19 -155T37 -149Q40 -149 46 -152T58 -158T71 -165T81 -168Q91 -168 97 -162T107 -148T113 -130T116 -113Q123 -60 125 29T127 230Q127 336 126 399T123 496T117 545T110 568Q100 588 75 593T15 600L13 626Z"  />
<glyph unicode="K" horiz-adv-x="615" d="M13 24Q26 26 43 30T69 52Q73 59 76 79T81 127T84 185T86 242T87 288T87 312Q87 320 87 340T87 387T86 444T84 499T82 543T79 567Q73 585 62 592T19 604L18 627Q25 627 43 627T82 626T120 625T145 624Q179 624 209 626T268 630V606Q245 602 224 597T198 579Q195 572 193 551T190 502T188 442T187 384T186 337T185 313L187 311L351 520Q354 523 359 530T370 546T380 562T385 574Q385 589 373 594T341 599V624L469 623Q486 623 508 624T559 627L560 602Q527 598 502 589T459 570T431 550T416 536Q414 533 408 527T394 513T380 499T370 490Q344 464 317 429T262 361Q267 356 284 338T324 293T375 237T429 179T476 129T510 95Q511 94 523 84T551 61T587 36T623 18V-4Q616 -3 610 -3T592 -1Q581 0 567 0T530 0Q498 0 462 0T394 -4L392 16Q406 18 415 20T425 31Q425 34 413 49T380 86T335 136T282 190T230 242T185 285Q185 278 185 259T185 216T186 164T188 113T190 72T195 50Q198 44 212 35T268 18V-6Q253 -4 241 -3T215 0Q201 2 184 2T142 2Q112 2 79 2T13 0V24Z"  />
<glyph unicode="L" horiz-adv-x="552" d="M545 131Q543 119 542 110T537 87T526 51T506 -9Q489 -6 475 -4T439 0Q418 2 386 2T303 3H25L23 28Q36 30 52 35T79 52Q85 60 88 69T94 106T96 184T97 327Q97 396 97 437T97 500T96 534T94 554Q92 570 86 579T72 592T53 598T31 601V625Q45 625 56 625T79 624T109 623T153 623Q181 623 200 623T233 623T260 624T286 626V600Q262 597 243 592T216 573Q212 567 210 549T206 506T203 454T201 400T200 353T200 320L199 166Q199 119 200 94T209 58Q215 47 233 45T287 43Q360 43 403 50T471 71T505 100T521 134L545 131Z"  />
<glyph unicode="M" horiz-adv-x="875" d="M125 419Q127 439 127 459T127 490Q127 521 121 541T102 573T67 591T14 602L15 629Q20 629 36 628T67 626Q104 624 125 623T160 622T185 621T213 622Q241 563 260 523T297 449T333 379T380 292Q384 285 395 265T419 223T440 184T450 166Q459 183 464 193T475 215T489 242T511 285L563 385L682 622H853V595Q825 591 808 586T781 569T768 535T764 473Q764 465 764 436T765 368T767 282T771 195T775 120T782 72Q785 60 789 52T802 40T825 33T861 29V3H738Q706 3 685 3T648 3T618 1T588 -1L585 25Q612 32 629 38T657 58T672 96T677 161Q677 198 676 240T673 327T669 414T664 493H662Q614 403 580 336T520 214T471 109T425 5H404Q394 37 385 61T362 116T323 194T258 317Q248 336 236 358T213 402T193 441T179 468H177Q177 456 177 448T176 432T174 415T172 391Q166 315 162 249T157 116Q157 92 159 76T170 50T197 34T248 22L246 0Q227 1 210 1T178 1Q163 2 150 2T124 2Q106 2 90 2T60 1Q46 0 34 0T7 -2L9 22Q45 27 64 38T94 71T107 124T113 201L125 419Z"  />
<glyph unicode="N" horiz-adv-x="750" d="M618 173Q618 185 618 213T619 274T620 334T621 373Q621 453 619 498T606 565T575 595T519 605L528 627Q533 628 539 628T553 629Q559 629 574 629T606 626Q623 624 639 623T661 622Q663 622 674 622T699 622T725 623T743 623V598Q732 599 715 596T689 576Q682 562 678 528T672 453T669 375T668 317Q668 304 668 274T667 209T666 145T665 104Q665 100 665 91T666 71T667 47T668 24L670 -14H640Q614 34 577 74T500 152L193 447Q183 457 173 467T152 485Q152 477 152 466T151 442T150 418T149 399L145 168Q145 133 146 109T158 67T190 39T255 22Q257 13 257 7T255 -5Q245 -4 236 -3T215 0Q204 1 191 1T160 2Q152 2 132 1T90 -1T48 -3T21 -5Q20 3 20 7T21 22Q45 22 58 29T79 51T89 88T92 143L97 436Q98 467 97 494T88 544T63 580T13 600Q12 608 12 613T13 630Q17 630 30 629T60 627Q76 626 90 626T111 625H158Q181 598 197 581T235 542T293 485T392 389Q427 354 461 321T532 254L618 173Z"  />
<glyph unicode="O" horiz-adv-x="740" d="M33 315Q33 388 62 447T139 547T248 611T375 634Q444 634 504 609T608 541T679 438T705 310Q705 247 681 188T614 84T508 12T369 -16Q290 -16 228 11T122 84T56 189T33 315ZM150 369Q150 307 165 245T210 133T285 52T391 20Q415 20 449 29T514 62T567 131T589 244Q589 276 584 315T566 393T535 468T489 533T427 578T347 595Q329 595 296 589T231 559T174 490T150 369Z"  />
<glyph unicode="P" horiz-adv-x="521" d="M189 149Q190 118 191 90T195 53Q201 36 227 30T283 23V-4Q270 -3 258 -2T231 0Q215 1 195 1T146 1Q132 1 118 1T90 -1Q63 -4 45 -4H21V19Q42 25 54 29T72 38T80 45T83 53Q86 62 87 86T89 137T90 189T90 229Q90 245 90 259T90 295T88 352T86 446Q85 502 83 533T73 578T51 596T12 601Q10 622 12 631Q18 630 33 630T67 629T105 628T138 628Q151 628 163 628T188 630Q201 631 213 631T238 632Q298 632 347 615T432 568T487 502T506 425Q506 400 494 366T450 300T365 246T229 223Q218 223 208 223T188 224L189 149ZM388 418Q388 469 375 503T342 559T296 589T247 598Q228 598 216 595T194 587Q191 528 190 492T188 424T187 357T188 266Q199 264 215 261T251 257Q256 257 268 258T295 263T327 278T356 305T379 350T388 418Z"  />
<glyph unicode="Q" horiz-adv-x="740" d="M802 -112Q785 -120 753 -131T658 -142Q605 -142 561 -130T480 -100T413 -59T358 -16Q326 -12 292 -7T223 13T156 52T93 119Q58 169 46 220T33 315Q33 390 63 449T141 549T250 612T372 634Q444 634 505 609T610 539T680 435T705 310Q705 205 651 129T502 9Q525 -7 556 -26T621 -61T689 -89T753 -101Q760 -101 768 -100T793 -96L802 -112ZM150 369Q150 307 165 245T210 133T285 52T391 20Q415 20 449 29T514 62T567 131T589 244Q589 276 584 315T566 393T535 468T489 533T427 578T347 595Q329 595 296 589T231 559T174 490T150 369Z"  />
<glyph unicode="R" horiz-adv-x="656" d="M19 17Q51 27 65 36T85 69Q87 76 88 97T90 149T92 213T93 280T94 337T94 376Q94 425 94 455T94 503T92 531T90 550Q88 567 80 576T62 589T42 595T23 597L27 623Q32 623 44 623T70 623T95 622T112 622Q122 622 145 623T194 627Q220 629 243 631T275 633Q336 633 379 618T450 578T489 524T502 466Q502 410 464 368T365 305Q407 225 443 167T514 71T583 14T655 -8V-34Q619 -35 575 -30T480 5T372 103T254 293Q234 294 224 294T194 297Q194 289 194 281T193 262T192 237T192 201Q192 189 192 166T193 120T197 76T205 47Q210 40 219 35T238 26T257 20T272 17L268 -7Q244 -4 229 -3T202 -1Q189 0 176 0T142 0Q127 0 116 0T93 -1T64 -3T19 -7V17ZM394 456Q394 469 390 494T370 543T328 585T255 603Q235 603 225 600T209 589T203 565T200 526Q198 490 198 468T197 426T196 386T197 332Q208 330 215 329T243 328Q261 328 287 330T336 344T377 382T394 456Z"  />
<glyph unicode="S" horiz-adv-x="490" d="M43 171Q47 153 52 138T68 108T96 82T141 56Q173 42 210 33T279 24Q288 24 304 26T337 39T366 70T378 127Q378 158 366 179T332 217T281 246T218 270Q184 282 154 296T102 332T66 381T52 450Q52 489 67 521T110 578T176 615T261 628Q269 628 289 626T332 622T374 618T399 616Q407 616 414 617T427 623L444 619Q444 616 443 607T442 588T441 570T440 561Q440 558 440 549T441 530T441 512T442 503V473H421Q415 505 401 527T369 563T332 585T295 596T266 600T250 601Q215 601 193 590T159 563T141 528T136 492Q136 473 141 457T161 425T203 394T276 363Q306 352 340 338T402 301T448 246T467 166Q467 141 459 111T425 54T356 9T239 -9Q201 -9 167 -5T96 7Q94 7 90 8T84 9Q77 9 76 6T74 0H47Q46 20 44 37T39 73T31 113T19 165L43 171Z"  />
<glyph unicode="T" horiz-adv-x="698" d="M620 551Q607 561 588 566T548 573T507 576T472 577Q458 577 449 577T433 577T421 576T409 574Q407 541 406 495T404 392T402 272T401 145Q401 105 403 83T411 50T427 35T455 28Q482 24 489 23T504 21L501 -4Q495 -4 481 -3T450 -1Q434 1 421 1T403 2Q367 2 344 2T300 0T256 -5T194 -14L185 12Q191 13 206 17T237 26T266 37T283 48Q286 52 288 70T291 114T294 169T295 224T296 272T296 301Q296 335 296 376T295 457T292 527T286 574Q275 575 267 575T249 576T226 577T193 577Q145 577 118 574T76 563T55 545T42 518L17 524Q36 571 44 597T57 639H74Q80 634 92 631T114 627Q129 625 161 624T230 623T301 622T355 622Q382 622 421 622T500 622T576 624T636 626Q647 627 650 628T659 632L674 623Q668 606 659 578T646 518L616 513L620 551Z"  />
<glyph unicode="U" horiz-adv-x="708" d="M91 487Q90 527 87 548T76 580T55 594T20 599V622H287L293 599Q291 599 286 599T277 597Q247 592 230 585T204 553T193 476T191 330Q191 265 193 222T202 150T219 106T244 77Q276 51 312 44T373 37Q379 37 402 38T454 49T510 77T551 131Q559 153 564 184T573 253T577 335T579 426Q579 487 575 520T561 569T535 588T494 594L490 622L544 624Q555 624 568 623T597 622H695V594Q678 593 660 590T636 573Q633 567 632 547T630 503T629 458T629 426Q629 393 627 347T619 254T607 164T587 96Q571 62 541 42T476 10T403 -4T338 -8Q303 -8 260 -2T179 24T115 84T89 189Q89 199 90 225T91 280T93 335T94 373L91 487Z"  />
<glyph unicode="V" horiz-adv-x="708" d="M132 461Q106 513 91 541T64 583T40 598T6 602V623H264V597Q244 596 233 596T215 593T207 588T205 578Q205 569 212 547T240 478T295 349T387 140Q391 150 394 157T401 173T411 194T427 228Q434 242 446 269T474 331T506 402T536 473T558 531T567 567Q567 577 562 583T548 593T531 598T515 600L518 626Q544 624 565 624T606 623T650 622T704 622L705 598Q686 593 671 586T642 566T615 531T585 478L453 210Q436 176 411 117T367 -11L344 -16Q339 -3 331 19T313 63Q302 89 290 116L132 461Z"  />
<glyph unicode="W" horiz-adv-x="990" d="M977 601Q957 597 944 593T921 581T904 564T888 541Q879 526 862 484T825 387T781 269T737 149T698 45T671 -23H650Q647 -15 642 0T634 22Q605 113 572 202T505 382Q460 285 432 222T387 116T360 41T340 -23H317Q312 -14 302 15T279 85T248 177T214 278T178 380T142 471T111 540T85 578Q68 592 55 595T15 600V625Q29 625 49 625T90 623Q111 622 130 622T163 622Q171 622 190 622T232 623H298L301 596Q272 591 257 587T235 579T226 569T225 556Q225 550 232 527T250 469T277 392T307 307T338 224T365 154Q382 195 395 226T422 287T450 352T486 433Q464 489 450 520T424 568T399 588T365 595L363 622H443Q472 622 501 622T555 622T599 623T629 624L631 599Q588 592 574 585T559 561Q559 549 568 518T590 445T620 358T652 271T680 197T698 151Q710 181 724 218T752 295T779 374T803 446T820 505T826 542Q826 563 816 574T792 591T763 597T737 598L731 624Q760 623 793 623T860 623Q894 623 925 624T980 628L977 601Z"  />
<glyph unicode="X" horiz-adv-x="708" d="M319 304Q303 327 291 343T264 380T225 430T165 508Q132 551 103 577T30 606V630Q48 629 65 629T101 627Q120 626 139 626T181 625Q205 625 231 625T290 627L294 601Q261 599 253 596T245 582Q245 577 255 561T280 523T312 477T346 432T372 397T385 381Q438 448 473 497T509 570Q509 592 491 597T444 605L449 630Q488 628 512 627T558 625T604 624T667 624V600Q642 598 625 593T590 574T552 536T497 471Q494 468 487 459T471 438T454 418T443 405L404 354Q416 337 431 316T461 274T492 231T520 193Q562 134 586 102T629 53T662 31T699 23L702 -3Q671 -1 638 0T558 2Q514 2 487 1T431 -3L427 23Q450 28 462 32T480 39T487 46T488 54Q488 63 474 87T437 142T389 209T340 277Q336 272 323 257T292 221T257 176T222 130T196 88T186 59Q186 40 205 34T251 25V-3Q237 -2 225 -1T201 0T175 1T143 1Q99 1 71 1T15 -2L17 22Q48 27 71 37T122 73T189 145T292 270L319 304Z"  />
<glyph unicode="Y" horiz-adv-x="698" d="M414 294Q414 285 414 265T414 219T414 167T415 117T416 76T418 54Q420 46 430 40T453 30T479 22T501 18L499 -5Q487 -3 472 -2T439 0Q406 3 372 3Q364 3 343 2T298 -1Q275 -3 255 -4T227 -5L228 18Q251 20 265 23T288 32T300 43T306 57Q308 65 309 91T311 149T312 209T312 251Q312 260 312 266T311 286Q299 305 287 324T258 368T215 429T150 517Q136 535 123 550T94 576T61 594T19 601L15 625Q23 625 41 625T82 624Q104 623 123 623T150 622L287 624L283 597Q280 597 271 597T253 595T237 590T230 579Q230 572 248 544T292 478T348 402T400 336Q447 410 473 452T513 516T529 548T532 565Q532 576 526 582T511 591T491 595T470 596L473 625Q480 625 492 625T521 623Q536 622 552 622T581 621Q587 621 601 621T631 622T661 622T681 623L680 591Q654 591 633 584T587 552T531 483T455 362L414 294Z"  />
<glyph unicode="Z" horiz-adv-x="615" d="M277 179Q265 162 250 142T221 102T195 65T177 39Q187 38 197 37T222 36T255 35T304 34Q363 34 409 37T491 52T551 82T592 135L614 125L555 -19H540Q540 -5 503 -3T381 1Q357 1 334 1T290 2T253 2T229 2Q213 2 187 2T131 2T69 0T9 -3V11Q48 49 95 105T190 225T283 351T363 465T420 549T442 584Q430 585 419 586T395 588T365 589T324 590Q241 590 191 587T111 575T65 549T34 501L13 512Q24 544 33 582T46 651H65Q69 642 73 637T87 628T114 623T164 622H592V609Q541 545 487 471T381 324L277 179Z"  />
<glyph unicode="[" horiz-adv-x="333" d="M297 -272H76V657H297V597H137V-212H297V-272Z"  />
<glyph unicode="\" horiz-adv-x="566" d="M547 -279H481L19 664H85L547 -279Z"  />
<glyph unicode="]" horiz-adv-x="333" d="M36 -272V-212H197V597H36V657H257V-272H36Z"  />
<glyph unicode="^" horiz-adv-x="583" d="M72 294L273 645H313L510 294H432L288 544L147 294H72Z"  />
<glyph unicode="_" horiz-adv-x="500" d="M0 -75H500V-125H0V-75Z"  />
<glyph unicode="`" horiz-adv-x="333" d="M203 452L36 615L147 614L233 452H203Z"  />
<glyph unicode="a" horiz-adv-x="385" d="M385 22Q371 19 359 16T323 5Q309 0 292 -5T267 -11Q256 -11 248 -6T235 6T226 22T221 36Q169 5 132 -3T85 -12Q61 -12 48 -3T28 19T21 44T20 61Q20 99 32 115T70 142Q118 162 157 169T221 180Q222 192 223 205T224 238Q224 274 220 287T204 310Q191 321 178 325T158 330Q149 330 139 323T129 302Q129 300 130 295T133 281L46 246Q44 252 42 258T40 270Q40 293 64 312T119 346T178 369T215 378Q235 378 255 366T290 338Q300 327 308 306T316 238Q316 230 315 210T313 166T311 123T310 93Q310 61 316 50T334 38Q343 38 350 40T376 49Q378 50 381 51T385 52V22ZM109 91Q109 68 120 50T150 31Q161 31 177 39T205 53L217 60Q217 66 217 78T218 103T220 128T221 143Q217 144 209 145T194 146Q183 146 168 143T140 133T118 116T109 91Z"  />
<glyph unicode="b" horiz-adv-x="469" d="M156 342Q158 343 162 344T172 347Q195 355 209 360T234 368T254 372T275 373Q308 373 338 361T391 326T427 273T441 207Q441 161 421 122T368 55T297 10T218 -7Q202 -7 185 -4T157 2L128 10Q124 11 115 13T96 15Q81 15 72 8T58 -4L47 5Q54 28 58 65T64 143T66 223T67 290Q67 301 67 328T68 386T68 444T69 481Q69 504 69 523T64 555T50 575T25 582Q19 582 13 581T4 580V605Q16 608 35 614T76 629T117 648T150 668L169 658Q166 635 164 606T160 546T157 485T156 430V342ZM345 145Q345 169 340 201T322 262T288 312T234 333Q211 333 190 325T156 310Q152 272 152 237T151 165Q151 159 151 147T151 121T152 96T155 80Q157 75 165 68T187 53T216 40T252 34Q290 34 317 63T345 145Z"  />
<glyph unicode="c" horiz-adv-x="375" d="M350 46Q338 37 323 28T290 10T252 -3T209 -9Q202 -9 186 -8T150 -2T109 13T70 42T41 89T30 157Q30 204 49 244T98 315T164 362T236 379Q256 379 277 375T316 365T345 352T357 339Q357 337 352 328T340 308T324 289T309 281Q304 281 291 288T266 302Q255 309 236 316T192 323Q146 323 128 297T109 231Q109 198 120 164T150 101T195 55T250 37Q279 37 301 48T339 69L350 46Z"  />
<glyph unicode="d" horiz-adv-x="479" d="M260 608Q295 619 337 635T409 670L430 664Q427 651 425 634T419 588T414 512T409 393Q407 290 406 233T404 158Q404 153 404 133T405 90T407 48T411 25Q413 20 416 20T421 19Q426 19 442 23T477 33V9Q473 8 454 3T412 -9T365 -19T328 -24Q324 -24 321 -23T316 -16T312 2T311 38Q291 26 261 12T184 -2Q159 -2 133 6T84 32T48 78T34 148Q34 195 47 230T82 290T130 332T181 358T226 372T256 376Q276 376 292 373T322 367Q322 374 322 393T323 434T324 471T325 488Q325 524 324 544T319 575T309 587T291 590Q280 590 274 589T260 586V608ZM311 131Q311 137 311 148T312 173T313 201T314 224L317 270Q318 288 313 293T299 303Q293 306 280 310T252 318T222 325T195 328Q183 328 169 320T143 297T123 263T115 224Q115 203 122 173T144 114T185 65T245 45Q270 45 285 53T311 70V131Z"  />
<glyph unicode="e" horiz-adv-x="385" d="M126 192Q132 139 148 107T183 59T219 37T245 32Q274 32 300 43T351 70L363 51Q351 43 335 33T298 14T252 -1T198 -8Q156 -8 125 6T74 43T44 96T34 158Q34 205 51 244T94 312T152 357T210 373Q245 373 278 358T328 316Q338 301 344 292T354 279T362 273T371 272V246L126 192ZM225 243Q243 248 251 251T259 264Q259 268 255 279T241 301T218 322T182 331Q155 331 140 303T126 220L225 243Z"  />
<glyph unicode="f" horiz-adv-x="313" d="M322 318H183Q183 310 183 293T182 256T182 219T181 195Q181 185 181 177T181 155T182 121T184 65Q185 41 191 34T223 27H272V0H25V27Q32 28 40 29T57 33T73 41T83 58Q86 66 87 91T89 147T90 205T91 245Q91 270 91 284T88 306T81 316T67 318H29V359H90Q93 430 101 475T128 549Q141 571 164 592T214 629T269 656T323 666Q336 666 355 663T391 654T421 640T433 623Q433 618 429 609T419 591T406 576T391 569Q383 569 375 572T351 584Q331 595 317 601T294 610T278 613T266 614Q236 614 220 597T195 547T186 467T183 359H322V318Z"  />
<glyph unicode="g" horiz-adv-x="427" d="M373 220Q373 190 363 168T334 127T293 95T244 70Q213 56 194 47T163 30T148 17T144 5Q144 -8 158 -13T187 -18Q189 -18 202 -18T230 -16T260 -15T279 -14Q299 -14 323 -17T368 -31T403 -61T418 -112Q418 -148 396 -179T337 -233T256 -269T164 -282Q126 -282 98 -273T51 -250T23 -219T14 -183Q14 -159 23 -141T45 -109T71 -88T94 -75Q70 -55 62 -37T50 5Q60 14 68 19T85 29T108 39T142 52L162 59V61Q115 71 88 91T48 132T32 174T29 206Q29 240 44 270T84 324T142 361T214 375Q250 375 269 367T303 349Q342 359 368 360T402 362Q411 362 416 362T428 360Q428 340 426 327T416 291Q404 296 396 299T380 303T363 305T341 307Q352 293 362 273T373 220ZM100 251Q100 215 116 189T154 144T198 113T235 95Q246 104 255 112T272 131T284 155T288 185Q288 209 281 236T259 286T225 324T180 340Q148 340 124 317T100 251ZM219 -106Q172 -106 153 -101T123 -90Q110 -99 96 -113T81 -151Q81 -163 88 -177T112 -204T155 -225T218 -234Q246 -234 271 -229T316 -214T348 -188T360 -151Q360 -136 355 -127T341 -112T322 -106T302 -104L219 -106Z"  />
<glyph unicode="h" horiz-adv-x="490" d="M17 606L68 624Q85 630 97 634T119 643T138 653T162 667L185 659Q182 635 179 607T173 540T170 448T168 319Q206 338 245 350T322 363Q358 363 378 347T407 296T417 209T419 82Q419 64 419 54T421 37T427 29T439 27Q440 27 445 27T458 25T472 24T483 23V-2Q451 -1 420 -1T361 -3T315 -5T286 -6L283 14Q302 19 312 24T326 43T332 80T333 150Q333 190 331 220T321 272T300 303T264 314Q251 314 237 311T210 304T185 295T168 288Q167 272 166 238T164 170T163 109T162 82Q162 61 164 50T172 33T191 26T223 23V-2Q213 -2 200 -2T174 -1T148 0T129 0Q92 0 64 -2T17 -7V18Q37 25 47 30T63 42T70 62T73 95Q74 120 76 167T79 271T81 386T82 491Q82 506 82 523T78 554T68 577T48 586Q40 586 33 584T17 578V606Z"  />
<glyph unicode="i" horiz-adv-x="260" d="M29 316Q47 320 63 324T95 336T129 355T169 382L189 374Q186 363 184 349T179 313T175 256T173 169Q173 158 173 139T174 101T178 64T185 38Q188 33 193 31T211 28Q229 27 235 27T249 26L255 0H174Q138 0 102 0T29 -5L33 26Q59 30 69 34T81 46Q83 54 84 76T86 123T87 171T88 206Q88 235 87 252T82 278T72 290T53 293Q51 293 42 292T29 291V316ZM200 575Q200 552 185 537T146 521Q123 521 108 536T92 575Q92 597 107 612T146 628Q169 628 184 613T200 575Z"  />
<glyph unicode="j" horiz-adv-x="250" d="M67 -173Q77 -157 82 -141T89 -103T92 -52T93 18Q93 39 93 76T91 154T86 228T77 277Q69 295 52 295Q44 295 37 294T25 290L13 313Q37 321 52 326T82 338T112 353T155 376Q160 378 166 380T174 383L192 378Q188 361 186 346T182 307T179 248T178 151Q178 140 178 113T179 55T180 -1T181 -38Q181 -74 180 -98T173 -140T154 -174T117 -209Q97 -226 85 -236T66 -254T55 -269T47 -289L25 -279Q25 -264 27 -248T43 -211L67 -173ZM145 636Q167 636 183 621T199 582Q199 559 183 544T145 529Q122 529 107 544T91 582Q91 605 107 620T145 636Z"  />
<glyph unicode="k" horiz-adv-x="479" d="M7 23Q11 24 18 25T34 29T49 37T61 52Q64 59 66 83T69 139T72 209T73 281T74 341T74 380Q74 407 74 437T73 494T69 543T62 575Q55 588 41 588Q37 588 28 585T11 580V605Q29 611 52 619T96 635T135 651T161 666L182 665Q177 646 173 612T166 537T162 449T160 360T159 281T158 223Q170 229 188 242T223 270T252 299T264 323Q264 336 253 339T233 343L234 364Q241 364 260 364T300 363T339 363T365 362Q378 362 397 362T436 364V338Q405 336 379 329T330 309T286 281T241 246Q284 194 313 159T363 100T398 63T424 40Q443 26 453 24T473 21L472 -1Q452 1 434 1T400 2H361Q346 2 336 2T317 2T301 0T283 -2V21Q290 23 297 25T305 35Q305 41 296 55T272 86T241 123T209 158T183 184T170 195Q162 195 160 189T157 178Q157 129 157 102T158 62T160 45T163 39Q166 36 173 33T188 29T204 26T215 24V1Q203 2 194 2T176 3T156 3T130 3Q127 3 118 3T97 3T72 3T49 1L7 -1V23Z"  />
<glyph unicode="l" horiz-adv-x="260" d="M10 20Q32 22 50 33T76 64Q79 72 81 98T84 160T87 237T89 315T90 382T91 424Q91 436 91 457T90 499T87 539T81 566Q74 578 63 580T46 582Q39 582 35 582T23 580L22 603Q32 606 51 613T94 629T141 647T181 666H200Q194 645 190 609T183 530T179 440T177 347T176 261T176 192Q176 139 177 98T188 46Q194 39 203 35T222 27T241 23T256 21V-5Q230 -3 198 -1T127 2Q104 2 78 1T9 -3L10 20Z"  />
<glyph unicode="m" horiz-adv-x="729" d="M168 174Q168 146 168 122T169 88Q169 70 170 59T178 42T195 32T228 25V-1Q220 0 215 0T205 1Q200 2 196 2T187 2Q144 2 117 2T71 2T39 1T12 -1V25Q34 28 48 36T69 61T78 103T81 164Q81 216 78 245T67 287T46 303T12 307V331Q50 338 86 350T158 377L170 372Q170 369 170 362T169 345T169 327T170 311Q218 338 255 352T327 367Q361 367 379 349T406 311Q450 331 487 343T563 356Q592 356 613 344T645 306Q649 297 651 291T654 271T655 233T656 164Q656 162 656 144T656 105T656 66T657 47Q660 37 672 34T724 25V1Q719 1 715 1T699 3Q696 3 672 3T617 3T556 1T513 -1L507 25Q524 27 536 31T555 49T566 90T570 168Q570 242 554 273T496 305Q468 305 447 298T411 285Q412 276 413 262T415 230Q415 215 415 184T416 120T419 62T424 33Q428 28 444 27T471 25V-1Q452 1 441 2T415 3Q406 3 385 3T341 1T297 0T268 -1L263 25Q284 29 296 34T315 52T324 85T326 142Q326 227 316 270T265 313Q239 313 213 302T168 279V174Z"  />
<glyph unicode="n" horiz-adv-x="490" d="M421 54Q422 39 428 36T457 28Q462 27 468 26T477 24V-1Q458 1 431 2Q417 3 402 3T368 3Q334 3 311 2T269 -1V24Q287 28 299 33T318 53T328 100T331 187Q331 257 319 285T266 313Q234 313 210 302T170 283Q170 274 170 253T169 208T169 163T168 134Q168 101 168 82T171 51T179 36T194 30Q199 29 208 28T230 24V-1Q201 0 179 1T133 2T81 3T14 3V27Q38 33 51 38T70 56T77 96T79 172Q79 181 79 198T78 235T74 270T66 292Q60 298 53 299T19 305L14 329Q82 343 116 359T159 375L170 369V314Q180 320 196 329T231 346T274 361T320 367Q358 367 378 353T408 317T419 273T421 233V54Z"  />
<glyph unicode="o" horiz-adv-x="458" d="M25 171Q25 219 43 256T91 319T158 358T235 371Q277 371 313 358T377 319T419 260T434 184Q434 143 418 108T374 46T308 5T224 -11Q180 -11 143 3T80 42T40 100T25 171ZM126 222Q126 180 134 143T158 79T195 35T244 18Q265 18 282 28T310 55T328 94T334 141Q334 154 331 186T315 253T280 314T218 341Q204 341 188 336T159 317T136 280T126 222Z"  />
<glyph unicode="p" horiz-adv-x="490" d="M84 211Q84 230 83 247T79 277T68 297T48 305Q41 305 35 304T11 295L6 318Q14 322 29 328T61 342Q84 351 97 356T119 365T135 373T154 383L167 380Q169 371 170 359T174 322Q188 329 205 337T239 352T273 363T303 368Q322 368 348 358T398 326T439 270T456 187Q456 149 444 120T411 70T367 34T318 10T274 -3T242 -7Q222 -7 204 -2T174 7Q174 -8 174 -31T173 -78T172 -122T172 -149Q172 -182 173 -201T180 -230T201 -243T242 -246H255V-273Q210 -273 183 -273T134 -273T88 -276T27 -283V-257Q47 -257 58 -252T75 -221T82 -144T84 -1V211ZM370 146Q370 168 363 197T341 252T302 297T245 315Q222 315 207 308T174 291Q174 279 174 249T174 185T174 120T174 76Q177 73 190 67T221 53T257 41T288 35Q326 35 348 67T370 146Z"  />
<glyph unicode="q" horiz-adv-x="469" d="M399 -163Q399 -190 400 -209T408 -237Q410 -239 412 -240T421 -243T437 -246T466 -249V-272H389Q370 -272 356 -272T326 -273T288 -275T232 -279V-249Q257 -246 272 -243T294 -227T304 -189T306 -118V17Q292 11 262 -1T193 -14Q167 -14 139 -5T87 25T48 75T32 149Q32 207 56 248T115 317T192 356T266 369Q310 369 348 351Q351 350 356 348T367 346Q370 346 378 350T394 361T409 371T416 376L428 368Q420 352 415 331T406 276T401 190T399 62V-163ZM121 188Q121 155 131 126T157 75T195 41T239 28Q262 28 278 35T306 49Q307 66 308 100T310 172T311 244T310 293Q298 305 286 312T263 324T242 329T229 330Q213 330 195 323T160 300T132 256T121 188Z"  />
<glyph unicode="r" horiz-adv-x="354" d="M18 325Q27 327 45 331T85 343T129 360T168 384H176Q176 380 176 369T176 346T176 324T176 309Q181 312 198 321T236 342T274 363T300 377Q304 374 306 373T317 367Q331 361 339 351T347 326Q347 306 327 290T270 271Q268 282 264 295T243 308Q223 308 206 294T176 263Q174 216 174 183T174 135Q174 99 176 71T189 34Q194 31 201 31T216 30H280V3Q258 2 228 2T163 0T92 -1T24 -3V19Q46 21 58 27T77 53T84 107T85 204Q85 233 84 251T79 280T66 295T43 299Q36 299 31 299T18 297V325Z"  />
<glyph unicode="s" horiz-adv-x="333" d="M285 268L260 267Q257 282 245 295T218 317T188 331T164 336Q141 336 130 324T119 296Q119 278 132 267T185 237Q206 226 226 215T263 188T290 152T301 103Q301 80 295 66T279 42T259 27T239 16Q202 2 174 -2T134 -7Q113 -7 88 -1T29 15Q31 20 32 24T34 39Q34 59 30 80T22 113H47Q59 86 74 69T106 43T139 31T170 28Q191 28 206 38T222 69Q222 100 198 118T127 159Q79 183 60 203T40 253Q40 277 52 297T84 333T132 357T192 366Q212 366 231 364T267 360L285 268Z"  />
<glyph unicode="t" horiz-adv-x="313" d="M315 48Q278 22 236 7T148 -8Q115 -8 97 3T70 32T61 72T59 115Q59 122 59 149T61 209T62 270T63 312Q45 314 37 315T12 316V338Q35 350 52 361T86 387T121 421T166 469L159 365Q166 365 182 365T217 364T252 364T275 363Q280 363 285 363T301 365V323Q293 322 281 321T250 321L185 322Q168 323 164 321T158 315Q157 312 156 291T155 242T154 186T153 142Q153 127 154 110T161 77T179 52T215 41Q240 41 262 48T307 65L315 48Z"  />
<glyph unicode="u" horiz-adv-x="479" d="M471 14Q442 8 423 4T388 -3T361 -10T332 -18Q325 2 323 13T319 44Q314 42 304 37T283 27T261 16T247 10Q227 2 207 -3T167 -8Q138 -8 119 3T87 32T70 75T65 125Q65 132 66 151T67 190T69 229T70 253Q70 273 66 286T51 300Q48 300 43 300T19 294Q15 292 12 292V325Q32 330 47 334T78 343T109 353T145 366Q147 366 152 368T159 370Q162 369 168 365Q159 277 158 223T156 164Q156 145 157 125T164 87T184 58T223 46Q243 46 261 51T306 71Q308 72 312 74T319 77Q319 86 320 112T321 166T323 216T324 238Q324 263 321 277T310 299T291 308T263 310V337Q265 338 269 338T277 340Q305 344 323 347T355 353T383 360T415 370Q418 368 420 365Q420 364 419 348T417 306T414 251T411 193T408 143T407 110Q407 84 410 66T415 32Q433 35 443 37T471 44V14Z"  />
<glyph unicode="v" horiz-adv-x="417" d="M13 356Q28 356 51 356T101 356T157 356T216 358L214 333Q195 331 179 327T163 312Q163 310 168 292T183 247T206 184T236 113Q247 132 260 157T285 209T305 258T313 297Q313 322 299 326T265 332L267 357Q273 357 286 357T315 357T343 356T362 356Q375 356 383 356T411 358V336Q396 328 385 318T365 297T353 278T347 266Q327 224 315 199T294 154T277 119T257 80Q248 62 242 49T230 24T220 2T210 -22H189Q184 -4 174 24T152 86T125 152T99 215T76 266T62 297Q55 311 46 318T13 335V356Z"  />
<glyph unicode="w" horiz-adv-x="625" d="M435 120Q444 136 458 162T487 216T511 269T521 308Q521 327 510 332T481 337L484 359H622V339Q608 334 598 326T578 305T558 273T533 228Q504 175 485 139T452 79T432 41T421 17Q416 6 414 -2T409 -17H386Q384 -11 379 5T368 40T358 72T353 88L307 224L186 -17H163Q160 0 152 29T134 92T111 161T87 227T65 280T48 310Q36 323 24 328T4 335V356L45 358Q49 358 60 358T84 357T108 357T125 356Q136 356 150 357T192 360L188 332Q175 330 167 327T159 310Q159 300 168 271T188 211T208 155T219 127L234 155Q241 169 249 185T266 216T280 245T289 268Q283 284 279 294T268 312T254 323T230 331L231 356H299Q306 356 323 356T360 358Q380 359 397 359T422 360V336Q399 333 388 328T377 307Q377 299 382 282T390 256L435 120Z"  />
<glyph unicode="x" horiz-adv-x="417" d="M257 358Q260 358 270 358T293 357Q306 356 318 356T335 355Q350 355 359 355T375 355T385 355T395 357L396 334Q377 331 358 317T321 285T286 245T254 204Q261 195 276 172T308 124T340 76T362 46Q373 33 381 29T406 23V-4Q400 -3 395 -3T384 -1Q378 0 372 0T358 0H228L222 23Q247 24 253 25T259 34Q259 37 251 52T231 85T211 119T198 139Q187 127 176 113T154 84T138 59T131 42Q131 30 144 28T171 25L173 0H10L11 27Q28 27 42 31T75 50T117 92T180 165Q168 185 154 207T127 251T100 289T76 315Q63 326 52 328T22 332L24 357Q52 356 73 356T112 356Q152 356 170 357T204 360L210 333Q205 332 196 330T187 318Q187 315 192 305T205 283T222 257T238 232Q241 235 249 245T267 267T284 292T292 311Q292 325 279 328T248 333L257 358Z"  />
<glyph unicode="y" horiz-adv-x="427" d="M-6 -252Q20 -248 39 -238T77 -204T116 -140T164 -34Q156 -2 151 19T137 65T117 124T85 216Q74 246 67 267T51 302T32 323T6 333V361Q14 360 23 359T44 357Q56 357 71 357T104 356Q138 356 158 357T196 361V333Q192 332 186 331T174 326T164 318T160 303Q160 292 165 269T178 216T199 152T225 84Q268 157 290 212T313 287Q313 300 307 308T292 320T272 328T250 333L260 360Q288 357 311 357Q323 356 334 356T358 356H417V333Q405 329 397 324T381 306T361 274T332 220Q286 136 254 72T199 -41T162 -125T138 -187T124 -236T114 -278H-6V-252Z"  />
<glyph unicode="z" horiz-adv-x="406" d="M265 189Q240 158 209 118T149 36Q183 34 196 33T221 32Q265 32 293 41T337 64T362 92T374 117H394Q389 78 381 44T365 -5Q342 -3 328 -2T304 1Q295 2 288 2T270 2H66Q64 2 57 2T41 0Q33 -1 27 -1T19 -2L10 16Q39 44 73 85T142 169T205 254T255 325H195Q150 325 123 322T78 313T52 297T35 274H6Q17 299 26 321T38 373Q49 370 60 367T85 362Q99 360 115 359T154 357H394Q388 348 383 341T369 323T346 293T307 242L265 189Z"  />
<glyph unicode="{" horiz-adv-x="480" d="M108 212Q140 216 161 228T196 256T214 288T220 317Q220 325 217 346T209 392Q205 416 201 437T197 468Q197 498 208 529T243 586T301 632T381 657V640Q334 629 302 601T270 524Q270 516 273 495T281 449T289 402T293 371Q293 360 289 339T269 293T226 245T148 204V202Q186 188 213 169T258 126T284 79T293 33Q293 25 290 4T282 -43Q278 -67 274 -89T270 -120Q270 -169 301 -196T381 -236V-253Q336 -247 302 -228T245 -183T209 -126T197 -63Q197 -55 200 -34T208 12T216 57T220 88Q220 101 215 117T196 148T162 176T108 192V212Z"  />
<glyph unicode="|" horiz-adv-x="531" d="M233 750H298V-250H233V750Z"  />
<glyph unicode="}" horiz-adv-x="480" d="M372 192Q340 187 319 175T284 148T266 116T260 87Q260 79 263 58T272 12Q276 -12 279 -33T283 -64Q283 -94 272 -125T237 -182T179 -228T99 -253V-236Q146 -225 178 -198T210 -120Q210 -112 207 -91T199 -45T191 2T187 33Q187 44 191 65T211 111T254 159T332 200V202Q294 215 267 235T222 278T196 325T187 371Q187 379 190 400T199 447Q203 471 206 493T210 524Q210 573 179 600T99 640V657Q144 651 178 632T235 587T271 530T283 467Q283 459 280 438T272 392T264 347T260 316Q260 303 265 287T284 256T318 228T372 212V192Z"  />
<glyph unicode="~" horiz-adv-x="667" d="M70 194Q71 222 78 248T100 296T137 329T192 342Q200 342 210 341T241 335T294 317T378 283Q404 272 421 266T450 256T469 253T483 252Q495 252 509 255T536 268T559 295T572 341H597Q596 302 585 274T556 228T516 202T471 193Q457 193 444 195T412 203T364 220T288 251Q243 270 221 276T183 282Q156 282 140 272T114 248T101 219T95 194H70Z"  />
<glyph unicode="&#xA0;" horiz-adv-x="260" />
<glyph unicode="&#xA1;" horiz-adv-x="208" d="M76 20Q78 31 79 38T81 51T84 65T88 84Q93 111 94 119T98 140H126Q125 122 125 92T124 6Q124 -5 124 -31T125 -88T128 -146T133 -187Q136 -199 141 -204T153 -214L148 -230Q121 -235 92 -243T36 -263L27 -252Q27 -251 30 -234T37 -192T47 -138T56 -84T64 -42T68 -24L76 20ZM46 273Q57 281 67 288T90 311Q100 323 105 327T116 331Q124 331 128 327T140 308Q147 297 153 291T168 279Q173 276 178 272T184 261Q184 256 179 251T168 242Q165 239 158 231T142 214T126 198T113 191Q107 191 104 194T93 210Q92 211 88 216T80 226T70 236T62 244Q60 246 54 250T44 258L46 273Z"  />
<glyph unicode="&#xA2;" horiz-adv-x="385" d="M283 374Q290 372 302 369T327 361T348 351T357 339Q357 337 352 328T340 308T324 289T309 281Q306 281 300 284T287 291T273 299T262 305L188 60Q199 52 213 45T248 37Q277 37 301 48T339 69L350 46Q321 26 287 9T206 -9Q195 -9 188 -8T169 -4L128 -141L98 -132L138 4Q122 10 103 18T68 43T41 87T30 157Q30 201 48 242T97 314T168 363T251 379L280 477L311 467L283 374ZM232 317Q222 319 213 321T191 323Q168 323 152 316T127 296T113 267T109 231Q109 203 115 180T129 139T147 107T163 85L232 317Z"  />
<glyph unicode="&#xA3;" horiz-adv-x="510" d="M476 113Q472 104 469 99T462 87T452 73T434 52Q419 33 409 21T389 3T371 -6T347 -9Q346 -9 324 -7T274 -1Q245 2 219 4T183 7Q150 7 128 5T91 -2T66 -10T49 -19L30 0Q36 6 50 20T79 51T108 84T126 112Q136 134 137 178T139 305L67 304Q52 303 39 304T17 307L33 339Q41 336 47 335T67 333L122 334L138 335Q139 366 141 397T150 458T174 516T219 568Q234 580 252 592T291 613T333 628T374 634Q384 634 400 631T453 610Q456 607 462 607Q463 607 468 608T481 616L496 600Q492 595 482 584T459 561T437 537T423 519Q400 544 381 557T346 577T322 585T311 586Q294 586 277 575T245 538Q239 527 236 516T232 484T230 429T228 338Q252 338 279 339T335 341T391 344T441 350Q443 339 440 331T431 315Q420 313 392 313T331 311T269 310T228 309Q228 259 226 230T217 180T194 140T153 89Q151 87 146 80T138 71Q149 72 161 72T190 73Q198 73 217 72T258 70T299 68T325 67Q356 67 375 69T407 77T430 95T453 125L476 113Z"  />
<glyph unicode="&#xA4;" horiz-adv-x="688" d="M211 463Q230 476 261 491T344 507Q395 507 426 492T477 463L539 525L582 481L520 419Q533 401 549 370T565 287Q565 261 561 241T549 204T534 176T520 154L582 92L539 49L477 110Q458 97 427 82T344 66Q292 66 261 81T211 110L149 49L105 92L168 154Q154 172 139 203T123 287Q123 338 138 369T167 420L105 481L149 525L211 463ZM503 287Q503 320 491 348T456 398T406 432T344 445Q311 445 282 433T232 399T198 349T185 287Q185 254 197 225T231 175T282 141T344 128Q377 128 405 140T456 174T490 225T503 287Z"  />
<glyph unicode="&#xA5;" horiz-adv-x="698" d="M411 195H618V163H411Q411 121 411 91T414 52Q415 44 425 38T449 28T475 20T497 16L495 -7Q470 -5 435 -2T368 1Q360 1 340 0T296 -3Q273 -5 253 -6T223 -8L224 16Q247 18 261 21T284 30T296 41T302 55Q304 63 305 92T309 163H91V195H308V299H91V331H286Q237 401 206 450T155 530T120 576T90 592Q80 594 71 596T51 598L47 621Q51 621 68 621T107 620T147 619T174 618L311 620L307 594Q304 594 295 594T277 592T261 587T254 576Q254 568 261 556T274 536L365 387L395 335L429 391Q442 414 454 435T483 486Q501 519 504 537T507 561Q507 572 501 578T486 587T466 591T445 592L448 619Q454 619 471 619T508 617T541 616T556 615Q562 615 576 615T606 616T636 616T656 617L655 587Q625 585 604 575T563 542T521 481T465 388Q453 368 444 354T430 331H618V299H411V195Z"  />
<glyph unicode="&#xA6;" horiz-adv-x="531" d="M233 175H298V-175H233V175ZM233 675H298V325H233V675Z"  />
<glyph unicode="&#xA7;" horiz-adv-x="448" d="M120 421Q109 444 105 459T100 493Q100 526 113 557T149 612T202 651T267 666Q276 666 290 665T318 660T342 649T352 631Q352 626 349 616T339 595T323 576T301 568Q294 568 286 570T252 586Q247 588 231 595T199 602Q181 602 169 589T157 556Q157 530 197 479T303 352Q330 320 348 295T378 246T395 201T400 152Q400 146 399 130T392 93T373 49T335 4Q347 -14 353 -30T363 -59T366 -81T367 -92Q367 -125 350 -158T306 -218T244 -262T177 -279Q162 -279 142 -276T104 -266T74 -252T61 -233Q61 -225 68 -214T85 -191T105 -173T123 -165Q128 -165 134 -167T152 -176Q173 -190 186 -199T208 -213T223 -219T238 -221Q257 -221 268 -213T285 -193T292 -170T294 -152Q294 -137 291 -122T279 -87T251 -43T202 15Q159 61 130 97T82 164T57 220T49 272Q49 300 57 324T76 366T100 399T120 421ZM137 398Q124 383 116 369T107 335Q107 313 116 291T144 242T187 186T244 120Q263 98 275 83T296 58T309 42T318 30Q326 39 333 51T340 88Q340 112 333 134T304 188T242 270T137 398Z"  />
<glyph unicode="&#xA8;" horiz-adv-x="333" d="M81 589Q104 589 120 573T137 534Q137 511 121 495T81 478Q58 478 42 494T25 534Q25 557 41 573T81 589ZM253 589Q276 589 292 573T308 533Q308 510 292 494T253 477Q230 477 214 493T197 533Q197 557 213 573T253 589Z"  />
<glyph unicode="&#xA9;" horiz-adv-x="750" d="M539 540V411H520Q513 446 498 467T464 499T428 513T400 516Q359 516 335 497T297 451T279 394T274 339Q274 303 278 267T306 202Q322 182 346 169T398 156Q425 156 446 164T483 183T509 205T525 224V189Q495 157 455 142T370 127Q331 127 294 139T228 176T182 238T164 326Q164 375 181 415T228 483T296 526T379 541Q407 541 428 536T475 521Q485 517 489 516T498 515Q512 515 515 525T520 540H539ZM375 677Q446 677 509 650T619 577T694 467T722 331Q722 259 695 196T621 86T510 12T375 -15Q303 -15 240 12T130 86T56 196T29 331Q29 403 56 466T131 576T241 650T375 677ZM375 634Q313 634 258 611T162 546T97 450T73 331Q73 268 96 213T161 117T257 52T375 28Q438 28 493 52T589 117T654 213T678 331Q678 394 654 449T589 546T492 610T375 634Z"  />
<glyph unicode="&#xAA;" horiz-adv-x="250" d="M254 419Q249 418 238 415T213 408T188 401T172 398Q160 398 152 404T139 422Q133 419 123 415T102 407T79 400T56 397Q38 397 24 407T9 443Q9 452 11 463T25 484T63 502T137 516Q138 523 138 529T139 547Q139 553 139 562T135 579T124 593T103 599Q99 599 95 596T90 585Q90 582 91 578T93 572L27 548Q22 561 22 567Q22 580 37 592T73 614T113 628T139 634Q140 634 151 633T176 623T199 597T210 550Q210 545 210 534T208 509T207 484T206 467Q206 445 208 439T216 433Q219 433 225 434T237 438T248 442T254 444V419ZM135 444Q135 447 135 453T136 467T136 480T137 490Q132 490 122 490T102 486T85 477T77 460Q77 452 81 441T97 429Q104 429 115 434T135 444Z"  />
<glyph unicode="&#xAB;" horiz-adv-x="510" d="M159 186L227 0H204L21 187L201 375H227L159 186ZM407 186L475 0H451L269 186L450 375H476L407 186Z"  />
<glyph unicode="&#xAC;" horiz-adv-x="667" d="M68 410H599V122H535V346H68V410Z"  />
<glyph unicode="&#xAD;" horiz-adv-x="313" d="M33 142V222H283V142H33Z"  />
<glyph unicode="&#xAE;" horiz-adv-x="750" d="M190 532H367Q400 532 421 530T457 525T480 517T496 508Q502 504 509 497T523 480T535 456T540 425Q540 420 539 408T529 379T504 348T453 324L520 202Q531 181 543 169T571 154V137H453L353 317H330V220Q330 200 332 188T340 168T357 158T389 154V137H182V154Q194 154 203 155T219 162T229 182T233 220V451Q233 489 226 501T190 515V532ZM330 342Q340 340 358 340Q370 340 383 344T408 359T427 386T435 427Q435 458 425 475T400 500T366 509T330 511V342ZM375 677Q446 677 509 650T619 577T694 467T722 331Q722 259 695 196T621 86T510 12T375 -15Q303 -15 240 12T130 86T56 196T29 331Q29 403 56 466T131 576T241 650T375 677ZM375 634Q313 634 258 611T162 546T97 450T73 331Q73 268 96 213T161 117T257 52T375 28Q438 28 493 52T589 117T654 213T678 331Q678 394 654 449T589 546T492 610T375 634Z"  />
<glyph unicode="&#xAF;" horiz-adv-x="333" d="M31 494V576H302V494H31Z"  />
<glyph unicode="&#xB0;" horiz-adv-x="396" d="M198 620Q233 620 263 607T317 571T353 517T367 451Q367 416 354 386T317 332T264 296T198 282Q163 282 133 295T79 332T43 385T29 451Q29 486 42 517T79 571T132 607T198 620ZM198 556Q177 556 158 548T124 526T102 492T93 451Q93 429 101 410T123 377T157 354T198 346Q220 346 239 354T272 377T294 410T303 451Q303 473 295 492T272 525T239 547T198 556Z"  />
<glyph unicode="&#xB1;" horiz-adv-x="667" d="M68 64H599V0H68V64ZM68 449H301V673H365V449H599V385H365V162H301V385H68V449Z"  />
<glyph unicode="&#xB2;" horiz-adv-x="313" d="M41 568Q76 602 106 611T158 620Q187 620 206 612T238 593T255 568T260 542Q260 523 254 507T230 470T182 421T106 351Q149 350 175 350T217 351T240 353T252 356Q259 359 263 364T280 387L302 375Q299 370 291 357T275 330T259 302T248 284H224Q220 294 216 295Q212 297 196 297H74Q60 298 48 297T21 294L13 306Q24 315 41 330T77 362T110 394T134 418Q156 441 172 465T188 518Q188 543 170 560T122 578Q99 578 86 570T62 552L41 568Z"  />
<glyph unicode="&#xB3;" horiz-adv-x="313" d="M55 580Q76 594 100 606T163 619Q185 619 201 613T228 599T244 580T249 561Q249 539 235 521T210 492Q250 469 262 447T275 404Q275 380 264 360T234 324T189 301T135 292Q103 292 74 303T23 337Q31 348 42 364T61 391L84 379Q82 377 81 374T79 369Q79 363 87 355T109 338T138 324T167 318Q185 318 200 333T215 373Q215 397 198 416T152 450L133 438L116 456Q121 459 132 466T154 483T174 505T183 531Q183 548 167 565T126 583Q109 583 96 576T72 562L55 580Z"  />
<glyph unicode="&#xB4;" horiz-adv-x="333" d="M100 452L186 614L297 615L130 452H100Z"  />
<glyph unicode="&#xB5;" horiz-adv-x="500" d="M58 355H138V187Q138 163 139 138T146 93T167 59T208 46Q234 46 262 61T322 112V355H403V128Q403 88 407 64T436 39Q448 39 455 46T466 64T473 84T476 99H496Q494 76 488 56T471 20T442 -5T399 -14Q373 -14 359 -4T336 21T326 52T322 79Q313 68 299 52T265 22T221 -3T169 -14Q134 -14 119 0T94 28H92Q92 11 92 -2T95 -30T100 -64T109 -111Q112 -128 114 -140T116 -161Q116 -170 114 -179T105 -197T91 -210T70 -216Q56 -216 48 -210T35 -195T29 -177T27 -162Q27 -154 28 -147T31 -129T37 -99T49 -51Q51 -44 52 -30T55 -1T57 31T58 60V355Z"  />
<glyph unicode="&#xB6;" horiz-adv-x="490" d="M390 -116Q337 -109 293 -99T212 -67T141 -11T75 83Q67 97 59 113T45 145T35 175T31 200Q31 204 33 216T44 250T69 302T114 372Q129 394 151 417T213 462T315 498T476 519L473 485Q462 484 450 483T420 480T380 474T325 464Q323 463 316 462T306 460L297 -64Q302 -66 315 -69T344 -75T372 -81T392 -85L390 -116ZM272 451Q255 444 242 435T221 400Q212 371 210 312T207 150Q207 93 208 58T216 2T233 -30T263 -52L272 451Z"  />
<glyph unicode="&#xB7;" horiz-adv-x="188" d="M162 294Q151 287 141 280T118 256Q108 244 103 240T92 236Q84 236 80 241T68 260Q61 271 55 277T40 288Q35 291 30 295T24 307Q24 312 29 316T40 325Q43 328 50 336T66 353T82 369T95 376Q99 376 102 375T108 369Q111 364 116 357T126 344T137 332T146 323Q156 316 159 314T164 309L162 294Z"  />
<glyph unicode="&#xB8;" horiz-adv-x="333" d="M178 5H202L181 -35Q200 -42 210 -53T225 -75T231 -94T232 -105Q232 -137 215 -155T176 -181T133 -192T101 -194V-173Q107 -173 121 -171T149 -164T173 -150T184 -123Q184 -104 170 -97T126 -84L178 5Z"  />
<glyph unicode="&#xB9;" horiz-adv-x="313" d="M60 315Q74 314 90 316T114 334Q118 342 120 364T123 412T124 461T124 497Q124 525 124 541T123 566T119 578T112 583Q104 585 93 585T62 586V607Q93 607 115 607T157 609T196 614T242 621L250 600Q225 596 215 593T200 581Q198 576 197 559T194 520T192 473T191 427Q191 419 191 405T191 375T193 347T196 329Q199 322 210 320T257 314L256 294Q239 295 229 295T211 296T197 296T181 296Q168 296 138 296T60 293V315Z"  />
<glyph unicode="&#xBA;" horiz-adv-x="302" d="M157 634Q185 634 209 626T252 604T280 568T291 521Q291 500 282 479T256 441T211 414T148 403Q123 403 99 410T55 431T25 466T13 517Q13 545 25 567T58 604T104 626T157 634ZM218 492Q218 504 214 524T201 562T178 595T142 609Q135 609 125 606T106 596T91 577T84 547Q84 533 88 513T103 473T127 441T162 427Q166 427 175 429T194 437T211 457T218 492Z"  />
<glyph unicode="&#xBB;" horiz-adv-x="510" d="M351 189L283 375H306L489 188L309 0H283L351 189ZM103 189L35 375H59L241 189L60 0H34L103 189Z"  />
<glyph unicode="&#xBC;" horiz-adv-x="688" d="M680 136L651 84Q645 84 630 84T605 85Q605 64 606 52T610 33T621 23T640 17V-1Q631 0 619 0T592 0Q566 0 537 0T481 -3V18Q509 20 516 21T528 26Q530 28 531 35T533 53T535 72T536 86Q510 86 490 86T452 86T418 84T385 82L376 94Q402 119 432 152T490 219T540 280T571 326Q583 326 591 327T610 331Q609 319 609 289T608 227T607 165T606 125Q617 125 624 125T637 127T648 132T660 143L680 136ZM537 124Q537 133 537 142T538 163T539 192T539 235Q523 216 511 202T488 176T467 151T443 125Q459 125 470 125T491 124T511 124T537 124ZM254 294Q236 295 226 295T207 296T193 296T178 296Q165 296 135 296T57 293V315Q71 314 88 316T111 334Q115 342 117 364T120 412T121 461T122 497Q122 528 122 544T120 569T116 580T109 583Q101 585 90 585T59 586V607Q74 607 102 608T159 611T211 615T240 621L247 600Q222 596 212 593T198 581Q196 576 194 559T191 520T189 473T188 427Q188 419 188 405T188 375T190 347T194 329Q195 325 201 323T217 319T235 316T254 314V294ZM128 -37Q182 46 235 136T335 310T417 460T470 564Q472 568 479 582T494 612T509 643T519 664Q533 665 552 668T582 674Q531 592 485 513T401 365T335 242T290 155Q271 116 255 84T228 28T209 -9T201 -24Q188 -26 178 -29T151 -43L128 -37Z"  />
<glyph unicode="&#xBD;" horiz-adv-x="688" d="M390 9Q417 31 448 58T505 113T548 169T565 221Q565 246 547 263T499 281Q477 281 464 273T440 255L419 271Q454 305 484 314T536 323Q565 323 584 316T616 296T633 271T638 245Q638 226 632 210T608 173T561 125T484 54Q495 54 511 54T545 53Q578 53 596 53T624 57T641 68T656 88L658 90L680 79Q677 73 669 60T652 33T636 5T625 -13H602Q597 -3 594 -2T574 0L452 1Q438 1 425 0T399 -3L390 9ZM116 -37Q152 18 188 77T258 195T324 310T381 414T427 501T459 564Q470 590 482 614T507 664Q521 665 540 668T570 674Q511 580 465 500T376 340T290 176T196 -12Q195 -14 193 -18T190 -24Q176 -26 166 -29T139 -43L116 -37ZM253 294Q235 295 225 295T207 296T193 296T178 296Q165 296 135 296T57 293V315Q71 314 87 316T111 334Q115 342 117 364T120 412T121 461T121 497Q121 528 121 544T120 569T116 580T109 583Q101 585 90 585T59 586V607Q74 607 103 608T161 611T213 615T239 621L247 600Q221 596 211 593T197 581Q195 576 194 559T191 520T189 473T188 427Q188 419 188 405T188 375T190 347T193 329Q194 325 200 323T216 319T235 316T254 314L253 294Z"  />
<glyph unicode="&#xBE;" horiz-adv-x="688" d="M680 136L651 84Q645 84 630 84T605 85Q605 64 606 52T610 33T621 23T640 17V-1Q631 0 619 0T592 0Q566 0 537 0T481 -3V18Q509 20 516 21T528 26Q530 28 531 35T533 53T535 72T536 86Q510 86 490 86T452 86T418 84T385 82L376 94Q402 119 432 152T490 219T540 280T571 326Q583 326 591 327T610 331Q609 319 609 289T608 227T607 165T606 125Q617 125 624 125T637 127T648 132T660 143L680 136ZM537 124Q537 133 537 142T538 163T539 192T539 235Q523 216 511 202T488 176T467 151T443 125Q459 125 470 125T491 124T511 124T537 124ZM114 456Q119 459 130 466T152 483T172 505T181 531Q181 548 165 565T123 583Q106 583 93 576T70 562L53 580Q82 602 107 610T161 619Q183 619 199 613T226 599T242 580T247 561Q247 539 233 521T207 492Q247 469 260 447T273 404Q273 380 262 360T231 324T186 301T132 292Q127 292 115 292T87 297T54 311T20 337L40 364Q44 368 50 377T56 388Q58 390 58 391L81 379Q80 377 78 374T76 369Q76 363 84 355T106 338T135 324T164 318Q182 318 197 333T212 373Q212 397 196 416T150 450L131 438L114 456ZM134 -37Q188 46 241 136T341 310T423 460T476 564Q478 568 485 582T500 612T515 643T525 664Q539 665 558 668T588 674Q528 577 480 494T389 331T303 167T213 -12Q213 -14 211 -18T207 -24Q194 -26 184 -29T157 -43L134 -37Z"  />
<glyph unicode="&#xBF;" horiz-adv-x="292" d="M237 -281H216Q215 -279 215 -277T213 -274Q208 -259 202 -254T171 -244Q105 -233 70 -192T35 -85Q35 -46 43 -19T65 28T94 59T125 82Q133 87 137 91T144 102T148 120T149 150H175Q175 104 175 79T171 42T162 27T144 22Q118 18 106 14T80 1Q77 -10 74 -23T70 -56Q70 -88 81 -106T112 -134T156 -147T206 -152Q219 -153 227 -155T239 -159T246 -166T250 -175Q254 -183 255 -185T256 -188Q244 -204 241 -225T237 -267V-281ZM97 270Q108 278 118 285T141 308Q151 320 156 324T167 328Q175 328 179 324T191 305Q198 294 204 288T219 276Q224 273 229 269T235 258Q235 253 230 248T219 239Q216 236 209 228T193 211T177 195T164 188Q158 188 155 191T144 207Q143 208 139 213T131 223T121 233T113 241Q111 243 105 247T95 255L97 270Z"  />
<glyph unicode="&#xC0;" horiz-adv-x="625" d="M150 139Q147 132 143 122T136 102T129 82T126 66Q126 52 134 44T153 30T178 23T202 19V-4Q197 -4 178 -4T136 -2Q114 -1 97 -1T78 0Q73 0 64 0T45 0T24 0T8 -1V19Q20 21 37 28T68 58Q77 72 95 113T137 208T186 323T233 436T270 526T289 573Q297 592 301 606T311 634H337Q342 619 347 602T361 559Q366 544 377 515T402 449T431 372T461 296T486 231T502 189Q524 129 539 96T566 46T590 26T617 19V-1Q599 1 580 2Q569 3 557 3T529 3Q482 3 447 1T389 -4V19Q409 22 424 30T439 56Q439 61 432 84T414 135T396 186T385 215Q378 216 372 216T359 217T340 218T313 218Q285 218 251 217T180 211L150 139ZM198 259Q218 256 246 253T306 250Q331 250 345 251T371 254Q351 310 330 365T283 471L198 259ZM349 669L182 832L293 831L379 669H349Z"  />
<glyph unicode="&#xC1;" horiz-adv-x="625" d="M150 139Q147 132 143 122T136 102T129 82T126 66Q126 52 134 44T153 30T178 23T202 19V-4Q197 -4 178 -4T136 -2Q114 -1 97 -1T78 0Q73 0 64 0T45 0T24 0T8 -1V19Q20 21 37 28T68 58Q77 72 95 113T137 208T186 323T233 436T270 526T289 573Q297 592 301 606T311 634H337Q342 619 347 602T361 559Q366 544 377 515T402 449T431 372T461 296T486 231T502 189Q524 129 539 96T566 46T590 26T617 19V-1Q599 1 580 2Q569 3 557 3T529 3Q482 3 447 1T389 -4V19Q409 22 424 30T439 56Q439 61 432 84T414 135T396 186T385 215Q378 216 372 216T359 217T340 218T313 218Q285 218 251 217T180 211L150 139ZM198 259Q218 256 246 253T306 250Q331 250 345 251T371 254Q351 310 330 365T283 471L198 259ZM246 669L332 831L443 832L276 669H246Z"  />
<glyph unicode="&#xC2;" horiz-adv-x="625" d="M150 139Q147 132 143 122T136 102T129 82T126 66Q126 52 134 44T153 30T178 23T202 19V-4Q197 -4 178 -4T136 -2Q114 -1 97 -1T78 0Q73 0 64 0T45 0T24 0T8 -1V19Q20 21 37 28T68 58Q77 72 95 113T137 208T186 323T233 436T270 526T289 573Q297 592 301 606T311 634H337Q342 619 347 602T361 559Q366 544 377 515T402 449T431 372T461 296T486 231T502 189Q524 129 539 96T566 46T590 26T617 19V-1Q599 1 580 2Q569 3 557 3T529 3Q482 3 447 1T389 -4V19Q409 22 424 30T439 56Q439 61 432 84T414 135T396 186T385 215Q378 216 372 216T359 217T340 218T313 218Q285 218 251 217T180 211L150 139ZM198 259Q218 256 246 253T306 250Q331 250 345 251T371 254Q351 310 330 365T283 471L198 259ZM174 669L276 829H347L451 669H423L312 747L202 669H174Z"  />
<glyph unicode="&#xC3;" horiz-adv-x="625" d="M150 139Q147 132 143 122T136 102T129 82T126 66Q126 52 134 44T153 30T178 23T202 19V-4Q197 -4 178 -4T136 -2Q114 -1 97 -1T78 0Q73 0 64 0T45 0T24 0T8 -1V19Q20 21 37 28T68 58Q77 72 95 113T137 208T186 323T233 436T270 526T289 573Q297 592 301 606T311 634H337Q342 619 347 602T361 559Q366 544 377 515T402 449T431 372T461 296T486 231T502 189Q524 129 539 96T566 46T590 26T617 19V-1Q599 1 580 2Q569 3 557 3T529 3Q482 3 447 1T389 -4V19Q409 22 424 30T439 56Q439 61 432 84T414 135T396 186T385 215Q378 216 372 216T359 217T340 218T313 218Q285 218 251 217T180 211L150 139ZM198 259Q218 256 246 253T306 250Q331 250 345 251T371 254Q351 310 330 365T283 471L198 259ZM466 798Q465 758 451 737T419 705T385 693T366 691Q343 691 322 699T285 716Q270 725 261 730T245 737T234 741T224 742Q213 742 206 738T195 727T189 714T186 703H158Q159 710 162 728T175 764T205 796T260 810Q271 810 281 809T307 799Q332 787 346 780T370 768T384 763T396 762Q412 762 423 772T438 798H466Z"  />
<glyph unicode="&#xC4;" horiz-adv-x="625" d="M150 139Q147 132 143 122T136 102T129 82T126 66Q126 52 134 44T153 30T178 23T202 19V-4Q197 -4 178 -4T136 -2Q114 -1 97 -1T78 0Q73 0 64 0T45 0T24 0T8 -1V19Q20 21 37 28T68 58Q77 72 95 113T137 208T186 323T233 436T270 526T289 573Q297 592 301 606T311 634H337Q342 619 347 602T361 559Q366 544 377 515T402 449T431 372T461 296T486 231T502 189Q524 129 539 96T566 46T590 26T617 19V-1Q599 1 580 2Q569 3 557 3T529 3Q482 3 447 1T389 -4V19Q409 22 424 30T439 56Q439 61 432 84T414 135T396 186T385 215Q378 216 372 216T359 217T340 218T313 218Q285 218 251 217T180 211L150 139ZM198 259Q218 256 246 253T306 250Q331 250 345 251T371 254Q351 310 330 365T283 471L198 259ZM227 806Q250 806 266 790T283 751Q283 728 267 712T227 695Q204 695 188 711T171 751Q171 774 187 790T227 806ZM399 806Q422 806 438 790T454 750Q454 727 438 711T399 694Q376 694 360 710T343 750Q343 774 359 790T399 806Z"  />
<glyph unicode="&#xC5;" horiz-adv-x="625" d="M150 139Q147 132 143 122T136 102T129 82T126 66Q126 52 134 44T153 30T178 23T202 19V-4Q197 -4 178 -4T136 -2Q114 -1 97 -1T78 0Q73 0 64 0T45 0T24 0T8 -1V19Q20 21 37 28T68 58Q77 72 95 113T137 208T186 323T233 436T270 526T289 573Q297 592 301 606T311 634H337Q342 619 347 602T361 559Q366 544 377 515T402 449T431 372T461 296T486 231T502 189Q524 129 539 96T566 46T590 26T617 19V-1Q599 1 580 2Q569 3 557 3T529 3Q482 3 447 1T389 -4V19Q409 22 424 30T439 56Q439 61 432 84T414 135T396 186T385 215Q378 216 372 216T359 217T340 218T313 218Q285 218 251 217T180 211L150 139ZM198 259Q218 256 246 253T306 250Q331 250 345 251T371 254Q351 310 330 365T283 471L198 259ZM312 844Q331 844 348 837T378 817T398 787T405 751Q405 732 398 715T379 686T349 666T312 658Q292 658 276 665T246 685T226 715T219 751Q219 770 226 787T246 816T275 836T312 844ZM312 800Q292 800 278 786T264 751Q264 731 278 717T312 703Q332 703 346 717T361 751Q361 771 347 785T312 800Z"  />
<glyph unicode="&#xC6;" horiz-adv-x="979" d="M867 213H841Q837 247 832 265T810 292T756 302T654 304Q634 304 617 304T589 303Q589 299 589 278T588 227Q588 185 589 135T595 43Q619 39 644 37T710 34Q769 34 807 42T870 65T908 101T933 151H954Q951 123 948 104T940 68T930 36T915 -1Q905 -1 881 -1T831 0T781 1T748 2Q662 2 577 2T407 -4V19Q434 22 449 29T471 58T480 116T484 214L445 216Q416 218 382 219T299 220Q287 220 279 220T263 220T249 218T233 216Q218 194 203 170T176 125T157 86T149 59Q149 42 166 36T215 22V-3Q193 -1 171 0T113 1Q93 1 66 1T-9 -2V24Q7 28 19 31T42 40T66 56T97 84Q109 97 133 131T188 212T253 313T320 419T380 517T425 593Q416 596 410 598T397 601T385 605T369 609V631Q423 627 479 626T589 624L869 625Q902 625 910 624T918 616Q918 609 916 600T913 584Q910 560 908 546T902 522T896 507T888 494L868 501Q872 515 873 524T874 537Q874 549 869 559T848 576T803 587T727 591Q698 591 666 589T599 583Q595 565 593 540T590 488T588 439T588 400L589 341Q598 341 621 341T670 339T719 338T753 337Q781 337 797 341T822 353T834 374T842 408H867V213ZM261 260Q275 259 286 258T308 257T332 256T364 256Q405 256 432 256T486 259Q486 285 486 325T484 410T481 496T475 565Q475 569 473 575T464 582Q461 582 451 569T427 533L261 260Z"  />
<glyph unicode="&#xC7;" horiz-adv-x="635" d="M336 -6Q270 0 215 26T120 95T57 193T34 315Q34 396 64 456T144 557T260 616T395 636Q426 636 455 632T518 614Q526 611 538 607T559 603Q567 603 573 605T586 611L599 607Q597 600 593 581T585 540T576 499T570 471L554 475Q552 491 551 501T547 520T542 533T534 544Q529 550 516 559T482 578T434 594T374 601Q319 601 281 584T218 540T180 480T160 416T153 359T152 320Q152 252 167 204T205 122T256 70T310 41T358 29T389 26Q455 26 506 59T579 158L602 155Q601 144 600 136T594 108Q593 105 591 99T587 85T583 70T581 61L570 20Q535 10 501 5T439 -4T391 -7T361 -8L346 -35Q365 -42 375 -53T390 -75T396 -94T397 -105Q397 -137 380 -155T341 -181T298 -192T266 -194V-173Q272 -173 286 -171T314 -164T338 -150T349 -123Q349 -104 335 -97T291 -84L336 -6Z"  />
<glyph unicode="&#xC8;" horiz-adv-x="573" d="M466 215H443Q438 247 434 265T413 292T365 303T273 305Q258 305 247 305T228 304T212 302T196 299Q196 294 196 273T195 229T194 187T193 167Q193 125 197 97T205 48Q230 43 265 39T343 34Q399 34 434 46T489 77T519 114T533 147H555Q553 126 550 109T543 74T531 38T512 -6Q462 -3 428 -2T366 2Q338 3 312 3T250 3Q215 3 189 3T136 1T82 -1T17 -6L20 20Q47 25 62 32T82 65Q86 86 88 125T91 209T93 294T94 360Q94 369 93 394T91 447T88 500T87 536Q85 557 83 569T75 588T60 598T37 605Q34 606 31 606T26 608V625H342Q368 625 389 625T429 625T468 627T512 630Q513 604 511 580T506 538T497 508T487 497Q483 497 477 498T466 500Q468 509 470 519T472 539Q472 568 439 581T331 594Q300 594 269 591T205 583Q202 560 201 542T198 505T196 469T195 428Q195 420 195 412T195 394T195 372T196 341Q213 340 237 339T287 338Q340 338 375 342T417 349Q423 352 428 361T436 380T441 398T443 406H466V215ZM323 669L156 832L267 831L353 669H323Z"  />
<glyph unicode="&#xC9;" horiz-adv-x="573" d="M466 215H443Q438 247 434 265T413 292T365 303T273 305Q258 305 247 305T228 304T212 302T196 299Q196 294 196 273T195 229T194 187T193 167Q193 125 197 97T205 48Q230 43 265 39T343 34Q399 34 434 46T489 77T519 114T533 147H555Q553 126 550 109T543 74T531 38T512 -6Q462 -3 428 -2T366 2Q338 3 312 3T250 3Q215 3 189 3T136 1T82 -1T17 -6L20 20Q47 25 62 32T82 65Q86 86 88 125T91 209T93 294T94 360Q94 369 93 394T91 447T88 500T87 536Q85 557 83 569T75 588T60 598T37 605Q34 606 31 606T26 608V625H342Q368 625 389 625T429 625T468 627T512 630Q513 604 511 580T506 538T497 508T487 497Q483 497 477 498T466 500Q468 509 470 519T472 539Q472 568 439 581T331 594Q300 594 269 591T205 583Q202 560 201 542T198 505T196 469T195 428Q195 420 195 412T195 394T195 372T196 341Q213 340 237 339T287 338Q340 338 375 342T417 349Q423 352 428 361T436 380T441 398T443 406H466V215ZM220 669L306 831L417 832L250 669H220Z"  />
<glyph unicode="&#xCA;" horiz-adv-x="573" d="M466 215H443Q438 247 434 265T413 292T365 303T273 305Q258 305 247 305T228 304T212 302T196 299Q196 294 196 273T195 229T194 187T193 167Q193 125 197 97T205 48Q230 43 265 39T343 34Q399 34 434 46T489 77T519 114T533 147H555Q553 126 550 109T543 74T531 38T512 -6Q462 -3 428 -2T366 2Q338 3 312 3T250 3Q215 3 189 3T136 1T82 -1T17 -6L20 20Q47 25 62 32T82 65Q86 86 88 125T91 209T93 294T94 360Q94 369 93 394T91 447T88 500T87 536Q85 557 83 569T75 588T60 598T37 605Q34 606 31 606T26 608V625H342Q368 625 389 625T429 625T468 627T512 630Q513 604 511 580T506 538T497 508T487 497Q483 497 477 498T466 500Q468 509 470 519T472 539Q472 568 439 581T331 594Q300 594 269 591T205 583Q202 560 201 542T198 505T196 469T195 428Q195 420 195 412T195 394T195 372T196 341Q213 340 237 339T287 338Q340 338 375 342T417 349Q423 352 428 361T436 380T441 398T443 406H466V215ZM148 669L250 829H321L425 669H397L286 747L176 669H148Z"  />
<glyph unicode="&#xCB;" horiz-adv-x="573" d="M466 215H443Q438 247 434 265T413 292T365 303T273 305Q258 305 247 305T228 304T212 302T196 299Q196 294 196 273T195 229T194 187T193 167Q193 125 197 97T205 48Q230 43 265 39T343 34Q399 34 434 46T489 77T519 114T533 147H555Q553 126 550 109T543 74T531 38T512 -6Q462 -3 428 -2T366 2Q338 3 312 3T250 3Q215 3 189 3T136 1T82 -1T17 -6L20 20Q47 25 62 32T82 65Q86 86 88 125T91 209T93 294T94 360Q94 369 93 394T91 447T88 500T87 536Q85 557 83 569T75 588T60 598T37 605Q34 606 31 606T26 608V625H342Q368 625 389 625T429 625T468 627T512 630Q513 604 511 580T506 538T497 508T487 497Q483 497 477 498T466 500Q468 509 470 519T472 539Q472 568 439 581T331 594Q300 594 269 591T205 583Q202 560 201 542T198 505T196 469T195 428Q195 420 195 412T195 394T195 372T196 341Q213 340 237 339T287 338Q340 338 375 342T417 349Q423 352 428 361T436 380T441 398T443 406H466V215ZM201 806Q224 806 240 790T257 751Q257 728 241 712T201 695Q178 695 162 711T145 751Q145 774 161 790T201 806ZM373 806Q396 806 412 790T428 750Q428 727 412 711T373 694Q350 694 334 710T317 750Q317 774 333 790T373 806Z"  />
<glyph unicode="&#xCC;" horiz-adv-x="333" d="M8 25Q34 28 62 33T101 57Q108 70 112 103T117 176T119 253T120 311Q120 322 120 344T120 393T118 449T116 503T112 548T105 574Q103 578 100 582T87 591T61 598T16 601L17 628Q27 628 52 628T105 626Q133 624 155 624T181 623Q190 623 209 623T250 624T290 626T320 627V596Q283 596 268 593T244 581Q235 571 230 538T223 465T221 388T220 331Q220 314 220 275T220 193T222 114T226 67Q229 56 232 49T244 37T269 30T314 25L312 0L153 2Q97 3 64 2T8 0V25ZM203 669L36 832L147 831L233 669H203Z"  />
<glyph unicode="&#xCD;" horiz-adv-x="333" d="M8 25Q34 28 62 33T101 57Q108 70 112 103T117 176T119 253T120 311Q120 322 120 344T120 393T118 449T116 503T112 548T105 574Q103 578 100 582T87 591T61 598T16 601L17 628Q27 628 52 628T105 626Q133 624 155 624T181 623Q190 623 209 623T250 624T290 626T320 627V596Q283 596 268 593T244 581Q235 571 230 538T223 465T221 388T220 331Q220 314 220 275T220 193T222 114T226 67Q229 56 232 49T244 37T269 30T314 25L312 0L153 2Q97 3 64 2T8 0V25ZM100 669L186 831L297 832L130 669H100Z"  />
<glyph unicode="&#xCE;" horiz-adv-x="333" d="M8 25Q34 28 62 33T101 57Q108 70 112 103T117 176T119 253T120 311Q120 322 120 344T120 393T118 449T116 503T112 548T105 574Q103 578 100 582T87 591T61 598T16 601L17 628Q27 628 52 628T105 626Q133 624 155 624T181 623Q190 623 209 623T250 624T290 626T320 627V596Q283 596 268 593T244 581Q235 571 230 538T223 465T221 388T220 331Q220 314 220 275T220 193T222 114T226 67Q229 56 232 49T244 37T269 30T314 25L312 0L153 2Q97 3 64 2T8 0V25ZM28 669L130 829H201L305 669H277L166 747L56 669H28Z"  />
<glyph unicode="&#xCF;" horiz-adv-x="333" d="M8 25Q34 28 62 33T101 57Q108 70 112 103T117 176T119 253T120 311Q120 322 120 344T120 393T118 449T116 503T112 548T105 574Q103 578 100 582T87 591T61 598T16 601L17 628Q27 628 52 628T105 626Q133 624 155 624T181 623Q190 623 209 623T250 624T290 626T320 627V596Q283 596 268 593T244 581Q235 571 230 538T223 465T221 388T220 331Q220 314 220 275T220 193T222 114T226 67Q229 56 232 49T244 37T269 30T314 25L312 0L153 2Q97 3 64 2T8 0V25ZM81 806Q104 806 120 790T137 751Q137 728 121 712T81 695Q58 695 42 711T25 751Q25 774 41 790T81 806ZM253 806Q276 806 292 790T308 750Q308 727 292 711T253 694Q230 694 214 710T197 750Q197 774 213 790T253 806Z"  />
<glyph unicode="&#xD0;" horiz-adv-x="740" d="M34 325H99Q98 391 98 431T95 494Q93 524 91 542T82 571T64 585T30 591V618L181 621Q196 621 217 623T260 626T302 629T336 631Q415 631 482 608T597 544T673 445T700 319Q700 266 681 209T617 105T502 28T325 -3Q316 -3 294 -2T247 0T201 2T171 3Q164 3 148 3T113 2T78 2T55 1H25V26Q52 27 67 31T90 56T98 120T100 243Q100 254 100 261T99 288H34V325ZM390 288H203Q203 173 206 58Q231 50 265 41T337 31Q387 31 430 51T506 109T557 198T576 315Q576 393 551 447T487 534T402 583T316 598Q299 598 272 595T211 576Q208 547 207 524T205 474T204 412T203 325H390V288Z"  />
<glyph unicode="&#xD1;" horiz-adv-x="750" d="M618 173Q618 185 618 213T619 274T620 334T621 373Q621 453 619 498T606 565T575 595T519 605L528 627Q533 628 539 628T553 629Q559 629 574 629T606 626Q623 624 639 623T661 622Q663 622 674 622T699 622T725 623T743 623V598Q732 599 715 596T689 576Q682 562 678 528T672 453T669 375T668 317Q668 304 668 274T667 209T666 145T665 104Q665 100 665 91T666 71T667 47T668 24L670 -14H640Q614 34 577 74T500 152L193 447Q183 457 173 467T152 485Q152 477 152 466T151 442T150 418T149 399L145 168Q145 133 146 109T158 67T190 39T255 22Q257 13 257 7T255 -5Q245 -4 236 -3T215 0Q204 1 191 1T160 2Q152 2 132 1T90 -1T48 -3T21 -5Q20 3 20 7T21 22Q45 22 58 29T79 51T89 88T92 143L97 436Q98 467 97 494T88 544T63 580T13 600Q12 608 12 613T13 630Q17 630 30 629T60 627Q76 626 90 626T111 625H158Q181 598 197 581T235 542T293 485T392 389Q427 354 461 321T532 254L618 173ZM529 798Q528 758 514 737T482 705T448 693T429 691Q406 691 385 699T348 716Q333 725 324 730T308 737T297 741T287 742Q276 742 269 738T258 727T252 714T249 703H221Q222 710 225 728T238 764T268 796T323 810Q334 810 344 809T370 799Q395 787 409 780T433 768T447 763T459 762Q475 762 486 772T501 798H529Z"  />
<glyph unicode="&#xD2;" horiz-adv-x="740" d="M33 315Q33 388 62 447T139 547T248 611T375 634Q444 634 504 609T608 541T679 438T705 310Q705 247 681 188T614 84T508 12T369 -16Q290 -16 228 11T122 84T56 189T33 315ZM150 369Q150 307 165 245T210 133T285 52T391 20Q415 20 449 29T514 62T567 131T589 244Q589 276 584 315T566 393T535 468T489 533T427 578T347 595Q329 595 296 589T231 559T174 490T150 369ZM407 669L240 832L351 831L437 669H407Z"  />
<glyph unicode="&#xD3;" horiz-adv-x="740" d="M33 315Q33 388 62 447T139 547T248 611T375 634Q444 634 504 609T608 541T679 438T705 310Q705 247 681 188T614 84T508 12T369 -16Q290 -16 228 11T122 84T56 189T33 315ZM150 369Q150 307 165 245T210 133T285 52T391 20Q415 20 449 29T514 62T567 131T589 244Q589 276 584 315T566 393T535 468T489 533T427 578T347 595Q329 595 296 589T231 559T174 490T150 369ZM304 669L390 831L501 832L334 669H304Z"  />
<glyph unicode="&#xD4;" horiz-adv-x="740" d="M33 315Q33 388 62 447T139 547T248 611T375 634Q444 634 504 609T608 541T679 438T705 310Q705 247 681 188T614 84T508 12T369 -16Q290 -16 228 11T122 84T56 189T33 315ZM150 369Q150 307 165 245T210 133T285 52T391 20Q415 20 449 29T514 62T567 131T589 244Q589 276 584 315T566 393T535 468T489 533T427 578T347 595Q329 595 296 589T231 559T174 490T150 369ZM232 669L334 829H405L509 669H481L370 747L260 669H232Z"  />
<glyph unicode="&#xD5;" horiz-adv-x="740" d="M33 315Q33 388 62 447T139 547T248 611T375 634Q444 634 504 609T608 541T679 438T705 310Q705 247 681 188T614 84T508 12T369 -16Q290 -16 228 11T122 84T56 189T33 315ZM150 369Q150 307 165 245T210 133T285 52T391 20Q415 20 449 29T514 62T567 131T589 244Q589 276 584 315T566 393T535 468T489 533T427 578T347 595Q329 595 296 589T231 559T174 490T150 369ZM524 798Q523 758 509 737T477 705T443 693T424 691Q401 691 380 699T343 716Q328 725 319 730T303 737T292 741T282 742Q271 742 264 738T253 727T247 714T244 703H216Q217 710 220 728T233 764T263 796T318 810Q329 810 339 809T365 799Q390 787 404 780T428 768T442 763T454 762Q470 762 481 772T496 798H524Z"  />
<glyph unicode="&#xD6;" horiz-adv-x="740" d="M33 315Q33 388 62 447T139 547T248 611T375 634Q444 634 504 609T608 541T679 438T705 310Q705 247 681 188T614 84T508 12T369 -16Q290 -16 228 11T122 84T56 189T33 315ZM150 369Q150 307 165 245T210 133T285 52T391 20Q415 20 449 29T514 62T567 131T589 244Q589 276 584 315T566 393T535 468T489 533T427 578T347 595Q329 595 296 589T231 559T174 490T150 369ZM285 806Q308 806 324 790T341 751Q341 728 325 712T285 695Q262 695 246 711T229 751Q229 774 245 790T285 806ZM457 806Q480 806 496 790T512 750Q512 727 496 711T457 694Q434 694 418 710T401 750Q401 774 417 790T457 806Z"  />
<glyph unicode="&#xD7;" horiz-adv-x="667" d="M333 308L533 508L578 462L378 263L576 65L531 20L333 218L136 20L91 65L288 263L89 462L134 508L333 308Z"  />
<glyph unicode="&#xD8;" horiz-adv-x="740" d="M117 89Q75 137 54 195T33 316Q33 389 62 448T140 548T249 612T372 634Q426 634 480 618T591 556L681 645L708 618L618 530Q628 518 643 500T672 454T695 391T705 310Q705 246 681 187T613 83T507 11T370 -16Q316 -16 258 0T143 63L59 -19L34 8L117 89ZM523 489Q514 502 500 520T464 555T414 583T346 595Q335 595 304 591T238 564T177 494T150 361Q150 290 164 244T193 165L523 489ZM211 130Q220 116 234 98T271 62T322 32T391 20Q395 20 411 21T450 29T496 50T541 90T575 155T589 252Q589 324 573 373T542 455L211 130Z"  />
<glyph unicode="&#xD9;" horiz-adv-x="708" d="M91 487Q90 527 87 548T76 580T55 594T20 599V622H287L293 599Q291 599 286 599T277 597Q247 592 230 585T204 553T193 476T191 330Q191 265 193 222T202 150T219 106T244 77Q276 51 312 44T373 37Q379 37 402 38T454 49T510 77T551 131Q559 153 564 184T573 253T577 335T579 426Q579 487 575 520T561 569T535 588T494 594L490 622L544 624Q555 624 568 623T597 622H695V594Q678 593 660 590T636 573Q633 567 632 547T630 503T629 458T629 426Q629 393 627 347T619 254T607 164T587 96Q571 62 541 42T476 10T403 -4T338 -8Q303 -8 260 -2T179 24T115 84T89 189Q89 199 90 225T91 280T93 335T94 373L91 487ZM391 669L224 832L335 831L421 669H391Z"  />
<glyph unicode="&#xDA;" horiz-adv-x="708" d="M91 487Q90 527 87 548T76 580T55 594T20 599V622H287L293 599Q291 599 286 599T277 597Q247 592 230 585T204 553T193 476T191 330Q191 265 193 222T202 150T219 106T244 77Q276 51 312 44T373 37Q379 37 402 38T454 49T510 77T551 131Q559 153 564 184T573 253T577 335T579 426Q579 487 575 520T561 569T535 588T494 594L490 622L544 624Q555 624 568 623T597 622H695V594Q678 593 660 590T636 573Q633 567 632 547T630 503T629 458T629 426Q629 393 627 347T619 254T607 164T587 96Q571 62 541 42T476 10T403 -4T338 -8Q303 -8 260 -2T179 24T115 84T89 189Q89 199 90 225T91 280T93 335T94 373L91 487ZM288 669L374 831L485 832L318 669H288Z"  />
<glyph unicode="&#xDB;" horiz-adv-x="708" d="M91 487Q90 527 87 548T76 580T55 594T20 599V622H287L293 599Q291 599 286 599T277 597Q247 592 230 585T204 553T193 476T191 330Q191 265 193 222T202 150T219 106T244 77Q276 51 312 44T373 37Q379 37 402 38T454 49T510 77T551 131Q559 153 564 184T573 253T577 335T579 426Q579 487 575 520T561 569T535 588T494 594L490 622L544 624Q555 624 568 623T597 622H695V594Q678 593 660 590T636 573Q633 567 632 547T630 503T629 458T629 426Q629 393 627 347T619 254T607 164T587 96Q571 62 541 42T476 10T403 -4T338 -8Q303 -8 260 -2T179 24T115 84T89 189Q89 199 90 225T91 280T93 335T94 373L91 487ZM216 669L318 829H389L493 669H465L354 747L244 669H216Z"  />
<glyph unicode="&#xDC;" horiz-adv-x="708" d="M91 487Q90 527 87 548T76 580T55 594T20 599V622H287L293 599Q291 599 286 599T277 597Q247 592 230 585T204 553T193 476T191 330Q191 265 193 222T202 150T219 106T244 77Q276 51 312 44T373 37Q379 37 402 38T454 49T510 77T551 131Q559 153 564 184T573 253T577 335T579 426Q579 487 575 520T561 569T535 588T494 594L490 622L544 624Q555 624 568 623T597 622H695V594Q678 593 660 590T636 573Q633 567 632 547T630 503T629 458T629 426Q629 393 627 347T619 254T607 164T587 96Q571 62 541 42T476 10T403 -4T338 -8Q303 -8 260 -2T179 24T115 84T89 189Q89 199 90 225T91 280T93 335T94 373L91 487ZM269 806Q292 806 308 790T325 751Q325 728 309 712T269 695Q246 695 230 711T213 751Q213 774 229 790T269 806ZM441 806Q464 806 480 790T496 750Q496 727 480 711T441 694Q418 694 402 710T385 750Q385 774 401 790T441 806Z"  />
<glyph unicode="&#xDD;" horiz-adv-x="698" d="M414 294Q414 285 414 265T414 219T414 167T415 117T416 76T418 54Q420 46 430 40T453 30T479 22T501 18L499 -5Q487 -3 472 -2T439 0Q406 3 372 3Q364 3 343 2T298 -1Q275 -3 255 -4T227 -5L228 18Q251 20 265 23T288 32T300 43T306 57Q308 65 309 91T311 149T312 209T312 251Q312 260 312 266T311 286Q299 305 287 324T258 368T215 429T150 517Q136 535 123 550T94 576T61 594T19 601L15 625Q23 625 41 625T82 624Q104 623 123 623T150 622L287 624L283 597Q280 597 271 597T253 595T237 590T230 579Q230 572 248 544T292 478T348 402T400 336Q447 410 473 452T513 516T529 548T532 565Q532 576 526 582T511 591T491 595T470 596L473 625Q480 625 492 625T521 623Q536 622 552 622T581 621Q587 621 601 621T631 622T661 622T681 623L680 591Q654 591 633 584T587 552T531 483T455 362L414 294ZM283 669L369 831L480 832L313 669H283Z"  />
<glyph unicode="&#xDE;" horiz-adv-x="521" d="M89 480Q89 523 86 547T74 583T50 600T10 609L14 631Q25 631 36 630T63 628Q79 627 98 627T141 626Q188 626 213 627T256 631V609Q235 606 224 602T206 588T198 563T194 524Q266 525 317 514T402 483T457 439T489 391T503 348T506 318Q506 288 494 258T459 202T405 157T336 128Q293 117 259 116T188 116Q189 90 191 73T203 45T230 30T284 25V-4Q271 -2 259 -1T231 1Q215 2 195 2T146 2Q139 2 122 2T84 -1Q64 -2 47 -3T21 -4V21Q40 26 58 32T81 50Q84 56 85 70T87 100T88 132T89 156V480ZM188 159Q199 156 215 153T251 150Q259 150 281 153T327 172T369 220T388 311Q388 362 375 396T342 452T296 481T247 490Q228 490 216 487T194 480Q192 449 192 426T190 384T189 350T188 319V159Z"  />
<glyph unicode="&#xDF;" horiz-adv-x="490" d="M10 0V20Q10 20 16 21T29 24T42 26T51 27Q64 29 69 34T79 47Q82 53 84 70T87 107T88 141T89 160Q89 165 89 187T88 235T86 282T83 307Q77 317 61 318T16 322V355Q20 355 31 355T54 356T75 357T88 358Q91 403 93 439T103 506T122 562T155 613Q201 668 278 668Q310 668 340 657T393 626T430 576T444 512Q444 448 405 413T304 363V361Q329 355 356 344T407 312T445 262T461 186Q461 142 449 106T414 44T363 4T300 -11Q283 -11 269 -4T255 26Q255 38 262 52T286 66Q291 66 297 64T314 52Q320 46 328 39T347 32Q355 32 361 39T370 57T375 80T377 102Q377 129 371 156T356 207T337 251T317 285Q305 302 292 313T266 331T240 341T217 347V373Q243 374 267 377T310 393T340 430T351 497Q351 504 350 526T340 572T315 613T264 632Q241 632 227 622T204 597T192 568T187 546Q184 524 183 493T180 428T179 360T178 299T177 252T177 230Q177 220 177 197T178 147T178 98T179 66Q179 54 179 47T183 37T193 31T213 27Q219 25 222 25V0Q213 0 206 0T191 -1T169 -1T135 0H10Z"  />
<glyph unicode="&#xE0;" horiz-adv-x="385" d="M385 22Q371 19 359 16T323 5Q309 0 292 -5T267 -11Q256 -11 248 -6T235 6T226 22T221 36Q169 5 132 -3T85 -12Q61 -12 48 -3T28 19T21 44T20 61Q20 99 32 115T70 142Q118 162 157 169T221 180Q222 192 223 205T224 238Q224 274 220 287T204 310Q191 321 178 325T158 330Q149 330 139 323T129 302Q129 300 130 295T133 281L46 246Q44 252 42 258T40 270Q40 293 64 312T119 346T178 369T215 378Q235 378 255 366T290 338Q300 327 308 306T316 238Q316 230 315 210T313 166T311 123T310 93Q310 61 316 50T334 38Q343 38 350 40T376 49Q378 50 381 51T385 52V22ZM109 91Q109 68 120 50T150 31Q161 31 177 39T205 53L217 60Q217 66 217 78T218 103T220 128T221 143Q217 144 209 145T194 146Q183 146 168 143T140 133T118 116T109 91ZM229 452L62 615L173 614L259 452H229Z"  />
<glyph unicode="&#xE1;" horiz-adv-x="385" d="M385 22Q371 19 359 16T323 5Q309 0 292 -5T267 -11Q256 -11 248 -6T235 6T226 22T221 36Q169 5 132 -3T85 -12Q61 -12 48 -3T28 19T21 44T20 61Q20 99 32 115T70 142Q118 162 157 169T221 180Q222 192 223 205T224 238Q224 274 220 287T204 310Q191 321 178 325T158 330Q149 330 139 323T129 302Q129 300 130 295T133 281L46 246Q44 252 42 258T40 270Q40 293 64 312T119 346T178 369T215 378Q235 378 255 366T290 338Q300 327 308 306T316 238Q316 230 315 210T313 166T311 123T310 93Q310 61 316 50T334 38Q343 38 350 40T376 49Q378 50 381 51T385 52V22ZM109 91Q109 68 120 50T150 31Q161 31 177 39T205 53L217 60Q217 66 217 78T218 103T220 128T221 143Q217 144 209 145T194 146Q183 146 168 143T140 133T118 116T109 91ZM126 452L212 614L323 615L156 452H126Z"  />
<glyph unicode="&#xE2;" horiz-adv-x="385" d="M385 22Q371 19 359 16T323 5Q309 0 292 -5T267 -11Q256 -11 248 -6T235 6T226 22T221 36Q169 5 132 -3T85 -12Q61 -12 48 -3T28 19T21 44T20 61Q20 99 32 115T70 142Q118 162 157 169T221 180Q222 192 223 205T224 238Q224 274 220 287T204 310Q191 321 178 325T158 330Q149 330 139 323T129 302Q129 300 130 295T133 281L46 246Q44 252 42 258T40 270Q40 293 64 312T119 346T178 369T215 378Q235 378 255 366T290 338Q300 327 308 306T316 238Q316 230 315 210T313 166T311 123T310 93Q310 61 316 50T334 38Q343 38 350 40T376 49Q378 50 381 51T385 52V22ZM109 91Q109 68 120 50T150 31Q161 31 177 39T205 53L217 60Q217 66 217 78T218 103T220 128T221 143Q217 144 209 145T194 146Q183 146 168 143T140 133T118 116T109 91ZM54 452L156 612H227L331 452H303L192 530L82 452H54Z"  />
<glyph unicode="&#xE3;" horiz-adv-x="385" d="M385 22Q371 19 359 16T323 5Q309 0 292 -5T267 -11Q256 -11 248 -6T235 6T226 22T221 36Q169 5 132 -3T85 -12Q61 -12 48 -3T28 19T21 44T20 61Q20 99 32 115T70 142Q118 162 157 169T221 180Q222 192 223 205T224 238Q224 274 220 287T204 310Q191 321 178 325T158 330Q149 330 139 323T129 302Q129 300 130 295T133 281L46 246Q44 252 42 258T40 270Q40 293 64 312T119 346T178 369T215 378Q235 378 255 366T290 338Q300 327 308 306T316 238Q316 230 315 210T313 166T311 123T310 93Q310 61 316 50T334 38Q343 38 350 40T376 49Q378 50 381 51T385 52V22ZM109 91Q109 68 120 50T150 31Q161 31 177 39T205 53L217 60Q217 66 217 78T218 103T220 128T221 143Q217 144 209 145T194 146Q183 146 168 143T140 133T118 116T109 91ZM346 581Q345 541 331 520T299 488T265 476T246 474Q223 474 202 482T165 499Q150 508 141 513T125 520T114 524T104 525Q93 525 86 521T75 510T69 497T66 486H38Q39 493 42 511T55 547T85 579T140 593Q151 593 161 592T187 582Q212 570 226 563T250 551T264 546T276 545Q292 545 303 555T318 581H346Z"  />
<glyph unicode="&#xE4;" horiz-adv-x="385" d="M385 22Q371 19 359 16T323 5Q309 0 292 -5T267 -11Q256 -11 248 -6T235 6T226 22T221 36Q169 5 132 -3T85 -12Q61 -12 48 -3T28 19T21 44T20 61Q20 99 32 115T70 142Q118 162 157 169T221 180Q222 192 223 205T224 238Q224 274 220 287T204 310Q191 321 178 325T158 330Q149 330 139 323T129 302Q129 300 130 295T133 281L46 246Q44 252 42 258T40 270Q40 293 64 312T119 346T178 369T215 378Q235 378 255 366T290 338Q300 327 308 306T316 238Q316 230 315 210T313 166T311 123T310 93Q310 61 316 50T334 38Q343 38 350 40T376 49Q378 50 381 51T385 52V22ZM109 91Q109 68 120 50T150 31Q161 31 177 39T205 53L217 60Q217 66 217 78T218 103T220 128T221 143Q217 144 209 145T194 146Q183 146 168 143T140 133T118 116T109 91ZM107 589Q130 589 146 573T163 534Q163 511 147 495T107 478Q84 478 68 494T51 534Q51 557 67 573T107 589ZM279 589Q302 589 318 573T334 533Q334 510 318 494T279 477Q256 477 240 493T223 533Q223 557 239 573T279 589Z"  />
<glyph unicode="&#xE5;" horiz-adv-x="385" d="M385 22Q371 19 359 16T323 5Q309 0 292 -5T267 -11Q256 -11 248 -6T235 6T226 22T221 36Q169 5 132 -3T85 -12Q61 -12 48 -3T28 19T21 44T20 61Q20 99 32 115T70 142Q118 162 157 169T221 180Q222 192 223 205T224 238Q224 274 220 287T204 310Q191 321 178 325T158 330Q149 330 139 323T129 302Q129 300 130 295T133 281L46 246Q44 252 42 258T40 270Q40 293 64 312T119 346T178 369T215 378Q235 378 255 366T290 338Q300 327 308 306T316 238Q316 230 315 210T313 166T311 123T310 93Q310 61 316 50T334 38Q343 38 350 40T376 49Q378 50 381 51T385 52V22ZM109 91Q109 68 120 50T150 31Q161 31 177 39T205 53L217 60Q217 66 217 78T218 103T220 128T221 143Q217 144 209 145T194 146Q183 146 168 143T140 133T118 116T109 91ZM192 627Q211 627 228 620T258 600T278 570T285 534Q285 515 278 498T259 469T229 449T192 441Q172 441 156 448T126 468T106 498T99 534Q99 553 106 570T126 599T155 619T192 627ZM192 583Q172 583 158 569T144 534Q144 514 158 500T192 486Q212 486 226 500T241 534Q241 554 227 568T192 583Z"  />
<glyph unicode="&#xE6;" horiz-adv-x="552" d="M528 55Q516 44 499 33T461 13T415 -2T363 -8Q337 -8 318 -2T284 13T260 31T244 48Q197 23 161 8T89 -8Q79 -8 67 -5T45 7T27 27T19 58Q19 61 22 83T43 132Q57 139 69 144T98 154T142 166T215 186Q215 211 215 227T214 255T212 274T207 288Q202 299 186 312T150 326Q129 326 129 304Q129 298 130 291T134 278L53 244Q53 245 52 249T49 258T46 267T44 274Q44 293 63 310T108 341T162 362T205 370Q222 370 244 360T289 327Q306 341 318 350T341 363T360 369T379 371Q406 371 428 364T467 344T496 317T516 285Q526 263 529 258T539 248V228Q539 228 522 225T478 216T422 204T367 193T324 183T305 178Q310 138 322 111T349 67T382 43T415 35Q448 35 473 50T515 76L528 55ZM106 80Q106 58 117 47T139 35Q146 35 157 38T180 48T205 61T229 75Q221 89 219 102T215 145Q201 145 183 145T147 139T118 120T106 80ZM413 232Q429 235 436 237T443 248Q443 254 438 268T422 296T397 322T362 333Q342 333 331 321T313 291T306 250T305 208L413 232Z"  />
<glyph unicode="&#xE7;" horiz-adv-x="375" d="M181 -7Q163 -6 137 1T88 27T47 76T30 157Q30 204 49 244T98 315T164 362T236 379Q256 379 277 375T316 365T345 352T357 339Q357 337 352 328T340 308T324 289T309 281Q304 281 291 288T266 302Q255 309 236 316T192 323Q146 323 128 297T109 231Q109 198 120 164T150 101T195 55T250 37Q279 37 301 48T339 69L350 46Q338 37 323 28T289 10T250 -3T205 -9L191 -35Q210 -42 220 -53T235 -75T241 -94T242 -105Q242 -137 225 -155T186 -181T143 -192T111 -194V-173Q117 -173 131 -171T159 -164T183 -150T194 -123Q194 -104 180 -97T136 -84L181 -7Z"  />
<glyph unicode="&#xE8;" horiz-adv-x="385" d="M126 192Q132 139 148 107T183 59T219 37T245 32Q274 32 300 43T351 70L363 51Q351 43 335 33T298 14T252 -1T198 -8Q156 -8 125 6T74 43T44 96T34 158Q34 205 51 244T94 312T152 357T210 373Q245 373 278 358T328 316Q338 301 344 292T354 279T362 273T371 272V246L126 192ZM225 243Q243 248 251 251T259 264Q259 268 255 279T241 301T218 322T182 331Q155 331 140 303T126 220L225 243ZM229 452L62 615L173 614L259 452H229Z"  />
<glyph unicode="&#xE9;" horiz-adv-x="385" d="M126 192Q132 139 148 107T183 59T219 37T245 32Q274 32 300 43T351 70L363 51Q351 43 335 33T298 14T252 -1T198 -8Q156 -8 125 6T74 43T44 96T34 158Q34 205 51 244T94 312T152 357T210 373Q245 373 278 358T328 316Q338 301 344 292T354 279T362 273T371 272V246L126 192ZM225 243Q243 248 251 251T259 264Q259 268 255 279T241 301T218 322T182 331Q155 331 140 303T126 220L225 243ZM126 452L212 614L323 615L156 452H126Z"  />
<glyph unicode="&#xEA;" horiz-adv-x="385" d="M126 192Q132 139 148 107T183 59T219 37T245 32Q274 32 300 43T351 70L363 51Q351 43 335 33T298 14T252 -1T198 -8Q156 -8 125 6T74 43T44 96T34 158Q34 205 51 244T94 312T152 357T210 373Q245 373 278 358T328 316Q338 301 344 292T354 279T362 273T371 272V246L126 192ZM225 243Q243 248 251 251T259 264Q259 268 255 279T241 301T218 322T182 331Q155 331 140 303T126 220L225 243ZM54 452L156 612H227L331 452H303L192 530L82 452H54Z"  />
<glyph unicode="&#xEB;" horiz-adv-x="385" d="M126 192Q132 139 148 107T183 59T219 37T245 32Q274 32 300 43T351 70L363 51Q351 43 335 33T298 14T252 -1T198 -8Q156 -8 125 6T74 43T44 96T34 158Q34 205 51 244T94 312T152 357T210 373Q245 373 278 358T328 316Q338 301 344 292T354 279T362 273T371 272V246L126 192ZM225 243Q243 248 251 251T259 264Q259 268 255 279T241 301T218 322T182 331Q155 331 140 303T126 220L225 243ZM107 589Q130 589 146 573T163 534Q163 511 147 495T107 478Q84 478 68 494T51 534Q51 557 67 573T107 589ZM279 589Q302 589 318 573T334 533Q334 510 318 494T279 477Q256 477 240 493T223 533Q223 557 239 573T279 589Z"  />
<glyph unicode="&#xEC;" horiz-adv-x="260" d="M29 316Q47 320 63 324T95 336T129 355T169 382L189 374Q186 363 184 349T179 313T175 256T173 169Q173 158 173 139T174 101T178 64T185 38Q188 33 193 31T211 28Q229 27 235 27T249 26L255 0H174Q138 0 102 0T29 -5L33 26Q59 30 69 34T81 46Q83 54 84 76T86 123T87 171T88 206Q88 235 87 252T82 278T72 290T53 293Q51 293 42 292T29 291V316ZM168 452L1 615L112 614L198 452H168Z"  />
<glyph unicode="&#xED;" horiz-adv-x="260" d="M29 316Q47 320 63 324T95 336T129 355T169 382L189 374Q186 363 184 349T179 313T175 256T173 169Q173 158 173 139T174 101T178 64T185 38Q188 33 193 31T211 28Q229 27 235 27T249 26L255 0H174Q138 0 102 0T29 -5L33 26Q59 30 69 34T81 46Q83 54 84 76T86 123T87 171T88 206Q88 235 87 252T82 278T72 290T53 293Q51 293 42 292T29 291V316ZM65 452L151 614L262 615L95 452H65Z"  />
<glyph unicode="&#xEE;" horiz-adv-x="260" d="M29 316Q47 320 63 324T95 336T129 355T169 382L189 374Q186 363 184 349T179 313T175 256T173 169Q173 158 173 139T174 101T178 64T185 38Q188 33 193 31T211 28Q229 27 235 27T249 26L255 0H174Q138 0 102 0T29 -5L33 26Q59 30 69 34T81 46Q83 54 84 76T86 123T87 171T88 206Q88 235 87 252T82 278T72 290T53 293Q51 293 42 292T29 291V316ZM-7 452L95 612H166L270 452H242L131 530L21 452H-7Z"  />
<glyph unicode="&#xEF;" horiz-adv-x="260" d="M29 316Q47 320 63 324T95 336T129 355T169 382L189 374Q186 363 184 349T179 313T175 256T173 169Q173 158 173 139T174 101T178 64T185 38Q188 33 193 31T211 28Q229 27 235 27T249 26L255 0H174Q138 0 102 0T29 -5L33 26Q59 30 69 34T81 46Q83 54 84 76T86 123T87 171T88 206Q88 235 87 252T82 278T72 290T53 293Q51 293 42 292T29 291V316ZM46 589Q69 589 85 573T102 534Q102 511 86 495T46 478Q23 478 7 494T-10 534Q-10 557 6 573T46 589ZM218 589Q241 589 257 573T273 533Q273 510 257 494T218 477Q195 477 179 493T162 533Q162 557 178 573T218 589Z"  />
<glyph unicode="&#xF0;" horiz-adv-x="458" d="M216 566Q211 572 204 580T184 599T152 622T103 649L127 667Q152 658 170 650T204 634T232 617T260 597L358 667L377 641L283 577Q358 506 397 413T437 216Q437 148 416 105T362 35T293 -1T226 -11Q187 -11 151 2T86 39T41 97T24 175Q24 222 43 258T91 319T155 357T224 370Q248 370 267 365T309 346Q302 408 281 457T234 542L135 474L117 497L216 566ZM126 222Q126 189 132 153T153 87T191 38T246 18Q268 18 284 28T312 56T328 95T333 140Q333 158 329 191T313 258T277 315T216 340Q174 340 150 307T126 222Z"  />
<glyph unicode="&#xF1;" horiz-adv-x="490" d="M421 54Q422 39 428 36T457 28Q462 27 468 26T477 24V-1Q458 1 431 2Q417 3 402 3T368 3Q334 3 311 2T269 -1V24Q287 28 299 33T318 53T328 100T331 187Q331 257 319 285T266 313Q234 313 210 302T170 283Q170 274 170 253T169 208T169 163T168 134Q168 101 168 82T171 51T179 36T194 30Q199 29 208 28T230 24V-1Q201 0 179 1T133 2T81 3T14 3V27Q38 33 51 38T70 56T77 96T79 172Q79 181 79 198T78 235T74 270T66 292Q60 298 53 299T19 305L14 329Q82 343 116 359T159 375L170 369V314Q180 320 196 329T231 346T274 361T320 367Q358 367 378 353T408 317T419 273T421 233V54ZM399 581Q398 541 384 520T352 488T318 476T299 474Q276 474 255 482T218 499Q203 508 194 513T178 520T167 524T157 525Q146 525 139 521T128 510T122 497T119 486H91Q92 493 95 511T108 547T138 579T193 593Q204 593 214 592T240 582Q265 570 279 563T303 551T317 546T329 545Q345 545 356 555T371 581H399Z"  />
<glyph unicode="&#xF2;" horiz-adv-x="458" d="M25 171Q25 219 43 256T91 319T158 358T235 371Q277 371 313 358T377 319T419 260T434 184Q434 143 418 108T374 46T308 5T224 -11Q180 -11 143 3T80 42T40 100T25 171ZM126 222Q126 180 134 143T158 79T195 35T244 18Q265 18 282 28T310 55T328 94T334 141Q334 154 331 186T315 253T280 314T218 341Q204 341 188 336T159 317T136 280T126 222ZM266 452L99 615L210 614L296 452H266Z"  />
<glyph unicode="&#xF3;" horiz-adv-x="458" d="M25 171Q25 219 43 256T91 319T158 358T235 371Q277 371 313 358T377 319T419 260T434 184Q434 143 418 108T374 46T308 5T224 -11Q180 -11 143 3T80 42T40 100T25 171ZM126 222Q126 180 134 143T158 79T195 35T244 18Q265 18 282 28T310 55T328 94T334 141Q334 154 331 186T315 253T280 314T218 341Q204 341 188 336T159 317T136 280T126 222ZM163 452L249 614L360 615L193 452H163Z"  />
<glyph unicode="&#xF4;" horiz-adv-x="458" d="M25 171Q25 219 43 256T91 319T158 358T235 371Q277 371 313 358T377 319T419 260T434 184Q434 143 418 108T374 46T308 5T224 -11Q180 -11 143 3T80 42T40 100T25 171ZM126 222Q126 180 134 143T158 79T195 35T244 18Q265 18 282 28T310 55T328 94T334 141Q334 154 331 186T315 253T280 314T218 341Q204 341 188 336T159 317T136 280T126 222ZM91 452L193 612H264L368 452H340L229 530L119 452H91Z"  />
<glyph unicode="&#xF5;" horiz-adv-x="458" d="M25 171Q25 219 43 256T91 319T158 358T235 371Q277 371 313 358T377 319T419 260T434 184Q434 143 418 108T374 46T308 5T224 -11Q180 -11 143 3T80 42T40 100T25 171ZM126 222Q126 180 134 143T158 79T195 35T244 18Q265 18 282 28T310 55T328 94T334 141Q334 154 331 186T315 253T280 314T218 341Q204 341 188 336T159 317T136 280T126 222ZM383 581Q382 541 368 520T336 488T302 476T283 474Q260 474 239 482T202 499Q187 508 178 513T162 520T151 524T141 525Q130 525 123 521T112 510T106 497T103 486H75Q76 493 79 511T92 547T122 579T177 593Q188 593 198 592T224 582Q249 570 263 563T287 551T301 546T313 545Q329 545 340 555T355 581H383Z"  />
<glyph unicode="&#xF6;" horiz-adv-x="458" d="M25 171Q25 219 43 256T91 319T158 358T235 371Q277 371 313 358T377 319T419 260T434 184Q434 143 418 108T374 46T308 5T224 -11Q180 -11 143 3T80 42T40 100T25 171ZM126 222Q126 180 134 143T158 79T195 35T244 18Q265 18 282 28T310 55T328 94T334 141Q334 154 331 186T315 253T280 314T218 341Q204 341 188 336T159 317T136 280T126 222ZM144 589Q167 589 183 573T200 534Q200 511 184 495T144 478Q121 478 105 494T88 534Q88 557 104 573T144 589ZM316 589Q339 589 355 573T371 533Q371 510 355 494T316 477Q293 477 277 493T260 533Q260 557 276 573T316 589Z"  />
<glyph unicode="&#xF7;" horiz-adv-x="667" d="M374 490Q374 473 362 461T333 449Q316 449 304 461T292 490Q292 507 304 519T333 532Q350 532 362 520T374 490ZM68 298H599V234H68V298ZM374 42Q374 25 362 13T333 0Q316 0 304 12T292 42Q292 59 304 71T333 83Q350 83 362 71T374 42Z"  />
<glyph unicode="&#xF8;" horiz-adv-x="458" d="M383 313Q390 305 399 294T415 267T428 231T434 185Q434 144 418 108T374 46T308 4T223 -11Q196 -11 175 -7T138 5T112 18T95 30L54 -10L34 11L73 50Q67 56 59 66T44 92T31 127T25 175Q25 218 42 254T87 316T154 356T235 371Q286 371 316 357T360 333L400 372L421 350L383 313ZM154 87Q157 80 164 69T182 46T208 26T244 18Q266 18 283 28T311 56T328 94T334 139Q334 162 330 192T317 248L154 87ZM305 278Q291 307 271 324T218 341Q204 341 188 336T158 316T135 279T126 222Q126 168 141 117L305 278Z"  />
<glyph unicode="&#xF9;" horiz-adv-x="479" d="M471 14Q442 8 423 4T388 -3T361 -10T332 -18Q325 2 323 13T319 44Q314 42 304 37T283 27T261 16T247 10Q227 2 207 -3T167 -8Q138 -8 119 3T87 32T70 75T65 125Q65 132 66 151T67 190T69 229T70 253Q70 273 66 286T51 300Q48 300 43 300T19 294Q15 292 12 292V325Q32 330 47 334T78 343T109 353T145 366Q147 366 152 368T159 370Q162 369 168 365Q159 277 158 223T156 164Q156 145 157 125T164 87T184 58T223 46Q243 46 261 51T306 71Q308 72 312 74T319 77Q319 86 320 112T321 166T323 216T324 238Q324 263 321 277T310 299T291 308T263 310V337Q265 338 269 338T277 340Q305 344 323 347T355 353T383 360T415 370Q418 368 420 365Q420 364 419 348T417 306T414 251T411 193T408 143T407 110Q407 84 410 66T415 32Q433 35 443 37T471 44V14ZM276 452L109 615L220 614L306 452H276Z"  />
<glyph unicode="&#xFA;" horiz-adv-x="479" d="M471 14Q442 8 423 4T388 -3T361 -10T332 -18Q325 2 323 13T319 44Q314 42 304 37T283 27T261 16T247 10Q227 2 207 -3T167 -8Q138 -8 119 3T87 32T70 75T65 125Q65 132 66 151T67 190T69 229T70 253Q70 273 66 286T51 300Q48 300 43 300T19 294Q15 292 12 292V325Q32 330 47 334T78 343T109 353T145 366Q147 366 152 368T159 370Q162 369 168 365Q159 277 158 223T156 164Q156 145 157 125T164 87T184 58T223 46Q243 46 261 51T306 71Q308 72 312 74T319 77Q319 86 320 112T321 166T323 216T324 238Q324 263 321 277T310 299T291 308T263 310V337Q265 338 269 338T277 340Q305 344 323 347T355 353T383 360T415 370Q418 368 420 365Q420 364 419 348T417 306T414 251T411 193T408 143T407 110Q407 84 410 66T415 32Q433 35 443 37T471 44V14ZM173 452L259 614L370 615L203 452H173Z"  />
<glyph unicode="&#xFB;" horiz-adv-x="479" d="M471 14Q442 8 423 4T388 -3T361 -10T332 -18Q325 2 323 13T319 44Q314 42 304 37T283 27T261 16T247 10Q227 2 207 -3T167 -8Q138 -8 119 3T87 32T70 75T65 125Q65 132 66 151T67 190T69 229T70 253Q70 273 66 286T51 300Q48 300 43 300T19 294Q15 292 12 292V325Q32 330 47 334T78 343T109 353T145 366Q147 366 152 368T159 370Q162 369 168 365Q159 277 158 223T156 164Q156 145 157 125T164 87T184 58T223 46Q243 46 261 51T306 71Q308 72 312 74T319 77Q319 86 320 112T321 166T323 216T324 238Q324 263 321 277T310 299T291 308T263 310V337Q265 338 269 338T277 340Q305 344 323 347T355 353T383 360T415 370Q418 368 420 365Q420 364 419 348T417 306T414 251T411 193T408 143T407 110Q407 84 410 66T415 32Q433 35 443 37T471 44V14ZM101 452L203 612H274L378 452H350L239 530L129 452H101Z"  />
<glyph unicode="&#xFC;" horiz-adv-x="479" d="M471 14Q442 8 423 4T388 -3T361 -10T332 -18Q325 2 323 13T319 44Q314 42 304 37T283 27T261 16T247 10Q227 2 207 -3T167 -8Q138 -8 119 3T87 32T70 75T65 125Q65 132 66 151T67 190T69 229T70 253Q70 273 66 286T51 300Q48 300 43 300T19 294Q15 292 12 292V325Q32 330 47 334T78 343T109 353T145 366Q147 366 152 368T159 370Q162 369 168 365Q159 277 158 223T156 164Q156 145 157 125T164 87T184 58T223 46Q243 46 261 51T306 71Q308 72 312 74T319 77Q319 86 320 112T321 166T323 216T324 238Q324 263 321 277T310 299T291 308T263 310V337Q265 338 269 338T277 340Q305 344 323 347T355 353T383 360T415 370Q418 368 420 365Q420 364 419 348T417 306T414 251T411 193T408 143T407 110Q407 84 410 66T415 32Q433 35 443 37T471 44V14ZM154 589Q177 589 193 573T210 534Q210 511 194 495T154 478Q131 478 115 494T98 534Q98 557 114 573T154 589ZM326 589Q349 589 365 573T381 533Q381 510 365 494T326 477Q303 477 287 493T270 533Q270 557 286 573T326 589Z"  />
<glyph unicode="&#xFD;" horiz-adv-x="427" d="M-6 -252Q20 -248 39 -238T77 -204T116 -140T164 -34Q156 -2 151 19T137 65T117 124T85 216Q74 246 67 267T51 302T32 323T6 333V361Q14 360 23 359T44 357Q56 357 71 357T104 356Q138 356 158 357T196 361V333Q192 332 186 331T174 326T164 318T160 303Q160 292 165 269T178 216T199 152T225 84Q268 157 290 212T313 287Q313 300 307 308T292 320T272 328T250 333L260 360Q288 357 311 357Q323 356 334 356T358 356H417V333Q405 329 397 324T381 306T361 274T332 220Q286 136 254 72T199 -41T162 -125T138 -187T124 -236T114 -278H-6V-252ZM147 452L233 614L344 615L177 452H147Z"  />
<glyph unicode="&#xFE;" horiz-adv-x="490" d="M27 -258Q47 -258 58 -253T75 -222T82 -145T84 -2Q84 16 84 53T85 139T86 241T87 343T87 431T88 490Q88 522 87 541T83 571T74 585T56 589Q47 589 40 588T27 585V607Q62 618 103 634T176 669L197 663Q191 636 188 609T182 544T178 453T174 322Q183 326 199 334T233 349T269 362T303 368Q322 368 348 358T398 326T439 270T456 187Q456 149 444 120T411 70T367 34T318 10T274 -3T242 -7Q222 -7 204 -2T174 7Q174 -8 174 -33T173 -83T172 -127T172 -150Q172 -185 173 -204T182 -233T207 -245T255 -247V-274Q210 -274 183 -274T134 -274T88 -277T27 -284V-258ZM173 139Q173 111 173 100T174 76Q177 73 190 67T221 53T257 41T288 35Q326 35 348 67T370 146Q370 168 363 197T341 252T302 297T245 315Q222 315 207 308T174 291L173 139Z"  />
<glyph unicode="&#xFF;" horiz-adv-x="427" d="M-6 -252Q20 -248 39 -238T77 -204T116 -140T164 -34Q156 -2 151 19T137 65T117 124T85 216Q74 246 67 267T51 302T32 323T6 333V361Q14 360 23 359T44 357Q56 357 71 357T104 356Q138 356 158 357T196 361V333Q192 332 186 331T174 326T164 318T160 303Q160 292 165 269T178 216T199 152T225 84Q268 157 290 212T313 287Q313 300 307 308T292 320T272 328T250 333L260 360Q288 357 311 357Q323 356 334 356T358 356H417V333Q405 329 397 324T381 306T361 274T332 220Q286 136 254 72T199 -41T162 -125T138 -187T124 -236T114 -278H-6V-252ZM128 589Q151 589 167 573T184 534Q184 511 168 495T128 478Q105 478 89 494T72 534Q72 557 88 573T128 589ZM300 589Q323 589 339 573T355 533Q355 510 339 494T300 477Q277 477 261 493T244 533Q244 557 260 573T300 589Z"  />
<glyph unicode="&#x131;" horiz-adv-x="260" d="M29 316Q47 320 63 324T95 336T129 355T169 382L189 374Q186 363 184 349T179 313T175 256T173 169Q173 158 173 139T174 101T178 64T185 38Q188 33 193 31T211 28Q229 27 235 27T249 26L255 0H174Q138 0 102 0T29 -5L33 26Q59 30 69 34T81 46Q83 54 84 76T86 123T87 171T88 206Q88 235 87 252T82 278T72 290T53 293Q51 293 42 292T29 291V316Z"  />
<glyph unicode="&#x152;" horiz-adv-x="1000" d="M890 210H864Q861 239 857 257T835 286T781 299T679 303Q669 303 657 303T622 301Q621 266 621 238T620 187Q620 126 622 95T626 43Q646 40 664 38T717 35Q773 35 813 39T880 55T926 89T957 148H980Q975 115 970 92T960 53T950 23T938 -3Q896 -1 854 -1T769 1Q726 2 684 2T600 2Q568 2 545 2T502 1T467 -1T432 -4Q426 -4 405 -5T365 -7Q304 -7 245 15T139 80T63 182T34 317Q34 398 64 457T144 556T255 615T380 635Q394 635 428 634T500 631Q539 629 574 628T623 626Q648 626 692 626T785 626T875 627T938 630L944 623Q942 615 942 609T939 589Q937 559 934 538T917 492L895 500Q897 510 898 518T900 535Q900 572 863 583T757 595Q730 595 711 595T678 593T653 591T631 588Q621 464 622 338Q645 337 668 337T727 336Q733 336 750 336T788 337T825 341T846 348Q849 353 856 369T869 402H890V210ZM152 320Q152 240 173 185T227 95T303 45T386 29Q428 29 457 37T505 51Q508 72 510 97T514 155T517 233T518 338Q518 418 518 462T516 527T513 555T507 567Q502 574 489 580T459 591T421 599T380 602Q323 602 284 585T220 540T181 481T161 417T153 359T152 320Z"  />
<glyph unicode="&#x153;" horiz-adv-x="687" d="M665 51Q653 43 637 33T600 14T554 -1T499 -8Q485 -8 470 -6T438 1T405 17T374 44Q342 15 304 2T226 -11Q183 -11 147 2T84 40T42 99T27 175Q27 218 44 254T89 316T156 356T237 371Q282 371 321 356T391 307Q410 329 428 342T462 362T490 371T511 373Q547 373 579 358T629 316Q639 301 645 292T655 279T663 273T673 272V246L427 192Q433 139 449 107T484 59T521 37T547 32Q576 32 602 43T653 70L665 51ZM128 222Q128 180 136 143T160 79T197 35T246 18Q267 18 284 28T312 55T330 94T336 141Q336 154 333 186T317 253T282 314T219 341Q206 341 190 336T161 317T138 280T128 222ZM527 243Q544 248 552 251T560 264Q560 268 556 279T543 301T519 322T483 331Q457 331 441 303T427 220L527 243Z"  />
<glyph unicode="&#x160;" horiz-adv-x="490" d="M43 171Q47 153 52 138T68 108T96 82T141 56Q173 42 210 33T279 24Q288 24 304 26T337 39T366 70T378 127Q378 158 366 179T332 217T281 246T218 270Q184 282 154 296T102 332T66 381T52 450Q52 489 67 521T110 578T176 615T261 628Q269 628 289 626T332 622T374 618T399 616Q407 616 414 617T427 623L444 619Q444 616 443 607T442 588T441 570T440 561Q440 558 440 549T441 530T441 512T442 503V473H421Q415 505 401 527T369 563T332 585T295 596T266 600T250 601Q215 601 193 590T159 563T141 528T136 492Q136 473 141 457T161 425T203 394T276 363Q306 352 340 338T402 301T448 246T467 166Q467 141 459 111T425 54T356 9T239 -9Q201 -9 167 -5T96 7Q94 7 90 8T84 9Q77 9 76 6T74 0H47Q46 20 44 37T39 73T31 113T19 165L43 171ZM107 829H135L245 751L356 829H384L280 669H209L107 829Z"  />
<glyph unicode="&#x161;" horiz-adv-x="333" d="M285 268L260 267Q257 282 245 295T218 317T188 331T164 336Q141 336 130 324T119 296Q119 278 132 267T185 237Q206 226 226 215T263 188T290 152T301 103Q301 80 295 66T279 42T259 27T239 16Q202 2 174 -2T134 -7Q113 -7 88 -1T29 15Q31 20 32 24T34 39Q34 59 30 80T22 113H47Q59 86 74 69T106 43T139 31T170 28Q191 28 206 38T222 69Q222 100 198 118T127 159Q79 183 60 203T40 253Q40 277 52 297T84 333T132 357T192 366Q212 366 231 364T267 360L285 268ZM28 612H56L166 534L277 612H305L201 452H130L28 612Z"  />
<glyph unicode="&#x178;" horiz-adv-x="698" d="M414 294Q414 285 414 265T414 219T414 167T415 117T416 76T418 54Q420 46 430 40T453 30T479 22T501 18L499 -5Q487 -3 472 -2T439 0Q406 3 372 3Q364 3 343 2T298 -1Q275 -3 255 -4T227 -5L228 18Q251 20 265 23T288 32T300 43T306 57Q308 65 309 91T311 149T312 209T312 251Q312 260 312 266T311 286Q299 305 287 324T258 368T215 429T150 517Q136 535 123 550T94 576T61 594T19 601L15 625Q23 625 41 625T82 624Q104 623 123 623T150 622L287 624L283 597Q280 597 271 597T253 595T237 590T230 579Q230 572 248 544T292 478T348 402T400 336Q447 410 473 452T513 516T529 548T532 565Q532 576 526 582T511 591T491 595T470 596L473 625Q480 625 492 625T521 623Q536 622 552 622T581 621Q587 621 601 621T631 622T661 622T681 623L680 591Q654 591 633 584T587 552T531 483T455 362L414 294ZM264 806Q287 806 303 790T320 751Q320 728 304 712T264 695Q241 695 225 711T208 751Q208 774 224 790T264 806ZM436 806Q459 806 475 790T491 750Q491 727 475 711T436 694Q413 694 397 710T380 750Q380 774 396 790T436 806Z"  />
<glyph unicode="&#x17D;" horiz-adv-x="615" d="M277 179Q265 162 250 142T221 102T195 65T177 39Q187 38 197 37T222 36T255 35T304 34Q363 34 409 37T491 52T551 82T592 135L614 125L555 -19H540Q540 -5 503 -3T381 1Q357 1 334 1T290 2T253 2T229 2Q213 2 187 2T131 2T69 0T9 -3V11Q48 49 95 105T190 225T283 351T363 465T420 549T442 584Q430 585 419 586T395 588T365 589T324 590Q241 590 191 587T111 575T65 549T34 501L13 512Q24 544 33 582T46 651H65Q69 642 73 637T87 628T114 623T164 622H592V609Q541 545 487 471T381 324L277 179ZM169 829H197L307 751L418 829H446L342 669H271L169 829Z"  />
<glyph unicode="&#x17E;" horiz-adv-x="406" d="M265 189Q240 158 209 118T149 36Q183 34 196 33T221 32Q265 32 293 41T337 64T362 92T374 117H394Q389 78 381 44T365 -5Q342 -3 328 -2T304 1Q295 2 288 2T270 2H66Q64 2 57 2T41 0Q33 -1 27 -1T19 -2L10 16Q39 44 73 85T142 169T205 254T255 325H195Q150 325 123 322T78 313T52 297T35 274H6Q17 299 26 321T38 373Q49 370 60 367T85 362Q99 360 115 359T154 357H394Q388 348 383 341T369 323T346 293T307 242L265 189ZM65 612H93L203 534L314 612H342L238 452H167L65 612Z"  />
<glyph unicode="&#x192;" horiz-adv-x="625" d="M458 380L452 342L340 339L303 116Q302 115 302 109T300 101Q294 59 284 20T255 -56T211 -123T147 -180Q117 -200 80 -213T0 -227Q-5 -227 -15 -227T-37 -222T-56 -209T-64 -183Q-64 -164 -50 -154T-12 -143Q-6 -143 9 -145T41 -150T73 -155T95 -158Q127 -158 147 -141T179 -95T199 -31T212 42L259 339H185L194 374L270 380Q291 467 324 515T392 587T457 615T502 620Q523 620 543 611T563 577Q563 565 552 551T511 536Q506 536 493 538T465 542T437 546T418 548Q403 548 392 540T373 512T358 460T346 380H458Z"  />
<glyph unicode="&#x2C6;" horiz-adv-x="333" d="M28 452L130 612H201L305 452H277L166 530L56 452H28Z"  />
<glyph unicode="&#x2C7;" horiz-adv-x="333" d="M28 612H56L166 534L277 612H305L201 452H130L28 612Z"  />
<glyph unicode="&#x2DA;" horiz-adv-x="333" d="M166 627Q185 627 202 620T232 600T252 570T259 534Q259 515 252 498T233 469T203 449T166 441Q146 441 130 448T100 468T80 498T73 534Q73 553 80 570T100 599T129 619T166 627ZM166 583Q146 583 132 569T118 534Q118 514 132 500T166 486Q186 486 200 500T215 534Q215 554 201 568T166 583Z"  />
<glyph unicode="&#x2DC;" horiz-adv-x="333" d="M320 581Q319 541 305 520T273 488T239 476T220 474Q197 474 176 482T139 499Q124 508 115 513T99 520T88 524T78 525Q67 525 60 521T49 510T43 497T40 486H12Q13 493 16 511T29 547T59 579T114 593Q125 593 135 592T161 582Q186 570 200 563T224 551T238 546T250 545Q266 545 277 555T292 581H320Z"  />
<glyph unicode="&#x2013;" horiz-adv-x="500" d="M-6 273H506V227H-6V273Z"  />
<glyph unicode="&#x2014;" horiz-adv-x="1000" d="M-6 273H1006V227H-6V273Z"  />
<glyph unicode="&#x2018;" horiz-adv-x="188" d="M77 424Q73 433 67 442T44 460Q27 470 23 473T18 481Q18 489 23 496Q27 502 30 506T34 514T37 523T40 536Q46 568 61 591T94 631T131 657T161 673L176 642Q170 639 158 632T134 615T114 592T105 563Q105 547 113 540T143 520Q154 514 155 505T157 492Q152 487 149 485T139 477Q131 472 126 468T117 458T109 444T101 424H77Z"  />
<glyph unicode="&#x2019;" horiz-adv-x="188" d="M111 673Q115 664 121 655T144 637Q161 627 165 624T170 616Q170 608 165 601Q156 589 154 583T148 561Q142 529 127 506T94 466T58 440T27 424L12 455Q18 458 30 465T54 482T74 505T83 534Q83 550 75 557T45 577Q34 583 33 592T31 605Q36 610 39 612T49 620Q65 630 71 639T87 673H111Z"  />
<glyph unicode="&#x201A;" horiz-adv-x="188" d="M109 122Q117 103 127 96T138 87Q151 82 160 75T170 60Q170 57 169 55T162 46Q157 40 156 34T150 9Q144 -21 130 -43T97 -82T62 -110T32 -128L14 -99Q59 -76 71 -56T84 -25Q84 -18 81 -9T62 13Q50 24 40 33T30 53Q30 56 32 58T42 66Q60 75 71 88T84 122H109Z"  />
<glyph unicode="&#x201C;" horiz-adv-x="406" d="M292 424Q288 433 282 442T259 460Q242 470 238 473T233 481Q233 489 238 496Q242 502 245 506T249 514T252 523T255 536Q261 568 276 591T309 631T346 657T376 673L391 642Q385 639 373 632T349 615T329 592T320 563Q320 547 328 540T358 520Q369 514 370 505T372 492Q367 487 364 485T354 477Q346 472 341 468T332 458T324 444T316 424H292ZM86 424Q82 433 76 442T53 460Q36 470 32 473T27 481Q27 489 32 496Q36 502 39 506T43 514T46 523T49 536Q55 568 70 591T103 631T140 657T170 673L185 642Q179 639 167 632T143 615T123 592T114 563Q114 547 122 540T152 520Q163 514 164 505T166 492Q161 487 158 485T148 477Q140 472 135 468T126 458T118 444T110 424H86Z"  />
<glyph unicode="&#x201D;" horiz-adv-x="406" d="M114 673Q118 664 124 655T147 637Q164 627 168 624T173 616Q173 608 168 601Q159 589 157 583T151 561Q145 529 130 506T97 466T61 440T30 424L15 455Q21 458 33 465T57 482T77 505T86 534Q86 550 78 557T48 577Q37 583 36 592T34 605Q39 610 42 612T52 620Q68 630 74 639T90 673H114ZM320 673Q324 664 330 655T353 637Q370 627 374 624T379 616Q379 608 374 601Q365 589 363 583T357 561Q351 529 336 506T303 466T267 440T236 424L221 455Q227 458 239 465T263 482T283 505T292 534Q292 550 284 557T254 577Q243 583 242 592T240 605Q245 610 248 612T258 620Q274 630 280 639T296 673H320Z"  />
<glyph unicode="&#x201E;" horiz-adv-x="406" d="M109 122Q117 103 127 96T138 87Q151 82 160 75T170 60Q170 57 169 55T162 46Q157 40 156 34T150 9Q144 -21 130 -43T97 -82T62 -110T32 -128L14 -99Q59 -76 71 -56T84 -25Q84 -18 81 -9T62 13Q50 24 40 33T30 53Q30 56 32 58T42 66Q60 76 71 89T84 122H109ZM326 122Q334 103 344 96T355 87Q368 82 377 75T387 60Q387 57 386 55T379 46Q374 40 373 34T367 9Q361 -21 347 -43T314 -82T279 -110T249 -128L231 -99Q276 -76 288 -56T301 -25Q301 -18 298 -9T279 13Q267 24 257 33T247 53Q247 56 249 58T259 66Q277 76 288 89T301 122H326Z"  />
<glyph unicode="&#x2020;" horiz-adv-x="396" d="M183 -128Q183 -67 180 -5T170 114T154 218T133 296Q155 314 166 337T182 387Q148 384 115 365T58 317H36V489H57Q72 474 83 463T108 444T139 430T182 419Q175 435 170 446T162 467T158 486T157 509Q157 512 158 520T161 538T164 556T166 569Q166 588 158 599T139 617T115 627T94 632V648H304V629Q274 625 253 612T231 572Q231 569 232 560T234 541T237 522T238 509Q238 481 229 457T214 419Q226 421 241 424T272 435T305 456T337 489H360V316H340Q322 336 303 349T267 370T236 381T213 387Q217 372 221 360T230 338T244 317T266 294Q251 247 241 200T225 101T216 -8T211 -129L183 -128Z"  />
<glyph unicode="&#x2021;" horiz-adv-x="396" d="M112 659H284V641Q276 637 266 632T247 620T232 604T226 585Q226 582 227 575T229 559T232 543T234 532Q234 512 228 495T211 455Q246 458 271 471T322 514H342V366H322Q305 388 289 400T258 419T232 427T212 430Q215 412 223 396T256 360Q249 340 243 318T231 273T222 230T219 193Q219 169 228 124T254 28Q234 11 226 -3T212 -40Q228 -39 240 -36T265 -27T291 -9T323 20H342V-128L322 -129Q286 -90 260 -79T211 -66Q218 -80 226 -102T234 -142Q234 -145 233 -153T230 -170T227 -187T226 -198Q226 -210 232 -219T247 -235T265 -246T283 -254V-273L112 -272V-253Q121 -249 131 -243T149 -231T164 -216T170 -198Q170 -195 169 -188T166 -173T163 -157T162 -146Q162 -126 168 -105T184 -66Q149 -70 121 -86T73 -128L54 -129V20H74Q100 -7 123 -21T184 -39Q180 -26 173 -10T140 28Q162 80 171 127T181 196Q181 212 178 233T169 277T156 321T142 360Q164 380 172 395T185 428Q150 426 123 408T73 366H54V514H75Q81 506 91 497T114 478T145 463T185 455Q177 469 170 486T162 530Q162 533 163 540T165 557T168 574T170 585Q170 604 151 617T112 642V659Z"  />
<glyph unicode="&#x2022;" horiz-adv-x="354" d="M316 330Q316 301 305 276T276 232T232 202T177 191Q148 191 123 202T78 231T48 275T37 330Q37 359 48 384T78 429T122 459T177 470Q206 470 231 459T275 429T305 385T316 330Z"  />
<glyph unicode="&#x2026;" horiz-adv-x="1000" d="M235 30Q224 22 214 15T191 -8Q181 -20 176 -24T165 -28Q157 -28 153 -24T141 -5Q134 6 128 12T114 24Q109 27 103 31T97 42Q97 47 102 52T113 61Q116 63 123 71T139 89T155 105T168 112Q174 112 177 109T188 93Q189 91 193 87T201 77T211 67T219 59Q221 57 227 53T237 45L235 30ZM570 30Q559 22 549 15T526 -8Q516 -20 511 -24T499 -28Q491 -28 487 -24T475 -5Q468 6 462 12T448 24Q443 27 437 31T431 42Q431 47 436 52T447 61Q450 63 457 71T473 89T490 105T503 112Q508 112 512 109T523 93Q529 85 533 80T542 70T554 60T572 45L570 30ZM904 30Q893 22 883 15T860 -8Q850 -20 845 -24T834 -28Q826 -28 822 -24T810 -5Q803 6 797 12T782 24Q777 27 772 31T766 42Q766 47 771 52T782 61Q785 64 792 72T808 89T824 105T837 112Q842 112 846 109T857 93Q858 91 862 86T873 73T887 60T902 49Q902 48 903 47T906 45L904 30Z"  />
<glyph unicode="&#x2030;" horiz-adv-x="1073" d="M190 634Q228 634 256 621T302 585T330 534T339 478Q339 447 329 417T300 362T251 323T181 308Q145 308 118 321T71 356T41 406T31 465Q31 505 44 536T80 589T130 622T190 634ZM181 612Q152 612 131 589T110 514Q110 481 113 448T126 389T151 347T192 331Q204 331 216 336T239 353T255 384T261 432Q261 473 257 506T244 563T219 599T181 612ZM549 308Q587 308 615 295T661 259T689 209T698 153Q698 122 688 92T659 37T610 -3T540 -18Q504 -18 477 -5T430 30T401 80T391 139Q391 179 404 210T439 263T489 296T549 308ZM540 286Q511 286 490 263T469 189Q469 156 472 123T485 64T510 21T551 5Q564 5 576 10T598 27T614 58T620 106Q620 147 616 180T603 237T578 273T540 286ZM893 308Q931 308 959 295T1005 259T1032 209T1041 153Q1041 122 1032 92T1003 37T953 -3T883 -18Q848 -18 820 -5T773 30T744 80T734 139Q734 179 747 210T782 263T833 296T893 308ZM884 286Q855 286 834 263T813 189Q813 156 816 123T828 64T853 21T894 5Q907 5 919 10T942 27T958 58T964 106Q964 147 960 180T947 237T922 273T884 286ZM521 645Q522 647 523 650T531 664Q545 665 564 668T594 674Q534 577 486 494T395 331T309 168T219 -12Q218 -14 216 -18T213 -24Q200 -26 190 -29T163 -43L140 -37Q194 46 247 136T347 310T429 460T482 564L521 645Z"  />
<glyph unicode="&#x2039;" horiz-adv-x="260" d="M158 186L227 0H203L20 187L200 375H227L158 186Z"  />
<glyph unicode="&#x203A;" horiz-adv-x="260" d="M102 189L33 375H57L240 188L60 0H33L102 189Z"  />
<glyph unicode="&#x20AC;" horiz-adv-x="520" d="M492 152Q491 141 491 133T486 106Q486 103 485 97T482 83T479 69T477 60L469 20Q443 11 419 6T374 -3T341 -6T324 -7Q277 -7 236 11T163 61T110 139T79 240L56 239Q41 238 28 239T6 242L22 274Q30 271 36 270T56 268H76Q75 278 75 287T74 308V329H56Q41 329 28 329T6 332L22 364Q30 361 36 360T56 358H77Q84 425 108 474T168 557T248 606T340 622Q363 622 384 617T430 600Q436 597 446 593T461 589Q466 589 470 591T480 597L490 593Q489 586 486 567T480 527T473 487T469 460L453 464Q451 489 441 512T413 552T372 579T324 589Q281 589 255 569T214 515T193 442T186 361L240 363Q264 364 291 364T347 366T403 370T453 375Q455 364 452 356T443 340Q432 338 404 338T343 336T282 335T241 334L185 332V313Q185 302 185 292T186 271L240 273Q288 275 333 276T423 285Q425 274 422 266T413 250Q402 248 379 248T329 246T278 245T241 244L188 243Q195 168 215 125T259 59T303 32T335 26Q384 26 418 61T468 156L492 152H492Z"  />
<glyph unicode="&#x2122;" horiz-adv-x="1000" d="M23 666H379L389 568H372Q368 593 359 607T335 627T297 635T242 636V365Q242 346 243 332T249 309T266 295T300 290V272H103V290Q125 290 136 294T153 308T160 332T161 365V636Q129 636 106 635T68 628T43 607T30 568H13L23 666ZM563 666L696 387L826 666H966V648Q944 648 933 644T916 630T909 606T908 573V365Q908 346 909 332T915 309T932 295T966 290V272H769V290Q791 290 802 294T819 308T826 332T827 365V594H825L676 272H660L511 589H509V365Q509 346 510 332T516 309T533 295T567 290V272H421V290Q443 290 454 294T471 308T478 332T479 365V573Q479 592 478 606T472 629T455 643T421 648V666H563Z"  />

</font>
</defs>
</svg>
