<?xml  version="1.0" encoding="UTF-8"?>
<!DOCTYPE svg PUBLIC "-//W3C//DTD SVG 1.0//EN" "http://www.w3.org/TR/2001/REC-SVG-20010904/DTD/svg10.dtd" >
<svg xmlns="http://www.w3.org/2000/svg" >
<metadata>
<version>1.0</version>
<id><![CDATA[Centaur W01]]></id>
<vendor>Monotype Imaging Inc.</vendor>
<credits>
<name>Fonts.com WebFonts</name>
<URL>http://webfonts.fonts.com</URL>
<role>Home of the Web fonts</role>
</credits>
<license>
<URL>http://webfonts.fonts.com/Legal</URL>
</license>
<copyright><![CDATA[Font software Copyright 1991, 2002 Adobe Systems Incorporated. Type design Copyright 1990, 2002 The Monotype Corporation. All rights reserved.]]></copyright>
<trademark><![CDATA[Centaur is a registered trademark of The Monotype Corporation in the United States and/or other countries.]]></trademark>
<licensee>
<name></name>
</licensee>
</metadata>
<defs >
<font horiz-adv-x="493" id="66c7deb6-e64a-4b8e-8e72-2c776b491bbf">
<font-face font-family="" panose-1="2 2 5 3 5 4 5 2 3 4" ascent="853" descent="-281" units-per-em="1000" alphabetic="0">
</font-face>
<missing-glyph horiz-adv-x="245" />

<glyph unicode="&#xA;" />
<glyph unicode="&#xD;" horiz-adv-x="245" />
<glyph unicode=" " horiz-adv-x="245" />
<glyph unicode="!" horiz-adv-x="208" d="M92 166Q94 224 95 286T96 410Q96 414 96 424T96 446T96 469T94 489Q93 496 90 503T81 514Q78 516 74 519T70 526Q70 532 80 534Q85 536 99 541T129 553T156 563T169 568Q175 568 175 561Q175 556 174 552L128 273Q124 251 121 227T114 174Q113 173 113 169T112 163L92 166ZM38 44Q38 49 42 52T51 59Q66 67 74 77T88 99Q90 101 92 104T101 107Q110 107 114 98T118 88Q119 88 126 76T150 56Q159 51 160 49T162 42Q162 35 154 30Q144 25 136 19T115 -8Q109 -19 101 -19Q93 -19 86 -9Q77 7 71 14T49 30Q44 33 41 35T38 44Z"  />
<glyph unicode="&quot;" horiz-adv-x="438" d="M111 340L85 484Q81 504 78 524T74 565Q74 625 121 625Q143 625 157 611T172 573Q172 561 169 539T162 500L132 340H111ZM304 340L278 484Q274 504 271 524T267 565Q267 625 314 625Q336 625 350 611T365 573Q365 561 362 539T355 500L325 340H304Z"  />
<glyph unicode="#" horiz-adv-x="667" d="M27 495H202L248 712H293L247 495H485L530 712H576L530 495H641V449H521L477 237H641V191H467L423 -25H377L422 191H183L140 -25H93L138 191H27V237H148L192 449H27V495ZM476 449H237L193 237H432L476 449Z"  />
<glyph unicode="$" horiz-adv-x="490" d="M257 672V626Q290 626 316 619T363 602T396 581T418 562Q412 556 397 538T373 493L355 495Q356 520 348 539T325 572T292 593T257 603L256 368Q291 348 323 329T380 286T420 236T435 172Q435 146 425 117T392 63T336 20T253 0L254 -65Q254 -75 248 -75Q240 -75 235 -74T230 -65V0Q216 1 197 4T154 20T102 58T40 127L93 203L108 192Q103 181 103 165Q103 163 107 143T124 98T162 51T230 23L231 299Q205 312 177 328T126 366T87 414T71 478Q71 502 81 527T112 573T163 608T232 626L233 672H257ZM233 604Q203 602 183 593T150 571T132 542T126 510Q126 486 136 467T162 432T196 404T232 381L233 604ZM254 20Q300 24 327 41T368 78T386 116T390 142Q390 183 357 217T255 286L254 20Z"  />
<glyph unicode="%" horiz-adv-x="813" d="M203 646Q232 646 258 635T305 603T337 554T349 490Q349 460 340 430T311 374T264 334T198 318Q169 318 143 328T96 358T63 407T50 476Q50 514 62 545T96 598T144 633T203 646ZM195 626Q171 626 154 614T126 584T110 542T104 494Q104 464 111 436T131 386T163 351T204 338Q214 338 229 342T258 361T282 401T292 470Q292 496 287 523T269 574T239 611T195 626ZM624 310Q653 310 679 299T726 267T759 217T771 153Q771 123 761 93T732 37T685 -3T619 -19Q590 -19 564 -9T517 22T484 71T471 139Q471 177 483 208T517 262T566 297T624 310ZM616 289Q592 289 575 278T547 247T531 205T525 157Q525 127 532 100T552 50T584 15T626 2Q636 2 651 6T680 25T704 65T714 134Q714 160 708 187T690 237T660 274T616 289ZM168 -41Q192 -7 222 39T283 136T347 238T406 336T455 418T488 476Q500 497 513 521T539 568T563 611T580 641Q582 643 583 645T591 658Q606 658 614 659T639 665Q597 600 553 528T465 384T382 245T310 122T256 28T226 -27Q212 -28 203 -32T185 -48L168 -41Z"  />
<glyph unicode="&amp;" horiz-adv-x="635" d="M585 422Q569 421 559 418T541 405T523 376T498 324Q491 309 483 291T467 254T450 217T434 185Q425 169 423 165T419 157Q428 133 440 110T465 69T492 41T521 30Q533 30 543 37T562 53T577 72T586 88Q595 104 598 108T606 112Q608 112 612 110T616 102Q607 72 590 49Q576 29 553 13T495 -4Q472 -4 454 7T422 34T398 67T380 99Q358 67 336 47T289 14T241 -2T191 -7Q149 -7 119 9T71 49T44 102T35 159Q35 201 50 232T86 284T129 320T164 341Q142 354 128 369T105 399T94 429T90 453Q90 488 111 513T158 553T205 576T228 584Q232 584 240 580T259 571T278 559T294 547Q311 533 321 512T331 467Q331 456 331 450T327 436T316 421T295 399Q287 389 275 377T255 356Q279 344 297 333T332 304T366 259T404 189Q405 193 410 202T420 220T429 238T434 248Q443 264 452 285T469 329T483 374T491 414Q485 423 478 429T448 446L455 462Q470 457 488 453T525 445T559 441T587 438L585 422ZM228 371Q251 382 268 402T285 449Q285 464 277 480T256 510T226 531T191 540Q177 540 164 533T141 515T126 493T120 472Q120 460 127 446T148 418T182 392T228 371ZM188 326Q162 308 144 293T115 263T99 232T94 195Q94 138 113 107T157 60T204 42T232 39Q277 39 309 62T367 125Q367 126 366 129T363 134Q346 172 331 202T297 255T251 295T188 326Z"  />
<glyph unicode="&apos;" horiz-adv-x="188" d="M82 340L56 484Q52 504 49 524T45 565Q45 625 92 625Q114 625 128 611T143 573Q143 561 140 539T133 500L103 340H82Z"  />
<glyph unicode="(" horiz-adv-x="333" d="M293 -279Q162 -196 98 -80T33 194Q33 286 54 361T111 495T194 598T295 672L307 647Q275 628 233 594T152 505T88 375T62 200Q62 104 85 31T144 -96T223 -189T308 -254L293 -279Z"  />
<glyph unicode=")" horiz-adv-x="333" d="M40 672Q171 589 235 473T300 199Q300 107 279 32T221 -102T138 -205T38 -279L26 -254Q58 -235 100 -201T181 -112T245 18T271 193Q271 289 248 362T189 489T110 582T25 647L40 672Z"  />
<glyph unicode="*" horiz-adv-x="354" d="M25 568Q39 562 68 552T137 539Q142 550 151 574T168 651H186Q191 605 200 579T217 539Q231 540 258 544T330 568L338 552Q321 539 299 519T258 469Q264 459 281 438T338 387L330 371Q282 391 256 395T217 400Q209 383 200 358T186 288H168Q161 340 152 364T137 400Q119 398 93 394T25 371L16 387Q56 416 73 437T96 469Q89 480 73 501T16 552L25 568ZM114 469Q114 443 132 425T177 406Q204 406 222 424T240 469Q240 495 222 514T177 533Q150 533 132 514T114 469Z"  />
<glyph unicode="+" horiz-adv-x="667" d="M54 301H310V559H356V301H614V255H356V0H310V255H54V301Z"  />
<glyph unicode="&#x2c;" horiz-adv-x="198" d="M30 -96Q38 -91 49 -84T70 -68T87 -46T94 -20Q94 -16 91 -1T66 30Q57 37 53 41T48 57Q74 71 82 88T94 117Q101 117 105 118Q114 97 125 89T139 79Q151 74 154 71T158 63Q158 59 152 48T145 33L143 18Q138 -12 125 -34T97 -72T66 -97T40 -112L30 -96Z"  />
<glyph unicode="-" horiz-adv-x="313" d="M35 214H277V161H35V214Z"  />
<glyph unicode="." horiz-adv-x="198" d="M38 44Q38 49 42 52T51 59Q66 67 74 77T88 99Q90 101 92 104T101 107Q110 107 114 98T118 88Q119 88 126 76T150 56Q159 51 160 49T162 42Q162 35 154 30Q144 25 136 19T115 -8Q109 -19 101 -19Q93 -19 86 -9Q77 7 71 14T49 30Q44 33 41 35T38 44Z"  />
<glyph unicode="/" horiz-adv-x="531" d="M456 742H502L74 -145H29L456 742Z"  />
<glyph unicode="0" horiz-adv-x="490" d="M464 315Q464 247 449 188T404 86T333 17T239 -8Q187 -8 147 18T80 88T40 186T26 299Q26 382 46 443T98 546T171 607T251 627Q300 627 339 603T406 536T449 437T464 315ZM99 344Q99 331 100 302T106 237T120 162T147 91T190 38T253 17Q291 17 317 39T360 98T384 179T391 270Q391 276 391 303T386 367T373 445T348 522Q344 531 336 545T314 572T282 594T241 603Q224 603 200 595T153 559T115 480T99 344Z"  />
<glyph unicode="1" horiz-adv-x="490" d="M106 601Q160 602 199 604T268 611T320 619T364 628L369 609L335 601Q318 597 309 591T295 577T288 557T285 533Q277 459 276 386T275 238Q275 224 275 194T276 131T281 72T291 38Q294 35 298 32T313 27T341 22T388 16L387 -4Q368 -2 355 -2T331 -1Q320 0 311 0T290 0Q243 0 197 -1T105 -5L104 16Q118 16 132 17T160 23T182 37T197 61Q201 73 203 99T208 160T211 232T212 307T213 372T213 419Q213 429 213 448T213 488T211 526T208 552Q205 563 196 569T172 578T141 581T107 582L106 601Z"  />
<glyph unicode="2" horiz-adv-x="490" d="M86 0Q66 0 51 -1T18 -5Q14 3 12 6L83 79Q121 118 165 165T246 263T307 362T332 451Q332 480 322 502T295 540T256 563T209 571Q205 571 192 570T160 564T122 548T82 516L64 531Q76 544 92 560T131 592T181 617T245 627Q278 627 306 617T356 587T389 540T402 477Q402 442 391 410T358 346T305 278T233 201L152 115Q150 112 143 104T130 91L103 62L257 61Q303 61 332 62T381 72T417 100T453 155L471 145L416 44Q414 40 409 31T398 10T387 -11T380 -25L365 -24Q359 -8 348 -4T318 0H86Z"  />
<glyph unicode="3" horiz-adv-x="490" d="M86 552Q122 583 161 604T249 625Q306 625 343 595T381 512Q381 440 303 368Q320 357 341 343T381 307T413 259T426 195Q426 161 412 125T369 60T300 12T207 -7Q187 -7 165 -3T121 11T77 37T37 78Q40 82 45 91T58 112T72 136T85 159L104 148Q99 140 96 133T92 120Q92 109 105 93T139 60T188 32T242 20Q268 20 291 30T331 59T359 101T370 154Q370 185 359 209T330 253T290 289T244 320L213 297L200 315Q220 331 241 348T279 386T307 429T318 478Q318 499 310 518T287 551T253 573T211 581Q191 581 174 576T143 564T118 549T100 535L86 552Z"  />
<glyph unicode="4" horiz-adv-x="490" d="M349 234L403 235Q418 235 431 239T464 263L478 257L445 187Q437 188 424 188T397 189T370 190T349 190Q349 134 350 102T356 52T373 27T407 16V-1Q393 0 378 0T344 0Q304 0 263 -1T191 -6V17Q200 17 213 18T238 22T260 30T273 42Q276 48 277 64T280 98T282 133T283 158L284 192H174Q162 192 139 191T92 189T46 187T15 185L10 194Q52 246 96 301T182 412T262 524T330 633Q338 635 342 636T354 640Q353 628 353 593T352 516T351 439T350 388L349 234ZM287 320Q287 337 287 353T288 390T288 442T288 517H286Q273 497 262 481T240 451Q219 422 205 404T181 373T167 353T157 340L74 234Q108 234 132 234T179 233T226 233T285 234L287 320Z"  />
<glyph unicode="5" horiz-adv-x="490" d="M185 616H356Q380 616 394 618T422 638H443L392 555Q387 555 377 555T356 556T334 556T320 557L279 558Q248 559 229 557T195 544T170 509T146 443Q237 423 292 392T379 327T420 260T431 202Q431 163 416 126T371 58T301 10T209 -8Q176 -8 151 -2T106 15T71 38T44 62Q46 67 53 88T72 159L87 155Q86 151 86 139Q86 110 104 89T147 54T202 32T252 25Q284 25 306 42T343 84T363 133T370 173Q370 212 349 248T291 312T206 357T102 377Q106 399 112 420T127 461L185 616Z"  />
<glyph unicode="6" horiz-adv-x="490" d="M170 322Q194 338 210 349T240 366T265 374T295 377Q326 377 354 363T404 324T438 267T451 199Q451 161 437 124T398 58T338 10T260 -8Q221 -8 184 9T119 58T73 135T56 237Q56 289 70 347T122 461T224 564T387 642L394 624Q313 592 261 547T179 450T138 348T126 255Q126 192 141 147T179 71T229 27T279 13Q301 13 321 22T356 49T381 93T390 155Q390 192 379 225T350 284T307 324T257 339Q243 339 230 334T204 323T183 310T169 300L170 322Z"  />
<glyph unicode="7" horiz-adv-x="490" d="M38 501Q44 515 51 531T65 562T77 590T86 612Q93 632 95 637T102 642Q107 642 109 636Q115 623 124 621T151 619Q157 619 170 619T198 620T226 620T244 621Q250 621 263 621T291 621T322 620T350 620Q400 620 427 623Q441 625 450 626T465 628L471 617Q379 469 310 311T180 -11Q170 -9 165 -9Q161 -9 149 -13T136 -17Q135 -18 133 -18T128 -19Q126 -19 122 -17T118 -10Q118 -7 123 4T136 29T149 55T157 71Q173 101 195 144T237 230T274 307T297 354L371 512Q372 515 375 521T381 534T387 547T390 554Q361 557 320 559T227 561Q204 561 185 561T150 558T117 553T83 546L58 500L38 501Z"  />
<glyph unicode="8" horiz-adv-x="490" d="M80 485Q80 513 90 539T122 585T173 618T242 630Q281 630 311 619T363 588T395 545T407 496Q407 466 394 442T363 401T327 373T297 355Q319 343 345 327T394 289T431 236T446 164Q446 130 432 99T391 45T326 7T242 -7Q201 -7 165 5T103 38T61 87T45 147Q45 185 63 215T107 267T160 303T204 325Q134 364 107 402T80 485ZM119 516Q119 492 130 473T158 439T194 411T231 390Q254 378 261 374T278 365Q286 372 297 382T319 406T337 439T345 480Q345 501 338 523T317 564T280 595T228 608Q205 608 185 601T151 582T128 552T119 516ZM114 173Q114 140 129 112T167 62T216 29T267 17Q291 17 312 26T349 51T374 89T383 138Q383 160 377 182T354 226T309 268T238 307Q232 310 230 311T225 314Q212 307 193 296T157 267T127 227T114 173Z"  />
<glyph unicode="9" horiz-adv-x="490" d="M95 -3Q177 29 229 76T311 174T352 275T364 366Q364 430 349 475T310 550T260 594T211 608Q188 608 168 599T132 571T108 526T99 467Q99 429 110 396T139 337T182 297T232 282Q246 282 260 287T286 298T307 311T320 321V299Q296 283 280 273T250 256T224 247T195 244Q164 244 136 258T86 297T52 354T39 422Q39 460 53 497T92 563T152 611T229 629Q268 629 305 612T370 563T416 486T434 384Q434 361 430 329T414 258T380 181T322 105Q291 74 259 53T198 17T144 -7T103 -21L95 -3Z"  />
<glyph unicode=":" horiz-adv-x="198" d="M37 328Q37 333 41 336T50 343Q65 351 73 361T87 383Q89 385 91 388T100 391Q109 391 113 382T117 372Q118 372 125 360T149 340Q158 335 159 333T161 326Q161 319 153 314Q143 309 135 303T114 276Q108 265 100 265Q92 265 85 275Q76 291 70 298T48 314Q43 317 40 319T37 328ZM38 44Q38 49 42 52T51 59Q66 67 74 77T88 99Q90 101 92 104T101 107Q110 107 114 98T118 88Q119 88 126 76T150 56Q159 51 160 49T162 42Q162 35 154 30Q144 25 136 19T115 -8Q109 -19 101 -19Q93 -19 86 -9Q77 7 71 14T49 30Q44 33 41 35T38 44Z"  />
<glyph unicode=";" horiz-adv-x="208" d="M116 101Q116 100 120 91T126 79Q136 61 143 44T150 5Q150 -21 141 -41T118 -79T88 -108T57 -130L45 -114Q52 -108 62 -101T81 -83T96 -60T102 -32Q102 -18 97 -10T85 2T69 9T53 12Q51 13 45 16T39 25Q39 30 41 32T46 36Q57 44 75 59T104 101H116ZM56 326Q56 331 60 334T69 341Q84 349 92 359T106 381Q108 383 110 386T119 389Q128 389 132 380T136 370Q137 370 144 358T168 338Q177 333 178 331T180 324Q180 317 172 312Q162 307 154 301T133 274Q127 263 119 263Q111 263 104 273Q95 289 89 296T67 312Q62 315 59 317T56 326Z"  />
<glyph unicode="&lt;" horiz-adv-x="667" d="M613 22L55 259V300L613 536V486L115 280L613 72V22Z"  />
<glyph unicode="=" horiz-adv-x="667" d="M54 425H614V379H54V425ZM54 183H614V137H54V183Z"  />
<glyph unicode="&gt;" horiz-adv-x="667" d="M54 536L612 299V258L54 22V72L552 278L54 486V536Z"  />
<glyph unicode="?" horiz-adv-x="281" d="M65 588Q69 572 73 564T83 551T97 544T117 541Q134 539 156 530T199 504T234 458T248 389Q248 341 229 298T168 230Q158 224 152 220T142 210T136 195T132 170Q131 159 130 156T122 152Q115 152 114 155T112 165L117 251Q117 259 119 263T126 271T139 276T163 281Q184 285 196 292T213 311T219 337T220 371Q220 394 214 412T192 444T150 466T84 480Q70 482 56 485T42 502Q42 503 43 509T46 523T49 536T51 546Q52 551 52 566T51 587L65 588ZM55 46Q55 51 59 54T68 61Q83 69 91 79T105 101Q107 103 109 106T118 109Q127 109 131 100T135 90Q136 90 143 78T167 58Q176 53 177 51T179 44Q179 37 171 32Q161 27 153 21T132 -6Q126 -17 118 -17Q110 -17 103 -7Q94 9 88 16T66 32Q61 35 58 37T55 46Z"  />
<glyph unicode="@" horiz-adv-x="979" d="M734 499L673 291Q672 286 669 275T662 250Q644 187 635 150T625 93Q625 89 626 83T632 70T644 59T664 54Q701 54 740 80T811 152T864 260T885 393Q885 462 861 520T792 622T686 689T547 714Q478 714 418 694T308 640T220 558T155 455T114 340T100 218Q100 124 131 47T216 -84T345 -169T508 -199Q562 -199 620 -185T735 -138T841 -50T927 90H957Q931 10 883 -50T775 -150T645 -210T505 -230Q409 -230 326 -196T182 -101T86 45T51 232Q51 343 90 436T197 597T354 703T544 741Q639 741 709 711T825 630T893 516T916 384Q916 344 908 302T884 218T843 141T787 76T715 32T628 16Q593 16 571 32T549 88Q549 110 552 128T558 162L556 164Q540 144 518 119T470 70T414 32T353 16Q328 16 310 28T281 58T264 97T258 137Q258 178 271 221T306 304T357 381T418 444T482 486T545 502Q579 502 602 486T634 431H636L652 488L734 499ZM551 478Q526 478 501 460T452 414T408 349T373 277T350 208T341 153Q341 126 357 103T401 79Q434 79 471 107T541 181T595 285T616 403Q616 432 600 455T551 478Z"  />
<glyph unicode="A" horiz-adv-x="625" d="M468 261Q480 231 493 197T518 131T542 76T563 39Q571 27 585 23T615 17V0Q607 1 600 1T584 2Q576 3 565 3T538 3Q493 3 464 1T422 -2V14Q438 17 454 23T471 46Q471 53 468 65T462 89T454 111T449 124L413 222Q392 225 367 225T321 226H282Q259 227 230 226T180 220L144 130Q130 96 125 83T120 59Q120 51 122 45T133 32T156 21T198 12V-4Q189 -2 180 -2T159 1Q147 2 133 2T101 3Q75 3 53 2T12 -1V13Q33 18 44 26T57 36Q66 43 80 70T110 129T137 193T156 239L234 426Q256 477 278 531T316 640H332Q338 619 342 605T350 578T357 556T365 536L468 261ZM212 296Q204 276 202 270T197 258Q211 256 226 255T253 253T273 252T282 252L327 253Q330 253 340 253T361 253T383 254T400 255Q398 259 396 267T390 285T383 302T378 314L343 404Q341 410 335 425T321 457T307 489T297 510Q289 491 280 469T267 438L212 296Z"  />
<glyph unicode="B" horiz-adv-x="510" d="M99 430Q99 451 98 474T95 519T90 558T82 584Q74 600 59 605T25 613V632Q36 631 47 631T71 629Q83 629 95 629T117 628Q125 628 144 629T185 632Q206 634 225 635T251 636Q286 636 317 626T372 597T410 550T424 485Q424 437 395 401T300 347V345Q356 334 392 315T449 271T478 219T487 166Q487 124 473 95T435 47T383 18T329 4T280 -2T246 -3Q238 -3 220 -3T182 -1Q162 -1 145 -1T120 0Q108 0 99 0T80 0T56 -2T24 -4V14Q46 16 64 22T87 53Q90 66 92 94T95 158T97 231T98 301T99 355T99 382V430ZM163 349Q171 350 175 350T187 350Q209 350 237 352T290 367T332 404T349 474Q349 508 338 533T309 576T266 603T216 612Q208 612 194 611T175 604Q172 602 170 589T167 556T165 515T164 471T163 434T163 409V349ZM163 135Q163 92 164 69T173 35T198 22T247 20Q272 20 301 26T354 47T395 90T411 160Q411 188 401 218T368 273T309 314T221 330Q218 330 198 329T163 326V135Z"  />
<glyph unicode="C" horiz-adv-x="625" d="M567 26Q529 15 482 4T378 -7Q317 -7 257 14T150 76T73 178T43 320Q43 405 75 466T159 566T274 623T397 642Q445 642 479 633T528 618Q535 616 546 613T572 609Q574 609 581 610T590 612Q592 612 594 610L596 608Q596 608 595 604T593 594T591 585T589 580Q583 559 579 535T571 487Q561 489 559 493T556 508Q556 528 554 536T548 550Q542 559 525 570T485 592T433 609T376 616Q324 616 279 597T199 539T146 446T126 321Q126 261 140 215T179 135T232 78T292 41T349 21T395 15Q436 15 465 25T514 51T548 89T575 132Q583 146 588 146Q591 146 594 144T597 137Q597 131 594 117T588 98L567 26Z"  />
<glyph unicode="D" horiz-adv-x="719" d="M681 320Q681 252 655 194T581 93T464 25T312 0Q304 0 287 0T251 1T215 1T192 2Q182 2 158 2T106 1T54 1T20 0V18Q43 18 59 22T83 41Q87 51 89 83T93 155T95 230T95 284Q95 412 92 489T78 586Q72 595 58 599T25 603L24 621Q79 621 134 623T244 632Q264 634 278 635T313 636Q385 636 451 615T569 553T650 453T681 320ZM596 319Q596 392 569 447T499 539T404 594T300 613Q268 613 235 607T173 588Q171 578 170 550T167 483T165 402T164 318T163 244T163 191Q163 183 163 164T164 122T165 79T166 50Q185 44 201 39T234 30T267 24T308 22Q389 22 444 49T532 119T581 215T596 319Z"  />
<glyph unicode="E" horiz-adv-x="563" d="M450 219H433Q432 251 426 269T402 296T348 307T252 309Q215 309 197 308T164 304L162 235Q162 220 162 196T162 144T165 88T171 39Q178 37 187 35T210 30T245 26T298 24Q356 24 394 30T457 50T498 87T525 143H540Q535 115 531 95T523 58T513 26T499 -5Q492 -4 479 -4T450 -3T414 -2T377 -2Q340 -2 312 -1T282 0Q247 0 211 0T140 -2T74 -4T19 -7L20 10Q41 14 53 17T71 26T80 40T85 64Q87 76 88 97T91 144T93 196T95 247T96 289T96 316L93 471Q92 521 90 548T81 589T62 607T27 617L28 630H341Q354 630 373 630T413 631T457 632T500 634Q496 582 491 551T476 507L463 511Q463 519 465 533T467 552Q467 572 451 583T412 599T364 606T322 607Q271 607 236 604T172 597Q169 570 166 538T163 461Q163 445 163 426T163 388T163 355T164 334Q173 333 192 333T236 333Q255 333 275 333T315 333T350 335T378 337Q391 338 399 340T414 348T425 367T437 403H450V219Z"  />
<glyph unicode="F" horiz-adv-x="510" d="M457 510Q455 534 451 551T430 581T378 598T278 604Q266 604 251 604T220 603T191 601T167 597Q165 577 165 550T164 497T163 449T163 418V341Q181 339 193 339T218 337T243 336T274 336Q326 336 354 338T395 348T410 367T412 398L431 400Q432 388 432 377T433 341Q433 335 433 306T431 239H411Q411 244 411 252T410 269T408 284T403 293Q392 300 350 307T251 314Q229 314 208 314T164 311Q163 276 163 235T162 146Q162 106 163 83T175 48T206 30T267 19V0Q259 1 251 1T229 2Q217 3 201 3T161 3H113Q106 3 79 2T23 -1L24 15Q58 21 68 31T82 58Q90 102 91 170T93 325Q93 343 93 381T92 459T88 535T80 584Q73 603 56 607T12 615V631H75Q93 631 120 629T164 627Q193 627 220 627T258 626Q289 626 320 626T381 628T436 630T480 633Q477 602 477 573T477 510H457Z"  />
<glyph unicode="G" horiz-adv-x="677" d="M664 292Q649 287 642 284T631 269Q629 264 629 258T627 239T626 202T626 139Q626 107 627 89T631 61T638 46T648 36L643 25Q639 25 629 23T609 19T589 15T575 12Q540 6 513 2T463 -4T423 -6T388 -7Q294 -7 228 22T119 98T57 201T37 313Q37 391 68 452T152 554T271 616T409 638Q457 638 490 630T528 621Q531 619 541 616T555 612Q557 612 561 615T569 623T578 630T585 634Q590 634 591 629T592 615Q592 602 594 586T598 553T603 520T605 491Q605 484 599 484Q596 484 594 485T589 495Q580 514 564 534T524 572T465 600T386 611Q322 611 272 586T186 521T133 429T114 325Q114 276 133 222T188 123T279 49T404 19Q435 19 460 24T503 36T533 52T549 65Q551 68 552 71T555 84T556 111T557 162Q557 203 555 227T545 264T518 280T468 284Q458 284 450 284T437 282L439 303Q478 303 509 303T566 304T616 306T664 310V292Z"  />
<glyph unicode="H" horiz-adv-x="771" d="M97 468Q97 516 95 544T86 587T64 607T27 613L28 629Q39 630 52 630T77 631Q96 631 125 629T180 628L251 629L252 612L226 608Q210 606 201 604T186 593T177 567T171 519Q168 493 167 468T166 416Q166 397 166 378T167 338H398Q462 338 499 338T558 338T589 339T607 342L608 444Q608 488 608 513T606 552T603 571T599 582Q593 598 580 603T530 617L532 633Q540 632 551 632T577 629Q591 627 607 627T641 627Q647 627 661 627T692 629Q709 630 722 630T741 631L743 617Q720 613 708 605T689 578T682 525T679 434L675 185Q674 125 675 91T684 39T706 17T744 9L743 -5Q721 -1 695 0T645 1Q631 1 603 -1T535 -5L533 13Q557 16 571 21T593 41T602 79T604 145Q604 159 604 178T605 219T606 261T606 301Q570 302 517 303T403 304T281 305T167 304Q167 297 167 277T166 233T165 182T164 135Q164 109 165 84T170 47Q172 40 175 35T186 26T207 17T242 9L241 -7Q228 -6 212 -5T177 -3Q142 0 113 0Q102 0 93 0T74 -1T52 -3T22 -5L15 13Q18 13 27 14T46 18T65 24T78 34Q83 41 86 75T92 152T95 239T96 309L97 468Z"  />
<glyph unicode="I" horiz-adv-x="313" d="M193 264Q193 248 193 225T193 178T194 132T195 94Q196 72 197 58T208 34T235 22T287 17L285 -2Q278 -2 260 -2T222 0Q201 0 183 0T156 1Q142 1 121 1T79 0Q58 -1 41 -1T15 -2L14 16Q42 17 59 20T87 29T103 42T111 58Q117 74 120 108T124 180T126 255T126 313Q126 349 126 375T125 424T123 470T121 523Q120 548 118 564T105 591T75 605T20 611V631Q51 631 89 628Q108 627 125 627T156 626Q167 626 186 626T227 629Q248 630 265 630T291 631V609Q249 609 233 604T209 586Q203 574 200 543T195 474T193 403T193 351V264Z"  />
<glyph unicode="J" horiz-adv-x="313" d="M14 631Q22 631 42 630T86 628T130 626T160 625Q170 625 187 625T223 627T260 629T290 631L291 612Q259 610 241 606T213 588T201 551T198 485Q198 477 198 457T197 413T196 370T196 342V267Q196 257 196 236T196 189T197 132T197 75T198 27T198 -6Q198 -22 198 -35T196 -71Q184 -88 164 -114T120 -166T68 -209T14 -227Q2 -227 -8 -220T-18 -206Q-18 -202 -10 -196T8 -183T27 -173T41 -168Q44 -168 54 -172T69 -177Q84 -177 94 -162T112 -122T122 -67T127 -7T129 48T130 87V281Q130 381 129 440T124 532T114 577T99 597Q91 603 79 606T55 610T33 612T17 612L14 631Z"  />
<glyph unicode="K" horiz-adv-x="625" d="M279 198Q265 209 235 233T162 287Q162 272 162 236T162 159T165 86T170 43Q174 34 185 27T208 16T231 9T245 7V-8Q232 -6 216 -5T181 -3Q162 -2 143 -2T104 -2Q84 -2 72 -2T51 -2T36 -3T23 -4V13Q51 15 64 22T83 50Q87 68 90 104T94 182T96 260T97 315Q97 359 97 402T94 490Q94 530 93 553T84 589T64 606T28 614L27 631Q35 631 49 631T81 629Q98 628 115 628T143 627Q183 627 205 629T244 634V618Q238 617 228 616T208 611T189 603T176 591Q172 583 169 553T165 487T162 418T161 370V312Q171 320 188 337T221 370L341 488Q359 506 377 524T406 557Q409 561 413 569T417 586Q417 594 412 599T400 606T384 610T369 611L368 629L449 628Q475 627 501 628T553 633L554 614Q540 612 523 605T477 577Q469 571 447 552T401 512T357 471T331 447L263 381Q244 363 236 355T216 334L397 183Q435 151 466 125T523 77T573 39T620 10L621 -6Q615 -5 608 -4T591 -2Q582 -1 571 -1T545 0Q514 0 485 -2T438 -6L437 8Q442 10 445 10T458 13Q463 14 470 16T478 24Q478 29 464 43T432 73T396 103T369 125L279 198Z"  />
<glyph unicode="L" horiz-adv-x="563" d="M113 414Q113 482 113 521T106 580T86 605T47 611V628Q81 628 101 628T133 627T150 626T159 626Q191 626 219 626T267 628L266 609Q243 607 222 603T192 579Q187 566 186 521T182 415Q181 385 181 352T180 284T179 217T178 156Q178 98 180 74T191 41Q194 38 198 36T212 33T244 30T301 29Q380 29 425 42T487 64Q495 69 508 83T530 129L546 127Q544 111 535 73T509 -6Q483 -3 469 -2T442 -1Q430 -1 412 -1T384 0H41L40 15Q66 20 80 26T101 51T110 103T112 199L113 414Z"  />
<glyph unicode="M" horiz-adv-x="875" d="M765 308Q765 296 765 285T766 257T768 215T771 147Q773 105 776 81T789 43T814 25T858 20V2H774H709Q686 2 671 2T646 0T629 -1T616 -3L615 15Q642 21 659 28T687 51T702 92T707 164Q707 177 707 192T706 224L702 356Q701 378 701 395T699 430T696 466T691 512H689Q681 498 668 472T637 414T600 345T562 273T527 205T499 150Q481 111 465 74T438 2H423Q415 25 397 76T345 192Q303 273 262 353T179 515H177Q175 493 171 450T163 349T156 225T153 87Q153 69 155 57T167 35T194 21T243 12L242 -4Q236 -3 226 -3T204 -1Q193 0 185 0T173 0L114 -1Q109 -1 95 -1T66 -2T36 -3T16 -4L17 10Q52 16 71 26T100 55T113 106T120 187L135 442Q136 458 136 467T137 489Q137 528 130 551T107 588T71 605T21 612L23 631Q34 630 53 629T93 627Q114 625 133 625T164 624H207Q216 599 223 580T241 539T267 486T306 410T365 298T451 138Q458 150 464 160T478 185T496 220T523 271Q530 284 544 311T577 373T616 446T655 520T688 584T710 627H852L851 609Q819 605 801 600T773 579T763 532T762 444L765 308Z"  />
<glyph unicode="N" horiz-adv-x="771" d="M276 390Q270 395 249 415T204 457T161 496T140 515L134 216Q132 148 134 111T148 55T183 29T247 14Q247 8 247 5T245 -4Q240 -4 227 -4T198 -2Q183 -1 170 -1T150 0Q144 0 129 0T96 -2Q79 -3 63 -4T41 -6Q28 -6 28 6Q28 11 30 13T41 17Q59 19 70 24T88 45T96 93T99 178L102 411Q103 457 102 493T93 554T67 594T16 613V633Q51 630 69 630T101 629L143 630Q167 600 198 566T261 501T318 445T356 408L644 135Q647 181 647 227T648 320V414Q648 486 645 525T630 583T600 609T548 620L553 634Q558 635 564 635T577 635Q584 635 604 634T643 632Q661 631 673 631T690 631H752L753 615Q722 610 710 601T693 571Q690 555 687 527T683 463T680 389T678 314T677 245T677 192Q677 171 677 144T678 89T679 35T682 -12L662 -11Q650 16 623 49T564 115T504 176T459 219L276 390Z"  />
<glyph unicode="O" horiz-adv-x="740" d="M41 315Q41 383 69 442T143 546T251 616T379 642Q438 642 495 619T599 554T673 451T701 317Q701 251 676 191T606 86T499 15T362 -12Q283 -12 223 19T123 98T62 204T41 315ZM114 352Q114 286 137 227T201 122T293 50T404 23Q443 23 482 37T554 83T607 162T627 278Q627 347 605 407T545 511T456 582T348 608Q303 608 261 591T186 541T134 461T114 352Z"  />
<glyph unicode="P" horiz-adv-x="531" d="M164 82Q164 61 167 49T179 29T207 19T257 14L256 -8Q237 -5 206 -3Q192 -2 178 -2T154 -1Q127 -1 100 -3T63 -7Q55 -8 45 -8T27 -8V9Q58 17 72 23T89 42Q92 52 93 74T95 127T96 193T96 268Q96 314 96 360T93 452Q91 495 90 521T87 561T83 582T78 595Q70 606 56 609T18 615Q17 626 18 633Q38 633 65 633T110 632Q125 632 137 632T163 634L194 636Q202 637 209 637T225 637Q296 637 348 617T434 567T484 500T501 431Q501 393 484 357T431 292T345 246T225 228Q201 228 189 229T162 233L164 82ZM421 426Q421 460 410 493T376 553T317 596T234 613Q212 613 196 610T167 604Q167 592 166 559T164 489T162 418T161 370L162 266Q180 261 199 258T241 255Q267 255 298 262T357 289T402 342T421 426Z"  />
<glyph unicode="Q" horiz-adv-x="740" d="M801 -111Q785 -119 767 -123T732 -130T701 -134T679 -135Q595 -135 519 -101T379 -12Q358 -12 341 -11T307 -8T273 0T235 14Q185 35 149 70T88 146T53 232T41 317Q41 382 68 441T141 544T248 615T379 642Q437 642 495 619T598 554T672 452T701 317Q701 248 674 187T597 77Q571 51 544 37T485 9Q533 -25 574 -47T648 -81T707 -99T754 -104Q768 -104 776 -103T795 -99L801 -111ZM114 352Q114 286 137 227T201 122T293 50T404 23Q443 23 482 37T554 83T606 162T627 278Q627 347 605 407T545 512T456 582T348 608Q303 608 261 591T186 541T134 461T114 352Z"  />
<glyph unicode="R" horiz-adv-x="667" d="M260 299Q231 299 206 300T153 305L152 188Q152 176 152 155T154 112T157 70T164 40Q167 34 170 30T178 23T193 17T220 9Q227 7 229 6T231 2Q231 -1 230 -4T224 -8Q221 -8 210 -7T183 -4Q167 -2 153 -1T132 0Q115 0 98 0T66 -3Q51 -4 41 -5T26 -6Q16 -6 16 1Q16 6 19 8T36 14Q51 18 60 24T76 48T84 99T87 191V407Q87 479 86 518T78 577T57 602T17 610Q18 616 18 619T19 626Q39 625 55 625T85 625Q94 625 119 627T172 631T226 635T263 637Q316 637 356 623T424 585T466 531T480 470Q480 423 448 379T344 308L366 275Q400 223 435 173T505 83T577 18T650 -11Q659 -13 659 -21Q659 -25 656 -27T634 -30Q584 -30 540 -9T457 48T383 128T316 219L260 299ZM406 458Q406 479 397 506T369 558T320 599T247 616Q239 616 227 615T202 612T180 605T167 593Q163 584 161 555T157 487T156 407T156 333Q165 331 182 328T235 325Q247 325 275 327T333 341T384 381T406 458Z"  />
<glyph unicode="S" horiz-adv-x="469" d="M410 488Q407 529 388 554T343 592T290 610T243 615Q195 615 168 599T129 561T113 520T110 493Q110 461 122 439T155 402T203 375T260 351Q289 340 322 326T383 289T429 235T448 158Q448 124 435 94T394 42T327 6T231 -8Q222 -8 183 -6T88 12Q74 15 72 15Q62 15 62 9T62 -2L42 -1Q43 41 34 85T15 162Q20 164 23 164T31 166Q38 143 43 127T56 99T72 79T95 62Q105 56 122 49T160 35T206 24T258 19Q265 19 285 20T328 32T366 65T383 130Q383 166 371 190T337 232T287 262T225 287Q187 301 155 316T100 352T63 399T49 463Q49 497 62 528T101 583T166 621T258 635Q272 635 296 634T359 624Q374 621 378 621T384 620Q394 620 401 623T417 632Q421 632 427 630Q425 614 422 593T420 553Q421 540 423 519T425 489L410 488Z"  />
<glyph unicode="T" horiz-adv-x="667" d="M12 530Q19 548 24 561T33 587T42 612T53 646Q61 638 68 634T92 627Q109 625 141 624T234 623H481Q488 623 504 623T540 624T575 624T598 625Q621 625 627 628T640 639Q644 634 646 632T653 627Q649 616 645 602T637 574T630 548T626 527L605 524Q607 538 607 546T609 568Q603 572 595 577T569 585T525 591T454 594Q428 594 414 594T392 592T382 586T379 575Q378 550 377 514T373 424Q373 410 373 377T372 306T371 236T371 191Q371 128 372 94T380 43T404 22T449 13Q464 11 467 11T471 7Q471 6 471 2T470 -5Q465 -6 461 -6T451 -6Q446 -6 431 -5T399 -3Q382 -1 368 -1T346 0Q330 0 308 -1T242 -9Q223 -12 218 -13T208 -14Q200 -14 197 -10T191 2Q198 4 203 5T221 10Q247 16 261 21T283 32T291 46T293 69Q293 70 293 77T294 94T296 112T297 124Q297 128 297 147T298 194T299 258T300 331Q300 398 300 442T299 515T295 560T288 589Q272 591 252 592T196 593Q144 593 114 590T68 578T44 557T29 526L12 530Z"  />
<glyph unicode="U" horiz-adv-x="719" d="M23 626Q40 625 58 625T93 625Q124 625 142 625T175 625T208 626T256 629L261 613Q237 610 222 607T198 599T185 589T177 578Q171 568 168 537T164 470T162 400T162 349Q162 280 163 229T172 145Q178 116 193 96T227 62T267 41T308 29T343 24T367 23Q385 23 415 27T477 42T536 73T574 126Q583 153 588 193T597 276T600 360T601 433Q601 499 597 534T583 586T557 605T515 608L513 625Q524 627 539 627T562 628Q575 628 594 628T632 628T670 628T703 627V607Q679 606 666 603T647 591T640 564T638 514Q636 421 634 352T626 232T614 148T594 92Q575 57 541 37T469 7T396 -7T341 -10Q296 -10 252 0T172 34T115 97T93 194Q93 207 93 237T94 301T94 365T95 407Q95 463 93 511T82 587Q80 593 78 596T70 601T53 604T21 608L23 626Z"  />
<glyph unicode="V" horiz-adv-x="719" d="M551 458Q556 469 563 485T577 519T588 552T593 577Q593 599 576 605T539 614L542 634Q547 634 558 633T585 631Q601 630 619 630T657 629Q676 629 688 629T716 630V616Q693 608 679 600T651 576T622 529T580 447L470 228Q458 204 442 171T412 104T387 39T373 -12L358 -14Q354 -3 350 8T333 47L300 120Q292 139 282 163T259 213L177 386Q168 404 153 436T122 500T90 560T68 595Q54 610 41 613T10 617L12 634H52Q81 634 100 633T132 631Q143 631 157 631T186 632L229 631L230 615Q209 613 197 612T178 610T169 605T167 597Q167 590 173 572T189 528T211 474T236 417T260 363T280 321L348 174L362 146Q364 141 369 131T382 104Q395 129 412 163T445 229T472 286T487 318L551 458Z"  />
<glyph unicode="W" horiz-adv-x="979" d="M14 628L60 626Q85 625 106 625T143 624Q161 624 183 624T228 626H263L265 607Q254 606 241 604T215 597T194 585T185 568Q185 558 196 521T225 434T264 328T303 224T333 144T348 109L368 161Q370 165 375 177T386 203T397 229T404 246L489 436Q473 472 463 497T445 538T432 564T424 578Q411 595 397 599T369 605L367 625Q380 624 393 624T435 623Q442 623 458 623T495 623T542 625T595 628L596 611Q567 608 552 603T530 593T522 581T521 569Q521 559 531 526T556 447T590 349T627 249T659 163T682 107Q711 178 737 250T784 383T817 488T830 548Q830 571 819 583T793 601T762 608T736 610L732 626H784Q816 625 849 625T930 627L969 628L968 611Q946 609 930 602T899 577T872 532T842 459L745 190Q745 190 741 180T732 156T723 131T716 113Q708 94 703 80T693 50T682 16T666 -30L651 -29Q644 -8 636 18T618 72T600 126T584 174L502 399Q500 395 495 385T485 363T475 341T468 326L416 209Q384 137 365 79T329 -30H316L259 135Q251 158 239 193T213 269T184 353T154 436T126 507T104 557Q94 576 83 586T60 601T37 607T15 608L14 628Z"  />
<glyph unicode="X" horiz-adv-x="677" d="M372 346L536 128Q565 89 582 68T612 36T637 21T669 14L671 -4Q659 -2 643 -2T609 -1Q593 0 579 0T556 0Q536 0 510 -1T441 -4L438 14Q462 19 480 24T499 43Q499 55 490 75T469 109Q447 139 434 158T411 189T396 210T383 226L330 293Q318 279 308 268T285 239T253 195T202 126Q182 97 173 82T164 53Q164 42 170 35T186 24T208 17T233 13V-4Q216 -4 200 -4T169 -2Q154 -1 142 -1T119 0Q108 0 95 0T66 -2Q51 -3 36 -3T5 -4L6 11Q35 15 58 27T106 61T157 116T221 197L279 271Q281 273 286 279T296 293T306 307T313 316L267 373Q221 432 189 473T133 540T94 581T66 603T43 613T18 617L19 634Q34 632 52 632T87 630T119 629T143 629Q183 629 203 629T240 632L243 613Q235 613 227 613T210 611T197 605T192 595Q192 587 200 572T221 540T246 506T268 477L356 366Q393 415 418 450T460 509T483 550T490 579Q490 603 470 609T425 616L427 633Q434 633 449 633T481 632Q498 631 513 631T535 630H636V614Q614 614 595 605T556 579T516 536T470 477L372 346Z"  />
<glyph unicode="Y" horiz-adv-x="667" d="M449 444Q457 456 468 474T491 511T509 548T517 576Q517 589 510 595T492 605T470 608T451 608L453 627L494 625Q498 625 507 625T526 624T546 624T558 623Q563 623 576 623T605 624T634 624T654 625L653 605Q630 604 614 600T580 580T540 535T484 454Q458 413 432 373T379 293L381 115Q381 86 382 69T386 41T396 27T416 20Q430 17 445 13T468 7L467 -6Q453 -5 438 -4T406 -1Q376 2 347 2Q333 2 317 0T288 -3Q269 -4 254 -5T228 -6V8Q245 9 265 12T296 28Q301 32 304 38T309 63T311 120T312 228Q312 248 312 264T311 288L271 347Q258 366 244 385T217 422T192 455T171 481Q134 527 113 552T76 590T46 606T9 611L6 627H54Q58 627 68 627T89 626T111 626T126 625Q147 625 170 626T218 627H241L239 608Q211 606 196 603T180 589Q180 583 192 563T223 516T265 459T308 401T345 353T368 325Q371 329 374 333T381 343T393 360T412 388L449 444Z"  />
<glyph unicode="Z" horiz-adv-x="615" d="M306 256Q280 224 255 192T207 130T163 75T127 32Q135 30 145 29T169 26T204 24T256 23Q317 23 358 24T428 30T480 40T525 55Q541 61 552 67T571 83T586 104T599 133L614 124Q613 122 605 103T588 60T569 14T556 -17H547Q547 -12 545 -9T528 -4Q515 -2 488 -1T410 0H158Q80 0 4 -6L5 6Q137 143 254 290T478 594Q459 595 434 596T382 597T332 598T291 598Q216 598 170 595T95 583T51 555T21 506L7 513Q15 540 20 563T28 592Q32 609 34 620T38 639Q41 651 46 651Q50 651 53 646Q58 638 65 634T88 628Q99 626 110 626T138 624T175 623T229 623Q286 623 330 623T414 624T496 625T593 628V619Q564 581 534 542T479 472T436 419T415 394L306 256Z"  />
<glyph unicode="[" horiz-adv-x="313" d="M74 663H282V635H102V-240H282V-270H74V663Z"  />
<glyph unicode="\" horiz-adv-x="531" d="M502 -145H457L29 742H75L502 -145Z"  />
<glyph unicode="]" horiz-adv-x="313" d="M238 -270H30V-242H210V633H30V663H238V-270Z"  />
<glyph unicode="^" horiz-adv-x="500" d="M259 641L481 268H433L251 573L68 268H19L244 641H259Z"  />
<glyph unicode="_" horiz-adv-x="500" d="M500 -125H0V-75H500V-125Z"  />
<glyph unicode="`" horiz-adv-x="333" d="M257 434H234L93 608H161L257 434Z"  />
<glyph unicode="a" horiz-adv-x="375" d="M60 262Q58 268 57 274T56 285Q56 306 76 323T123 352T174 372T209 379Q216 379 225 375T244 366T260 354T273 344Q278 339 283 333T292 315T300 286T303 242Q303 225 303 210T301 177L299 140Q297 120 297 114T297 98Q297 95 297 85T300 63T308 42T324 32Q339 32 353 37T375 46V26L303 -3Q287 -10 279 -10Q267 -10 256 6T239 40Q231 35 216 27T181 11T140 -4T100 -10Q77 -10 65 -2T48 18T41 41T40 59Q40 95 48 110T74 134Q96 145 120 152T166 165T208 172T238 177L240 237Q242 273 237 287T221 314Q207 328 191 335T161 343Q149 343 132 335T115 310Q115 302 120 289L60 262ZM96 84Q96 75 98 64T106 44T120 29T141 23Q159 23 185 34T236 58Q235 67 235 80T236 106T238 132T239 150Q206 152 180 148T135 134T106 111T96 84Z"  />
<glyph unicode="b" horiz-adv-x="469" d="M131 333Q173 354 204 365T267 376Q299 376 329 364T382 329T419 275T433 205Q433 153 410 114T351 50T277 11T204 -2Q190 -2 176 0T137 11Q123 15 117 16T103 18Q92 18 86 15T70 5Q65 2 64 2T62 1Q61 1 59 2T56 5Q56 7 59 18T63 32Q67 56 69 93T73 174T74 266T75 359Q75 388 75 406T75 439T75 472T73 517Q73 542 71 558T64 583T50 596T26 600H11V606Q14 608 30 616T66 635T105 655T136 673L145 669Q145 664 144 655T142 635T140 616T139 605Q138 581 137 567T136 539T135 511T134 472L131 333ZM130 116Q131 91 132 83T142 67Q165 50 191 40T245 30Q272 30 295 40T335 69T361 113T371 170Q371 196 363 226T337 283T294 326T233 344Q201 344 176 333T133 311Q133 310 132 297T131 264T130 224T130 188V116Z"  />
<glyph unicode="c" horiz-adv-x="375" d="M357 46Q330 23 295 8T223 -8Q204 -8 183 -4T142 8T105 26T75 51Q59 69 51 102T43 164Q43 213 63 253T114 321T179 365T245 381Q255 381 274 378T312 368T345 355T359 341Q359 339 355 332T346 316T334 302T323 295Q318 295 305 302T288 312Q283 314 273 318T251 325T226 331T200 334Q169 334 150 322T120 292T105 250T101 205Q101 156 117 123T158 68T209 38T256 28Q286 28 311 40T350 60L357 46Z"  />
<glyph unicode="d" horiz-adv-x="479" d="M38 158Q38 205 53 239T90 297T140 336T190 359T231 371T251 374Q262 374 288 370T345 358Q347 385 347 413T348 484Q348 519 347 541T343 576T335 593T320 598Q309 598 301 597T283 593L282 608Q286 610 301 616T335 631T375 651T411 673L423 668Q420 651 417 620T412 546T407 454T404 353T401 251T400 155Q400 140 400 116T402 70T407 31T418 15Q421 15 429 17T446 21T463 26T477 31V13Q465 9 446 2T407 -11T372 -22T353 -27Q347 -27 344 -17T340 6T338 33T338 52Q314 40 295 30T258 14T224 4T188 0Q162 0 136 10T88 41T52 90T38 158ZM341 292Q341 304 323 312T281 327T238 335T214 338Q190 338 169 329T130 303T103 264T93 214Q93 172 104 140T136 86T182 53T239 41Q271 41 295 53T338 76L341 292Z"  />
<glyph unicode="e" horiz-adv-x="365" d="M101 201Q102 180 103 164T109 133T119 106T136 79Q150 61 164 51T190 37T212 31T227 30Q247 30 272 37T329 68L338 56Q327 48 312 38T277 18T235 2T187 -5Q149 -5 122 10T76 51T48 107T39 169Q39 227 59 266T105 329T157 363T192 373Q205 373 222 370T258 357T293 330T322 284Q324 279 328 276T344 272L345 254L101 201ZM166 234Q167 235 175 237T194 241T215 246T230 249Q256 255 262 257T269 265Q269 269 263 281T245 307T215 331T173 342Q152 342 139 329T118 296T107 255T102 220L166 234Z"  />
<glyph unicode="f" horiz-adv-x="302" d="M34 367H99Q100 455 114 504T155 583Q173 603 195 619T241 647T287 665T325 672Q337 672 351 670T379 663T400 652T409 638Q409 634 406 628T399 615T389 604T378 599Q377 599 371 601T358 606T345 611T339 613Q318 621 305 624T274 628Q246 628 226 617T192 576T171 496T162 367H295V336H162L160 196Q160 163 160 134T161 82T164 44T170 26Q173 24 175 23T185 22T206 21T244 19V0Q220 0 188 0T124 1T67 1T31 2V18Q55 19 68 24T88 42T96 81T98 148L99 311Q99 322 98 325T95 331Q93 332 85 333T67 335T48 336T34 337V367Z"  />
<glyph unicode="g" horiz-adv-x="417" d="M36 211Q36 248 51 279T91 333T146 368T209 381Q245 381 267 370T299 352Q314 355 333 357T373 359Q387 359 394 359T408 357Q406 330 395 304Q381 310 365 314T325 318Q335 304 343 280T352 229Q352 192 340 166T307 122T260 89T207 62Q193 56 178 49T151 35T130 20T121 7Q121 -4 128 -10T147 -19T171 -22T193 -23Q240 -23 278 -24T342 -35T383 -63T398 -118Q398 -155 376 -184T318 -235T238 -267T152 -278Q110 -278 84 -267T44 -240T25 -207T20 -177Q20 -154 29 -136T52 -104T81 -80T109 -63Q103 -60 94 -54T77 -39T64 -18T58 12Q75 25 92 32T135 50L167 62V64Q153 67 131 74T88 98T52 142T36 211ZM85 244Q85 206 100 179T137 134T181 106T219 90Q231 96 244 103T268 124T286 156T294 204Q294 231 286 257T263 305T227 339T179 352Q140 352 113 322T85 244ZM57 -155Q57 -170 66 -185T92 -212T135 -231T192 -239Q214 -239 243 -234T299 -218T343 -188T361 -143Q361 -134 358 -124T348 -104T328 -89T299 -80Q294 -79 280 -79T249 -79T219 -79T198 -80Q183 -80 167 -80T136 -74Q123 -78 109 -85T84 -103T65 -127T57 -155Z"  />
<glyph unicode="h" horiz-adv-x="469" d="M133 136Q133 128 133 118T132 95Q132 77 133 60T138 34Q139 30 140 28T148 23T166 20T199 16V-1Q193 0 188 0T176 1T159 1T131 1Q92 1 67 0T14 -4L15 12Q36 16 47 20T65 33T72 61T75 112Q76 145 76 166T77 202T78 225T79 243L81 380Q82 396 82 421T82 473Q82 498 82 521T78 563T68 591T49 602Q43 602 33 599T18 594V613Q19 613 20 614Q21 614 25 616Q28 618 32 620L127 666L143 675L159 667Q154 646 151 622T146 569T143 504T140 420L137 321Q179 338 220 353T300 369Q337 369 357 351T387 303T398 237T400 162Q400 155 400 139T399 104T398 70T397 48Q397 37 399 31T408 21T428 17T464 15L463 0H366Q347 0 329 -2T293 -5L292 6Q295 7 297 7T304 10Q315 14 322 20T334 40T339 81T341 151Q341 193 339 226T328 282T302 317T254 330Q238 330 221 327T187 318T158 308T139 300Q139 296 139 293T139 286T138 274T137 254L133 136Z"  />
<glyph unicode="i" horiz-adv-x="240" d="M34 13Q49 15 63 17T81 28Q83 32 85 53T88 100T89 149T90 182Q90 217 90 238T88 271T84 289T79 298Q77 300 70 301T54 302T39 304T32 309Q32 314 35 316T41 319Q70 328 100 345T155 383Q158 383 164 381Q160 364 157 336T152 277T149 215T148 166Q148 158 148 140T149 102T151 63T156 35Q159 26 165 24T189 20Q208 19 213 19T223 17L229 3L32 -2L34 13ZM106 582Q106 599 117 609T144 620Q159 620 170 609T181 582Q181 567 171 556T144 544Q128 544 117 555T106 582Z"  />
<glyph unicode="j" horiz-adv-x="229" d="M19 321Q42 330 79 348T157 401Q159 399 161 398T165 394Q156 365 155 331T153 278V125L155 -43Q155 -76 154 -98T145 -138T118 -176T67 -223Q56 -232 50 -238T40 -251T35 -264T32 -280Q32 -280 30 -281L15 -267Q16 -241 27 -222T52 -185Q68 -163 77 -145T90 -102T95 -46T96 37Q96 57 96 89T95 157T92 223T87 271Q83 288 76 299T52 311Q45 311 39 310T26 306L19 321ZM94 576Q94 596 106 607T136 619Q153 619 163 609T174 583Q174 567 161 555T130 542Q115 542 105 551T94 576Z"  />
<glyph unicode="k" horiz-adv-x="458" d="M13 15Q47 18 57 28T71 61Q72 78 73 111T76 183T77 265T78 344T79 404T79 434Q79 440 79 458T78 499T75 542T70 577Q69 579 65 588T47 598Q42 598 37 597T26 593Q21 591 15 589L16 605Q24 609 42 618T75 634Q101 645 117 653T141 672H156Q152 659 149 631T143 565T140 487T137 408T136 337T135 287L134 220Q141 223 162 236T206 266T245 301T263 332Q263 346 252 349T227 354V368H272Q283 367 300 367T337 367Q363 367 386 367T418 368L416 350Q400 348 386 345T357 335T324 317T281 290L197 234Q201 230 206 224T225 206T261 171T324 110Q356 78 377 60T413 32T436 20T454 16V-1Q450 0 446 0T437 1Q431 2 423 2T401 2H363Q334 2 314 2T277 -1V16Q279 17 285 17T299 19T311 22T317 27Q317 30 311 38T298 54T284 70T276 79Q258 98 247 109T228 127T215 140T203 151L171 180Q170 181 166 184T158 192T149 199T142 202Q136 202 135 196T134 185V133Q134 104 134 84T135 52T139 34T146 26Q151 24 166 21T193 16L192 -1Q178 2 163 2Q155 3 147 3T130 3Q123 3 106 3T71 2T36 0T13 -1V15Z"  />
<glyph unicode="l" horiz-adv-x="240" d="M152 229Q152 211 152 183T152 127T154 74T159 42Q162 34 172 29T195 21T218 16T233 14V-3Q228 -3 213 -2T178 -1T138 1T104 2Q99 2 88 2T64 2T37 0T13 -2V13Q51 20 65 35T84 83Q86 95 88 133T92 221T95 328T97 435Q97 454 97 477T96 521T92 558T84 582Q76 594 51 594Q43 594 39 594T29 592V607Q67 623 100 638T160 673H175Q170 653 167 626T161 570T157 513T156 464L152 229Z"  />
<glyph unicode="m" horiz-adv-x="708" d="M333 203Q333 261 316 293T257 326Q241 326 224 321T191 310T163 296T144 286Q144 278 144 263T143 232T143 204T143 188V138Q143 110 143 93T143 66T143 51T145 43Q146 40 148 36T156 29T176 21T212 14V-3Q207 -3 195 -3T170 -1T144 0T127 1L14 -1L15 14Q34 18 47 24T68 46T79 92T83 176Q83 226 79 253T67 293T46 308T14 312V328Q43 335 69 346T121 373Q126 376 127 376T131 377Q137 377 140 368T143 346T144 323T143 307Q152 312 171 322T212 343T258 361T300 369Q310 369 322 367T347 357T369 338T384 308Q429 332 467 344T540 357Q577 357 597 344T626 308T637 254T639 186V79Q639 60 639 49T642 33T648 27T658 24Q661 24 668 22T684 19T701 15T712 13L705 0H520L517 13Q536 18 548 23T567 43T576 89T579 176Q579 208 576 234T562 278T535 307T490 317Q464 317 438 309T388 290Q390 277 391 243T392 171T393 97T393 48Q393 39 395 34T403 25T422 20T453 15V0H392Q385 0 368 0T330 -2T292 -3T267 -4L264 11Q287 15 300 21T321 42T331 83T333 156V203Z"  />
<glyph unicode="n" horiz-adv-x="469" d="M142 161Q142 132 142 115T141 87T142 69T144 51Q145 44 146 39T154 29T172 21T208 15L207 0Q200 1 191 1T170 2Q159 3 148 3T125 3H18L17 19Q38 23 49 27T66 36T74 46T77 60Q79 74 80 95T82 137T83 176T84 205Q84 245 83 266T75 298T55 312T20 317Q20 323 19 326Q32 329 48 335T78 348T102 359T112 364Q113 365 122 369T134 374Q142 374 143 357T145 313Q193 340 230 354T300 369Q338 369 358 356T388 322T399 273T401 219V103Q401 92 401 80T401 57T403 38T407 28Q409 26 416 24T432 19T447 16T457 13L458 -2Q449 0 431 1T373 3Q342 3 316 2T275 -2V12Q301 17 313 24T330 40Q334 49 336 70T340 116T342 160T343 189Q343 213 342 237T334 282T311 314T267 327Q265 327 256 327T230 323T192 312T145 292L142 161Z"  />
<glyph unicode="o" horiz-adv-x="469" d="M38 183Q38 226 54 261T98 322T163 360T242 374Q280 374 314 360T375 321T416 262T431 189Q431 151 418 116T379 54T318 11T237 -5Q208 -5 173 4T108 36T58 94T38 183ZM102 211Q102 177 112 143T141 81T185 36T242 18Q267 18 289 28T328 59T355 106T365 169Q365 202 354 235T324 293T277 335T218 351Q193 351 172 341T135 312T111 267T102 211Z"  />
<glyph unicode="p" horiz-adv-x="479" d="M145 -186Q145 -209 146 -221T151 -240T161 -249T179 -252L225 -255Q225 -260 225 -263T224 -272H206Q177 -272 158 -272T122 -273T85 -275T31 -279Q31 -274 31 -272T30 -264Q43 -263 51 -261T64 -256T71 -249T76 -240Q80 -228 83 -199T87 -135T88 -69T89 -19L90 42Q90 50 90 69T90 113T89 165T89 215T87 256T85 279Q82 293 72 305T51 318Q46 318 39 315T15 305L11 319Q17 323 36 332T71 349Q106 366 118 377T136 395Q138 389 139 385T141 373T143 355T147 326L189 343Q199 347 212 352T238 361T265 367T288 370Q315 370 343 357T393 320T429 264T443 195Q443 153 429 122T393 68T345 33T293 12T248 1T219 -2Q210 -2 191 1T147 12Q147 6 147 -10T146 -43T146 -76T145 -97V-186ZM145 59L190 44Q216 35 232 31T261 27Q275 27 296 33T338 53T373 91T388 153Q388 193 374 226T338 284T291 321T243 335Q238 335 231 334T214 329T187 321T146 306L145 59Z"  />
<glyph unicode="q" horiz-adv-x="469" d="M261 -261Q289 -258 304 -252T326 -229T334 -179T335 -91V20L280 3Q264 -2 246 -6T206 -11Q172 -11 142 2T88 39T51 93T37 161Q37 207 57 246T111 312T187 355T272 371Q290 371 307 368T342 357Q346 355 356 351T370 346Q373 346 379 351T393 362T406 373T415 378Q417 378 419 377T422 373Q422 371 422 369T417 358Q411 343 408 326T403 278T399 199T397 73V-92Q397 -136 397 -165T399 -212T401 -238T406 -249Q407 -250 415 -251T434 -253T454 -256T466 -258V-274Q454 -273 442 -273T418 -273Q409 -273 385 -273T335 -275Q309 -277 288 -277T263 -278L261 -261ZM341 181Q341 187 341 205T341 243T339 279T337 297Q333 304 323 312T297 327T265 338T231 343Q205 343 182 332T141 299T113 248T102 180Q102 142 114 113T146 63T192 31T246 20Q280 20 300 29T337 49Q338 57 338 68T339 94L341 181Z"  />
<glyph unicode="r" horiz-adv-x="313" d="M145 392Q146 381 146 373T147 357T147 338T147 309L206 343Q214 348 231 358T268 381Q274 376 279 374Q290 369 300 361T310 333Q310 312 294 301T257 287Q257 304 249 312T227 321Q210 321 191 310T162 291Q156 286 153 283T148 274T146 261T145 238Q145 233 145 222T144 198T143 171T142 151Q142 142 142 125T144 89T147 56T152 33Q156 25 162 24T180 22H193L251 23L250 2L24 -4L25 11Q44 14 55 19T74 43T83 100T86 209Q86 263 80 285T48 307Q43 307 33 306T17 303L19 319L145 392Z"  />
<glyph unicode="s" horiz-adv-x="323" d="M44 109Q44 103 52 89T76 61T112 35T161 24Q166 24 177 25T200 31T221 46T230 76Q230 96 221 111T199 137T173 155T152 167L115 184Q104 190 92 197T69 214T52 236T45 266Q45 282 54 300T79 334T120 360T177 370Q190 370 207 369T255 363L271 280H254Q251 293 240 305T215 327T187 343T160 349Q134 349 118 334T102 292Q102 271 115 259T158 232L188 218Q200 212 217 203T249 180T275 147T286 102Q286 88 280 68T258 38Q214 10 187 4T137 -3Q108 -3 83 3T35 17Q37 25 38 31T39 45Q39 56 35 77T27 110L44 109Z"  />
<glyph unicode="t" horiz-adv-x="292" d="M73 330Q62 332 53 332T21 333L22 345Q44 359 60 371T91 397T117 425T145 461L140 373Q156 371 176 370T232 369Q245 369 254 369T284 370L283 340Q257 337 231 337Q227 337 217 337T195 338T174 339T160 340Q151 340 147 339T140 331T137 314T136 284L134 132Q134 117 134 100T141 67T160 41T197 31Q217 31 243 40T291 59L293 49Q285 40 268 31T231 13T189 -1T148 -6Q135 -6 122 -2T97 13T78 42T71 91V140L73 330Z"  />
<glyph unicode="u" horiz-adv-x="458" d="M10 316L118 376Q124 379 125 379T128 380Q135 380 135 371L129 287Q128 275 127 259T125 225T124 192T123 164Q123 146 124 124T133 83T158 50T206 36Q234 36 262 49T322 77Q322 79 322 85T322 99T322 114T323 125L326 225Q327 258 325 276T317 304T298 316T265 320L264 338L394 368Q393 348 391 315T387 248T384 182T382 132Q382 90 384 69T391 32Q407 33 419 36T446 44V22Q434 19 419 14T389 4T359 -5T334 -14Q327 7 325 22T321 55Q302 46 280 35T236 15T192 0T155 -6Q147 -6 131 -2T100 16T73 60T64 139L68 249Q69 271 67 290T47 309Q40 309 33 306T10 296V316Z"  />
<glyph unicode="v" horiz-adv-x="396" d="M195 346Q176 344 166 342T150 338T143 333T142 326Q142 312 151 279T172 209T197 138T218 88Q234 115 250 148T279 212T299 270T307 310Q307 322 302 329T290 340T273 345T255 346L257 362L291 363Q292 363 297 363T311 362Q319 361 326 361T337 360Q364 360 393 366V351Q367 340 352 313T314 235L226 41Q223 34 215 15T201 -21H186Q179 9 166 50T136 135T103 223T69 304Q65 313 62 319T53 329T41 337T20 348V360Q62 358 109 359T197 363L195 346Z"  />
<glyph unicode="w" horiz-adv-x="615" d="M454 88Q441 61 433 45T421 17T414 -1T408 -19H393Q391 -5 387 9T379 37L339 172Q338 175 335 184T328 205T320 229T313 250L184 -19H168Q165 7 158 37T141 99T122 164T102 227Q90 264 81 284T64 316T47 333T23 344V358H60Q86 358 103 358T133 358T159 360T189 363L186 344Q161 341 152 337T143 320Q143 304 150 275T168 212T189 147T207 95Q215 110 228 135T254 188T280 243T298 290Q291 307 285 316T273 331T258 338T237 342L239 358Q255 358 276 358T319 358T365 359T410 362L409 346Q392 344 376 340T360 321Q360 318 360 316T361 308T366 292T374 263Q379 245 385 222T399 176T413 130T425 89Q436 109 452 140T485 205T512 268T523 315Q523 327 520 333T510 343T497 347T483 348L484 362Q495 361 509 361T545 360Q565 360 581 360T612 362L611 349Q602 347 594 341T576 320T552 280T517 213L454 88Z"  />
<glyph unicode="x" horiz-adv-x="406" d="M194 155Q150 111 129 79T108 37Q108 29 117 25T153 18L155 0Q133 2 111 2T83 3Q79 3 59 3T16 0L17 18Q26 19 32 21T45 26T56 35T70 51Q81 64 88 73T112 100L181 178Q171 198 159 221T134 266T109 305T87 330Q79 337 65 339T26 345L28 363L69 362Q73 362 84 362T113 361Q131 361 153 362T196 366L200 347Q190 346 180 344T170 330Q170 325 176 312T190 283T207 251T222 224Q225 227 236 239T260 266T283 298T293 324Q293 335 282 340T245 348L251 364Q260 363 270 363T291 361Q301 360 311 360T330 360Q350 360 363 361T388 364V348Q361 346 324 305T235 199L288 100Q304 70 316 54T340 29T362 19T388 16V-1Q383 0 378 0T364 1Q355 2 341 2T300 2Q291 2 279 2T256 2T235 1T221 -1L218 18Q244 20 250 21T257 28Q257 29 254 37T244 57T231 83T218 109L194 155Z"  />
<glyph unicode="y" horiz-adv-x="406" d="M7 -261Q31 -255 47 -246T77 -220T104 -178T133 -116L171 -31Q160 9 149 51T125 135T100 215T74 285Q66 305 59 316T44 333T28 341T11 345V360Q20 359 30 359T49 357H78Q128 357 178 363L177 345Q162 342 151 338T139 316Q139 305 144 280T158 219T181 142T210 57L242 115Q282 187 301 236T321 305Q321 324 303 333T253 347L260 363Q278 361 293 360T323 358Q336 357 345 357T361 357Q381 358 391 358T409 360L408 344Q387 340 373 321T345 275Q332 247 319 219T293 167T271 123T255 92Q215 14 192 -38T153 -129T130 -203T111 -278H7V-261Z"  />
<glyph unicode="z" horiz-adv-x="406" d="M13 8Q54 48 93 92T167 179T233 263T288 337H173Q147 337 124 335T83 327T52 309T33 281H14Q28 310 36 332T43 377Q52 370 69 367T110 361Q134 359 163 359T225 359H298Q315 359 341 359T393 360Q387 351 380 342T359 315L282 223L222 153Q219 150 204 132T172 92T139 51T121 26Q144 24 168 23T215 22Q244 22 270 24T318 35T356 61T380 110H395Q393 97 390 81T382 49T373 18T365 -7Q363 -7 360 -7T355 -5Q338 -2 325 -1T288 0H110Q91 0 65 -1T20 -6L13 8Z"  />
<glyph unicode="{" horiz-adv-x="510" d="M119 186Q143 189 163 198T199 220T222 251T231 288Q231 296 228 318T221 364Q217 389 214 411T211 443Q211 478 224 510T262 567T319 609T391 631V614Q333 601 306 569T279 502Q279 493 282 471T289 424T296 377T300 345Q300 290 263 246T159 178V176Q226 153 263 109T300 9Q300 1 297 -21T290 -69Q285 -94 282 -116T279 -148Q279 -183 306 -215T391 -260V-277Q352 -272 319 -255T262 -213T225 -156T211 -89Q211 -81 214 -59T221 -13T228 34T231 66Q231 85 223 102T199 133T164 156T119 168V186Z"  />
<glyph unicode="|" horiz-adv-x="531" d="M242 700H289V-250H242V700Z"  />
<glyph unicode="}" horiz-adv-x="510" d="M391 168Q367 165 347 156T311 134T288 103T279 66Q279 58 282 36T289 -10Q293 -35 296 -57T299 -89Q299 -124 286 -156T248 -213T191 -255T119 -277V-260Q177 -247 204 -215T231 -148Q231 -139 228 -117T221 -70T214 -23T210 9Q210 64 247 108T351 176V178Q284 201 247 245T210 345Q210 353 213 375T220 423Q224 448 227 470T231 502Q231 537 204 569T119 614V631Q158 626 191 609T248 567T285 510T299 443Q299 435 296 413T289 367T282 320T279 288Q279 269 287 252T311 221T346 198T391 186V168Z"  />
<glyph unicode="~" horiz-adv-x="667" d="M56 209Q58 244 67 268T88 309T115 333T143 346T165 351T177 352Q184 352 195 351T227 344T283 325T375 287Q404 275 423 268T454 258T475 254T491 253Q504 253 520 257T550 271T574 301T588 350H611Q610 317 600 291T572 246T532 218T484 208Q470 208 460 209T430 217T379 235T290 271Q264 281 246 287T215 298T193 303T175 304Q146 304 128 293T100 266T85 234T78 209H56Z"  />
<glyph unicode="&#xA0;" horiz-adv-x="245" />
<glyph unicode="&#xA1;" horiz-adv-x="208" d="M116 209Q114 151 113 89T112 -35Q112 -39 112 -49T112 -71T112 -95T114 -114Q115 -121 118 -128T127 -139Q130 -141 134 -144T138 -151Q138 -157 128 -159Q123 -161 109 -166T79 -178T52 -188T39 -193Q33 -193 33 -186Q33 -181 34 -177L80 102Q84 124 87 148T94 201Q95 202 95 206T96 212L116 209ZM170 331Q170 326 166 323T157 316Q142 308 134 298T120 276Q118 274 116 271T107 268Q98 268 94 277T90 287Q89 287 82 299T58 319Q49 324 48 326T46 333Q46 340 54 345Q64 350 72 356T93 383Q99 394 107 394Q115 394 122 384Q131 368 137 361T159 345Q164 342 167 340T170 331Z"  />
<glyph unicode="&#xA2;" horiz-adv-x="375" d="M290 632L312 625L283 527Q289 525 302 522T327 515T349 505T359 493Q359 491 355 484T346 468T334 454T323 447Q322 447 315 450T297 458T278 467T266 473L184 201Q211 186 230 183T257 180Q287 180 311 192T350 212L357 198Q329 175 295 160T223 144Q205 144 192 147T169 152L128 13L107 19L148 158Q129 165 110 175T76 202T52 247T43 316Q43 367 65 408T120 479T190 522T260 532L290 632ZM245 479Q235 481 225 483T200 486Q168 486 149 474T119 443T105 401T101 357Q101 328 107 305T122 265T143 235T165 214L245 479Z"  />
<glyph unicode="&#xA3;" horiz-adv-x="490" d="M41 336Q51 332 55 331T70 330Q96 330 114 331T145 333Q145 394 150 432T162 495T180 532T202 558Q226 583 251 598T299 622T339 633T365 636Q379 636 396 632T437 613Q444 608 448 608Q453 608 465 617L477 605Q475 601 467 593T448 576T430 559T418 547Q395 569 365 585T306 601Q292 601 270 587T236 554Q228 542 223 520T216 472T212 423T211 382L212 336L293 338Q303 338 319 339T353 341T389 344T425 350Q429 335 415 321Q413 321 398 321T360 319T313 317T265 316T228 315T209 314Q210 260 207 226T194 166T165 115T116 58Q152 58 173 58T209 56T238 54T273 50Q290 48 303 47T336 46Q355 46 366 47T385 52T398 61T409 74L437 109L455 100Q453 95 446 84T429 61T413 40T406 27Q404 23 400 17T388 5T370 -5T345 -10Q337 -10 324 -9T303 -5L264 2Q247 5 223 7T182 9Q169 9 150 8T112 4T74 -3T45 -15Q44 -16 43 -16Q42 -17 41 -17L26 -5Q52 18 74 44T114 91Q131 111 139 147T147 252L146 311Q141 311 129 311T104 310T78 309T61 308Q56 308 49 308T28 310L41 336Z"  />
<glyph unicode="&#xA4;" horiz-adv-x="717" d="M212 522Q223 530 237 539T268 556T308 569T359 574Q387 574 409 569T449 556T481 539T506 521L571 586L603 553L538 489Q546 478 555 465T572 433T585 392T590 340Q590 313 586 292T574 253T557 222T538 195L603 130L571 98L506 163Q495 155 482 146T450 129T410 116T359 110Q330 110 308 115T268 129T236 146T212 163L147 98L114 130L180 195Q172 205 163 219T146 250T133 290T127 342Q127 370 132 392T146 433T163 464T180 489L114 553L147 586L212 522ZM544 342Q544 380 530 414T490 473T431 512T359 527Q321 527 287 513T228 473T189 414T174 342Q174 304 188 270T228 211T287 172T359 157Q397 157 431 171T490 211T529 270T544 342Z"  />
<glyph unicode="&#xA5;" horiz-adv-x="667" d="M375 179H588V150H375V136Q375 96 375 75T379 42T390 28T410 21Q424 17 439 14T462 8L461 -5Q456 -5 450 -5T424 -2L394 0Q386 1 378 1T362 2Q354 2 333 1T288 -2Q265 -4 246 -5T222 -6V9Q253 10 270 16T295 38T304 80T306 150H99V179H306V260H99V289H305L270 347Q247 385 226 423T187 482Q150 527 129 552T92 591T62 607T25 612L22 629H70Q75 629 85 629T107 628Q118 627 128 627T144 626Q164 626 187 627T234 629L257 628L255 609Q227 607 212 604T196 590Q196 584 207 564T234 517T271 460T309 402T340 353T359 325Q367 338 369 340T372 345T377 354T393 382L430 447Q437 460 448 478T471 516T490 552T498 579Q498 592 491 598T473 608T451 611T432 611L434 630L475 628Q479 628 488 628T507 627T527 627T539 626Q544 626 557 626T586 627T615 627T635 628L634 608Q611 607 593 603T557 585T517 540T465 457L421 378L403 344Q395 330 388 314T375 289H588V260H374L375 179Z"  />
<glyph unicode="&#xA6;" horiz-adv-x="531" d="M242 175H289V-175H242V175ZM242 675H289V325H242V675Z"  />
<glyph unicode="&#xA7;" horiz-adv-x="438" d="M184 57Q145 101 119 133T78 191T57 240T50 287Q50 302 52 317T63 351T87 389T126 433Q115 449 109 467T102 504Q102 534 114 564T147 618T197 657T261 672Q261 672 273 671T299 667T324 658T336 639Q336 626 329 612T306 598Q301 598 289 602T262 610T236 619T218 623Q183 623 163 601T142 554Q142 522 172 482T252 383Q288 342 313 309T355 248T380 195T388 143Q388 114 381 92T363 52T339 21T316 -3Q332 -26 341 -49T350 -101Q350 -136 332 -168T287 -225T229 -264T171 -279Q151 -279 133 -274T99 -262T75 -247T66 -233Q66 -229 69 -222T78 -207T91 -194T108 -189Q114 -189 122 -192T135 -200Q158 -216 175 -225T212 -234Q253 -234 275 -204T298 -135Q298 -124 296 -111T287 -80T266 -42T228 6L184 57ZM229 106Q232 103 242 91T265 63T288 35T303 15Q316 28 328 45T340 98Q340 127 332 153T305 207T259 271T192 353Q189 356 182 365T166 384T150 403T139 416Q132 409 124 400T109 380T96 354T91 322Q91 302 98 283T118 243T150 199T193 148L229 106Z"  />
<glyph unicode="&#xA8;" horiz-adv-x="333" d="M207 495Q207 511 218 522T244 533Q260 533 271 522T282 495Q282 480 271 469T244 458Q229 458 218 468T207 495ZM52 495Q52 510 63 521T90 533Q107 533 117 522T127 495Q127 481 117 470T90 458Q74 458 63 469T52 495Z"  />
<glyph unicode="&#xA9;" horiz-adv-x="813" d="M589 591L599 445H579Q576 457 568 477T542 518T495 553T421 568Q346 568 300 515T254 365Q254 357 255 338T260 294T275 245T305 198T353 164T426 150Q469 150 511 167T589 234L609 225Q536 119 409 119Q353 119 309 138T233 189T184 263T167 350Q167 398 185 441T237 518T319 571T427 591Q441 591 451 590T471 587T494 582T524 572Q532 569 536 569T543 568Q555 568 560 575T568 591H589ZM406 723Q482 723 549 695T666 616T746 499T776 353Q776 276 747 209T668 92T550 13T406 -16Q329 -16 262 13T145 92T66 209T37 353Q37 431 66 498T145 616T263 694T406 723ZM406 691Q337 691 276 665T169 593T96 486T69 353Q69 283 95 222T167 115T274 43T406 16Q476 16 537 42T645 114T717 221T744 353Q744 424 717 486T644 593T537 665T406 691Z"  />
<glyph unicode="&#xAA;" horiz-adv-x="240" d="M38 571Q37 573 36 577T35 587Q35 600 48 610T78 628T111 640T133 644Q135 644 144 642T165 632T185 607T194 561V547Q194 541 194 535T193 523Q193 520 193 514T192 500T192 486T191 478Q191 464 194 452T206 439Q215 439 224 442T240 448L239 433Q237 432 233 431T223 427T214 423T210 421Q210 421 206 420T196 416T185 413T178 411Q168 411 161 421T151 439Q146 436 137 432T115 423T90 415T65 411Q51 411 43 415T31 426T26 440T25 453Q25 463 27 475T41 496Q47 499 73 509T149 525L151 558Q152 577 147 588T135 607T119 616T103 619Q94 619 85 615T76 602Q76 597 80 588L38 571ZM148 454Q147 465 148 479T150 505Q105 507 85 495T64 468Q64 456 71 445T90 434Q101 434 117 440T148 454Z"  />
<glyph unicode="&#xAB;" horiz-adv-x="458" d="M426 -2H410L235 188L411 377H426L328 187L426 -2ZM224 -2H208L31 188L207 377H224L125 186L224 -2Z"  />
<glyph unicode="&#xAC;" horiz-adv-x="667" d="M54 430H614V130H569V384H54V430Z"  />
<glyph unicode="&#xAD;" horiz-adv-x="313" d="M35 214H277V161H35V214Z"  />
<glyph unicode="&#xAE;" horiz-adv-x="813" d="M202 581H403Q477 581 517 548T558 464Q558 432 544 411T511 376T472 357T442 348L551 193Q563 176 572 167T588 154T602 148T614 147V130H518L365 341H325V218Q325 197 326 184T333 162T351 150T387 147V130H196V147Q216 147 227 151T243 164T249 186T250 219V492Q250 512 249 525T244 546T230 558T202 562V581ZM325 363Q352 363 378 366T426 380T460 409T474 458Q474 498 446 528T369 558Q355 558 345 556T325 550V363ZM406 723Q482 723 549 695T666 616T746 499T776 353Q776 276 747 209T668 92T550 13T406 -16Q329 -16 262 13T145 92T66 209T37 353Q37 431 66 498T145 616T263 694T406 723ZM406 691Q337 691 276 665T169 593T96 486T69 353Q69 283 95 222T167 115T274 43T406 16Q476 16 537 42T645 114T717 221T744 353Q744 424 717 486T644 593T537 665T406 691Z"  />
<glyph unicode="&#xAF;" horiz-adv-x="333" d="M304 524V488H29V524H304Z"  />
<glyph unicode="&#xB0;" horiz-adv-x="427" d="M214 625Q247 625 276 613T327 579T361 528T374 465Q374 432 362 403T327 352T276 318T214 305Q181 305 152 317T101 351T66 402T53 465Q53 498 66 527T100 578T151 612T214 625ZM213 582Q189 582 168 573T132 548T107 511T97 466Q97 442 106 421T131 384T168 359T213 349Q237 349 258 358T295 383T320 420T329 466Q329 490 320 511T295 548T258 573T213 582Z"  />
<glyph unicode="&#xB1;" horiz-adv-x="667" d="M54 442H310V674H356V442H614V396H356V165H310V396H54V442ZM54 46H614V0H54V46Z"  />
<glyph unicode="&#xB2;" horiz-adv-x="313" d="M58 347Q79 366 104 389T150 438T186 488T201 533Q201 562 181 576T135 591Q103 591 87 580T61 560L43 574Q50 581 60 590T84 607T116 620T157 626Q199 626 227 605T255 547Q255 510 229 479T153 402L83 338L164 337Q191 337 207 338T235 343T255 358T276 388L296 378L262 322Q259 318 251 305T240 287H222Q221 295 216 297Q213 299 199 299H63Q52 299 43 299T19 297L12 306L58 347Z"  />
<glyph unicode="&#xB3;" horiz-adv-x="313" d="M80 379Q75 371 74 369T72 364Q72 359 79 351T99 336T125 323T154 317Q183 317 203 335T224 382Q224 412 202 430T156 461L136 449L122 464Q151 483 172 502T193 547Q193 569 177 582T137 596Q115 596 99 588T70 570L55 585Q68 594 94 609T158 625Q194 625 218 609T243 564Q243 539 228 521T198 491Q208 485 220 478T243 460T261 436T269 404Q269 384 260 365T233 331T191 306T134 296Q130 296 118 296T91 301T59 315T27 343Q30 346 40 362T59 390L80 379Z"  />
<glyph unicode="&#xB4;" horiz-adv-x="333" d="M189 608H257L116 434H93L189 608Z"  />
<glyph unicode="&#xB5;" horiz-adv-x="506" d="M56 374H122V149Q122 134 123 115T132 80T156 52T204 40Q235 40 262 58T327 109V374H392V137Q392 79 400 56T432 32Q456 32 464 52T479 98H500Q499 89 496 70T484 33T456 0T406 -15Q380 -15 365 -5T342 21T331 52T327 80Q287 36 249 12T170 -13Q147 -13 132 -7T107 7T92 26T83 46H81Q81 34 81 15T82 -25T84 -63T88 -91Q94 -112 97 -124T102 -144T104 -157T105 -169Q105 -191 93 -203T66 -216Q52 -216 39 -204T26 -170Q26 -161 28 -149T33 -126T38 -107T42 -96Q44 -87 46 -69T51 -29T54 15T55 56L56 176V374Z"  />
<glyph unicode="&#xB6;" horiz-adv-x="479" d="M390 -115Q328 -108 285 -94T213 -62T165 -25T135 11Q117 36 102 64T76 119T59 166T53 200Q53 211 63 244T94 316T142 393T207 454Q238 473 276 485T353 504T424 514T479 519L476 493Q468 491 462 491T433 488Q410 486 393 484T362 480T336 474T308 467L297 -69Q302 -71 315 -73T343 -79T372 -86T393 -90L390 -115ZM281 458Q249 450 233 433T209 390Q203 372 200 342T196 274T194 198T193 121Q193 68 197 38T210 -10T234 -37T271 -58L281 458Z"  />
<glyph unicode="&#xB7;" horiz-adv-x="177" d="M27 302Q27 307 31 310T40 317Q55 325 63 335T77 357Q79 359 81 362T90 365Q99 365 103 356T107 346Q108 346 115 334T139 314Q148 309 149 307T151 300Q151 293 143 288Q133 283 125 277T104 250Q98 239 90 239Q82 239 75 249Q66 265 60 272T38 288Q33 291 30 293T27 302Z"  />
<glyph unicode="&#xB8;" horiz-adv-x="333" d="M209 10L184 -37Q213 -47 233 -65T254 -114Q254 -138 241 -157T204 -190T149 -211T80 -216V-196Q125 -195 150 -187T186 -168T200 -147T203 -132Q203 -103 180 -93T126 -80Q129 -75 137 -63T155 -37T173 -10T184 10H209Z"  />
<glyph unicode="&#xB9;" horiz-adv-x="313" d="M68 613Q101 614 124 615T166 618T200 622T232 628L237 612Q221 609 212 607T198 602T191 596T188 586Q182 551 181 509T180 426Q180 419 180 404T181 373T183 344T187 326Q189 323 196 321T213 318T232 315T247 314L246 297Q234 298 226 298T210 299Q203 300 197 300T181 300Q154 300 125 300T67 297L66 315Q95 314 105 318T121 332Q125 339 127 363T130 417T131 474T131 513Q131 556 130 571T126 590Q124 593 117 594T101 596T83 597T69 597L68 613Z"  />
<glyph unicode="&#xBA;" horiz-adv-x="313" d="M31 526Q31 553 41 574T70 611T111 634T161 642Q186 642 208 633T246 609T272 574T282 531Q282 509 274 488T249 451T210 424T158 414Q138 414 116 420T74 439T43 474T31 526ZM75 543Q75 523 81 504T99 468T126 441T161 431Q193 431 215 454T237 518Q237 538 230 557T211 590T182 614T146 623Q114 623 95 600T75 543Z"  />
<glyph unicode="&#xBB;" horiz-adv-x="458" d="M131 186L32 377H49L225 188L48 -2H32L131 186ZM333 186L234 377H251L427 188L250 -2H234L333 186Z"  />
<glyph unicode="&#xBC;" horiz-adv-x="688" d="M462 16Q474 16 487 17T508 23Q510 24 511 26T513 35T515 53T517 85V99H459Q441 99 419 98T361 95L355 104Q406 158 455 213T546 330Q554 332 558 333T572 337Q571 323 571 306T570 271T570 234T569 202L568 127Q583 128 592 128T607 130T617 135T628 143L645 137L623 96Q617 96 612 96T602 97T589 97T568 98Q568 69 568 53T573 30T584 20T603 15L602 0Q591 0 572 0T532 0T492 0T463 -2L462 16ZM409 127H518L519 168Q519 179 519 187T520 203T520 222T520 252Q503 232 486 213T452 174L409 127ZM61 315Q90 314 100 318T116 332Q119 339 121 363T124 417T125 474T126 513Q126 556 125 571T121 590Q119 593 112 594T95 596T77 597T63 597V613Q96 614 120 615T161 618T190 622T213 626Q215 626 219 627T226 628L232 612Q216 609 207 607T193 602T186 596T183 586Q178 551 177 509T175 426Q175 419 175 404T176 373T178 344T182 326Q184 323 191 321T208 318T227 315T242 314L241 297Q228 298 219 298T203 299Q196 300 190 300T176 300Q149 300 119 300T62 297L61 315ZM125 -38Q136 -21 158 15T210 102T276 218T352 355T433 506T514 665Q537 666 560 674Q544 645 523 609T481 535T438 461T401 396L295 197Q291 189 282 172T262 134T239 88T215 42T195 3T181 -24Q167 -27 159 -31T139 -44L125 -38Z"  />
<glyph unicode="&#xBD;" horiz-adv-x="688" d="M125 -38Q136 -21 158 15T210 102T276 218T352 355T433 506T514 665Q537 666 560 674Q544 645 523 609T481 536T438 462T401 396L295 197Q291 189 282 172T262 134T239 88T215 42T195 3T181 -24Q167 -27 159 -31T139 -44L125 -38ZM62 315Q91 314 101 318T117 332Q121 339 123 363T126 417T127 474T127 513Q127 556 126 571T122 590Q120 593 113 594T97 596T79 597T65 597L64 613Q90 614 108 615T144 617T180 621T228 628L233 612Q217 609 208 607T194 602T187 596T184 586Q177 551 177 509T176 426Q176 419 176 404T177 373T179 344T183 326Q185 323 192 321T209 318T228 315T243 314L242 297Q229 298 221 298T204 299Q197 300 191 300T177 300Q150 300 121 300T63 297L62 315ZM381 6L427 47Q448 66 473 89T519 138T555 188T570 233Q570 262 550 276T504 291Q472 291 456 280T430 260L412 274Q419 281 429 290T453 307T485 320T526 326Q568 326 596 305T624 247Q624 210 598 179T522 102L452 38L533 37Q560 37 576 38T604 43T624 58T645 88L665 78L631 22Q621 5 617 -2T609 -13H591Q590 -5 584 -2Q581 -1 568 -1H432Q421 -1 412 -1T388 -3L381 6Z"  />
<glyph unicode="&#xBE;" horiz-adv-x="688" d="M462 16Q474 16 487 17T508 23Q510 24 511 26T513 35T515 53T517 85V99H459Q441 99 419 98T361 95L355 104Q406 158 455 213T546 330Q554 332 558 333T572 337Q571 323 571 306T570 271T570 234T569 202L568 127Q583 128 592 128T607 130T617 135T628 143L645 137L623 96Q617 96 612 96T602 97T589 97T568 98Q568 69 568 53T573 30T584 20T603 15L602 0Q591 0 572 0T532 0T492 0T463 -2L462 16ZM409 127H518L519 168Q519 179 519 187T520 203T520 222T520 252Q503 232 486 213T452 174L409 127ZM50 585Q63 594 89 609T153 625Q189 625 213 609T238 564Q238 539 223 521T193 491Q203 485 215 478T238 460T256 436T264 404Q264 384 255 365T228 331T186 306T129 296Q125 296 113 296T86 301T54 315T22 343Q23 345 27 350T35 362T43 374T49 382Q50 383 51 385T54 390L75 379Q70 371 69 369T67 364Q67 359 74 351T94 336T120 323T149 317Q178 317 198 335T219 382Q219 412 197 430T151 461L131 449L117 464Q146 483 167 502T188 547Q188 569 171 582T131 596Q110 596 94 588T65 570L50 585ZM125 -38Q136 -21 158 15T210 102T276 218T352 355T433 506T514 665Q537 666 560 674Q544 645 523 609T481 535T438 461T401 396L295 197Q291 189 282 172T262 134T239 88T215 42T195 3T181 -24Q167 -27 159 -31T139 -44L125 -38Z"  />
<glyph unicode="&#xBF;" horiz-adv-x="281" d="M217 -212Q213 -196 209 -188T199 -175T185 -169T165 -165Q148 -163 126 -154T83 -128T48 -82T34 -13Q34 35 53 78T114 146Q124 152 130 156T140 166T146 181T150 206Q151 217 152 220T160 224Q167 224 168 221T170 211L165 125Q165 117 163 113T156 105T143 100T119 95Q98 90 86 83T69 65T63 39T62 5Q62 -18 68 -36T90 -68T132 -91T198 -104Q212 -106 226 -109T240 -126Q240 -128 239 -134T236 -147T233 -160T231 -170Q230 -175 230 -190T231 -211L217 -212ZM227 330Q227 325 223 322T214 315Q199 307 191 297T177 275Q175 273 173 270T164 267Q155 267 151 276T147 286Q146 286 139 298T115 318Q106 323 105 325T103 332Q103 339 111 344Q121 349 129 355T150 382Q156 393 164 393Q172 393 179 383Q188 367 194 360T216 344Q221 341 224 339T227 330Z"  />
<glyph unicode="&#xC0;" horiz-adv-x="625" d="M468 261Q480 231 493 197T518 131T542 76T563 39Q571 27 585 23T615 17V0Q607 1 600 1T584 2Q576 3 565 3T538 3Q493 3 464 1T422 -2V14Q438 17 454 23T471 46Q471 53 468 65T462 89T454 111T449 124L413 222Q392 225 367 225T321 226H282Q259 227 230 226T180 220L144 130Q130 96 125 83T120 59Q120 51 122 45T133 32T156 21T198 12V-4Q189 -2 180 -2T159 1Q147 2 133 2T101 3Q75 3 53 2T12 -1V13Q33 18 44 26T57 36Q66 43 80 70T110 129T137 193T156 239L234 426Q256 477 278 531T316 640H332Q338 619 342 605T350 578T357 556T365 536L468 261ZM212 296Q204 276 202 270T197 258Q211 256 226 255T253 253T273 252T282 252L327 253Q330 253 340 253T361 253T383 254T400 255Q398 259 396 267T390 285T383 302T378 314L343 404Q341 410 335 425T321 457T307 489T297 510Q289 491 280 469T267 438L212 296ZM403 679H380L239 853H307L403 679Z"  />
<glyph unicode="&#xC1;" horiz-adv-x="625" d="M468 261Q480 231 493 197T518 131T542 76T563 39Q571 27 585 23T615 17V0Q607 1 600 1T584 2Q576 3 565 3T538 3Q493 3 464 1T422 -2V14Q438 17 454 23T471 46Q471 53 468 65T462 89T454 111T449 124L413 222Q392 225 367 225T321 226H282Q259 227 230 226T180 220L144 130Q130 96 125 83T120 59Q120 51 122 45T133 32T156 21T198 12V-4Q189 -2 180 -2T159 1Q147 2 133 2T101 3Q75 3 53 2T12 -1V13Q33 18 44 26T57 36Q66 43 80 70T110 129T137 193T156 239L234 426Q256 477 278 531T316 640H332Q338 619 342 605T350 578T357 556T365 536L468 261ZM212 296Q204 276 202 270T197 258Q211 256 226 255T253 253T273 252T282 252L327 253Q330 253 340 253T361 253T383 254T400 255Q398 259 396 267T390 285T383 302T378 314L343 404Q341 410 335 425T321 457T307 489T297 510Q289 491 280 469T267 438L212 296ZM366 853H434L293 679H270L366 853Z"  />
<glyph unicode="&#xC2;" horiz-adv-x="625" d="M468 261Q480 231 493 197T518 131T542 76T563 39Q571 27 585 23T615 17V0Q607 1 600 1T584 2Q576 3 565 3T538 3Q493 3 464 1T422 -2V14Q438 17 454 23T471 46Q471 53 468 65T462 89T454 111T449 124L413 222Q392 225 367 225T321 226H282Q259 227 230 226T180 220L144 130Q130 96 125 83T120 59Q120 51 122 45T133 32T156 21T198 12V-4Q189 -2 180 -2T159 1Q147 2 133 2T101 3Q75 3 53 2T12 -1V13Q33 18 44 26T57 36Q66 43 80 70T110 129T137 193T156 239L234 426Q256 477 278 531T316 640H332Q338 619 342 605T350 578T357 556T365 536L468 261ZM212 296Q204 276 202 270T197 258Q211 256 226 255T253 253T273 252T282 252L327 253Q330 253 340 253T361 253T383 254T400 255Q398 259 396 267T390 285T383 302T378 314L343 404Q341 410 335 425T321 457T307 489T297 510Q289 491 280 469T267 438L212 296ZM335 853L432 679H409L314 784L217 679H194L291 853H335Z"  />
<glyph unicode="&#xC3;" horiz-adv-x="625" d="M468 261Q480 231 493 197T518 131T542 76T563 39Q571 27 585 23T615 17V0Q607 1 600 1T584 2Q576 3 565 3T538 3Q493 3 464 1T422 -2V14Q438 17 454 23T471 46Q471 53 468 65T462 89T454 111T449 124L413 222Q392 225 367 225T321 226H282Q259 227 230 226T180 220L144 130Q130 96 125 83T120 59Q120 51 122 45T133 32T156 21T198 12V-4Q189 -2 180 -2T159 1Q147 2 133 2T101 3Q75 3 53 2T12 -1V13Q33 18 44 26T57 36Q66 43 80 70T110 129T137 193T156 239L234 426Q256 477 278 531T316 640H332Q338 619 342 605T350 578T357 556T365 536L468 261ZM212 296Q204 276 202 270T197 258Q211 256 226 255T253 253T273 252T282 252L327 253Q330 253 340 253T361 253T383 254T400 255Q398 259 396 267T390 285T383 302T378 314L343 404Q341 410 335 425T321 457T307 489T297 510Q289 491 280 469T267 438L212 296ZM449 795Q448 759 437 739T411 710T385 700T369 698Q348 698 332 705T286 731Q266 743 258 746T240 750Q225 750 211 738T197 698H177Q178 717 183 735T197 766T222 787T258 795Q278 795 293 787T331 765Q346 755 358 749T384 742Q400 742 414 754T429 795H449Z"  />
<glyph unicode="&#xC4;" horiz-adv-x="625" d="M468 261Q480 231 493 197T518 131T542 76T563 39Q571 27 585 23T615 17V0Q607 1 600 1T584 2Q576 3 565 3T538 3Q493 3 464 1T422 -2V14Q438 17 454 23T471 46Q471 53 468 65T462 89T454 111T449 124L413 222Q392 225 367 225T321 226H282Q259 227 230 226T180 220L144 130Q130 96 125 83T120 59Q120 51 122 45T133 32T156 21T198 12V-4Q189 -2 180 -2T159 1Q147 2 133 2T101 3Q75 3 53 2T12 -1V13Q33 18 44 26T57 36Q66 43 80 70T110 129T137 193T156 239L234 426Q256 477 278 531T316 640H332Q338 619 342 605T350 578T357 556T365 536L468 261ZM212 296Q204 276 202 270T197 258Q211 256 226 255T253 253T273 252T282 252L327 253Q330 253 340 253T361 253T383 254T400 255Q398 259 396 267T390 285T383 302T378 314L343 404Q341 410 335 425T321 457T307 489T297 510Q289 491 280 469T267 438L212 296ZM353 740Q353 756 364 767T390 778Q406 778 417 767T428 740Q428 725 417 714T390 703Q375 703 364 713T353 740ZM198 740Q198 755 209 766T236 778Q253 778 263 767T273 740Q273 726 263 715T236 703Q220 703 209 714T198 740Z"  />
<glyph unicode="&#xC5;" horiz-adv-x="625" d="M468 261Q480 231 493 197T518 131T542 76T563 39Q571 27 585 23T615 17V0Q607 1 600 1T584 2Q576 3 565 3T538 3Q493 3 464 1T422 -2V14Q438 17 454 23T471 46Q471 53 468 65T462 89T454 111T449 124L413 222Q392 225 367 225T321 226H282Q259 227 230 226T180 220L144 130Q130 96 125 83T120 59Q120 51 122 45T133 32T156 21T198 12V-4Q189 -2 180 -2T159 1Q147 2 133 2T101 3Q75 3 53 2T12 -1V13Q33 18 44 26T57 36Q66 43 80 70T110 129T137 193T156 239L234 426Q256 477 278 531T316 640H332Q338 619 342 605T350 578T357 556T365 536L468 261ZM212 296Q204 276 202 270T197 258Q211 256 226 255T253 253T273 252T282 252L327 253Q330 253 340 253T361 253T383 254T400 255Q398 259 396 267T390 285T383 302T378 314L343 404Q341 410 335 425T321 457T307 489T297 510Q289 491 280 469T267 438L212 296ZM235 768Q235 784 241 798T257 822T282 839T313 845Q346 845 368 822T391 768Q391 737 369 714T313 690Q281 690 258 713T235 768ZM260 768Q260 745 275 730T313 715Q335 715 350 730T366 768Q366 789 351 805T313 821Q290 821 275 806T260 768Z"  />
<glyph unicode="&#xC6;" horiz-adv-x="979" d="M869 224H851Q849 257 844 274T823 300T775 309T689 311H640L570 310Q569 304 569 291T568 264T568 235T568 214Q568 175 570 127T577 41Q613 32 650 30T726 27Q788 27 826 36T886 62T920 101T941 148L957 149Q954 111 945 77T917 -1Q884 2 855 2Q839 3 822 3T783 3H720Q702 3 670 3T599 1T515 -2T426 -7L425 10Q461 16 472 25T488 52Q492 66 494 84T498 121T500 157T501 187L500 221Q486 222 466 223T425 224T383 225T351 226L316 225Q301 225 280 224T244 221L194 138Q179 114 171 100T159 77T155 65T154 56Q154 45 160 38T177 25T199 17T224 13V-5Q219 -5 207 -4T179 -3T150 -2T126 -1H83Q51 -1 35 -2T7 -4V14Q26 18 45 25T89 57T151 132T244 272L339 426Q351 444 365 467T393 515T422 563T447 606Q432 611 414 615T384 621V640Q408 637 435 636T492 633Q521 631 549 631T602 631L911 633Q918 633 918 627Q918 626 916 610T911 573T903 533T893 508L880 512Q885 534 885 549Q885 581 851 594T742 607Q733 607 715 607T674 605T626 602T579 597Q576 581 574 565T571 528T569 483T568 427V376Q568 368 568 358T569 343Q577 342 590 342T619 341T648 340T671 339L752 340Q782 340 799 341T827 348T841 367T851 405H869V224ZM499 464Q499 471 498 493T495 538T488 580T478 599Q473 599 463 583T445 553L267 257Q286 255 309 255T353 254H400L444 255Q447 255 455 255T473 256T490 256T502 257Q503 265 503 270T502 295L499 464Z"  />
<glyph unicode="&#xC7;" horiz-adv-x="625" d="M567 26Q529 15 482 4T378 -7H361L344 -37Q373 -47 393 -65T414 -114Q414 -138 401 -157T364 -190T309 -211T240 -216V-196Q285 -195 310 -187T346 -168T360 -147T363 -132Q363 -103 340 -93T286 -80Q289 -76 296 -66T310 -45T325 -23T336 -4Q280 3 228 27T134 91T68 189T43 320Q43 405 75 466T159 566T274 623T397 642Q445 642 479 633T528 618Q535 616 546 613T572 609Q574 609 581 610T590 612Q592 612 594 610L596 608Q596 608 595 604T593 594T591 585T589 580Q583 559 579 535T571 487Q561 489 559 493T556 508Q555 531 553 538T548 550Q542 559 525 570T485 592T433 609T376 616Q324 616 279 597T199 539T146 446T126 321Q126 261 140 215T179 135T232 78T292 41T349 21T395 15Q438 15 467 26T517 54T551 92T575 132Q583 146 588 146Q591 146 594 144T597 137Q597 131 594 117T588 98L567 26Z"  />
<glyph unicode="&#xC8;" horiz-adv-x="563" d="M450 219H433Q432 251 426 269T402 296T348 307T252 309Q215 309 197 308T164 304L162 235Q162 220 162 196T162 144T165 88T171 39Q178 37 187 35T210 30T245 26T298 24Q356 24 394 30T457 50T498 87T525 143H540Q535 115 531 95T523 58T513 26T499 -5Q492 -4 479 -4T450 -3T414 -2T377 -2Q340 -2 312 -1T282 0Q247 0 211 0T140 -2T74 -4T19 -7L20 10Q41 14 53 17T71 26T80 40T85 64Q87 76 88 97T91 144T93 196T95 247T96 289T96 316L93 471Q92 521 90 548T81 589T62 607T27 617L28 630H341Q354 630 373 630T413 631T457 632T500 634Q496 582 491 551T476 507L463 511Q463 519 465 533T467 552Q467 572 451 583T412 599T364 606T322 607Q271 607 236 604T172 597Q169 570 166 538T163 461Q163 445 163 426T163 388T163 355T164 334Q173 333 192 333T236 333Q255 333 275 333T315 333T350 335T378 337Q391 338 399 340T414 348T425 367T437 403H450V219ZM372 679H349L208 853H276L372 679Z"  />
<glyph unicode="&#xC9;" horiz-adv-x="563" d="M450 219H433Q432 251 426 269T402 296T348 307T252 309Q215 309 197 308T164 304L162 235Q162 220 162 196T162 144T165 88T171 39Q178 37 187 35T210 30T245 26T298 24Q356 24 394 30T457 50T498 87T525 143H540Q535 115 531 95T523 58T513 26T499 -5Q492 -4 479 -4T450 -3T414 -2T377 -2Q340 -2 312 -1T282 0Q247 0 211 0T140 -2T74 -4T19 -7L20 10Q41 14 53 17T71 26T80 40T85 64Q87 76 88 97T91 144T93 196T95 247T96 289T96 316L93 471Q92 521 90 548T81 589T62 607T27 617L28 630H341Q354 630 373 630T413 631T457 632T500 634Q496 582 491 551T476 507L463 511Q463 519 465 533T467 552Q467 572 451 583T412 599T364 606T322 607Q271 607 236 604T172 597Q169 570 166 538T163 461Q163 445 163 426T163 388T163 355T164 334Q173 333 192 333T236 333Q255 333 275 333T315 333T350 335T378 337Q391 338 399 340T414 348T425 367T437 403H450V219ZM304 853H372L231 679H208L304 853Z"  />
<glyph unicode="&#xCA;" horiz-adv-x="563" d="M450 219H433Q432 251 426 269T402 296T348 307T252 309Q215 309 197 308T164 304L162 235Q162 220 162 196T162 144T165 88T171 39Q178 37 187 35T210 30T245 26T298 24Q356 24 394 30T457 50T498 87T525 143H540Q535 115 531 95T523 58T513 26T499 -5Q492 -4 479 -4T450 -3T414 -2T377 -2Q340 -2 312 -1T282 0Q247 0 211 0T140 -2T74 -4T19 -7L20 10Q41 14 53 17T71 26T80 40T85 64Q87 76 88 97T91 144T93 196T95 247T96 289T96 316L93 471Q92 521 90 548T81 589T62 607T27 617L28 630H341Q354 630 373 630T413 631T457 632T500 634Q496 582 491 551T476 507L463 511Q463 519 465 533T467 552Q467 572 451 583T412 599T364 606T322 607Q271 607 236 604T172 597Q169 570 166 538T163 461Q163 445 163 426T163 388T163 355T164 334Q173 333 192 333T236 333Q255 333 275 333T315 333T350 335T378 337Q391 338 399 340T414 348T425 367T437 403H450V219ZM304 853L401 679H378L283 784L186 679H163L260 853H304Z"  />
<glyph unicode="&#xCB;" horiz-adv-x="563" d="M450 219H433Q432 251 426 269T402 296T348 307T252 309Q215 309 197 308T164 304L162 235Q162 220 162 196T162 144T165 88T171 39Q178 37 187 35T210 30T245 26T298 24Q356 24 394 30T457 50T498 87T525 143H540Q535 115 531 95T523 58T513 26T499 -5Q492 -4 479 -4T450 -3T414 -2T377 -2Q340 -2 312 -1T282 0Q247 0 211 0T140 -2T74 -4T19 -7L20 10Q41 14 53 17T71 26T80 40T85 64Q87 76 88 97T91 144T93 196T95 247T96 289T96 316L93 471Q92 521 90 548T81 589T62 607T27 617L28 630H341Q354 630 373 630T413 631T457 632T500 634Q496 582 491 551T476 507L463 511Q463 519 465 533T467 552Q467 572 451 583T412 599T364 606T322 607Q271 607 236 604T172 597Q169 570 166 538T163 461Q163 445 163 426T163 388T163 355T164 334Q173 333 192 333T236 333Q255 333 275 333T315 333T350 335T378 337Q391 338 399 340T414 348T425 367T437 403H450V219ZM322 740Q322 756 333 767T359 778Q375 778 386 767T397 740Q397 725 386 714T359 703Q344 703 333 713T322 740ZM167 740Q167 755 178 766T205 778Q222 778 232 767T242 740Q242 726 232 715T205 703Q189 703 178 714T167 740Z"  />
<glyph unicode="&#xCC;" horiz-adv-x="313" d="M193 264Q193 248 193 225T193 178T194 132T195 94Q196 72 197 58T208 34T235 22T287 17L285 -2Q278 -2 260 -2T222 0Q201 0 183 0T156 1Q142 1 121 1T79 0Q58 -1 41 -1T15 -2L14 16Q42 17 59 20T87 29T103 42T111 58Q117 74 120 108T124 180T126 255T126 313Q126 349 126 375T125 424T123 470T121 523Q120 548 118 564T105 591T75 605T20 611V631Q51 631 89 628Q108 627 125 627T156 626Q167 626 186 626T227 629Q248 630 265 630T291 631V609Q249 609 233 604T209 586Q203 574 200 543T195 474T193 403T193 351V264ZM248 679H225L84 853H152L248 679Z"  />
<glyph unicode="&#xCD;" horiz-adv-x="313" d="M193 264Q193 248 193 225T193 178T194 132T195 94Q196 72 197 58T208 34T235 22T287 17L285 -2Q278 -2 260 -2T222 0Q201 0 183 0T156 1Q142 1 121 1T79 0Q58 -1 41 -1T15 -2L14 16Q42 17 59 20T87 29T103 42T111 58Q117 74 120 108T124 180T126 255T126 313Q126 349 126 375T125 424T123 470T121 523Q120 548 118 564T105 591T75 605T20 611V631Q51 631 89 628Q108 627 125 627T156 626Q167 626 186 626T227 629Q248 630 265 630T291 631V609Q249 609 233 604T209 586Q203 574 200 543T195 474T193 403T193 351V264ZM180 853H248L107 679H84L180 853Z"  />
<glyph unicode="&#xCE;" horiz-adv-x="313" d="M193 264Q193 248 193 225T193 178T194 132T195 94Q196 72 197 58T208 34T235 22T287 17L285 -2Q278 -2 260 -2T222 0Q201 0 183 0T156 1Q142 1 121 1T79 0Q58 -1 41 -1T15 -2L14 16Q42 17 59 20T87 29T103 42T111 58Q117 74 120 108T124 180T126 255T126 313Q126 349 126 375T125 424T123 470T121 523Q120 548 118 564T105 591T75 605T20 611V631Q51 631 89 628Q108 627 125 627T156 626Q167 626 186 626T227 629Q248 630 265 630T291 631V609Q249 609 233 604T209 586Q203 574 200 543T195 474T193 403T193 351V264ZM180 853L277 679H254L159 784L62 679H39L136 853H180Z"  />
<glyph unicode="&#xCF;" horiz-adv-x="313" d="M193 264Q193 248 193 225T193 178T194 132T195 94Q196 72 197 58T208 34T235 22T287 17L285 -2Q278 -2 260 -2T222 0Q201 0 183 0T156 1Q142 1 121 1T79 0Q58 -1 41 -1T15 -2L14 16Q42 17 59 20T87 29T103 42T111 58Q117 74 120 108T124 180T126 255T126 313Q126 349 126 375T125 424T123 470T121 523Q120 548 118 564T105 591T75 605T20 611V631Q51 631 89 628Q108 627 125 627T156 626Q167 626 186 626T227 629Q248 630 265 630T291 631V609Q249 609 233 604T209 586Q203 574 200 543T195 474T193 403T193 351V264ZM198 740Q198 756 209 767T235 778Q251 778 262 767T273 740Q273 725 262 714T235 703Q220 703 209 713T198 740ZM43 740Q43 755 54 766T81 778Q98 778 108 767T118 740Q118 726 108 715T81 703Q65 703 54 714T43 740Z"  />
<glyph unicode="&#xD0;" horiz-adv-x="719" d="M20 331H95Q95 371 95 409T93 481T89 539T82 576Q77 589 65 596T25 603L24 621Q80 621 134 623T244 632Q264 634 278 635T314 636Q385 636 451 615T568 553T650 454T681 320Q681 254 656 196T582 94T466 25T312 0Q304 0 287 0T251 1T215 1T192 2Q182 2 158 2T106 1T54 1T20 0V18Q43 18 56 21T76 31T85 48T89 72Q91 92 92 113T94 160T95 221T95 302H20V331ZM340 302H164Q164 288 164 253T165 178T165 101T166 50Q185 44 201 39T234 30T267 24T308 22Q388 22 443 49T532 118T581 214T596 320Q596 393 569 447T499 539T404 594T300 613Q268 613 235 607T173 588Q171 575 169 541T166 468T165 390T164 331H340V302Z"  />
<glyph unicode="&#xD1;" horiz-adv-x="771" d="M276 390Q270 395 249 415T204 457T161 496T140 515L134 216Q132 148 134 111T148 55T183 29T247 14Q247 8 247 5T245 -4Q240 -4 227 -4T198 -2Q183 -1 170 -1T150 0Q144 0 129 0T96 -2Q79 -3 63 -4T41 -6Q28 -6 28 6Q28 11 30 13T41 17Q59 19 70 24T88 45T96 93T99 178L102 411Q103 457 102 493T93 554T67 594T16 613V633Q51 630 69 630T101 629L143 630Q167 600 198 566T261 501T318 445T356 408L644 135Q647 181 647 227T648 320V414Q648 486 645 525T630 583T600 609T548 620L553 634Q558 635 564 635T577 635Q584 635 604 634T643 632Q661 631 673 631T690 631H752L753 615Q722 610 710 601T693 571Q690 555 687 527T683 463T680 389T678 314T677 245T677 192Q677 171 677 144T678 89T679 35T682 -12L662 -11Q650 16 623 49T564 115T504 176T459 219L276 390ZM522 795Q521 759 510 739T484 710T458 700T442 698Q421 698 405 705T359 731Q339 743 331 746T313 750Q298 750 284 738T270 698H250Q251 717 256 735T270 766T295 787T331 795Q351 795 366 787T404 765Q419 755 431 749T457 742Q473 742 487 754T502 795H522Z"  />
<glyph unicode="&#xD2;" horiz-adv-x="740" d="M41 315Q41 383 69 442T143 546T251 616T379 642Q438 642 495 619T599 554T673 451T701 317Q701 251 676 191T606 86T499 15T362 -12Q283 -12 223 19T123 98T62 204T41 315ZM114 352Q114 286 137 227T201 122T293 50T404 23Q443 23 482 37T554 83T607 162T627 278Q627 347 605 407T545 511T456 582T348 608Q303 608 261 591T186 541T134 461T114 352ZM461 679H438L297 853H365L461 679Z"  />
<glyph unicode="&#xD3;" horiz-adv-x="740" d="M41 315Q41 383 69 442T143 546T251 616T379 642Q438 642 495 619T599 554T673 451T701 317Q701 251 676 191T606 86T499 15T362 -12Q283 -12 223 19T123 98T62 204T41 315ZM114 352Q114 286 137 227T201 122T293 50T404 23Q443 23 482 37T554 83T607 162T627 278Q627 347 605 407T545 511T456 582T348 608Q303 608 261 591T186 541T134 461T114 352ZM393 853H461L320 679H297L393 853Z"  />
<glyph unicode="&#xD4;" horiz-adv-x="740" d="M41 315Q41 383 69 442T143 546T251 616T379 642Q438 642 495 619T599 554T673 451T701 317Q701 251 676 191T606 86T499 15T362 -12Q283 -12 223 19T123 98T62 204T41 315ZM114 352Q114 286 137 227T201 122T293 50T404 23Q443 23 482 37T554 83T607 162T627 278Q627 347 605 407T545 511T456 582T348 608Q303 608 261 591T186 541T134 461T114 352ZM393 853L490 679H467L372 784L275 679H252L349 853H393Z"  />
<glyph unicode="&#xD5;" horiz-adv-x="740" d="M41 315Q41 383 69 442T143 546T251 616T379 642Q438 642 495 619T599 554T673 451T701 317Q701 251 676 191T606 86T499 15T362 -12Q283 -12 223 19T123 98T62 204T41 315ZM114 352Q114 286 137 227T201 122T293 50T404 23Q443 23 482 37T554 83T607 162T627 278Q627 347 605 407T545 511T456 582T348 608Q303 608 261 591T186 541T134 461T114 352ZM507 795Q506 759 495 739T469 710T443 700T427 698Q406 698 390 705T344 731Q324 743 316 746T298 750Q283 750 269 738T255 698H235Q236 717 241 735T255 766T280 787T316 795Q336 795 351 787T389 765Q404 755 416 749T442 742Q458 742 472 754T487 795H507Z"  />
<glyph unicode="&#xD6;" horiz-adv-x="740" d="M41 315Q41 383 69 442T143 546T251 616T379 642Q438 642 495 619T599 554T673 451T701 317Q701 251 676 191T606 86T499 15T362 -12Q283 -12 223 19T123 98T62 204T41 315ZM114 352Q114 286 137 227T201 122T293 50T404 23Q443 23 482 37T554 83T607 162T627 278Q627 347 605 407T545 511T456 582T348 608Q303 608 261 591T186 541T134 461T114 352ZM411 740Q411 756 422 767T448 778Q464 778 475 767T486 740Q486 725 475 714T448 703Q433 703 422 713T411 740ZM256 740Q256 755 267 766T294 778Q311 778 321 767T331 740Q331 726 321 715T294 703Q278 703 267 714T256 740Z"  />
<glyph unicode="&#xD7;" horiz-adv-x="667" d="M80 500L112 533L334 311L556 533L588 500L366 278L586 58L553 26L334 246L113 26L80 58L301 278L80 500Z"  />
<glyph unicode="&#xD8;" horiz-adv-x="740" d="M686 647L707 626L616 537Q701 445 701 317Q701 250 676 191T606 86T499 15T363 -12Q317 -12 281 -2T218 21T174 50T146 74L57 -14L39 6L127 93Q99 126 82 159T56 221T44 276T41 317Q41 382 68 441T141 544T248 615T379 642Q416 642 449 634T509 614T557 586T595 557L686 647ZM547 509Q538 519 522 535T480 568T422 596T348 608Q301 608 259 590T184 539T133 459T114 354Q114 311 129 254T180 146L547 509ZM198 125Q241 76 294 50T404 23Q443 23 482 37T554 83T606 162T627 278Q627 323 614 378T565 486L198 125Z"  />
<glyph unicode="&#xD9;" horiz-adv-x="719" d="M23 626Q40 625 58 625T93 625Q124 625 142 625T175 625T208 626T256 629L261 613Q237 610 222 607T198 599T185 589T177 578Q171 568 168 537T164 470T162 400T162 349Q162 280 163 229T172 145Q178 116 193 96T227 62T267 41T308 29T343 24T367 23Q385 23 415 27T477 42T536 73T574 126Q583 153 588 193T597 276T600 360T601 433Q601 499 597 534T583 586T557 605T515 608L513 625Q524 627 539 627T562 628Q575 628 594 628T632 628T670 628T703 627V607Q679 606 666 603T647 591T640 564T638 514Q636 421 634 352T626 232T614 148T594 92Q575 57 541 37T469 7T396 -7T341 -10Q296 -10 252 0T172 34T115 97T93 194Q93 207 93 237T94 301T94 365T95 407Q95 463 93 511T82 587Q80 593 78 596T70 601T53 604T21 608L23 626ZM450 679H427L286 853H354L450 679Z"  />
<glyph unicode="&#xDA;" horiz-adv-x="719" d="M23 626Q40 625 58 625T93 625Q124 625 142 625T175 625T208 626T256 629L261 613Q237 610 222 607T198 599T185 589T177 578Q171 568 168 537T164 470T162 400T162 349Q162 280 163 229T172 145Q178 116 193 96T227 62T267 41T308 29T343 24T367 23Q385 23 415 27T477 42T536 73T574 126Q583 153 588 193T597 276T600 360T601 433Q601 499 597 534T583 586T557 605T515 608L513 625Q524 627 539 627T562 628Q575 628 594 628T632 628T670 628T703 627V607Q679 606 666 603T647 591T640 564T638 514Q636 421 634 352T626 232T614 148T594 92Q575 57 541 37T469 7T396 -7T341 -10Q296 -10 252 0T172 34T115 97T93 194Q93 207 93 237T94 301T94 365T95 407Q95 463 93 511T82 587Q80 593 78 596T70 601T53 604T21 608L23 626ZM413 853H481L340 679H317L413 853Z"  />
<glyph unicode="&#xDB;" horiz-adv-x="719" d="M23 626Q40 625 58 625T93 625Q124 625 142 625T175 625T208 626T256 629L261 613Q237 610 222 607T198 599T185 589T177 578Q171 568 168 537T164 470T162 400T162 349Q162 280 163 229T172 145Q178 116 193 96T227 62T267 41T308 29T343 24T367 23Q385 23 415 27T477 42T536 73T574 126Q583 153 588 193T597 276T600 360T601 433Q601 499 597 534T583 586T557 605T515 608L513 625Q524 627 539 627T562 628Q575 628 594 628T632 628T670 628T703 627V607Q679 606 666 603T647 591T640 564T638 514Q636 421 634 352T626 232T614 148T594 92Q575 57 541 37T469 7T396 -7T341 -10Q296 -10 252 0T172 34T115 97T93 194Q93 207 93 237T94 301T94 365T95 407Q95 463 93 511T82 587Q80 593 78 596T70 601T53 604T21 608L23 626ZM382 853L479 679H456L361 784L264 679H241L338 853H382Z"  />
<glyph unicode="&#xDC;" horiz-adv-x="719" d="M23 626Q40 625 58 625T93 625Q124 625 142 625T175 625T208 626T256 629L261 613Q237 610 222 607T198 599T185 589T177 578Q171 568 168 537T164 470T162 400T162 349Q162 280 163 229T172 145Q178 116 193 96T227 62T267 41T308 29T343 24T367 23Q385 23 415 27T477 42T536 73T574 126Q583 153 588 193T597 276T600 360T601 433Q601 499 597 534T583 586T557 605T515 608L513 625Q524 627 539 627T562 628Q575 628 594 628T632 628T670 628T703 627V607Q679 606 666 603T647 591T640 564T638 514Q636 421 634 352T626 232T614 148T594 92Q575 57 541 37T469 7T396 -7T341 -10Q296 -10 252 0T172 34T115 97T93 194Q93 207 93 237T94 301T94 365T95 407Q95 463 93 511T82 587Q80 593 78 596T70 601T53 604T21 608L23 626ZM400 740Q400 756 411 767T437 778Q453 778 464 767T475 740Q475 725 464 714T437 703Q422 703 411 713T400 740ZM245 740Q245 755 256 766T283 778Q300 778 310 767T320 740Q320 726 310 715T283 703Q267 703 256 714T245 740Z"  />
<glyph unicode="&#xDD;" horiz-adv-x="667" d="M449 444Q457 456 468 474T491 511T509 548T517 576Q517 589 510 595T492 605T470 608T451 608L453 627L494 625Q498 625 507 625T526 624T546 624T558 623Q563 623 576 623T605 624T634 624T654 625L653 605Q630 604 614 600T580 580T540 535T484 454Q458 413 432 373T379 293L381 115Q381 86 382 69T386 41T396 27T416 20Q430 17 445 13T468 7L467 -6Q453 -5 438 -4T406 -1Q376 2 347 2Q333 2 317 0T288 -3Q269 -4 254 -5T228 -6V8Q245 9 265 12T296 28Q301 32 304 38T309 63T311 120T312 228Q312 248 312 264T311 288L271 347Q258 366 244 385T217 422T192 455T171 481Q134 527 113 552T76 590T46 606T9 611L6 627H54Q58 627 68 627T89 626T111 626T126 625Q147 625 170 626T218 627H241L239 608Q211 606 196 603T180 589Q180 583 192 563T223 516T265 459T308 401T345 353T368 325Q371 329 374 333T381 343T393 360T412 388L449 444ZM387 853H455L314 679H291L387 853Z"  />
<glyph unicode="&#xDE;" horiz-adv-x="531" d="M102 279Q102 291 102 315T101 370T99 438T96 510Q95 538 94 557T85 588T64 605T24 611Q22 620 24 629Q30 629 44 629T74 628T105 628T126 627Q147 627 176 627T241 630Q243 620 241 611Q219 609 206 606T185 595T174 570T169 523Q180 524 193 525T227 526Q299 526 351 506T436 456T486 389T502 319Q502 298 492 265T452 199T367 144T222 121Q202 121 190 122T168 124Q169 86 171 65T182 34T209 20T261 15V-4Q239 -2 224 -1T195 1Q182 2 171 2T146 2Q141 2 128 2T98 -1Q82 -2 68 -3T48 -4H34V10Q71 20 83 27T97 47Q98 49 98 63T100 99T101 148T102 205V279ZM424 314Q424 321 423 337T415 374T396 417T363 458T311 489T236 501Q210 501 195 498T168 490Q167 472 167 452T166 410T165 367T165 327Q165 325 165 307T165 262T166 207T168 157Q180 154 200 151T246 147Q291 147 324 160T380 197T413 250T424 314Z"  />
<glyph unicode="&#xDF;" horiz-adv-x="490" d="M214 374Q250 374 279 380T327 401T357 443T368 508Q368 545 359 571T335 615T301 641T263 649Q234 649 217 637T189 607T174 567T166 523Q163 494 161 451T158 362T157 270T157 194Q157 184 157 160T157 108T158 59T161 32Q162 29 170 26T188 21T207 16T220 13V-3Q216 -3 210 -3T196 -2T184 -1T177 -1L20 0V13Q21 13 24 13T30 15Q48 18 59 20T76 25T85 32T90 43Q93 54 95 73T98 113T99 154T99 188Q99 240 98 268T95 310T90 327T81 331Q78 332 70 333T53 334T36 336T24 338L28 358Q37 360 50 360T85 361Q95 361 97 364T100 377Q100 428 107 481T133 576T186 646T275 673Q313 673 342 660T392 626T422 576T432 519Q432 500 427 477T407 432T366 393T300 366V364Q318 359 343 350T392 320T431 266T447 178Q447 125 432 89T393 31T344 -1T296 -11Q282 -11 268 -6T254 19Q254 30 259 39T278 48Q282 48 291 45T311 37T331 30T345 26Q354 26 362 35T377 58T387 91T391 128Q391 140 389 160T380 204T361 252T327 299Q298 330 270 339T215 353L214 374Z"  />
<glyph unicode="&#xE0;" horiz-adv-x="375" d="M60 262Q58 268 57 274T56 285Q56 306 76 323T123 352T174 372T209 379Q216 379 225 375T244 366T260 354T273 344Q278 339 283 333T292 315T300 286T303 242Q303 225 303 210T301 177L299 140Q297 120 297 114T297 98Q297 95 297 85T300 63T308 42T324 32Q339 32 353 37T375 46V26L303 -3Q287 -10 279 -10Q267 -10 256 6T239 40Q231 35 216 27T181 11T140 -4T100 -10Q77 -10 65 -2T48 18T41 41T40 59Q40 95 48 110T74 134Q96 145 120 152T166 165T208 172T238 177L240 237Q242 273 237 287T221 314Q207 328 191 335T161 343Q149 343 132 335T115 310Q115 302 120 289L60 262ZM96 84Q96 75 98 64T106 44T120 29T141 23Q159 23 185 34T236 58Q235 67 235 80T236 106T238 132T239 150Q206 152 180 148T135 134T106 111T96 84ZM278 434H255L114 608H182L278 434Z"  />
<glyph unicode="&#xE1;" horiz-adv-x="375" d="M60 262Q58 268 57 274T56 285Q56 306 76 323T123 352T174 372T209 379Q216 379 225 375T244 366T260 354T273 344Q278 339 283 333T292 315T300 286T303 242Q303 225 303 210T301 177L299 140Q297 120 297 114T297 98Q297 95 297 85T300 63T308 42T324 32Q339 32 353 37T375 46V26L303 -3Q287 -10 279 -10Q267 -10 256 6T239 40Q231 35 216 27T181 11T140 -4T100 -10Q77 -10 65 -2T48 18T41 41T40 59Q40 95 48 110T74 134Q96 145 120 152T166 165T208 172T238 177L240 237Q242 273 237 287T221 314Q207 328 191 335T161 343Q149 343 132 335T115 310Q115 302 120 289L60 262ZM96 84Q96 75 98 64T106 44T120 29T141 23Q159 23 185 34T236 58Q235 67 235 80T236 106T238 132T239 150Q206 152 180 148T135 134T106 111T96 84ZM210 608H278L137 434H114L210 608Z"  />
<glyph unicode="&#xE2;" horiz-adv-x="375" d="M60 262Q58 268 57 274T56 285Q56 306 76 323T123 352T174 372T209 379Q216 379 225 375T244 366T260 354T273 344Q278 339 283 333T292 315T300 286T303 242Q303 225 303 210T301 177L299 140Q297 120 297 114T297 98Q297 95 297 85T300 63T308 42T324 32Q339 32 353 37T375 46V26L303 -3Q287 -10 279 -10Q267 -10 256 6T239 40Q231 35 216 27T181 11T140 -4T100 -10Q77 -10 65 -2T48 18T41 41T40 59Q40 95 48 110T74 134Q96 145 120 152T166 165T208 172T238 177L240 237Q242 273 237 287T221 314Q207 328 191 335T161 343Q149 343 132 335T115 310Q115 302 120 289L60 262ZM96 84Q96 75 98 64T106 44T120 29T141 23Q159 23 185 34T236 58Q235 67 235 80T236 106T238 132T239 150Q206 152 180 148T135 134T106 111T96 84ZM210 608L307 434H284L189 539L92 434H69L166 608H210Z"  />
<glyph unicode="&#xE3;" horiz-adv-x="375" d="M60 262Q58 268 57 274T56 285Q56 306 76 323T123 352T174 372T209 379Q216 379 225 375T244 366T260 354T273 344Q278 339 283 333T292 315T300 286T303 242Q303 225 303 210T301 177L299 140Q297 120 297 114T297 98Q297 95 297 85T300 63T308 42T324 32Q339 32 353 37T375 46V26L303 -3Q287 -10 279 -10Q267 -10 256 6T239 40Q231 35 216 27T181 11T140 -4T100 -10Q77 -10 65 -2T48 18T41 41T40 59Q40 95 48 110T74 134Q96 145 120 152T166 165T208 172T238 177L240 237Q242 273 237 287T221 314Q207 328 191 335T161 343Q149 343 132 335T115 310Q115 302 120 289L60 262ZM96 84Q96 75 98 64T106 44T120 29T141 23Q159 23 185 34T236 58Q235 67 235 80T236 106T238 132T239 150Q206 152 180 148T135 134T106 111T96 84ZM324 550Q323 514 312 494T286 465T260 455T244 453Q223 453 207 460T161 486Q141 498 133 501T115 505Q100 505 86 493T72 453H52Q53 472 58 490T72 521T97 542T133 550Q153 550 168 542T206 520Q221 510 233 504T259 497Q275 497 289 509T304 550H324Z"  />
<glyph unicode="&#xE4;" horiz-adv-x="375" d="M60 262Q58 268 57 274T56 285Q56 306 76 323T123 352T174 372T209 379Q216 379 225 375T244 366T260 354T273 344Q278 339 283 333T292 315T300 286T303 242Q303 225 303 210T301 177L299 140Q297 120 297 114T297 98Q297 95 297 85T300 63T308 42T324 32Q339 32 353 37T375 46V26L303 -3Q287 -10 279 -10Q267 -10 256 6T239 40Q231 35 216 27T181 11T140 -4T100 -10Q77 -10 65 -2T48 18T41 41T40 59Q40 95 48 110T74 134Q96 145 120 152T166 165T208 172T238 177L240 237Q242 273 237 287T221 314Q207 328 191 335T161 343Q149 343 132 335T115 310Q115 302 120 289L60 262ZM96 84Q96 75 98 64T106 44T120 29T141 23Q159 23 185 34T236 58Q235 67 235 80T236 106T238 132T239 150Q206 152 180 148T135 134T106 111T96 84ZM228 495Q228 511 239 522T265 533Q281 533 292 522T303 495Q303 480 292 469T265 458Q250 458 239 468T228 495ZM73 495Q73 510 84 521T111 533Q128 533 138 522T148 495Q148 481 138 470T111 458Q95 458 84 469T73 495Z"  />
<glyph unicode="&#xE5;" horiz-adv-x="375" d="M60 262Q58 268 57 274T56 285Q56 306 76 323T123 352T174 372T209 379Q216 379 225 375T244 366T260 354T273 344Q278 339 283 333T292 315T300 286T303 242Q303 225 303 210T301 177L299 140Q297 120 297 114T297 98Q297 95 297 85T300 63T308 42T324 32Q339 32 353 37T375 46V26L303 -3Q287 -10 279 -10Q267 -10 256 6T239 40Q231 35 216 27T181 11T140 -4T100 -10Q77 -10 65 -2T48 18T41 41T40 59Q40 95 48 110T74 134Q96 145 120 152T166 165T208 172T238 177L240 237Q242 273 237 287T221 314Q207 328 191 335T161 343Q149 343 132 335T115 310Q115 302 120 289L60 262ZM96 84Q96 75 98 64T106 44T120 29T141 23Q159 23 185 34T236 58Q235 67 235 80T236 106T238 132T239 150Q206 152 180 148T135 134T106 111T96 84ZM110 523Q110 539 116 553T132 577T157 594T188 600Q221 600 243 577T266 523Q266 492 244 469T188 445Q156 445 133 468T110 523ZM135 523Q135 500 150 485T188 470Q210 470 225 485T241 523Q241 544 226 560T188 576Q165 576 150 561T135 523Z"  />
<glyph unicode="&#xE6;" horiz-adv-x="552" d="M64 259Q62 266 60 273T57 287Q57 300 72 315T111 343T160 365T207 374Q220 374 232 368T253 354T271 337T284 321Q304 340 318 350T343 366T362 373T380 375Q425 375 463 347T517 267Q519 260 521 257T535 250V235Q518 233 487 228T420 215T350 200T292 185Q292 136 308 106T347 60T391 38T423 32Q437 32 453 39T485 55Q502 66 506 68T513 71Q518 71 520 67T522 61Q522 56 509 45T474 23T425 3T369 -6Q347 -6 330 0T298 17T274 39T258 62Q229 45 207 33T167 14T131 2T96 -2Q63 -2 49 16T35 64Q35 79 39 96T51 130Q80 143 122 158T233 184V225Q233 249 231 263T227 287T221 300T215 308Q204 321 189 328T160 336Q146 336 138 333T125 326T120 316T119 305Q119 299 120 294T123 283L64 259ZM449 243Q454 244 458 246T462 254Q462 260 456 275T438 305T406 333T360 345Q347 345 335 337T313 311T298 269T292 209L449 243ZM249 80Q247 86 245 92T242 105T239 124T236 152Q228 153 221 153T207 153Q147 153 121 133T94 83Q94 78 95 70T101 53T113 39T134 32Q145 32 159 35T198 52L249 80Z"  />
<glyph unicode="&#xE7;" horiz-adv-x="375" d="M194 -37Q223 -47 243 -65T264 -114Q264 -138 251 -157T214 -190T159 -211T90 -216V-196Q135 -195 160 -187T196 -168T210 -147T213 -132Q213 -103 190 -93T136 -80Q139 -76 145 -67T159 -46T174 -24T185 -5Q153 2 123 16T75 51Q59 69 51 102T43 164Q43 213 63 253T114 321T179 365T245 381Q255 381 274 378T312 368T345 355T359 341Q359 339 355 332T346 316T334 302T323 295Q318 295 305 302T288 312Q283 314 273 318T251 325T226 331T200 334Q169 334 150 322T120 292T105 250T101 205Q101 156 117 123T158 68T209 38T256 28Q286 28 311 40T350 60L357 46Q330 23 295 8T210 -8L194 -37Z"  />
<glyph unicode="&#xE8;" horiz-adv-x="365" d="M101 201Q102 180 103 164T109 133T119 106T136 79Q150 61 164 51T190 37T212 31T227 30Q247 30 272 37T329 68L338 56Q327 48 312 38T277 18T235 2T187 -5Q149 -5 122 10T76 51T48 107T39 169Q39 227 59 266T105 329T157 363T192 373Q205 373 222 370T258 357T293 330T322 284Q324 279 328 276T344 272L345 254L101 201ZM166 234Q167 235 175 237T194 241T215 246T230 249Q256 255 262 257T269 265Q269 269 263 281T245 307T215 331T173 342Q152 342 139 329T118 296T107 255T102 220L166 234ZM273 434H250L109 608H177L273 434Z"  />
<glyph unicode="&#xE9;" horiz-adv-x="365" d="M101 201Q102 180 103 164T109 133T119 106T136 79Q150 61 164 51T190 37T212 31T227 30Q247 30 272 37T329 68L338 56Q327 48 312 38T277 18T235 2T187 -5Q149 -5 122 10T76 51T48 107T39 169Q39 227 59 266T105 329T157 363T192 373Q205 373 222 370T258 357T293 330T322 284Q324 279 328 276T344 272L345 254L101 201ZM166 234Q167 235 175 237T194 241T215 246T230 249Q256 255 262 257T269 265Q269 269 263 281T245 307T215 331T173 342Q152 342 139 329T118 296T107 255T102 220L166 234ZM236 608H304L163 434H140L236 608Z"  />
<glyph unicode="&#xEA;" horiz-adv-x="365" d="M101 201Q102 180 103 164T109 133T119 106T136 79Q150 61 164 51T190 37T212 31T227 30Q247 30 272 37T329 68L338 56Q327 48 312 38T277 18T235 2T187 -5Q149 -5 122 10T76 51T48 107T39 169Q39 227 59 266T105 329T157 363T192 373Q205 373 222 370T258 357T293 330T322 284Q324 279 328 276T344 272L345 254L101 201ZM166 234Q167 235 175 237T194 241T215 246T230 249Q256 255 262 257T269 265Q269 269 263 281T245 307T215 331T173 342Q152 342 139 329T118 296T107 255T102 220L166 234ZM205 608L302 434H279L184 539L87 434H64L161 608H205Z"  />
<glyph unicode="&#xEB;" horiz-adv-x="365" d="M101 201Q102 180 103 164T109 133T119 106T136 79Q150 61 164 51T190 37T212 31T227 30Q247 30 272 37T329 68L338 56Q327 48 312 38T277 18T235 2T187 -5Q149 -5 122 10T76 51T48 107T39 169Q39 227 59 266T105 329T157 363T192 373Q205 373 222 370T258 357T293 330T322 284Q324 279 328 276T344 272L345 254L101 201ZM166 234Q167 235 175 237T194 241T215 246T230 249Q256 255 262 257T269 265Q269 269 263 281T245 307T215 331T173 342Q152 342 139 329T118 296T107 255T102 220L166 234ZM223 495Q223 511 234 522T260 533Q276 533 287 522T298 495Q298 480 287 469T260 458Q245 458 234 468T223 495ZM68 495Q68 510 79 521T106 533Q123 533 133 522T143 495Q143 481 133 470T106 458Q90 458 79 469T68 495Z"  />
<glyph unicode="&#xEC;" horiz-adv-x="240" d="M34 13Q49 15 63 17T81 28Q83 32 85 53T88 100T89 149T90 182Q90 217 90 238T88 271T84 289T79 298Q77 300 70 301T54 302T39 304T32 309Q32 314 35 316T41 319Q70 328 100 345T155 383Q158 383 164 381Q160 364 157 336T152 277T149 215T148 166Q148 158 148 140T149 102T151 63T156 35Q159 26 165 24T189 20Q208 19 213 19T223 17L229 3L32 -2L34 13ZM212 434H189L48 608H116L212 434Z"  />
<glyph unicode="&#xED;" horiz-adv-x="240" d="M34 13Q49 15 63 17T81 28Q83 32 85 53T88 100T89 149T90 182Q90 217 90 238T88 271T84 289T79 298Q77 300 70 301T54 302T39 304T32 309Q32 314 35 316T41 319Q70 328 100 345T155 383Q158 383 164 381Q160 364 157 336T152 277T149 215T148 166Q148 158 148 140T149 102T151 63T156 35Q159 26 165 24T189 20Q208 19 213 19T223 17L229 3L32 -2L34 13ZM144 608H212L71 434H48L144 608Z"  />
<glyph unicode="&#xEE;" horiz-adv-x="240" d="M34 13Q49 15 63 17T81 28Q83 32 85 53T88 100T89 149T90 182Q90 217 90 238T88 271T84 289T79 298Q77 300 70 301T54 302T39 304T32 309Q32 314 35 316T41 319Q70 328 100 345T155 383Q158 383 164 381Q160 364 157 336T152 277T149 215T148 166Q148 158 148 140T149 102T151 63T156 35Q159 26 165 24T189 20Q208 19 213 19T223 17L229 3L32 -2L34 13ZM144 608L241 434H218L123 539L26 434H3L100 608H144Z"  />
<glyph unicode="&#xEF;" horiz-adv-x="240" d="M34 13Q49 15 63 17T81 28Q83 32 85 53T88 100T89 149T90 182Q90 217 90 238T88 271T84 289T79 298Q77 300 70 301T54 302T39 304T32 309Q32 314 35 316T41 319Q70 328 100 345T155 383Q158 383 164 381Q160 364 157 336T152 277T149 215T148 166Q148 158 148 140T149 102T151 63T156 35Q159 26 165 24T189 20Q208 19 213 19T223 17L229 3L32 -2L34 13ZM162 495Q162 511 173 522T199 533Q215 533 226 522T237 495Q237 480 226 469T199 458Q184 458 173 468T162 495ZM7 495Q7 510 18 521T45 533Q62 533 72 522T82 495Q82 481 72 470T45 458Q29 458 18 469T7 495Z"  />
<glyph unicode="&#xF0;" horiz-adv-x="510" d="M123 214Q123 178 133 143T162 79T206 34T264 16Q291 16 313 28T352 62T376 110T385 168Q385 199 375 232T345 291T299 335T238 352Q213 352 192 342T156 312T132 268T123 214ZM289 577Q331 537 362 490T413 395T442 300T452 214Q452 151 434 109T386 42T322 5T255 -6Q220 -6 185 6T122 42T77 100T59 180Q59 232 78 269T125 329T187 363T247 374Q282 374 310 362T363 326L365 328Q356 375 330 437T255 557L126 481L114 503L237 576Q213 602 184 624T118 661L140 675Q177 660 209 640T269 595L405 675L417 653L289 577Z"  />
<glyph unicode="&#xF1;" horiz-adv-x="469" d="M142 161Q142 132 142 115T141 87T142 69T144 51Q145 44 146 39T154 29T172 21T208 15L207 0Q200 1 191 1T170 2Q159 3 148 3T125 3H18L17 19Q38 23 49 27T66 36T74 46T77 60Q79 74 80 95T82 137T83 176T84 205Q84 245 83 266T75 298T55 312T20 317Q20 323 19 326Q32 329 48 335T78 348T102 359T112 364Q113 365 122 369T134 374Q142 374 143 357T145 313Q193 340 230 354T300 369Q338 369 358 356T388 322T399 273T401 219V103Q401 92 401 80T401 57T403 38T407 28Q409 26 416 24T432 19T447 16T457 13L458 -2Q449 0 431 1T373 3Q342 3 316 2T275 -2V12Q301 17 313 24T330 40Q334 49 336 70T340 116T342 160T343 189Q343 213 342 237T334 282T311 314T267 327Q265 327 256 327T230 323T192 312T145 292L142 161ZM371 550Q370 514 359 494T333 465T307 455T291 453Q270 453 254 460T208 486Q188 498 180 501T162 505Q147 505 133 493T119 453H99Q100 472 105 490T119 521T144 542T180 550Q200 550 215 542T253 520Q268 510 280 504T306 497Q322 497 336 509T351 550H371Z"  />
<glyph unicode="&#xF2;" horiz-adv-x="469" d="M38 183Q38 226 54 261T98 322T163 360T242 374Q280 374 314 360T375 321T416 262T431 189Q431 151 418 116T379 54T318 11T237 -5Q208 -5 173 4T108 36T58 94T38 183ZM102 211Q102 177 112 143T141 81T185 36T242 18Q267 18 289 28T328 59T355 106T365 169Q365 202 354 235T324 293T277 335T218 351Q193 351 172 341T135 312T111 267T102 211ZM325 434H302L161 608H229L325 434Z"  />
<glyph unicode="&#xF3;" horiz-adv-x="469" d="M38 183Q38 226 54 261T98 322T163 360T242 374Q280 374 314 360T375 321T416 262T431 189Q431 151 418 116T379 54T318 11T237 -5Q208 -5 173 4T108 36T58 94T38 183ZM102 211Q102 177 112 143T141 81T185 36T242 18Q267 18 289 28T328 59T355 106T365 169Q365 202 354 235T324 293T277 335T218 351Q193 351 172 341T135 312T111 267T102 211ZM257 608H325L184 434H161L257 608Z"  />
<glyph unicode="&#xF4;" horiz-adv-x="469" d="M38 183Q38 226 54 261T98 322T163 360T242 374Q280 374 314 360T375 321T416 262T431 189Q431 151 418 116T379 54T318 11T237 -5Q208 -5 173 4T108 36T58 94T38 183ZM102 211Q102 177 112 143T141 81T185 36T242 18Q267 18 289 28T328 59T355 106T365 169Q365 202 354 235T324 293T277 335T218 351Q193 351 172 341T135 312T111 267T102 211ZM257 608L354 434H331L236 539L139 434H116L213 608H257Z"  />
<glyph unicode="&#xF5;" horiz-adv-x="469" d="M38 183Q38 226 54 261T98 322T163 360T242 374Q280 374 314 360T375 321T416 262T431 189Q431 151 418 116T379 54T318 11T237 -5Q208 -5 173 4T108 36T58 94T38 183ZM102 211Q102 177 112 143T141 81T185 36T242 18Q267 18 289 28T328 59T355 106T365 169Q365 202 354 235T324 293T277 335T218 351Q193 351 172 341T135 312T111 267T102 211ZM371 550Q370 514 359 494T333 465T307 455T291 453Q270 453 254 460T208 486Q188 498 180 501T162 505Q147 505 133 493T119 453H99Q100 472 105 490T119 521T144 542T180 550Q200 550 215 542T253 520Q268 510 280 504T306 497Q322 497 336 509T351 550H371Z"  />
<glyph unicode="&#xF6;" horiz-adv-x="469" d="M38 183Q38 226 54 261T98 322T163 360T242 374Q280 374 314 360T375 321T416 262T431 189Q431 151 418 116T379 54T318 11T237 -5Q208 -5 173 4T108 36T58 94T38 183ZM102 211Q102 177 112 143T141 81T185 36T242 18Q267 18 289 28T328 59T355 106T365 169Q365 202 354 235T324 293T277 335T218 351Q193 351 172 341T135 312T111 267T102 211ZM275 495Q275 511 286 522T312 533Q328 533 339 522T350 495Q350 480 339 469T312 458Q297 458 286 468T275 495ZM120 495Q120 510 131 521T158 533Q175 533 185 522T195 495Q195 481 185 470T158 458Q142 458 131 469T120 495Z"  />
<glyph unicode="&#xF7;" horiz-adv-x="667" d="M300 66Q300 80 310 88T333 96Q346 96 355 87T365 64Q365 51 356 41T333 31Q319 31 310 41T300 66ZM300 496Q300 510 310 518T333 526Q346 526 355 517T365 494Q365 481 356 471T333 461Q319 461 310 471T300 496ZM54 301H614V256H54V301Z"  />
<glyph unicode="&#xF8;" horiz-adv-x="469" d="M414 375L429 360L382 314Q402 293 416 262T431 189Q431 151 418 116T379 54T317 11T237 -5Q211 -5 176 3T102 41L53 -8L39 7L87 55Q61 81 50 112T38 182Q38 226 54 261T99 322T164 360T242 374Q249 374 262 373T291 368T327 355T366 329L414 375ZM326 289Q321 296 312 306T289 326T258 343T218 350Q193 350 172 340T135 311T111 266T102 210Q102 200 103 187T108 158T116 126T130 97L326 289ZM141 79Q159 53 184 35T242 17Q267 17 289 28T328 58T355 105T365 167Q365 187 359 216T338 271L141 79Z"  />
<glyph unicode="&#xF9;" horiz-adv-x="458" d="M10 316L118 376Q124 379 125 379T128 380Q135 380 135 371L129 287Q128 275 127 259T125 225T124 192T123 164Q123 146 124 124T133 83T158 50T206 36Q234 36 262 49T322 77Q322 79 322 85T322 99T322 114T323 125L326 225Q327 258 325 276T317 304T298 316T265 320L264 338L394 368Q393 348 391 315T387 248T384 182T382 132Q382 90 384 69T391 32Q407 33 419 36T446 44V22Q434 19 419 14T389 4T359 -5T334 -14Q327 7 325 22T321 55Q302 46 280 35T236 15T192 0T155 -6Q147 -6 131 -2T100 16T73 60T64 139L68 249Q69 271 67 290T47 309Q40 309 33 306T10 296V316ZM320 434H297L156 608H224L320 434Z"  />
<glyph unicode="&#xFA;" horiz-adv-x="458" d="M10 316L118 376Q124 379 125 379T128 380Q135 380 135 371L129 287Q128 275 127 259T125 225T124 192T123 164Q123 146 124 124T133 83T158 50T206 36Q234 36 262 49T322 77Q322 79 322 85T322 99T322 114T323 125L326 225Q327 258 325 276T317 304T298 316T265 320L264 338L394 368Q393 348 391 315T387 248T384 182T382 132Q382 90 384 69T391 32Q407 33 419 36T446 44V22Q434 19 419 14T389 4T359 -5T334 -14Q327 7 325 22T321 55Q302 46 280 35T236 15T192 0T155 -6Q147 -6 131 -2T100 16T73 60T64 139L68 249Q69 271 67 290T47 309Q40 309 33 306T10 296V316ZM283 608H351L210 434H187L283 608Z"  />
<glyph unicode="&#xFB;" horiz-adv-x="458" d="M10 316L118 376Q124 379 125 379T128 380Q135 380 135 371L129 287Q128 275 127 259T125 225T124 192T123 164Q123 146 124 124T133 83T158 50T206 36Q234 36 262 49T322 77Q322 79 322 85T322 99T322 114T323 125L326 225Q327 258 325 276T317 304T298 316T265 320L264 338L394 368Q393 348 391 315T387 248T384 182T382 132Q382 90 384 69T391 32Q407 33 419 36T446 44V22Q434 19 419 14T389 4T359 -5T334 -14Q327 7 325 22T321 55Q302 46 280 35T236 15T192 0T155 -6Q147 -6 131 -2T100 16T73 60T64 139L68 249Q69 271 67 290T47 309Q40 309 33 306T10 296V316ZM252 608L349 434H326L231 539L134 434H111L208 608H252Z"  />
<glyph unicode="&#xFC;" horiz-adv-x="458" d="M10 316L118 376Q124 379 125 379T128 380Q135 380 135 371L129 287Q128 275 127 259T125 225T124 192T123 164Q123 146 124 124T133 83T158 50T206 36Q234 36 262 49T322 77Q322 79 322 85T322 99T322 114T323 125L326 225Q327 258 325 276T317 304T298 316T265 320L264 338L394 368Q393 348 391 315T387 248T384 182T382 132Q382 90 384 69T391 32Q407 33 419 36T446 44V22Q434 19 419 14T389 4T359 -5T334 -14Q327 7 325 22T321 55Q302 46 280 35T236 15T192 0T155 -6Q147 -6 131 -2T100 16T73 60T64 139L68 249Q69 271 67 290T47 309Q40 309 33 306T10 296V316ZM270 495Q270 511 281 522T307 533Q323 533 334 522T345 495Q345 480 334 469T307 458Q292 458 281 468T270 495ZM115 495Q115 510 126 521T153 533Q170 533 180 522T190 495Q190 481 180 470T153 458Q137 458 126 469T115 495Z"  />
<glyph unicode="&#xFD;" horiz-adv-x="406" d="M7 -261Q31 -255 47 -246T77 -220T104 -178T133 -116L171 -31Q160 9 149 51T125 135T100 215T74 285Q66 305 59 316T44 333T28 341T11 345V360Q20 359 30 359T49 357H78Q128 357 178 363L177 345Q162 342 151 338T139 316Q139 305 144 280T158 219T181 142T210 57L242 115Q282 187 301 236T321 305Q321 324 303 333T253 347L260 363Q278 361 293 360T323 358Q336 357 345 357T361 357Q381 358 391 358T409 360L408 344Q387 340 373 321T345 275Q332 247 319 219T293 167T271 123T255 92Q215 14 192 -38T153 -129T130 -203T111 -278H7V-261ZM257 608H325L184 434H161L257 608Z"  />
<glyph unicode="&#xFE;" horiz-adv-x="479" d="M145 -186Q145 -209 146 -221T151 -240T161 -249T179 -252L225 -255Q225 -260 225 -263T224 -272H206Q177 -272 158 -272T122 -273T85 -275T31 -279Q31 -274 31 -272T30 -264Q43 -263 51 -261T64 -256T71 -249T76 -240Q80 -228 83 -199T87 -135T88 -69T89 -19L90 42Q90 61 90 105T91 204T91 321T89 435T85 526T79 575Q75 586 66 590T43 594Q35 594 31 594T21 592L20 607Q22 607 27 609T34 613Q65 626 85 636T118 652T138 664T152 673H167Q158 642 154 595T148 498T146 402T147 326L189 343Q194 345 206 349T232 358T261 366T287 370Q315 370 343 356T394 319T430 263T444 195Q444 154 431 124T396 71T348 35T297 13T251 1T219 -2Q210 -2 192 1T147 12Q146 -19 146 -38T145 -68T145 -86T145 -97V-186ZM145 59L190 44Q218 34 234 31T261 27Q276 27 298 33T340 53T374 92T389 152Q389 194 374 227T337 285T290 322T244 335Q238 335 232 334T215 330T188 321T146 306L145 59Z"  />
<glyph unicode="&#xFF;" horiz-adv-x="406" d="M7 -261Q31 -255 47 -246T77 -220T104 -178T133 -116L171 -31Q160 9 149 51T125 135T100 215T74 285Q66 305 59 316T44 333T28 341T11 345V360Q20 359 30 359T49 357H78Q128 357 178 363L177 345Q162 342 151 338T139 316Q139 305 144 280T158 219T181 142T210 57L242 115Q282 187 301 236T321 305Q321 324 303 333T253 347L260 363Q278 361 293 360T323 358Q336 357 345 357T361 357Q381 358 391 358T409 360L408 344Q387 340 373 321T345 275Q332 247 319 219T293 167T271 123T255 92Q215 14 192 -38T153 -129T130 -203T111 -278H7V-261ZM244 495Q244 511 255 522T281 533Q297 533 308 522T319 495Q319 480 308 469T281 458Q266 458 255 468T244 495ZM89 495Q89 510 100 521T127 533Q144 533 154 522T164 495Q164 481 154 470T127 458Q111 458 100 469T89 495Z"  />
<glyph unicode="&#x131;" horiz-adv-x="240" d="M34 13Q49 15 63 17T81 28Q83 32 85 53T88 100T89 149T90 182Q90 217 90 238T88 271T84 289T79 298Q77 300 70 301T54 302T39 304T32 309Q32 314 35 316T41 319Q70 328 100 345T155 383Q158 383 164 381Q160 364 157 336T152 277T149 215T148 166Q148 158 148 140T149 102T151 63T156 35Q159 26 165 24T189 20Q208 19 213 19T223 17L229 3L32 -2L34 13Z"  />
<glyph unicode="&#x152;" horiz-adv-x="979" d="M870 216H853Q853 249 848 267T823 295T764 306T657 308Q646 308 640 308T626 308T610 307T586 305Q585 297 585 284T584 255T583 226T583 203Q583 192 583 172T584 129T587 81T592 37Q607 32 624 30T657 26T685 25T704 24Q761 24 800 27T867 43T913 80T946 144L961 145Q959 119 950 79T919 -3Q911 -3 891 -3T849 -2T806 -2T777 -1H532Q512 -1 483 -1T398 -7Q377 -9 360 -10T328 -11Q272 -11 218 13T120 80T51 183T24 314Q24 380 50 438T123 541T232 611T369 637Q380 637 391 637T413 635Q435 634 451 634T485 633T527 632T591 631L752 632Q792 632 816 632T856 633T886 633T919 634Q922 631 923 629Q923 626 923 621T921 609T920 597T919 589Q917 554 913 537T900 506L884 512Q886 520 888 528T890 548Q890 569 878 580T844 598T795 605T736 607Q722 607 703 607T664 605T625 603T594 598Q591 575 590 548T587 493T586 437T585 385V336Q593 335 608 335T637 334Q679 334 709 334T761 334T798 336T824 340Q830 341 835 348T844 364T850 382T855 400H870V216ZM514 406Q514 453 513 483T510 533T505 563T495 579Q488 586 473 592T437 602T396 608T356 610Q310 610 264 596T181 550T121 468T98 345Q98 274 122 215T186 113T276 46T377 22Q419 22 453 30T500 43Q503 62 505 84T510 137T513 211T514 314V406Z"  />
<glyph unicode="&#x153;" horiz-adv-x="688" d="M667 234Q635 229 602 223T539 210T484 199T442 190Q440 190 435 189T429 187Q430 165 431 147T436 114T448 86T472 61Q494 44 519 37T558 30Q575 30 590 37T628 58Q631 60 639 64T649 68Q652 68 655 66T659 60Q659 54 645 43T608 20T560 0T511 -8Q480 -8 458 1T421 22T397 48T384 68Q369 47 349 33T309 10T269 -2T233 -6Q199 -6 164 6T101 43T56 103T38 185Q38 231 55 267T100 327T164 364T239 377Q284 377 324 358T397 296Q409 314 426 328T460 353T493 369T517 375Q545 375 565 366T601 342T629 307T652 265Q656 257 658 255T668 250L667 234ZM580 241Q585 242 589 244T593 254Q593 266 585 281T564 311T534 336T499 346Q473 346 459 330T439 291T430 245T428 208L580 241ZM101 220Q101 193 109 159T134 93T178 41T244 19Q266 19 287 29T326 58T353 106T363 173Q363 203 354 235T327 292T281 334T218 351Q196 351 175 343T138 318T111 277T101 220Z"  />
<glyph unicode="&#x160;" horiz-adv-x="469" d="M410 488Q407 529 388 554T343 592T290 610T243 615Q195 615 168 599T129 561T113 520T110 493Q110 461 122 439T155 402T203 375T260 351Q289 340 322 326T383 289T429 235T448 158Q448 124 435 94T394 42T327 6T231 -8Q222 -8 183 -6T88 12Q74 15 72 15Q62 15 62 9T62 -2L42 -1Q43 41 34 85T15 162Q20 164 23 164T31 166Q38 143 43 127T56 99T72 79T95 62Q105 56 122 49T160 35T206 24T258 19Q265 19 285 20T328 32T366 65T383 130Q383 166 371 190T337 232T287 262T225 287Q187 301 155 316T100 352T63 399T49 463Q49 497 62 528T101 583T166 621T258 635Q272 635 296 634T359 624Q374 621 378 621T384 620Q394 620 401 623T417 632Q421 632 427 630Q425 614 422 593T420 553Q421 540 423 519T425 489L410 488ZM223 679L126 853H149L245 747L341 853H364L267 679H223Z"  />
<glyph unicode="&#x161;" horiz-adv-x="323" d="M44 109Q44 103 52 89T76 61T112 35T161 24Q166 24 177 25T200 31T221 46T230 76Q230 96 221 111T199 137T173 155T152 167L115 184Q104 190 92 197T69 214T52 236T45 266Q45 282 54 300T79 334T120 360T177 370Q190 370 207 369T255 363L271 280H254Q251 293 240 305T215 327T187 343T160 349Q134 349 118 334T102 292Q102 271 115 259T158 232L188 218Q200 212 217 203T249 180T275 147T286 102Q286 88 280 68T258 38Q214 10 187 4T137 -3Q108 -3 83 3T35 17Q37 25 38 31T39 45Q39 56 35 77T27 110L44 109ZM151 434L54 608H77L173 502L269 608H292L195 434H151Z"  />
<glyph unicode="&#x178;" horiz-adv-x="667" d="M449 444Q457 456 468 474T491 511T509 548T517 576Q517 589 510 595T492 605T470 608T451 608L453 627L494 625Q498 625 507 625T526 624T546 624T558 623Q563 623 576 623T605 624T634 624T654 625L653 605Q630 604 614 600T580 580T540 535T484 454Q458 413 432 373T379 293L381 115Q381 86 382 69T386 41T396 27T416 20Q430 17 445 13T468 7L467 -6Q453 -5 438 -4T406 -1Q376 2 347 2Q333 2 317 0T288 -3Q269 -4 254 -5T228 -6V8Q245 9 265 12T296 28Q301 32 304 38T309 63T311 120T312 228Q312 248 312 264T311 288L271 347Q258 366 244 385T217 422T192 455T171 481Q134 527 113 552T76 590T46 606T9 611L6 627H54Q58 627 68 627T89 626T111 626T126 625Q147 625 170 626T218 627H241L239 608Q211 606 196 603T180 589Q180 583 192 563T223 516T265 459T308 401T345 353T368 325Q371 329 374 333T381 343T393 360T412 388L449 444ZM374 740Q374 756 385 767T411 778Q427 778 438 767T449 740Q449 725 438 714T411 703Q396 703 385 713T374 740ZM219 740Q219 755 230 766T257 778Q274 778 284 767T294 740Q294 726 284 715T257 703Q241 703 230 714T219 740Z"  />
<glyph unicode="&#x17D;" horiz-adv-x="615" d="M306 256Q280 224 255 192T207 130T163 75T127 32Q135 30 145 29T169 26T204 24T256 23Q317 23 358 24T428 30T480 40T525 55Q541 61 552 67T571 83T586 104T599 133L614 124Q613 122 605 103T588 60T569 14T556 -17H547Q547 -12 545 -9T528 -4Q515 -2 488 -1T410 0H158Q80 0 4 -6L5 6Q137 143 254 290T478 594Q459 595 434 596T382 597T332 598T291 598Q216 598 170 595T95 583T51 555T21 506L7 513Q15 540 20 563T28 592Q32 609 34 620T38 639Q41 651 46 651Q50 651 53 646Q58 638 65 634T88 628Q99 626 110 626T138 624T175 623T229 623Q286 623 330 623T414 624T496 625T593 628V619Q564 581 534 542T479 472T436 419T415 394L306 256ZM296 679L199 853H222L318 747L414 853H437L340 679H296Z"  />
<glyph unicode="&#x17E;" horiz-adv-x="406" d="M13 8Q54 48 93 92T167 179T233 263T288 337H173Q147 337 124 335T83 327T52 309T33 281H14Q28 310 36 332T43 377Q52 370 69 367T110 361Q134 359 163 359T225 359H298Q315 359 341 359T393 360Q387 351 380 342T359 315L282 223L222 153Q219 150 204 132T172 92T139 51T121 26Q144 24 168 23T215 22Q244 22 270 24T318 35T356 61T380 110H395Q393 97 390 81T382 49T373 18T365 -7Q363 -7 360 -7T355 -5Q338 -2 325 -1T288 0H110Q91 0 65 -1T20 -6L13 8ZM192 434L95 608H118L214 502L310 608H333L236 434H192Z"  />
<glyph unicode="&#x192;" horiz-adv-x="552" d="M413 362H303L277 182Q268 116 257 65T230 -26T193 -97T142 -157Q109 -188 69 -206T-17 -225Q-23 -225 -31 -225T-46 -222T-58 -215T-63 -201Q-63 -191 -58 -186T-46 -178T-32 -175T-22 -174Q-19 -174 -12 -174T2 -175T17 -175T26 -176Q80 -176 113 -152T166 -85T198 13T219 133L253 363L180 364Q181 372 182 376T185 388L258 390Q261 407 265 429T278 476T303 526T345 576Q376 605 406 615T457 625Q474 625 483 618T493 600Q493 589 487 584T473 575T455 572T438 571L416 572Q387 573 369 564T340 534T321 477T307 391H420L413 362Z"  />
<glyph unicode="&#x2C6;" horiz-adv-x="333" d="M189 608L286 434H263L168 539L71 434H48L145 608H189Z"  />
<glyph unicode="&#x2C7;" horiz-adv-x="333" d="M155 434L58 608H81L177 502L273 608H296L199 434H155Z"  />
<glyph unicode="&#x2DA;" horiz-adv-x="333" d="M89 523Q89 539 95 553T111 577T136 594T167 600Q200 600 222 577T245 523Q245 492 223 469T167 445Q135 445 112 468T89 523ZM114 523Q114 500 129 485T167 470Q189 470 204 485T220 523Q220 544 205 560T167 576Q144 576 129 561T114 523Z"  />
<glyph unicode="&#x2DC;" horiz-adv-x="333" d="M303 550Q302 514 291 494T265 465T239 455T223 453Q202 453 186 460T140 486Q120 498 112 501T94 505Q79 505 65 493T51 453H31Q32 472 37 490T51 521T76 542T112 550Q132 550 147 542T185 520Q200 510 212 504T238 497Q254 497 268 509T283 550H303Z"  />
<glyph unicode="&#x2013;" horiz-adv-x="500" d="M-6 214H506V161H-6V214Z"  />
<glyph unicode="&#x2014;" horiz-adv-x="1000" d="M-6 214H1006V161H-6V214Z"  />
<glyph unicode="&#x2018;" horiz-adv-x="198" d="M169 658Q129 634 116 616T103 579Q103 571 109 556T136 532Q144 523 146 518T148 510Q148 508 148 506T142 500Q140 498 135 495T129 491Q128 490 119 480T102 443Q98 444 90 444Q81 465 70 474T51 487Q49 489 45 491T41 499Q41 501 45 512T50 527Q57 580 84 616T156 673L169 658Z"  />
<glyph unicode="&#x2019;" horiz-adv-x="198" d="M29 459Q52 473 73 492T94 537Q94 545 88 561T62 583Q54 594 52 598T50 606Q50 611 52 613T59 618Q74 626 83 641T96 672H108Q117 655 124 647T146 629Q146 628 148 627T151 625Q157 623 157 616Q157 615 154 609Q149 601 149 599T146 586Q139 531 112 498T40 444L29 459Z"  />
<glyph unicode="&#x201A;" horiz-adv-x="198" d="M107 117Q114 100 127 89T145 75Q154 70 156 69T158 63Q158 58 153 50Q151 47 149 39T145 21T140 4T136 -8Q123 -45 102 -67T39 -113L30 -96Q38 -91 49 -84T70 -67T88 -45T95 -19Q95 -15 92 -1T67 25Q60 28 55 37T50 53Q50 56 53 59T65 70Q77 81 83 92T94 117H107Z"  />
<glyph unicode="&#x201C;" horiz-adv-x="417" d="M186 658Q163 644 142 625T121 580Q121 572 127 556T153 534Q161 523 163 519T165 511Q165 506 163 504T156 499Q141 491 132 476T119 445H107Q98 462 91 470T69 488Q69 489 67 490T64 492Q58 494 58 501Q58 502 61 508Q66 516 66 518T69 531Q76 586 103 619T175 673L186 658ZM371 658Q347 643 327 625T306 580Q306 572 312 556T338 534Q347 521 348 517T350 511Q350 506 348 504T341 499Q325 491 316 475T304 445H292Q283 462 276 471T254 488Q254 489 252 490T249 492Q243 496 243 500Q243 502 246 508Q251 516 251 518T254 531Q258 563 269 586T294 626T326 654T360 673L371 658Z"  />
<glyph unicode="&#x201D;" horiz-adv-x="417" d="M46 459Q69 473 90 492T111 537Q111 545 105 561T79 583Q71 594 69 598T67 606Q67 611 69 613T76 618Q91 626 100 641T113 672H125Q134 655 141 647T163 629Q163 628 165 627T168 625Q174 623 174 616Q174 615 171 609Q166 601 166 599T163 586Q156 531 129 498T57 444L46 459ZM231 459Q254 473 275 492T296 537Q296 545 290 561T264 583Q256 594 254 598T252 606Q252 611 254 613T261 618Q276 626 285 641T298 672H310Q319 655 326 647T348 629Q348 628 350 627T353 625Q359 623 359 616Q359 615 356 609Q351 601 351 599T348 586Q341 531 314 498T242 444L231 459Z"  />
<glyph unicode="&#x201E;" horiz-adv-x="417" d="M48 -95Q90 -72 101 -52T112 -19Q112 3 101 15T77 35Q69 42 68 47T65 58Q90 69 99 88T112 117H122Q127 109 134 99T156 80Q170 73 173 71T176 63Q176 62 175 61T173 57Q171 55 170 53Q166 48 165 44T161 25Q154 -19 132 -51T59 -112L48 -95ZM235 -95Q273 -75 286 -55T299 -19Q299 -8 294 5T272 30Q271 30 268 32T264 35Q256 42 254 47T252 58Q277 69 286 88T299 117H309Q312 111 320 100T343 80Q363 70 363 64Q363 62 361 59T357 53Q352 47 351 42T348 25Q341 -19 319 -51T245 -112L235 -95Z"  />
<glyph unicode="&#x2020;" horiz-adv-x="354" d="M256 655V642Q234 633 222 624T204 606T197 592T196 583Q196 579 197 569T201 546T205 523T207 508Q207 497 205 485T197 453L186 416Q196 417 212 420T247 430T283 446T317 471H332V341H318Q305 355 286 365T248 382T212 392T186 397Q190 359 202 333T229 296Q214 243 206 181T194 60T189 -50T188 -128H166Q166 -99 165 -49T161 60T149 181T125 296Q139 307 151 331T168 397Q159 396 142 393T106 382T68 365T36 341H22V471H37Q52 456 70 446T107 430T141 421T168 416Q166 425 164 430T157 453Q151 473 149 485T147 508Q147 512 148 522T152 545T156 567T158 583Q158 585 157 591T151 605T133 623T98 642V655H256Z"  />
<glyph unicode="&#x2021;" horiz-adv-x="354" d="M233 666V653Q220 642 207 624T193 590Q193 587 194 579T196 562T199 545T201 534Q201 525 199 513T195 489T190 468T187 454Q200 455 213 457T240 463T269 477T302 502H312L311 392H302Q269 423 239 429T187 435Q188 421 190 412T195 396T202 380T215 362Q204 325 197 286T190 193Q190 141 198 99T215 32Q207 21 203 14T195 -2T190 -19T187 -42Q198 -42 211 -41T239 -36T270 -23T302 2H311L312 -108H302Q284 -93 269 -84T240 -70T213 -64T187 -60Q188 -64 190 -73T194 -95T199 -119T201 -141Q201 -144 200 -152T197 -169T194 -186T193 -197Q193 -212 206 -230T233 -260V-273H121V-260Q135 -249 148 -230T161 -197Q161 -194 160 -186T157 -169T154 -152T153 -141Q153 -131 155 -118T159 -93T164 -72T167 -60Q153 -62 141 -63T114 -70T85 -84T52 -108H42L43 2H52Q68 -14 84 -22T114 -35T142 -41T167 -42Q165 -15 159 -2T139 32Q147 58 155 99T164 193Q164 245 157 284T139 362Q153 381 159 395T167 435Q145 435 115 429T52 392H43L42 502H52Q70 486 85 477T114 464T140 457T167 454Q167 457 165 466T160 486T155 511T153 534Q153 537 154 545T156 562T159 579T161 590Q161 605 148 623T121 653V666H233Z"  />
<glyph unicode="&#x2022;" horiz-adv-x="375" d="M188 484Q215 484 238 474T280 446T308 404T318 353Q318 326 308 303T281 261T239 233T188 222Q160 222 136 232T95 261T67 302T57 353Q57 380 67 404T95 445T137 473T188 484Z"  />
<glyph unicode="&#x2026;" horiz-adv-x="1000" d="M793 44Q793 49 797 52T806 59Q821 67 829 77T843 99Q847 107 856 107Q864 107 868 100Q868 98 876 83T905 56Q913 51 915 49T917 42Q917 37 916 35T908 30Q900 26 892 20T870 -8Q866 -13 864 -16T856 -19Q848 -19 841 -9Q831 8 825 15T804 30Q799 33 796 35T793 44ZM438 44Q438 49 442 52T451 59Q466 67 474 77T488 99Q492 107 501 107Q509 107 513 100Q513 98 521 83T550 56Q558 51 560 49T562 42Q562 37 561 35T553 30Q545 26 537 20T515 -8Q511 -13 509 -16T501 -19Q493 -19 486 -9Q476 8 470 15T449 30Q444 33 441 35T438 44ZM83 44Q83 49 87 52T96 59Q111 67 119 77T133 99Q137 107 146 107Q154 107 158 100Q158 98 166 83T195 56Q203 51 205 49T207 42Q207 37 206 35T198 30Q190 26 182 20T160 -8Q156 -13 154 -16T146 -19Q138 -19 131 -9Q121 8 115 15T94 30Q89 33 86 35T83 44Z"  />
<glyph unicode="&#x2030;" horiz-adv-x="1135" d="M205 646Q235 646 261 635T308 603T340 554T352 490Q352 460 342 430T313 374T266 334T200 318Q171 318 145 328T98 358T65 407T53 476Q53 514 65 545T99 598T147 633T205 646ZM197 626Q173 626 156 614T128 584T112 542T107 494Q107 464 114 436T134 386T165 351T207 338Q217 338 232 342T261 361T285 401T295 470Q295 496 289 523T271 574T241 611T197 626ZM591 310Q620 310 646 299T693 267T726 217T738 153Q738 123 728 93T699 37T652 -3T586 -19Q557 -19 531 -9T484 22T451 71T438 139Q438 177 450 208T484 262T533 297T591 310ZM583 289Q559 289 542 278T514 247T498 205T492 157Q492 127 499 100T519 50T551 15T593 2Q603 2 618 6T647 25T671 65T681 134Q681 160 675 187T657 237T627 274T583 289ZM944 310Q974 310 1000 299T1047 267T1079 217T1091 153Q1091 123 1081 93T1052 37T1005 -3T940 -19Q911 -19 884 -9T837 22T804 71T792 139Q792 177 804 208T838 262T886 297T944 310ZM936 289Q912 289 895 278T867 247T851 205T846 157Q846 127 853 100T873 50T905 15T946 2Q956 2 971 6T1000 25T1024 65T1034 134Q1034 160 1028 187T1010 237T980 274T936 289ZM141 -41Q165 -7 195 39T256 136T320 238T379 336T428 418T461 476Q473 497 486 521T512 568T536 611T553 641Q555 643 556 645T564 658Q579 658 587 659T612 665Q573 605 531 537T447 399T365 263T292 139T235 39T199 -27Q185 -28 176 -32T158 -48L141 -41Z"  />
<glyph unicode="&#x2039;" horiz-adv-x="250" d="M224 -2H208L32 187L207 377H224L125 186L224 -2Z"  />
<glyph unicode="&#x203A;" horiz-adv-x="250" d="M41 -2H25L124 186L25 377H42L218 188L41 -2Z"  />
<glyph unicode="&#x20AC;" horiz-adv-x="490" d="M472 133Q472 127 469 113T465 94L451 24Q425 13 389 3T314 -8Q276 -8 239 8T171 57T117 136T86 246Q72 245 61 245T47 244Q42 244 35 244T14 246L27 272Q37 268 41 267T56 266Q61 266 68 266T84 267Q83 278 83 289T82 311V327Q68 326 59 326T47 326Q42 326 35 326T14 328L27 354Q37 350 41 349T56 348Q61 348 68 348T83 349Q88 422 112 474T170 560T246 610T327 626Q360 626 383 617T417 603Q422 601 430 598T448 594Q450 594 457 595T467 597Q468 597 470 595Q471 594 471 593Q471 592 469 580T466 566Q461 546 459 522T454 475Q447 477 442 481T437 496Q437 521 427 540T399 573T359 594T312 601Q245 601 204 537T156 352Q171 353 182 353T198 354Q218 355 242 355T279 356Q289 356 305 357T339 359T375 362T411 368Q415 353 401 339Q399 339 384 339T346 337T299 335T251 334T213 333T194 332Q191 332 180 332T155 331V312Q155 301 155 291T156 270Q171 271 182 271T198 272Q218 273 242 273T279 274Q289 274 305 275T339 277T375 280T411 286Q415 271 401 257Q399 257 384 257T346 255T299 253T251 252T213 251T194 250Q191 250 182 250T158 249Q165 180 185 135T231 62T282 24T326 13Q354 13 374 23T408 49T432 85T451 128Q454 136 455 138T459 141Q461 141 466 140T472 133Z"  />
<glyph unicode="&#x2122;" horiz-adv-x="1042" d="M160 295Q177 295 188 297T205 307T214 331T217 374V650H172Q156 650 143 648T120 640T104 620T95 582H82V674H411V582H399Q394 621 380 635T322 650H277V374Q277 347 279 331T288 307T305 297T334 295V279H160V295ZM562 674L706 364L846 674H957V658Q938 657 927 655T910 646T903 628T901 595V364Q901 342 902 329T910 309T927 298T957 295V279H788V295Q807 295 818 297T836 307T844 327T846 364V615H844L694 279H686L531 609H529V361Q529 340 530 327T536 307T553 298T586 295V279H446V295Q467 295 478 297T495 307T501 328T502 364V588Q502 607 501 619T495 640T479 652T446 658V674H562Z"  />

</font>
</defs>
</svg>
