<?xml  version="1.0" encoding="UTF-8"?>
<!DOCTYPE svg PUBLIC "-//W3C//DTD SVG 1.0//EN" "http://www.w3.org/TR/2001/REC-SVG-20010904/DTD/svg10.dtd" >
<svg xmlns="http://www.w3.org/2000/svg" >
<metadata>
<version>1.0</version>
<id><![CDATA[Centaur W01 Bold Italic]]></id>
<vendor>Monotype Imaging Inc.</vendor>
<credits>
<name>Fonts.com WebFonts</name>
<URL>http://webfonts.fonts.com</URL>
<role>Home of the Web fonts</role>
</credits>
<license>
<URL>http://webfonts.fonts.com/Legal</URL>
</license>
<copyright><![CDATA[Font software Copyright 1991, 2002 Adobe Systems Incorporated. Type design Copyright 1990, 2002 The Monotype Corporation. All rights reserved.]]></copyright>
<trademark><![CDATA[Centaur is a registered trademark of The Monotype Corporation in the United States and/or other countries.]]></trademark>
<licensee>
<name></name>
</licensee>
</metadata>
<defs >
<font horiz-adv-x="460" id="4382c3bf-28e4-41e3-bb3d-c0805d02bb3d">
<font-face font-family="" panose-1="2 2 8 3 5 4 5 9 3 4" ascent="817" descent="-283" units-per-em="1000" alphabetic="0">
</font-face>
<missing-glyph horiz-adv-x="250" />

<glyph unicode="&#xA;" />
<glyph unicode="&#xD;" horiz-adv-x="250" />
<glyph unicode=" " horiz-adv-x="250" />
<glyph unicode="!" horiz-adv-x="177" d="M100 199Q100 208 104 234T113 291T123 347T130 383Q130 385 132 402T138 443T146 496T153 549T159 589T162 606Q166 610 178 613T205 620T230 624T241 626Q251 626 251 616Q251 613 246 597T235 562T223 524T215 499Q192 424 171 350T130 199Q128 199 124 198T115 197Q111 197 107 198T100 199ZM130 33Q118 4 103 -4T80 -12Q62 -12 55 1T47 31Q47 43 53 54T68 74T85 88T96 93Q97 93 102 91T113 83T123 64T130 33Z"  />
<glyph unicode="&quot;" horiz-adv-x="552" d="M204 326L219 466Q222 497 226 523T238 569T261 600T304 612Q327 612 339 600T351 577Q351 554 344 537T333 512L239 326H204ZM406 326L421 466Q424 497 428 523T440 569T463 600T506 612Q529 612 541 600T553 577Q553 554 546 537T535 512L441 326H406Z"  />
<glyph unicode="#" horiz-adv-x="667" d="M87 475H246L288 672H348L306 475H511L553 672H613L571 475H667V415H559L522 234H667V174H510L468 -22H408L450 174H244L202 -22H142L184 174H87V234H196L234 415H87V475ZM499 415H294L256 234H462L499 415Z"  />
<glyph unicode="$" horiz-adv-x="510" d="M360 654L397 653L387 605Q423 598 456 584T526 530Q518 520 513 513T503 498T492 479T476 450L448 461Q451 469 453 476T456 493Q456 516 435 539T380 570L336 367Q375 336 403 313T448 268T473 226T481 176Q481 151 472 120T440 62T381 17T291 -1Q282 -1 275 -1T259 0L244 -72L206 -71L221 0Q210 2 192 6T151 23T106 55T63 111L115 208L138 191L132 168Q132 168 134 158T142 132T155 100T176 67Q190 49 203 43T228 34L280 277Q242 306 217 330T177 375T156 417T149 458Q149 486 162 512T200 559T262 592T349 606L360 654ZM305 394L342 574Q297 575 272 550T246 492Q246 462 261 442T295 403Q297 401 300 399T303 394H305ZM265 28Q291 25 316 30T360 48T392 78T404 119Q404 153 378 185T312 251L265 28Z"  />
<glyph unicode="%" horiz-adv-x="885" d="M182 433Q182 401 190 382T210 352T233 339T253 336Q285 336 308 360T346 419T368 490T375 552Q375 594 359 622T308 650Q280 650 260 635T225 595T203 544T190 492T184 451T182 433ZM728 670H769L232 -10H190L728 670ZM778 222Q778 264 762 292T711 320Q683 320 663 305T628 265T606 214T594 162T588 121T586 103Q586 71 594 52T613 23T637 10T657 7Q690 7 713 31T750 90T771 161T778 222ZM111 471Q111 508 124 544T162 608T222 653T300 670Q340 670 368 656T413 619T438 572T446 524Q446 495 436 460T402 393T344 341T258 320Q226 320 199 331T153 362T122 410T111 471ZM515 141Q515 178 528 214T566 278T625 323T704 340Q744 340 771 326T816 289T841 242T849 194Q849 165 839 130T805 63T747 11T661 -10Q629 -10 602 1T556 32T526 80T515 141Z"  />
<glyph unicode="&amp;" horiz-adv-x="750" d="M368 374Q345 373 312 370T248 353T194 309T172 226Q172 187 183 158T212 109T252 76T297 56T340 47T373 44Q398 44 429 51T487 73T532 114T551 176Q551 196 547 212T537 241Q517 239 495 237T453 232T421 221T408 204Q408 201 412 194T422 178T431 162T436 150Q436 136 428 125T411 113Q408 113 401 116T387 125T375 142T369 166Q369 179 370 188T375 209T388 233T412 267Q422 280 435 288T467 300T513 306T576 308Q604 308 631 308T679 312T712 322T725 341Q725 345 722 354T703 374Q722 400 754 396Q758 388 760 380T763 358Q763 319 744 297T698 262T638 247T580 241Q584 229 587 216T590 181Q590 149 583 127T561 87T526 54T482 24Q459 9 424 1T356 -8Q289 -8 239 8T154 52T103 114T86 186Q86 191 86 205T89 237T99 276T120 318Q131 333 143 344T172 365T209 381T259 396Q216 419 202 441T188 474Q188 502 198 525T233 561Q248 568 267 576T306 590T347 600T384 604Q406 604 422 591T449 563Q455 555 459 553Q455 534 448 529T421 523Q416 523 412 524T400 534Q387 546 379 553T365 563T355 567T344 568Q317 568 301 560T276 541T264 518T261 500Q261 492 275 473T309 439Q318 433 328 428T349 420T368 413T382 409L368 374Z"  />
<glyph unicode="&apos;" horiz-adv-x="281" d="M168 327L183 467Q186 498 190 524T202 570T225 601T268 613Q291 613 303 601T315 578Q315 555 308 538T297 513L203 327H168Z"  />
<glyph unicode="(" horiz-adv-x="375" d="M236 -283Q202 -248 172 -210T120 -125T84 -25T71 96Q71 143 79 197T105 306T153 416T226 518T326 605T457 669L453 625Q365 595 301 536T195 403T133 246T112 89Q112 32 123 -14T153 -100T198 -173T253 -238L236 -283Z"  />
<glyph unicode=")" horiz-adv-x="333" d="M152 669Q186 634 216 596T268 511T304 411T317 290Q317 243 309 189T283 80T235 -30T162 -132T62 -219T-69 -283L-65 -239Q23 -209 87 -150T193 -17T255 140T276 297Q276 354 265 400T235 486T190 559T135 624L152 669Z"  />
<glyph unicode="*" horiz-adv-x="375" d="M234 290Q227 322 220 342T199 386Q183 386 174 385T154 383T132 378T98 368L84 390Q99 404 109 414T126 434T139 451T150 472Q133 500 119 515T84 548L98 571Q130 561 152 558T199 554Q215 582 222 601T234 648H261Q268 616 274 597T295 554Q323 554 347 557T397 571L410 548Q373 516 361 497T344 466Q362 438 376 422T410 390L397 368Q366 378 345 382T295 386Q282 365 273 341T261 290H234ZM248 533Q222 533 204 515T185 470Q185 444 203 426T248 408Q274 408 292 426T310 470Q310 496 292 514T248 533Z"  />
<glyph unicode="+" horiz-adv-x="667" d="M112 298H345V532H409V298H643V234H409V0H345V234H112V298Z"  />
<glyph unicode="&#x2c;" horiz-adv-x="177" d="M-17 -180Q14 -169 33 -153T63 -120T78 -88T82 -61Q82 -41 71 -26T27 -10V10Q50 24 65 42T89 85Q96 80 105 73T123 54T138 27T144 -10Q144 -39 133 -71T101 -132T49 -183T-24 -212L-17 -180Z"  />
<glyph unicode="-" horiz-adv-x="344" d="M264 214Q274 214 287 215T309 226Q318 235 322 238T332 242Q336 242 340 240T350 236L298 139Q290 139 281 139T239 142Q206 144 177 144T115 144H90Q88 142 84 138T74 129T65 121T57 117Q52 117 49 120T45 126Q45 128 46 129T47 132Q50 136 58 149T75 175T94 200T110 213Q114 213 124 213T144 214T163 215T173 215L264 214Z"  />
<glyph unicode="." horiz-adv-x="177" d="M30 34Q30 45 37 55T53 74T70 86T80 91Q93 91 104 77T115 45Q115 25 100 7T66 -12Q54 -12 47 -6T36 9T31 25T30 34Z"  />
<glyph unicode="/" horiz-adv-x="566" d="M525 664H591L129 -279H63L525 664Z"  />
<glyph unicode="0" horiz-adv-x="500" d="M87 211Q87 247 94 291T115 379T151 466T203 541T271 593T357 613Q402 613 432 591T480 536T505 467T512 402Q512 368 505 325T485 236T450 147T399 69T333 14T251 -7Q211 -7 181 11T129 59T98 128T87 211ZM176 153Q176 138 177 116T184 74T204 39T243 24Q265 24 282 34T311 59T331 89T343 112Q350 126 364 165T392 255T416 362T427 469Q427 476 426 494T418 532T395 566T351 581Q319 581 294 555T250 489T216 398T193 301T180 213T176 153Z"  />
<glyph unicode="1" horiz-adv-x="500" d="M289 498Q289 501 291 508T294 524T298 541T300 552Q291 556 283 559T264 565T236 570T192 577L200 605Q218 605 246 605T305 606T363 607T406 610Q404 602 398 578T384 522T368 456T354 392L276 57Q290 49 311 42T380 28L390 1L161 -2Q165 7 167 13T173 28T179 49T189 83L289 498Z"  />
<glyph unicode="2" horiz-adv-x="500" d="M147 0Q105 0 83 -3T42 -11L48 16Q61 23 90 46T154 103T226 179T295 266T346 358T366 446Q366 505 338 535T273 566Q259 566 243 561T211 542T181 505T154 444L126 458Q134 489 149 516T187 565T240 598T307 611Q340 611 369 601T419 572T452 524T465 458Q465 439 461 416T440 361T389 286T293 186Q284 179 269 165T237 134T204 101T177 74L387 81Q399 81 406 81T420 84T431 91T446 105H476L416 0H147Z"  />
<glyph unicode="3" horiz-adv-x="500" d="M217 330Q232 336 258 348T309 379T353 425T372 489Q372 518 354 538T308 558Q285 558 266 549T230 528T201 503T181 482L184 523Q216 564 261 589T359 614Q387 614 406 606T438 584T455 555T461 526Q461 496 446 470T411 422T370 385T336 360V358Q376 356 399 343T433 311T448 275T451 243Q451 191 425 145T357 65T265 10T167 -10Q153 -10 137 -8T105 2T76 21T54 54Q65 62 74 65T100 70Q103 65 109 57T126 41T150 27T182 21Q211 21 242 37T300 81T343 143T360 214Q360 231 354 248T337 278T311 300T275 309Q255 309 238 305T206 296L217 330Z"  />
<glyph unicode="4" horiz-adv-x="500" d="M54 215Q77 270 117 325T208 432T314 529T426 609L485 623L401 288H494L476 215H384L330 -4H293Q284 -4 278 -4T267 -5T254 -7T237 -9L293 215H54ZM312 288L375 531Q347 514 314 488T248 431T185 363T133 288H312Z"  />
<glyph unicode="5" horiz-adv-x="500" d="M282 610Q298 608 318 607T357 604T395 601T426 600Q448 600 461 604T480 611Q482 613 492 618T506 624L448 524L292 529L274 480Q283 478 300 474T338 462T381 439T421 403T450 353T462 283Q462 231 436 179T368 84T272 16T163 -11Q157 -11 144 -10T115 -6T81 3T46 20L51 37Q67 32 90 27T140 21Q186 21 226 43T296 99T343 177T360 262Q360 300 347 326T313 371T264 399T207 417L282 610Z"  />
<glyph unicode="6" horiz-adv-x="500" d="M493 581Q490 581 485 581T473 582T461 582T453 583Q426 583 397 568T338 522T279 443T225 328L227 326Q241 336 262 346T316 357Q353 357 380 342T425 302T451 250T460 198Q460 174 450 139T416 71T354 15T259 -8Q218 -8 187 6T136 45T105 104T94 181Q94 222 106 270T139 366T191 458T258 537T339 591T429 612Q455 612 470 608T500 599L493 581ZM184 128Q184 108 187 90T197 56T217 32T250 23Q280 23 302 43T339 93T360 158T367 226Q367 235 366 251T359 282T340 308T301 320Q280 320 260 308T222 272T195 212T184 128Z"  />
<glyph unicode="7" horiz-adv-x="500" d="M214 518Q203 518 195 517T179 512T163 497T142 468Q138 461 135 459T127 457Q120 457 118 460T115 468Q115 470 122 485T138 518T155 554T167 578Q175 596 180 607T188 623T193 630T198 632Q206 632 209 628T212 619Q212 613 209 603H441Q444 603 460 603T509 607Q506 602 489 571T448 494T397 391T346 281T308 178T292 99Q292 91 293 83T299 67T313 56T338 51Q334 39 330 30T318 12T299 -3T269 -16Q248 -6 239 12T229 49Q229 71 238 106T263 184T298 271T338 359T375 439T406 501Q407 503 410 509T414 518H214Z"  />
<glyph unicode="8" horiz-adv-x="500" d="M183 458Q183 487 195 514T229 563T281 598T350 611Q379 611 401 602T439 578T462 544T470 504Q470 498 469 483T457 449T427 407T367 362Q387 343 405 325T437 287T459 244T467 193Q467 159 453 124T412 59T345 10T254 -9Q221 -9 193 0T144 27T111 72T99 135Q99 169 112 198T146 252T196 297T256 333Q243 345 230 358T207 387T190 420T183 458ZM258 505Q258 482 269 462T299 425L340 384Q351 391 365 401T391 425T411 456T419 493Q419 508 414 522T399 549T374 568T338 575Q324 575 310 571T284 557T265 535T258 505ZM159 131Q159 116 164 98T181 64T213 37T266 26Q299 26 322 37T362 66T385 105T393 144Q393 167 386 186T364 224T329 263T281 309Q242 288 218 264T181 216T164 170T159 131Z"  />
<glyph unicode="9" horiz-adv-x="500" d="M92 22Q96 21 102 20T116 19Q149 19 183 36T248 87T305 169T351 279L349 281Q342 276 334 270T314 259Q303 254 289 252T257 249Q229 249 204 259T159 290T128 338T116 404Q116 440 129 477T167 545T228 594T313 613Q360 613 392 596T445 551T473 491T482 425Q482 379 470 329T437 231T385 140T318 64T239 12T153 -8Q130 -8 114 -5T85 4L92 22ZM208 380Q208 375 209 360T216 328T235 299T274 286Q301 286 322 301T359 343T382 402T391 472Q391 482 390 500T382 536T361 567T320 580Q290 580 269 561T234 513T214 448T208 380Z"  />
<glyph unicode=":" horiz-adv-x="177" d="M30 34Q30 45 37 55T53 74T70 86T80 91Q93 91 104 77T115 45Q115 25 100 7T66 -12Q54 -12 47 -6T36 9T31 25T30 34ZM94 273Q94 285 99 295T112 313T127 325T138 330Q144 330 150 324T163 310T172 293T176 278Q176 270 170 261T155 243T139 229T127 223Q115 223 105 240T94 273Z"  />
<glyph unicode=";" horiz-adv-x="177" d="M18 -160Q36 -151 49 -138T70 -109T83 -80T88 -54Q88 -28 73 -15T32 1Q48 24 58 40T77 73Q98 68 111 58T132 35T143 8T146 -17Q146 -35 140 -59T119 -107T83 -153T27 -186L18 -160ZM121 305Q121 305 125 308T135 316T145 323T151 327Q161 327 173 314T186 281Q186 267 181 257T169 239T153 228T137 224Q126 224 114 235T101 270Q101 276 104 285T121 305Z"  />
<glyph unicode="&lt;" horiz-adv-x="667" d="M112 296L643 519V449L198 267L643 84V15L112 238V296Z"  />
<glyph unicode="=" horiz-adv-x="667" d="M112 410H643V346H112V410ZM112 186H643V122H112V186Z"  />
<glyph unicode="&gt;" horiz-adv-x="667" d="M642 238L112 15V84L556 267L112 449V519L643 295L642 238Z"  />
<glyph unicode="?" horiz-adv-x="323" d="M170 553Q171 555 173 559T177 567Q188 572 202 576T241 580Q301 580 337 548T373 465Q373 446 367 423T353 377T337 338T322 315Q307 300 297 292T274 277T242 267T190 255Q161 249 144 236T118 209T104 180T99 157H71Q72 164 74 178T79 209T89 241T103 267Q119 287 142 305T191 326Q254 334 288 353T322 415Q322 433 314 449T293 479T262 500T228 508Q202 508 186 496T161 473Q151 471 148 471Q142 471 141 475T139 487Q139 501 143 511T151 526L170 553ZM37 29Q37 37 41 46T53 62T67 75T80 80Q89 80 95 75T105 61T112 45T114 30Q114 15 104 3T77 -9Q73 -9 66 -8T53 -2T42 10T37 29Z"  />
<glyph unicode="@" horiz-adv-x="833" d="M908 78Q879 7 841 -42T760 -122T676 -171T598 -197T533 -206T493 -208Q404 -208 328 -178T196 -94T108 37T76 205Q76 298 108 379T201 522T345 618T531 653Q620 653 684 625T789 552T849 450T869 335Q869 273 850 213T795 106T707 29T587 0Q538 0 515 23T491 84Q491 98 495 117T502 147L500 149Q487 126 471 100T435 52T391 15T340 0Q317 0 302 10T278 35T265 70T261 106Q261 177 287 240T350 350T430 425T504 453Q525 453 537 445T557 426T566 402T570 380H572L587 436L702 440L616 144Q611 128 607 107T602 72Q602 57 612 46T640 34Q663 34 697 53T764 110T820 202T843 326Q843 383 824 437T767 532T673 598T541 623Q441 623 364 586T233 488T153 349T125 189Q125 103 154 35T233 -82T350 -156T493 -182Q542 -182 598 -169T708 -125T807 -44T879 78H908ZM550 356Q550 393 538 406T518 419Q502 419 486 403T455 362T427 304T404 240T388 179T382 131Q382 109 390 98T410 86Q426 86 450 111T496 176T534 263T550 356Z"  />
<glyph unicode="A" horiz-adv-x="583" d="M394 219Q378 221 363 223T318 225Q287 225 268 223T232 219Q229 214 215 191T184 139T156 83T143 44Q143 37 150 34T166 29T185 27T201 26L195 -3Q185 -3 171 -3T134 -1Q113 -1 99 -1T73 0Q56 0 44 0T22 -1T6 -2T-10 -3L-2 26Q21 26 36 28T63 37T87 60T116 103Q167 184 208 247T287 367T366 479T459 598Q461 601 469 610T479 622H511Q511 614 511 606T509 584T506 544T501 476Q499 453 497 403T492 296T487 183T485 91Q485 79 486 68T491 47T506 33T535 28Q551 28 564 32T586 40V12Q566 4 546 1T504 -3Q498 -3 483 -3T449 -1Q432 -1 416 -1T393 0Q359 0 343 0T307 -3L312 26Q336 29 350 32T371 41T382 59T386 90L394 219ZM408 473L406 475Q393 458 374 432T334 375T294 316T262 265Q268 264 273 264T286 263T303 262T328 262Q344 262 354 262T372 262T385 263T397 265L408 473Z"  />
<glyph unicode="B" horiz-adv-x="531" d="M220 499Q223 516 225 528T227 545Q227 556 218 562T196 570T167 573T138 573L142 604Q146 604 156 604T179 603T202 602T219 602Q227 602 243 602T279 604Q299 605 315 605T338 606Q376 606 411 600T473 579T516 540T532 479Q532 450 519 427T487 386T446 357T405 339Q468 313 499 269T531 169Q531 137 520 106T485 51T423 11T330 -5Q321 -5 299 -4T250 -1Q224 0 202 1T171 2Q163 2 143 1T99 -1T55 -2T25 -3V28Q49 28 65 28T93 33T110 46T122 71Q124 82 127 93T133 112L220 499ZM290 351Q298 350 306 349T326 348Q373 348 404 377T436 476Q436 510 425 529T399 558T367 570T340 574L290 351ZM242 135Q240 125 237 106T233 80Q233 74 234 65T240 48T258 33T292 27Q317 27 341 37T385 67T415 114T427 177Q427 196 422 220T403 267T364 304T300 319H284L242 135Z"  />
<glyph unicode="C" horiz-adv-x="615" d="M609 144Q605 135 600 122T589 95T579 67T571 44Q560 38 541 29T494 10T434 -5T363 -12Q301 -12 251 7T166 60T112 143T93 248Q93 325 123 392T205 510T328 589T482 618Q528 618 563 610T625 591T669 568T698 548Q695 537 692 523T686 494T681 464T677 438H649Q649 476 643 496T625 531Q607 552 572 566T495 581Q430 581 377 550T285 470T226 360T205 239Q205 204 215 167T248 97T303 45T382 24Q429 24 483 53T583 154L609 144Z"  />
<glyph unicode="D" horiz-adv-x="677" d="M8 30Q33 30 49 30T76 33T94 40T107 52Q113 59 123 97T145 188T171 302T194 416T211 506T218 549Q218 551 217 558T204 569Q199 570 184 571T152 573T118 575T95 577L102 604Q127 605 152 605T223 606Q256 606 295 606T374 603T451 596T516 581Q555 568 589 545T650 488T691 410T706 312Q706 272 696 230T661 147T599 74T503 21Q486 15 469 11T428 4T375 0T305 -2H8V30ZM593 321Q593 375 578 422T532 502T451 554T333 569Q321 520 309 467T285 361T263 260T245 172T233 107T228 72Q228 64 230 57T241 43T268 34T318 30Q382 30 418 42T475 68Q516 93 539 129T575 202T590 271T593 321Z"  />
<glyph unicode="E" horiz-adv-x="479" d="M412 262H383Q384 265 384 271T386 284T387 297T388 305Q388 312 385 316T373 322T349 324T308 325H269Q266 308 257 268T238 183T219 98T207 41Q217 41 235 40T273 38T311 37T339 36Q356 36 370 39T399 51T427 76T458 120L483 110Q480 101 477 91T469 68T455 38T433 -2Q416 -1 378 1Q361 2 341 2T299 2H111Q79 2 52 1T5 -2L1 29Q3 30 10 30T22 31Q41 32 54 33T76 39T91 50T102 69Q106 80 116 117T138 205T164 312T188 418T206 502T213 547Q213 557 210 563T195 572T162 575T103 577L107 605H532Q533 579 529 555T520 504H492Q492 530 488 544T477 564T461 572T439 573Q433 573 417 573T383 573T350 573T332 572Q328 561 320 531T304 466T287 401T276 357Q323 357 348 358T388 365T408 384T422 421H453L412 262Z"  />
<glyph unicode="F" horiz-adv-x="458" d="M234 560Q202 571 172 572T129 574L133 602Q148 602 184 602T266 602T362 603T455 604T528 605T565 607Q560 587 556 563T547 515H515Q516 520 516 524T516 532Q516 559 496 566T424 573Q392 573 374 571T346 561T332 541T322 507L289 360Q336 359 362 359T401 364T421 380T434 411H466Q458 385 451 360T439 314T431 278T427 258H396Q398 266 399 277T401 297Q401 317 387 320T337 324H280L234 119Q228 92 223 72T213 36Q214 36 228 35T260 34T295 32T318 31L308 -1Q301 -1 282 -1T242 0T202 1T175 2Q146 2 102 0T12 -1L23 31Q54 31 72 33T103 46T123 82T141 152L234 560Z"  />
<glyph unicode="G" horiz-adv-x="635" d="M418 190L653 209L650 179Q635 178 626 177T613 173T606 167T603 159Q598 141 596 131T592 114T591 104T590 97Q590 95 591 91T598 87Q600 87 605 89T613 94V66Q590 47 560 32T497 7T429 -10T366 -16Q308 -16 258 3T170 57T112 144T90 260Q90 329 115 393T188 508T306 589T466 620Q526 620 584 605T691 554L661 441H637Q638 486 625 511T595 549Q574 566 543 574T485 583Q446 583 398 567T307 514T235 417T205 270Q205 211 220 166T264 89T329 43T411 27Q434 27 450 30T479 36Q479 37 483 50T491 80T499 114T503 143Q503 152 500 160T478 168Q466 168 447 166T414 161L418 190Z"  />
<glyph unicode="H" horiz-adv-x="708" d="M169 316Q170 319 174 336T183 378T195 429T206 481T214 523T218 546Q218 563 202 570T131 576L136 603Q148 603 176 603T235 603T293 603T331 602Q357 602 372 602T410 603L406 576Q371 574 356 569T333 552Q330 546 326 533T316 496T301 433T279 339Q358 337 403 337T456 336Q477 336 491 336T516 336T536 337T554 339Q555 341 556 350T559 361L588 491Q589 497 591 505T594 521T597 536T598 547Q598 566 579 571T525 576L529 603Q568 603 594 603T639 602T671 602T695 602Q713 602 725 602T748 602T768 602T789 603V576Q748 576 733 570T711 553Q707 548 699 520T681 448T658 352T635 243T613 133T597 35Q609 33 617 32T633 30T653 28T684 25L679 1Q672 1 654 1T617 1T580 2T556 3Q510 3 473 1T410 -4L414 25Q433 28 446 31T468 39T482 53T492 76Q496 89 503 118T518 180T533 245T544 297Q445 302 402 303T351 304L271 302Q254 232 244 188T228 115T220 68T215 31L294 23L287 -4Q270 -2 252 -2T217 0H146Q114 0 94 0T59 -1T35 -2T14 -4L18 25Q44 26 60 29T86 36T101 47T109 64Q112 71 117 91T128 135T139 181T147 216L169 316Z"  />
<glyph unicode="I" horiz-adv-x="354" d="M223 488Q228 504 229 518T231 539Q231 556 213 566T142 578L151 605Q159 605 180 605T226 604Q250 603 271 603T302 602Q315 602 332 602T366 602T400 602T429 605V578Q397 578 379 573T350 558T335 532T326 498Q325 493 323 484T317 462T311 437T305 412L252 166Q250 158 248 144T242 113T237 83T235 63Q235 51 243 44T262 34T287 29T312 27Q326 27 335 29T354 34L372 11Q349 -2 325 -3T290 -4Q282 -4 263 -3T223 -1Q202 1 184 1T158 2Q153 2 138 2T105 1Q88 0 73 0T51 -1Q45 -1 40 -1T27 0L33 28Q64 30 82 33T112 47T130 81T146 145L223 488Z"  />
<glyph unicode="J" horiz-adv-x="333" d="M219 497Q220 500 220 507T222 521T223 533T224 540Q224 563 205 568T141 572V602H412L405 572Q383 572 370 571T349 565T335 547T324 511Q321 499 318 487T312 463L229 73Q221 41 212 4T190 -70T157 -143T110 -207T44 -253T-44 -275L-93 -203L-61 -198Q-53 -209 -41 -219T-9 -230Q5 -230 19 -225T46 -201T74 -144T103 -37L219 497Z"  />
<glyph unicode="K" horiz-adv-x="625" d="M214 486Q214 487 216 495T219 514T222 534T224 547Q224 556 216 561T197 570T173 574T150 577L154 604H387V577Q378 577 369 576T352 567T335 543T320 499Q317 490 314 478T308 454T303 434T300 423L285 358Q318 380 356 411T427 473T482 528T504 561Q504 565 498 568T484 573T468 576T456 577V604Q459 604 470 604T495 604T525 603T553 602Q559 602 574 602T606 603T640 603T665 604V577Q637 576 609 571T555 541Q533 520 505 494T445 440T383 387T325 343L355 300Q377 267 401 234T450 168T501 108T555 56Q565 47 574 43T595 35T621 31T660 27V0H484Q452 27 417 67T350 148T295 222T265 267L245 176Q244 170 242 156T237 126T232 94T230 72Q230 57 234 49T245 36T259 31T273 30Q285 30 292 31T305 35V4Q293 2 286 1T273 0T259 0T240 0H12V27Q47 26 67 30T99 44T116 73T129 120L214 486Z"  />
<glyph unicode="L" horiz-adv-x="469" d="M239 146Q235 130 231 108T227 69Q227 42 249 36T307 29Q338 29 361 31T403 41T442 67T486 113L516 103Q504 89 488 63T456 -2Q442 -1 407 -1T330 0Q289 1 253 1T200 2Q152 2 106 1T11 -2L19 27Q25 27 37 28T64 32T89 37T105 44Q108 47 112 61T121 93T130 127T136 150L206 463Q208 470 210 481T214 503T217 524T219 540Q219 555 204 562T142 574L145 602H424L418 574Q386 573 368 570T340 557T324 526T310 470L239 146Z"  />
<glyph unicode="M" horiz-adv-x="719" d="M193 389Q195 398 199 417T206 456T213 495T216 521Q216 531 214 540T201 557T164 569T94 576V604Q100 604 124 603T179 601T244 599T304 598Q306 591 312 567T326 514T338 461T344 431L396 177H398L550 471Q550 471 559 488T580 528T603 572T620 603H790L784 576Q760 575 746 575T724 573T712 568T703 560Q698 554 695 539T688 507T683 472T679 445L638 91Q638 87 637 75T635 59Q635 47 643 38T683 29Q686 29 692 29T706 31T720 32T730 33V7Q701 1 685 0T656 -1Q653 -1 646 -1T630 0T614 0T603 1Q569 1 534 1T464 0L468 25Q489 27 501 32T520 48T531 78T538 125L575 442L573 444L428 162Q427 160 427 159T422 151Q404 113 394 92T378 58T368 35T358 11H333L251 377Q251 379 249 387T245 404T241 422T238 434H236Q230 408 222 372T206 296T190 217T176 144T167 87T163 57Q163 44 178 39T237 28L220 -1Q214 -1 201 -1T172 0T142 1T123 2Q81 2 58 2T19 -1V28Q49 28 66 30T94 37T108 51T117 73Q117 74 120 84T126 108T133 133T138 150L193 389Z"  />
<glyph unicode="N" horiz-adv-x="646" d="M540 104Q539 99 536 85T526 38L516 -14H488Q486 -10 485 -7T481 0T475 12T465 31L246 449L180 158Q179 155 177 141T171 110T166 79T163 61Q163 39 180 34T235 26L230 -1Q203 1 188 2T163 3T149 3T140 3Q134 3 123 3T99 3T77 2T62 2L4 -1L8 26Q26 27 48 30T91 48Q104 57 114 77T131 119T142 159T147 184L203 440Q204 441 204 445T205 451L216 507Q216 511 212 518T200 532T185 546T167 558Q143 571 123 573T89 575V602H275L510 153L584 456Q586 462 589 474T594 500T599 525T601 542Q601 550 599 555T590 563T568 568T531 575L535 602Q560 601 585 601T636 600L738 602V575Q696 574 680 565T658 551Q652 545 644 525T629 479T616 430T607 393L540 104Z"  />
<glyph unicode="O" horiz-adv-x="667" d="M704 356Q704 297 682 233T615 115T505 26T352 -9Q278 -9 228 17T146 83T102 170T88 258Q88 316 111 379T180 496T291 583T444 618Q499 618 546 598T629 542T684 459T704 356ZM591 392Q591 459 572 498T528 556T480 580T446 585Q402 585 366 568T302 522T254 456T221 378T202 298T196 223Q196 215 196 198T201 158T215 112T242 68T285 36T350 23Q414 23 459 59T534 151T577 271T591 392Z"  />
<glyph unicode="P" horiz-adv-x="521" d="M209 449Q211 456 213 469T218 495T222 521T224 540Q224 553 215 563T170 574H125L136 602H348Q402 602 442 590T508 558T547 509T560 447Q560 418 550 389T518 335T463 295T384 279Q358 279 342 283T312 292L319 318Q327 316 330 316T339 316Q350 316 370 321T409 339T442 377T456 441Q456 486 442 511T408 549T370 565T342 569Q337 550 332 529T319 475L218 44Q226 40 242 35T291 29Q310 29 323 31T348 36V7Q337 3 325 1T302 -2T283 -3T270 -3Q263 -3 245 -3T205 0Q184 1 165 1T138 2Q136 2 126 2T100 2T67 1T32 -2V27Q57 30 73 33T101 49T121 88T140 161L209 449Z"  />
<glyph unicode="Q" horiz-adv-x="677" d="M361 -9H339Q283 -9 237 12T158 70T107 155T89 257Q89 318 113 382T183 498T293 584T438 618Q503 618 553 596T637 535T689 448T707 346Q707 289 688 236T636 136T560 46T469 -30T372 -93T279 -140Q309 -150 364 -163T503 -177Q524 -177 551 -175T610 -166T677 -145T750 -107L766 -125Q745 -146 717 -167T654 -206T579 -234T496 -245Q438 -245 372 -224T245 -156Q244 -156 241 -157T237 -159Q195 -178 166 -186T129 -195Q116 -195 113 -183T110 -162Q110 -143 114 -132T126 -116T142 -109T158 -107Q183 -107 205 -113T240 -125Q263 -114 298 -95T373 -47T451 22T522 114T573 234T593 384Q593 393 593 411T588 452T574 498T549 541T507 572T444 585Q380 585 334 549T257 459T213 340T198 219Q198 149 217 110T263 50T320 25T371 17L361 -9Z"  />
<glyph unicode="R" horiz-adv-x="573" d="M222 502L228 535Q228 536 229 542T231 554Q231 561 222 565T200 573T169 576T136 574L146 604H207Q239 604 275 604T347 599T415 586T471 560T510 517T525 453Q525 405 488 365T369 308L435 164Q461 108 480 77T515 32T544 15T573 12V-14Q562 -15 542 -15T505 -16Q478 -16 460 -13T428 -3T405 15T387 44Q385 48 379 60T366 85T354 108T348 121L275 291H273L234 121Q230 103 226 83T222 50Q222 37 232 33T277 28H311V0H16V28Q52 28 72 31T105 47T124 84T140 150L222 502ZM280 315H297Q321 315 343 326T383 358T411 408T421 474Q421 503 413 521T393 551T365 566T336 570L280 315Z"  />
<glyph unicode="S" horiz-adv-x="417" d="M412 470Q412 489 405 508T385 544T352 571T309 582Q295 582 281 577T255 561T236 532T228 490Q228 466 235 445T253 404T280 365T313 327Q349 285 373 246T398 161Q398 115 376 82T320 27T246 -5T169 -16Q142 -16 118 -11T75 1T46 16T35 29Q35 32 36 42T42 64T51 84T64 93Q70 93 75 90T88 78Q94 72 103 62T126 41T154 24T187 16Q197 16 214 22T249 41T278 78T291 136Q291 158 287 176T273 211T251 244T221 281Q197 308 180 329T150 371T133 411T127 456Q127 499 145 529T191 578T252 605T316 614Q346 614 367 609T405 596T433 578T455 559Q453 551 448 524T440 470H412Z"  />
<glyph unicode="T" horiz-adv-x="563" d="M328 518Q330 529 333 546T339 572H243Q219 572 203 571T174 563T152 545T132 510H108L129 603H663Q661 597 658 583T651 554T644 524T640 505H616Q617 526 616 539T606 560T581 569T534 572H445L349 154Q345 136 340 111T335 68Q335 55 343 48T364 37T391 33T417 32Q422 32 443 33T492 45L505 26Q497 20 488 16T466 7T433 1T385 -1Q377 -1 360 -1T322 1Q302 1 285 1T261 2Q252 2 231 2T184 1Q159 0 137 0T102 -1L112 28Q146 27 168 29T204 45T227 85T247 162L328 518Z"  />
<glyph unicode="U" horiz-adv-x="667" d="M200 500Q202 508 204 526T207 553Q207 562 204 567T186 573Q160 575 152 575T136 577L143 604H408L397 577Q370 575 355 573T332 567T320 554T311 530Q301 496 290 448T268 348T251 248T244 165Q244 134 253 108T280 62T324 31T383 19Q440 19 478 55T539 174Q544 192 549 210T559 247L611 477Q615 494 620 517T625 555Q625 561 623 564T613 569T591 571T551 573L559 604H752V573Q730 573 715 571T689 562T671 541T657 502Q652 485 647 465T640 434L591 233L564 136Q552 93 531 64T482 17T424 -8T359 -16Q254 -16 198 36T141 175Q141 198 146 230T156 285L200 500Z"  />
<glyph unicode="V" horiz-adv-x="573" d="M206 -14H177L191 534Q192 553 192 559T189 568Q186 570 177 571T157 573T136 574T119 574V604H384V574Q356 574 338 572T310 559T296 523T292 453L286 153L288 151L514 473Q518 479 526 491T542 516T556 540T562 556Q562 561 560 563T551 568T529 571T491 574V604Q499 603 508 603T528 602Q539 601 550 601T576 601Q582 601 596 601T628 602T660 603T684 604V574Q664 570 650 567T624 555T598 533T566 492L206 -14Z"  />
<glyph unicode="W" horiz-adv-x="781" d="M212 -15H176L179 23V40L192 455L191 531Q191 557 189 563T176 572Q174 572 165 573T147 575T129 578T120 579V607Q148 605 180 604H239Q254 604 271 604T306 605T340 606T367 607V579Q347 579 333 577T310 561T295 516T289 428L282 183L284 181L454 490Q456 493 461 504T472 527T482 549T487 559Q487 567 480 571T462 577T440 579T421 579V607Q428 607 439 607T465 606Q480 605 499 605T543 604Q563 604 577 604T602 605T623 606T643 607V579Q617 574 606 570T589 555Q586 548 584 531T580 496T577 460T576 434L570 172L572 170L779 533Q780 535 784 545T788 560Q788 567 782 571T766 576T747 578T731 579L741 607Q747 607 760 607T790 606Q807 605 822 605T849 604Q862 604 870 604T885 606Q891 606 895 606T904 607V579Q888 578 876 576T853 569T833 553T812 526Q809 520 799 503T776 466T754 428T739 401Q734 392 724 373T701 331T673 282T645 234T623 196T610 175L557 86Q531 42 520 22T499 -15H463L480 463L478 465Q476 461 470 450T457 427T445 406T439 396L212 -15Z"  />
<glyph unicode="X" horiz-adv-x="698" d="M290 468Q274 503 262 524T239 556T217 571T190 575Q175 575 165 574T147 571V602Q156 602 185 603T249 604T315 605T359 606Q383 606 393 606T414 604V579Q404 581 394 581Q380 581 369 579T351 575Q352 572 355 564T361 546T368 529T373 518L426 413L501 514Q504 518 509 525T519 540T527 554T531 565Q531 575 519 576T481 579L486 604Q500 606 506 606T521 606H590Q601 606 611 606T632 605Q641 604 648 604T660 603H698V576Q690 577 683 577T668 577Q637 577 608 568T551 525L510 476L441 382L555 144L588 83Q592 75 595 70T600 60T604 51T611 40Q620 37 628 36T656 34Q677 34 688 36T709 40V15Q681 4 658 2T610 -1L499 -2Q494 -2 482 -2T457 -1T431 -1T414 0L418 31Q420 31 426 30T437 29Q440 29 446 30T459 34T471 43T476 61Q476 68 471 83T459 114T447 141T441 154L373 291L240 111Q234 103 228 94T215 75T205 58T201 46Q201 39 205 36T216 31T228 29T238 28Q253 28 270 29T303 31V3Q285 1 269 0T222 -2Q205 -2 181 -2T131 -2T82 -2T43 0L37 31Q44 30 52 30T69 29Q81 29 94 31T125 44T167 79T226 148L358 322L290 468Z"  />
<glyph unicode="Y" horiz-adv-x="552" d="M194 523Q189 541 184 552T170 568T149 575T117 578L130 604Q136 604 150 604T182 604T214 603T236 602Q261 602 289 603T370 605L363 574Q343 573 331 572T313 569T306 562T304 550Q304 531 310 500T323 443L351 347Q370 366 399 398T455 464T501 524T520 559Q520 564 518 566T510 570T493 572T461 572L466 603Q491 603 520 603T577 603T628 604T666 605V574Q645 573 630 571T599 563T569 542T533 502L430 372Q419 358 403 335T378 283Q373 266 368 247T360 215L336 106L329 59Q329 50 334 45T346 38T362 35T376 34Q394 34 413 37T434 40L430 9Q406 5 394 4T367 2Q354 2 321 2T250 0T178 -1T130 -2Q118 -2 109 -2T91 0L98 27H141Q157 27 171 33T194 61Q218 124 231 185T256 300L194 523Z"  />
<glyph unicode="Z" horiz-adv-x="531" d="M170 606H592Q554 552 515 500T434 395L317 242Q312 235 300 218T272 180T242 137T213 97L170 37Q189 36 217 36T281 35Q295 35 327 35T393 37T458 41T497 47Q500 48 514 57T545 88H577Q557 55 548 38T532 0H14L374 484Q376 486 384 498T403 526T423 554T436 573H206Q197 565 183 552T142 505L116 508L170 606Z"  />
<glyph unicode="[" horiz-adv-x="354" d="M238 666H449L441 626H274L93 -235H258L250 -275H39L238 666Z"  />
<glyph unicode="\" horiz-adv-x="566" d="M591 -279H525L63 664H129L591 -279Z"  />
<glyph unicode="]" horiz-adv-x="354" d="M163 -275H-48L-40 -235H127L308 626H143L151 666H362L163 -275Z"  />
<glyph unicode="^" horiz-adv-x="573" d="M139 303L340 654H380L577 303H500L356 553L214 303H139Z"  />
<glyph unicode="_" horiz-adv-x="500" d="M0 -75H500V-125H0V-75Z"  />
<glyph unicode="`" horiz-adv-x="333" d="M108 572H212L276 421H246L108 572Z"  />
<glyph unicode="a" horiz-adv-x="375" d="M376 73Q366 61 352 47T321 20T287 -1T256 -10Q241 -10 230 0T218 33Q218 55 221 76T228 114L226 116Q215 102 197 81T160 39T122 5T92 -9Q74 -9 63 -2T46 17T38 40T36 63Q36 76 41 107T60 175T101 251T171 317Q184 326 196 332T228 343T280 355T366 370Q361 356 357 342T347 309T337 263T325 199Q320 170 314 134T301 70Q299 66 299 59Q299 56 300 52T305 48Q313 48 326 59T353 83L363 91L376 73ZM112 85Q112 80 114 72T125 63Q131 63 141 71T163 89T186 111T203 130Q216 145 224 154T237 176T246 207T259 259Q261 268 263 280T268 296Q231 294 204 289T159 263Q148 250 140 228T125 182T116 132T112 85Z"  />
<glyph unicode="b" horiz-adv-x="354" d="M151 564Q152 567 153 574T156 590T159 606T160 617Q160 625 157 626T139 627H93L97 651Q105 651 124 653T163 658T201 663T224 668Q230 670 237 670Q240 670 243 669T246 661Q246 658 245 651T243 634T239 615T236 601L164 267L166 265Q166 265 182 280T219 314T262 347T296 362Q309 362 320 352T338 327T350 293T355 256Q355 208 333 161T279 75T210 14T144 -10Q130 -10 115 -4T86 14T65 45T56 87Q56 96 59 119T68 168T77 217T84 250L151 564ZM276 220Q276 229 276 239T273 259T266 275T252 282Q243 282 231 277T206 264T183 246T165 226Q159 218 154 200T146 162T140 122T137 91Q137 75 141 65T151 50T163 42T173 40Q188 40 206 52T239 88T265 145T276 220Z"  />
<glyph unicode="c" horiz-adv-x="271" d="M241 64Q233 58 217 46T181 22T138 1T96 -8Q72 -8 60 2T41 24T34 46T33 57Q33 78 40 109T59 173T90 241T129 301T176 345T229 362Q235 362 244 361T264 358T281 351T288 339Q288 332 286 323T280 307T272 294T263 288Q258 288 250 290Q236 295 218 297T190 299Q185 299 179 298T166 292T153 276T141 245Q135 221 131 198T124 154T120 118T118 95Q118 67 127 60T146 53Q166 53 188 64T226 84L241 64Z"  />
<glyph unicode="d" horiz-adv-x="396" d="M326 502Q327 506 328 511T330 525T334 549T342 589Q342 591 343 599T345 615Q345 623 338 624T320 626Q305 626 292 625T269 623L276 652L324 655Q330 655 345 657T376 660T406 663T422 665Q430 665 430 659Q430 657 425 632T413 566T395 473T374 367T353 261T336 168T323 100T318 70Q318 65 319 59T328 53Q333 53 340 57T354 67T369 79T382 91L400 73Q365 38 337 15T280 -9Q276 -9 269 -7T255 1T243 18T238 47Q238 61 240 74T244 98L242 100Q210 65 188 45T148 13T118 -3T89 -13Q76 -5 65 8T54 49Q54 64 58 89T69 145T88 205T114 259Q129 284 149 303T187 336T220 356T241 363Q244 363 252 363T270 362T287 362T298 361L326 502ZM133 110Q133 86 136 78T146 65Q170 67 194 90T256 160L288 310Q280 310 274 310T261 311Q220 311 195 293T157 245T138 180T133 110Z"  />
<glyph unicode="e" horiz-adv-x="281" d="M263 72Q254 66 234 52T190 25T140 1T96 -10Q71 -10 54 11T36 67Q36 98 44 132T64 195T84 246T97 273Q105 288 120 305T152 336T187 359T216 368Q221 368 235 367T263 360T289 345T300 315Q300 294 285 273T246 232T191 193T128 159Q125 143 122 126T119 92Q119 81 124 68T147 54Q155 54 181 62T250 93L263 72ZM135 198Q168 216 186 232T214 260T225 281T227 292Q227 305 216 309T193 314Q177 314 167 304T151 276T142 239T135 198Z"  />
<glyph unicode="f" horiz-adv-x="271" d="M324 343L318 305L206 302L169 79Q169 78 168 72T166 64Q160 22 150 -17T122 -93T78 -160T14 -217Q-17 -237 -54 -250T-134 -264Q-139 -264 -149 -264T-171 -259T-190 -246T-198 -220Q-198 -201 -184 -191T-146 -180Q-140 -180 -125 -182T-93 -187T-61 -192T-39 -195Q-7 -195 13 -178T45 -132T65 -68T78 5L126 302H51L60 337L136 343Q156 422 185 469T247 541T312 575T368 583Q389 583 409 574T429 540Q429 528 418 514T377 499Q372 499 359 501T331 505T303 509T284 511Q269 511 258 503T239 475T224 423T213 343H324Z"  />
<glyph unicode="g" horiz-adv-x="302" d="M49 177Q49 199 57 221T76 262T98 293T115 311Q121 315 136 324T168 343T202 360T226 367Q243 367 258 359T284 337T303 304T310 263Q310 249 304 224T285 173T255 123T213 88Q209 86 195 79T176 70Q174 69 161 63T133 46T106 24T93 0Q93 -17 109 -23T151 -36Q193 -46 218 -59T256 -86T273 -115T277 -147Q277 -185 264 -200T220 -229Q205 -236 184 -241T139 -251T93 -258T51 -261Q30 -261 7 -256T-37 -238T-70 -208T-83 -163Q-83 -132 -71 -112T-41 -78T-4 -58T27 -47Q25 -42 24 -37T22 -24Q22 -5 31 9T55 36T87 57T120 74Q112 78 100 84T77 102T57 132T49 177ZM124 181Q124 163 128 149T139 126T151 111T161 105Q169 105 182 117T206 140Q217 153 223 169T233 201T237 231T238 256Q238 286 229 298T185 311Q159 311 153 304T141 278Q139 269 136 256T131 230T126 203T124 181ZM205 -167Q205 -140 184 -130T132 -113Q109 -109 95 -104T72 -94T57 -84T46 -73Q27 -83 8 -97T-11 -134Q-11 -140 -6 -154T12 -184T48 -210T107 -221Q125 -221 142 -218T174 -209T196 -192T205 -167Z"  />
<glyph unicode="h" horiz-adv-x="344" d="M157 566Q157 568 160 582T163 601Q163 612 155 615T127 618Q122 618 116 618T94 617L101 644Q129 645 148 646T182 649T206 651T226 655Q236 657 238 657Q245 657 247 653T249 644Q249 639 244 612T230 546T212 461T193 374T177 302T168 260L170 258Q207 320 236 341T280 363Q306 363 325 333T344 258Q344 230 335 185T308 97T262 23T197 -8Q177 -8 173 0T168 18Q168 32 171 41T182 56T203 67T239 81Q255 86 270 110T286 189Q286 219 281 239T269 270T255 285T243 290Q237 290 223 278T192 240T160 179T135 97L115 -4H35L157 566Z"  />
<glyph unicode="i" horiz-adv-x="240" d="M230 79Q224 73 211 59T182 29T147 3T114 -9Q99 -9 87 3T74 44Q74 53 77 73T86 119T99 172T112 226T122 272T129 303Q111 295 95 281T72 259L52 277Q66 292 83 307T118 334T156 355T195 363Q216 363 216 342Q216 332 211 310T199 259T184 199T168 141T156 92T151 63Q151 58 152 55T157 51Q162 51 171 59T185 72Q186 72 194 79T210 96L230 79ZM169 492Q169 519 183 531T213 543Q216 543 222 542T236 536T248 521T254 494Q254 477 249 467T236 452T221 446T210 444Q193 444 181 456T169 492Z"  />
<glyph unicode="j" horiz-adv-x="240" d="M128 224Q128 228 130 239T134 262T138 286T141 301Q117 290 100 272T77 246H44Q72 285 97 308T144 343T183 359T211 363Q225 363 227 359T230 349Q230 344 229 337T226 322L166 46Q143 -53 116 -114T61 -208T11 -252T-29 -263Q-47 -263 -63 -250T-80 -209Q-80 -187 -70 -172T-53 -149Q-51 -155 -48 -164T-38 -181T-24 -196T-5 -202Q6 -202 15 -196T34 -174T52 -127T71 -50L128 224ZM186 492Q186 519 200 531T229 543Q232 543 239 542T252 536T264 521T270 494Q270 477 265 467T252 452T237 446T227 444Q210 444 198 456T186 492Z"  />
<glyph unicode="k" horiz-adv-x="365" d="M162 176H160L124 -4H43L161 540Q166 561 170 582T174 610Q174 618 171 620T160 622Q149 622 138 622T117 620V646Q160 652 186 655T223 663Q231 666 238 667T250 669Q255 669 258 668T262 660Q262 656 259 646L178 266L180 264Q190 276 205 292T240 322T279 347T319 357Q327 357 332 351T340 337T344 320T345 304Q345 263 333 240T302 205T264 190T228 185L299 56Q314 28 329 21T358 11L353 -13Q344 -12 330 -11T300 -8T272 -5T250 -4Q239 13 231 29T218 56L162 176ZM278 286Q278 291 276 297T269 304Q267 304 258 299T237 282T209 255T178 217Q186 215 192 214T213 213Q238 213 246 216T261 231Q266 241 272 258T278 286Z"  />
<glyph unicode="l" horiz-adv-x="229" d="M230 73Q227 71 219 65T202 51T185 38T174 30Q169 27 161 21T141 9T117 -1T94 -6Q89 -6 82 -4T69 2T58 14T53 31Q53 49 62 97T84 206T113 336T142 463T164 564T173 615Q173 620 170 623T148 627Q143 627 133 627T102 625L106 650Q122 651 143 653T182 658T215 663T235 666Q237 666 239 667T244 668Q249 668 252 666T256 656Q256 651 254 639T250 614T245 588T241 568L147 138Q139 105 138 87T136 66Q136 51 146 51Q151 51 164 58T192 75T217 93T230 101V73Z"  />
<glyph unicode="m" horiz-adv-x="594" d="M326 0H246L295 236Q297 247 299 261T302 280Q302 285 301 288T295 292Q292 292 274 282T236 256T198 222T177 187L138 0H66L117 261Q119 272 121 285T119 299Q116 299 106 291T85 271T63 249T50 236L32 256Q47 271 65 290T103 326T139 354T170 366Q178 366 190 359T203 331Q203 322 199 300T191 256Q231 288 262 309T315 342T351 359T370 364Q378 364 383 357T389 336Q389 334 388 323T384 297T380 271T378 256Q412 284 441 304T494 338T532 357T551 363Q558 363 565 354T572 330Q572 317 568 300T562 270L525 89Q523 78 521 67T518 53Q518 45 524 45Q532 45 547 57T579 90L596 78Q594 75 584 62T557 33T520 6T478 -6Q461 -6 453 7T444 33Q444 40 445 54T449 78L483 250Q485 257 486 266T487 280Q487 292 477 292Q472 292 456 282T420 257T385 224T365 189L326 0Z"  />
<glyph unicode="n" horiz-adv-x="417" d="M55 0Q58 12 61 24T67 52T76 90T88 144Q89 148 94 171T106 222T118 272T123 297Q123 304 117 304Q111 304 102 299T85 286T70 272T61 263L42 280Q86 326 120 344T175 362Q194 362 198 352T202 328Q202 323 202 318T200 304T196 282T188 247Q187 242 186 237T184 231L186 229Q240 290 289 326T363 362Q374 362 381 352T388 331Q388 323 384 300T374 247T362 185T349 124T339 76T335 53Q335 45 339 45Q344 45 351 50T366 63T381 78T392 90L408 78Q388 51 370 35T337 9T311 -3T292 -6Q273 -6 266 5T258 35Q258 44 261 63T269 108T279 160T289 210T297 251T300 274Q300 277 298 280T291 283Q288 283 275 276T245 254T208 219T173 172Q164 134 158 108T148 62T140 28T134 0H55Z"  />
<glyph unicode="o" horiz-adv-x="323" d="M327 236Q327 206 316 172T287 105T246 43T197 -6Q192 -7 181 -8T162 -10Q132 -10 110 4T74 40T52 88T44 139Q44 169 59 207T99 280T154 338T216 362Q234 362 253 354T289 329T316 290T327 236ZM121 181Q121 176 122 156T129 113T150 72T191 53Q211 53 224 73T245 117T256 165T259 194Q259 211 254 229T237 263T211 287T174 297Q157 297 147 283T131 250T123 212T121 181Z"  />
<glyph unicode="p" horiz-adv-x="385" d="M142 310Q118 301 99 284T66 247H39Q58 286 84 312T136 355T181 377T206 384Q211 384 219 381T227 363Q227 360 226 351T222 330T218 310T215 296Q243 318 260 330T287 350T302 359T311 361Q319 361 331 354T356 334T376 300T385 253Q385 234 380 208T365 152T340 95T304 45T259 8T202 -6Q185 -6 175 -1T156 10L122 -152Q120 -163 118 -174Q116 -183 115 -191T114 -202Q114 -212 119 -218T131 -227T145 -232T155 -234Q157 -234 163 -234T176 -235T188 -237T196 -238L193 -263Q185 -263 161 -263T112 -261Q86 -260 67 -260T46 -259Q23 -259 2 -260T-31 -263V-238Q-10 -234 2 -231T20 -224T28 -212T34 -193L142 310ZM169 74L181 59Q195 42 202 38T218 34Q239 34 254 46T278 78T293 120T302 165T305 204T306 229Q306 257 302 264T292 276Q287 281 280 285T267 290Q262 290 256 288T237 279Q236 278 227 272T210 263L169 74Z"  />
<glyph unicode="q" horiz-adv-x="354" d="M250 -172Q248 -180 247 -190T245 -207Q245 -216 250 -222T262 -231T278 -235T293 -236L289 -262Q281 -261 271 -261T246 -260Q232 -259 215 -259T177 -258Q159 -258 146 -258T122 -259T102 -260T82 -262V-232Q109 -231 124 -229T148 -221T159 -209T165 -190L177 -146L226 89Q222 86 213 78T193 61T173 45T161 34Q144 21 121 8T78 -6Q65 -6 58 0T46 16T41 37T40 58Q40 97 56 149T107 248T192 328T313 361Q319 361 327 361T342 360T355 355T360 347Q360 345 358 335T355 324L250 -172ZM272 304Q232 302 212 297T175 276Q160 262 149 235T131 178T121 121T117 81Q117 75 119 67T130 59Q134 59 144 64T169 80T201 103T234 133L272 304Z"  />
<glyph unicode="r" horiz-adv-x="344" d="M43 224Q77 265 116 305T197 365Q226 345 226 310Q226 298 225 288T222 266T216 241T206 208L208 206Q220 231 235 259T266 310T299 349T332 365Q338 365 345 364T359 358T371 347T376 327Q376 313 371 304T359 288T346 280T339 277Q336 277 326 282T313 287Q302 287 284 271T245 219T204 130T169 -1Q161 -2 150 -2T128 -2Q117 -2 107 -2T90 -1Q91 3 92 6T94 14T96 24T100 40L107 68Q108 74 115 101T129 163T143 229T149 275Q149 281 144 281Q142 281 134 276T115 260T91 236T64 206L43 224Z"  />
<glyph unicode="s" horiz-adv-x="281" d="M250 117Q250 90 238 68T205 29T160 3T111 -6Q90 -6 76 -1T52 13T38 31T33 48Q33 55 47 73T78 111Q79 103 80 91T87 68T104 49T135 40Q150 40 166 49T183 82Q183 101 172 116T132 161Q103 192 93 210T83 246Q83 278 103 300T150 337T207 357T255 364Q268 364 281 360T295 338Q295 332 293 323T288 307T280 294T269 288Q266 288 260 290T248 294T235 299T227 303Q203 310 186 310Q174 310 167 306T155 297T150 288T149 281Q149 266 165 246T196 212Q202 206 211 196T229 174T244 147T250 117Z"  />
<glyph unicode="t" horiz-adv-x="250" d="M174 186Q166 150 162 129T155 95T151 73T149 54Q166 64 183 80T210 108L231 92Q201 57 179 37T140 7T115 -7T101 -10Q87 -10 78 2T69 30Q69 39 69 46T71 65T77 96T89 151Q92 165 94 176T98 192L118 288Q118 290 119 297T122 306H74L83 343Q98 344 109 346T130 359T146 388T160 443L233 454Q231 448 228 433T222 401T215 369T210 347H281L269 306H201L174 186Z"  />
<glyph unicode="u" horiz-adv-x="427" d="M120 261Q121 265 122 272T124 283Q124 288 121 291T115 294Q111 294 103 287T84 268T63 244T44 220L25 236Q31 245 48 265T87 307T131 345T171 362Q179 362 190 356T201 330Q201 325 200 311T197 291L169 130Q168 126 167 119T165 106T163 94T162 87Q162 78 167 78Q175 78 195 99T240 155T289 234T328 324Q332 335 335 337T344 342Q347 343 353 345T368 351T383 356T393 359Q400 359 400 349Q400 344 398 332T394 307T389 283T387 269L348 86Q347 85 345 73T343 59Q343 55 346 53T351 51Q360 51 378 67T413 102L433 89Q421 71 404 53T369 22T337 0T313 -9Q311 -9 304 -7T288 -1T272 11T265 30Q265 35 266 44T274 81L298 196L296 198Q280 168 257 133T208 67T154 15T101 -6Q91 -6 86 -3T79 5T76 15T75 25Q75 32 76 42T80 65T84 88T88 107L120 261Z"  />
<glyph unicode="v" horiz-adv-x="365" d="M26 265Q47 295 61 314T88 345T110 361T135 366Q146 366 153 362T165 347T175 314T187 258Q190 243 193 222T201 176T209 122T219 67Q228 75 243 91T272 127T296 172T307 221Q307 237 303 250T293 275T281 295T270 309Q272 329 280 340T299 356T318 362T329 363Q336 363 341 354T351 333T357 308T359 285Q359 236 340 191T292 107T235 39T184 -6H154L125 185Q123 194 121 207T116 234T112 259T109 275Q107 286 104 296T95 307Q92 307 86 302T74 288T60 270T48 251L26 265Z"  />
<glyph unicode="w" horiz-adv-x="583" d="M317 309L377 366L444 70Q476 112 496 139T527 184T541 217T545 247Q545 261 542 268T536 282Q527 284 522 286T509 296L553 366Q559 361 567 355T582 339T593 314T598 278Q598 234 580 197T529 117Q507 88 492 69T464 36T443 13T423 -6H388L347 172Q333 151 317 128T283 80T248 34T215 -6H180L116 276Q114 284 112 291T105 299Q100 299 93 291T79 271T67 250T60 236L42 254Q47 264 56 283T78 320T106 352T138 366Q159 366 169 345T188 282L234 70Q253 95 267 114T293 149T315 182T337 216L317 309Z"  />
<glyph unicode="x" horiz-adv-x="490" d="M252 160Q248 169 235 189T208 230T182 269T165 290Q162 293 156 293Q153 293 150 292T141 286T127 273T104 251L87 270Q109 296 124 312T150 338T169 355T187 369Q196 362 206 353T230 329T260 289T301 225L366 307Q369 311 378 320T399 338T426 354T456 361Q476 361 485 346T495 318Q495 298 483 287T463 270Q461 279 455 290T431 302Q423 302 415 300T394 287T363 255T318 196Q326 181 337 163T369 115Q391 80 400 70T421 59Q427 59 435 62T463 79L479 61Q475 57 460 46T429 23T399 2T384 -8Q378 -5 370 -1T350 14T326 40T297 83Q290 95 286 102T279 115T274 123T268 131Q265 127 262 124T253 113T238 95T213 64Q192 38 166 16T106 -6Q83 -6 64 6T44 42Q44 46 46 59T64 85Q69 74 80 62T117 49Q144 49 164 63T211 109L252 160Z"  />
<glyph unicode="y" horiz-adv-x="375" d="M-41 -171Q-30 -179 -16 -187T15 -195Q30 -195 58 -180T114 -138T163 -73T184 12Q184 51 174 99T151 188T124 258T103 286Q97 286 90 278T76 259T63 236T53 215L31 228Q54 291 86 328T138 366Q154 366 171 339T203 267T230 165T247 48H249Q275 101 297 154T319 262Q319 264 319 270T317 282T312 292T301 297Q296 297 292 295T280 284L267 301Q293 343 313 354T347 366Q351 366 355 360T362 344T366 322T368 299Q368 244 348 181T295 55T221 -65T136 -167T53 -237T-17 -264Q-48 -264 -64 -251T-90 -226L-41 -171Z"  />
<glyph unicode="z" horiz-adv-x="365" d="M278 278Q260 278 248 279T217 285Q213 286 203 288T185 291Q160 291 143 272T114 233Q114 231 112 228T109 223Q99 231 96 234T90 244Q99 262 110 282T137 318T171 344T213 355Q219 355 234 353T267 347T301 342T324 339Q332 339 342 342T369 359Q371 360 373 362T378 366L390 340L119 72L121 70Q129 74 137 76T157 79Q163 79 177 76T207 70T238 64T259 61Q285 61 304 74T336 99L356 83Q345 70 331 54T298 24T258 0T214 -10Q209 -10 203 -10T189 -7L158 2Q142 7 124 10T91 13Q66 13 52 6T26 -8H-8L278 278Z"  />
<glyph unicode="{" horiz-adv-x="480" d="M146 202Q178 206 199 218T234 246T252 278T258 307Q258 315 255 336T247 382Q243 406 239 427T235 458Q235 488 246 519T281 576T339 622T419 647V630Q372 619 340 591T308 514Q308 506 311 485T319 439T327 393T331 362Q331 350 327 329T307 284T264 235T186 194V192Q224 178 251 159T296 116T322 69T331 23Q331 15 328 -6T320 -53Q316 -77 312 -99T308 -130Q308 -179 339 -206T419 -246V-263Q374 -257 340 -238T283 -193T247 -136T235 -73Q235 -65 238 -44T246 2T254 47T258 78Q258 91 253 107T234 138T200 166T146 182V202Z"  />
<glyph unicode="|" horiz-adv-x="531" d="M277 750H342V-250H277V750Z"  />
<glyph unicode="}" horiz-adv-x="480" d="M403 182Q371 177 350 165T315 138T297 106T291 77Q291 69 294 48T303 2Q308 -22 311 -43T314 -74Q314 -104 303 -135T268 -192T210 -238T130 -263V-246Q177 -235 209 -208T241 -130Q241 -122 238 -101T230 -55T222 -9T218 22Q218 34 222 55T242 100T285 149T363 190V192Q325 205 298 225T253 268T227 315T218 361Q218 369 221 390T230 437Q235 461 238 483T241 514Q241 563 210 590T130 630V647Q175 641 209 622T266 577T302 520T314 457Q314 449 311 428T303 382T295 337T291 306Q291 293 296 277T315 246T349 218T403 202V182Z"  />
<glyph unicode="~" horiz-adv-x="667" d="M114 194Q115 222 122 248T144 296T181 329T236 342Q244 342 254 341T285 335T338 317T422 283Q448 272 465 266T494 256T513 253T527 252Q539 252 553 255T580 268T603 295T616 341H641Q640 302 629 274T600 228T560 202T515 193Q501 193 488 195T456 203T408 220T332 251Q287 270 265 276T227 282Q200 282 184 272T158 248T145 219T139 194H114Z"  />
<glyph unicode="&#xA0;" horiz-adv-x="250" />
<glyph unicode="&#xA1;" horiz-adv-x="177" d="M125 165Q125 156 121 130T112 73T101 17T95 -19Q95 -21 93 -38T87 -79T79 -132T72 -185T66 -225T63 -242Q59 -246 47 -249T20 -256T-5 -260T-16 -262Q-26 -262 -26 -252Q-26 -249 -21 -233T-10 -198T2 -160T10 -135Q33 -60 54 14T95 165Q97 165 101 166T110 167Q114 167 118 166T125 165ZM95 331Q107 360 122 368T145 376Q163 376 170 363T178 333Q178 321 172 310T157 290T140 276T129 271Q127 271 123 273T112 281T101 300T95 331Z"  />
<glyph unicode="&#xA2;" horiz-adv-x="271" d="M258 359Q267 357 277 353T288 339Q288 332 286 323T281 307T273 294T264 288Q262 288 259 289T250 291Q241 294 235 294L147 53Q153 53 158 54T173 58T194 67T226 84L241 64Q235 59 224 51T197 32T163 13T126 -4L70 -158L44 -148L95 -8Q72 -7 60 2T41 22T34 43T33 57Q33 78 40 108T59 173T90 240T129 301T176 345T230 362L261 447L287 438L258 359ZM124 67L207 299Q187 301 176 299T155 279Q146 264 140 237T128 180T121 127T118 94Q118 86 119 81T122 67H124Z"  />
<glyph unicode="&#xA3;" horiz-adv-x="479" d="M548 571L469 506Q464 515 455 526T434 548T410 566T388 574Q373 574 363 567T345 551T333 533T328 521Q325 511 322 501T315 472T305 421T288 334Q290 334 318 335T382 339T450 343T494 346Q494 343 494 337T493 324T488 312T479 307H432Q394 306 357 304T280 298Q271 241 263 208T244 153T214 113T165 69L167 67Q180 69 190 70T221 71Q224 71 240 71T278 69T324 66T369 61Q371 60 378 59T391 58Q408 58 429 74T476 115Q476 116 478 118T482 121L503 106Q501 102 493 93T477 74T462 57T455 49Q452 47 447 41T436 27T425 14T417 6Q412 1 401 -5T374 -12Q367 -12 359 -11T347 -8Q316 -2 287 1T226 4Q212 4 200 4T172 2T139 0T96 -5L76 -23L56 -5Q79 16 95 32T124 64T144 98T158 143T170 205T184 294Q156 294 138 294T108 294T85 295T63 298Q71 307 74 313T85 334Q99 331 109 330T142 329Q152 329 160 329T192 330Q207 422 224 472T264 546Q292 575 335 593T421 612Q450 612 470 601T503 576L533 592L548 571Z"  />
<glyph unicode="&#xA4;" horiz-adv-x="688" d="M255 500Q274 513 305 528T388 544Q439 544 470 529T521 500L583 562L626 518L564 456Q577 438 593 407T609 324Q609 298 605 278T593 241T578 213T564 191L626 129L583 86L521 147Q502 134 471 119T388 103Q336 103 305 118T255 147L193 86L149 129L212 191Q198 209 183 240T167 324Q167 375 182 406T211 457L149 518L193 562L255 500ZM547 324Q547 357 535 385T500 435T450 469T388 482Q355 482 326 470T276 436T242 386T229 324Q229 291 241 262T275 212T326 178T388 165Q421 165 449 177T500 211T534 262T547 324Z"  />
<glyph unicode="&#xA5;" horiz-adv-x="552" d="M561 298H383Q375 278 370 254T359 210H550L546 172H350Q347 158 343 141T336 108T331 79T329 60Q329 51 334 46T346 39T362 36T376 35Q394 35 413 38T434 41L430 12Q406 7 394 6T367 4Q359 4 341 4T299 3T250 2T201 1T158 0T130 -1Q118 -1 109 -1T91 1L98 28Q132 26 151 28T182 43T203 87T228 172H75L79 210H236L255 294H86L90 332H248L226 414Q222 428 216 452T200 508L188 546Q181 569 164 576T117 583L121 609Q128 609 133 609T145 610T163 610T192 608Q222 607 243 606T283 605T322 605T370 605L364 576Q344 575 332 574T314 571T305 564T303 551Q303 532 308 508T318 458L352 346Q363 357 379 375T414 416T452 461T486 505T510 540T520 562Q520 567 518 569T510 573T493 575T461 575L466 606Q481 606 509 606T569 607T627 609T666 610V579Q638 577 622 575T591 564T561 537T517 483L445 392Q433 377 422 362T402 336H565L561 298Z"  />
<glyph unicode="&#xA6;" horiz-adv-x="531" d="M277 175H342V-175H277V175ZM277 675H342V325H277V675Z"  />
<glyph unicode="&#xA7;" horiz-adv-x="438" d="M182 412Q177 429 172 448T167 497Q167 545 183 577T225 629T279 657T332 666Q350 666 369 662T403 652T428 638T438 623Q438 618 434 610T423 593T409 579T396 572Q390 572 383 576T368 585T355 595T346 603Q328 620 318 624T298 629Q275 629 256 608T237 542Q237 525 239 508T250 468T272 412T309 333Q328 293 343 262T368 207T383 162T388 123Q388 118 386 102T374 65T343 19T283 -27Q291 -47 295 -67T300 -111Q300 -152 284 -183T244 -236T190 -269T135 -280Q115 -280 95 -275T58 -263T31 -247T21 -232Q21 -225 27 -216T41 -199T59 -185T74 -179Q76 -179 83 -183T99 -193T115 -204T126 -212Q131 -215 146 -224T178 -233Q193 -233 204 -226T223 -209T233 -186T237 -162Q237 -138 228 -109T207 -49T181 7T159 49Q123 118 98 173T73 277Q73 301 81 321T105 359T140 389T182 412ZM193 385Q177 375 169 363T156 338T152 317T151 303Q151 263 171 214T232 87Q241 68 247 56T258 34T265 18T271 3Q276 6 284 12T301 29T315 52T321 82Q321 100 311 129T289 187T265 239T249 271L193 385Z"  />
<glyph unicode="&#xA8;" horiz-adv-x="333" d="M172 524Q192 524 207 510T222 475Q222 454 207 440T172 425Q152 425 138 439T123 475Q123 495 137 509T172 524ZM335 525Q355 525 370 511T385 475Q385 455 370 441T335 426Q315 426 301 440T286 475Q286 497 300 511T335 525Z"  />
<glyph unicode="&#xA9;" horiz-adv-x="750" d="M597 540V411H579Q572 446 557 467T523 499T487 513T459 516Q417 516 392 497T354 451T336 393T332 339Q332 302 337 267T364 202Q381 182 405 169T456 156Q483 156 504 164T541 183T567 205T584 224V189Q554 157 514 142T428 127Q390 127 353 139T287 176T241 238T223 326Q223 375 240 415T287 483T355 526T438 541Q465 541 486 536T534 521Q543 517 547 516T556 515Q571 515 574 525T579 540H597ZM434 677Q505 677 568 650T678 577T752 467T780 331Q780 259 753 196T679 86T569 12T434 -15Q362 -15 299 12T189 86T115 196T88 331Q88 403 115 466T190 576T300 650T434 677ZM434 634Q372 634 317 611T220 546T155 450T131 331Q131 268 155 213T220 117T316 52T434 28Q497 28 552 52T648 117T713 213T737 331Q737 394 713 449T648 546T551 610T434 634Z"  />
<glyph unicode="&#xAA;" horiz-adv-x="240" d="M194 448Q187 440 177 430T157 410T136 394T118 387Q96 387 86 400T76 432Q76 441 79 460T92 501T119 546T166 586Q177 592 185 595T207 602T242 608T300 618Q295 603 286 573T273 512Q271 495 266 474T257 435L255 428Q256 428 261 431T272 439T284 449T292 456L305 438Q303 435 295 427T274 409T249 393T223 386Q203 386 198 397T192 419Q192 425 193 429T196 446L194 448ZM223 567Q204 565 189 562T164 547Q158 539 153 527T144 500T138 473T136 450Q136 447 136 442T139 437Q141 437 148 442T163 454T181 471T197 488Q200 492 202 495T207 505T212 521T219 549Q220 554 221 559T223 567Z"  />
<glyph unicode="&#xAB;" horiz-adv-x="406" d="M45 183L250 371H278L150 183L200 -1H175L45 183ZM204 183L409 371H437L307 183L359 -1H333L204 183Z"  />
<glyph unicode="&#xAC;" horiz-adv-x="667" d="M112 410H643V122H579V346H112V410Z"  />
<glyph unicode="&#xAD;" horiz-adv-x="344" d="M264 214Q274 214 287 215T309 226Q318 235 322 238T332 242Q336 242 340 240T350 236L298 139Q290 139 281 139T239 142Q206 144 177 144T115 144H90Q88 142 84 138T74 129T65 121T57 117Q52 117 49 120T45 126Q45 128 46 129T47 132Q50 136 58 149T75 175T94 200T110 213Q114 213 124 213T144 214T163 215T173 215L264 214Z"  />
<glyph unicode="&#xAE;" horiz-adv-x="750" d="M249 532H425Q458 532 479 530T515 525T538 517T554 508Q566 500 582 480T599 425Q599 420 598 407T588 379T563 348T512 324L578 202Q590 181 602 169T629 154V137H512L412 317H389V220Q389 200 391 188T399 168T416 158T448 154V137H241V154Q253 154 262 155T278 162T288 182T292 220V451Q292 489 284 501T249 515V532ZM389 342Q392 341 400 341T416 340Q428 340 442 344T467 359T486 386T494 427Q494 458 484 475T458 500T424 509T389 511V342ZM434 677Q505 677 568 650T678 577T752 467T780 331Q780 259 753 196T679 86T569 12T434 -15Q362 -15 299 12T189 86T115 196T88 331Q88 403 115 466T190 576T300 650T434 677ZM434 634Q372 634 317 611T220 546T155 450T131 331Q131 268 155 213T220 117T316 52T434 28Q497 28 552 52T648 117T713 213T737 331Q737 394 713 449T648 546T551 610T434 634Z"  />
<glyph unicode="&#xAF;" horiz-adv-x="333" d="M106 434L124 515H363L345 434H106Z"  />
<glyph unicode="&#xB0;" horiz-adv-x="396" d="M92 444Q92 479 105 510T142 564T195 600T261 613Q296 613 326 600T380 563T416 510T430 444Q430 409 417 379T381 325T327 289T261 275Q226 275 196 288T142 325T106 378T92 444ZM156 444Q156 422 164 403T187 370T220 347T261 339Q283 339 302 347T335 370T358 403T366 444Q366 466 358 485T335 518T302 540T261 549Q240 549 221 541T187 519T165 485T156 444Z"  />
<glyph unicode="&#xB1;" horiz-adv-x="667" d="M112 64H643V0H112V64ZM112 447H345V669H409V447H643V383H409V162H345V383H112V447Z"  />
<glyph unicode="&#xB2;" horiz-adv-x="302" d="M80 308Q92 314 122 337T185 391T242 459T267 526Q267 555 252 569T218 584Q214 584 206 583T187 575T168 555T151 520L124 531Q136 570 166 592T237 614Q278 614 307 594T337 533Q337 510 326 489T283 435Q277 429 261 416T227 387T194 359T172 340L285 343Q302 344 305 345T317 356H346L306 295H143Q119 295 105 294T74 288L80 308Z"  />
<glyph unicode="&#xB3;" horiz-adv-x="302" d="M159 564Q203 613 267 613Q304 613 319 597T334 565Q334 551 327 539T309 516T287 497T266 482Q273 481 284 479T304 470T321 452T328 422Q328 394 312 370T270 328T214 300T155 289Q151 289 142 289T121 293T99 304T82 326Q90 331 96 333T119 336Q124 329 134 320T163 311Q179 311 197 319T229 340T253 371T263 406Q263 423 252 437T219 451Q206 451 194 449T170 443L179 467Q189 471 205 477T235 492T259 515T270 546Q270 562 261 570T238 579Q213 579 193 563T156 530L159 564Z"  />
<glyph unicode="&#xB4;" horiz-adv-x="333" d="M235 421H206L298 571H400L235 421Z"  />
<glyph unicode="&#xB5;" horiz-adv-x="500" d="M164 361H239L187 181Q186 180 183 168T176 140T169 111T166 92Q166 89 167 80T172 60T187 42T215 34Q228 34 248 41T292 70T338 133T382 245L416 361H490L429 148Q427 143 424 134T419 115T414 94T412 75Q412 73 412 67T415 54T423 42T440 36Q452 36 462 42T480 59T495 82T507 105H525Q518 84 508 63T483 26T448 -1T401 -12Q399 -12 389 -11T368 -2T347 20T337 62Q337 68 337 78T340 97L338 99Q317 67 296 46T254 12T215 -6T183 -12Q163 -12 150 -7T127 7T113 24T103 41Q95 15 91 -3T83 -39T78 -78T73 -133Q72 -145 70 -159T61 -186T45 -207T20 -215Q6 -215 -1 -209T-11 -196T-15 -183T-16 -176Q-16 -170 -15 -165T-11 -150T0 -125T21 -86Q38 -52 52 -14T77 63L90 105L164 361Z"  />
<glyph unicode="&#xB6;" horiz-adv-x="490" d="M434 -116Q381 -109 337 -99T256 -67T185 -11T119 83Q111 97 103 113T89 145T79 175T75 200Q75 204 77 216T88 250T113 302T158 372Q173 394 195 417T257 462T359 498T520 519L517 485Q506 484 494 483T464 480T424 474T369 464Q367 463 360 462T350 460L341 -64Q346 -66 359 -69T388 -75T416 -81T436 -85L434 -116ZM316 451Q299 444 286 435T265 400Q256 371 254 312T251 150Q251 93 252 58T260 2T277 -30T307 -52L316 451Z"  />
<glyph unicode="&#xB7;" horiz-adv-x="177" d="M95 297Q95 308 102 318T118 337T135 349T145 354Q158 354 169 340T180 308Q180 288 165 270T131 251Q119 251 112 257T101 272T96 288T95 297Z"  />
<glyph unicode="&#xB8;" horiz-adv-x="333" d="M164 10H189L164 -35Q193 -42 200 -59T208 -91Q208 -114 198 -133T169 -167T126 -188T73 -196L76 -170Q106 -167 122 -159T145 -141T154 -124T156 -114Q156 -102 151 -95T139 -85T124 -82T112 -81L164 10Z"  />
<glyph unicode="&#xB9;" horiz-adv-x="302" d="M169 609Q183 609 201 609T237 609T272 610T303 612Q295 583 287 554T271 496L226 327Q235 324 241 322T254 319T267 317T286 314L294 295L144 293Q149 303 155 319T165 347L221 553Q223 561 224 565T227 577Q220 579 215 580T204 583T189 586T163 589L169 609Z"  />
<glyph unicode="&#xBA;" horiz-adv-x="208" d="M189 395Q178 392 164 392Q131 392 107 417T82 482Q82 504 93 528T121 572T159 605T200 618Q203 618 214 615T239 604T263 580T274 540Q274 514 263 489T237 444T208 411T189 395ZM193 437Q204 454 211 476T219 512Q219 520 217 530T209 550T194 566T170 573Q161 573 156 563T148 541T144 519T143 507Q143 499 144 487T149 464T161 444T183 436Q189 436 193 437Z"  />
<glyph unicode="&#xBB;" horiz-adv-x="406" d="M278 187L73 -1H45L173 187L123 371H148L278 187ZM437 187L232 -1H204L332 187L282 371H307L437 187Z"  />
<glyph unicode="&#xBC;" horiz-adv-x="677" d="M403 111Q419 145 445 175T498 229T550 270T590 297Q605 306 614 311T631 319T648 324T671 328L622 155H677L664 111H610L578 -1Q566 -1 559 -1T545 -1T531 -3T511 -5L544 111H403ZM557 155L591 267Q562 249 542 233T507 204T483 178T465 155H557ZM222 553Q225 564 225 567T228 577Q217 581 201 583T164 589L170 609Q184 609 201 609T237 609T272 610T303 612L300 600Q299 598 295 582T285 547T276 513T271 496L226 327Q235 324 241 322T254 319T267 317T286 314L294 295L144 293Q146 296 149 304T156 320T162 336T165 347L222 553ZM226 -16Q212 -17 202 -20T175 -32L152 -25Q191 28 230 85T306 200T377 311T440 412T490 496T525 557L579 655Q594 655 613 657T643 661Q578 568 527 490T432 342T351 205T273 68L226 -16Z"  />
<glyph unicode="&#xBD;" horiz-adv-x="677" d="M221 553Q225 564 225 567T227 577Q216 581 200 583T164 589L170 609Q184 609 201 609T237 609T272 610T303 612Q303 612 298 595T287 556T276 516T271 496L226 327Q235 324 241 322T254 319T267 317T286 314L294 295L144 293Q146 296 149 304T156 320T162 336T165 347L221 553ZM465 1Q441 1 427 0T396 -6L401 14Q409 18 426 29T464 58T507 97T547 142T577 188T589 232Q589 261 574 275T540 290Q536 290 528 289T509 281T490 261T473 226L446 237Q457 276 487 298T559 320Q600 320 629 300T658 239Q658 229 656 217T643 188T612 149T554 96Q551 93 543 86T525 72T506 57T493 48L495 46L607 49Q623 50 627 51T638 62H667L628 1H465ZM226 -16Q212 -17 202 -20T175 -32L152 -25Q191 28 230 85T306 200T377 311T440 412T490 496T525 557L579 655Q593 655 612 657T643 661Q578 568 527 490T432 342T351 205T273 68L226 -16Z"  />
<glyph unicode="&#xBE;" horiz-adv-x="677" d="M403 111Q419 145 445 175T498 229T551 270T591 297Q605 306 614 311T632 319T649 324T672 328L622 155H677L664 111H610L578 -1Q566 -1 559 -1T545 -1T531 -3T511 -5L544 111H403ZM557 155L591 267Q562 249 542 233T507 204T483 178T465 155H557ZM180 467Q190 471 205 477T235 492T259 515T270 546Q270 562 261 570T238 579Q214 579 194 563T156 530L160 564Q203 613 268 613Q305 613 319 597T334 565Q334 551 327 539T309 516T287 497T266 482Q274 481 285 479T305 470T322 452T329 422Q329 394 313 370T271 328T215 300T156 289Q152 289 142 289T121 293T99 304T82 326Q90 331 96 333T119 336Q124 329 134 320T164 311Q180 311 197 319T229 340T253 371T263 406Q263 423 252 437T219 451Q207 451 195 449T170 443L180 467ZM226 -16Q212 -17 202 -20T175 -32L152 -25Q191 28 230 85T306 200T377 311T440 412T490 496T525 557L579 655Q594 655 613 657T643 661Q578 568 527 490T432 342T351 205T273 68L226 -16Z"  />
<glyph unicode="&#xBF;" horiz-adv-x="323" d="M184 -238Q183 -240 181 -244T177 -252Q166 -257 152 -261T113 -265Q53 -265 17 -233T-19 -150Q-19 -131 -13 -108T1 -62T17 -23T32 0Q47 15 57 23T80 38T112 48T164 60Q192 66 209 79T236 106T249 135T255 158H283Q282 150 280 136T275 106T265 74T251 48Q235 28 212 10T163 -11Q100 -19 66 -38T32 -100Q32 -118 40 -134T61 -164T92 -185T126 -193Q152 -193 168 -181T193 -158Q203 -156 206 -156Q212 -156 213 -160T215 -172Q215 -186 211 -196T203 -211L184 -238ZM317 286Q317 278 313 269T301 253T287 240T274 235Q265 235 259 240T249 254T242 270T240 285Q240 300 250 312T277 324Q281 324 288 323T301 317T312 305T317 286Z"  />
<glyph unicode="&#xC0;" horiz-adv-x="583" d="M394 219Q378 221 363 223T318 225Q287 225 268 223T232 219Q229 214 215 191T184 139T156 83T143 44Q143 37 150 34T166 29T185 27T201 26L195 -3Q185 -3 171 -3T134 -1Q113 -1 99 -1T73 0Q56 0 44 0T22 -1T6 -2T-10 -3L-2 26Q21 26 36 28T63 37T87 60T116 103Q167 184 208 247T287 367T366 479T459 598Q461 601 469 610T479 622H511Q511 614 511 606T509 584T506 544T501 476Q499 453 497 403T492 296T487 183T485 91Q485 79 486 68T491 47T506 33T535 28Q551 28 564 32T586 40V12Q566 4 546 1T504 -3Q498 -3 483 -3T449 -1Q432 -1 416 -1T393 0Q359 0 343 0T307 -3L312 26Q336 29 350 32T371 41T382 59T386 90L394 219ZM408 473L406 475Q393 458 374 432T334 375T294 316T262 265Q268 264 273 264T286 263T303 262T328 262Q344 262 354 262T372 262T385 263T397 265L408 473ZM353 799H457L521 648H491L353 799Z"  />
<glyph unicode="&#xC1;" horiz-adv-x="583" d="M394 219Q378 221 363 223T318 225Q287 225 268 223T232 219Q229 214 215 191T184 139T156 83T143 44Q143 37 150 34T166 29T185 27T201 26L195 -3Q185 -3 171 -3T134 -1Q113 -1 99 -1T73 0Q56 0 44 0T22 -1T6 -2T-10 -3L-2 26Q21 26 36 28T63 37T87 60T116 103Q167 184 208 247T287 367T366 479T459 598Q461 601 469 610T479 622H511Q511 614 511 606T509 584T506 544T501 476Q499 453 497 403T492 296T487 183T485 91Q485 79 486 68T491 47T506 33T535 28Q551 28 564 32T586 40V12Q566 4 546 1T504 -3Q498 -3 483 -3T449 -1Q432 -1 416 -1T393 0Q359 0 343 0T307 -3L312 26Q336 29 350 32T371 41T382 59T386 90L394 219ZM408 473L406 475Q393 458 374 432T334 375T294 316T262 265Q268 264 273 264T286 263T303 262T328 262Q344 262 354 262T372 262T385 263T397 265L408 473ZM450 648H421L513 798H615L450 648Z"  />
<glyph unicode="&#xC2;" horiz-adv-x="583" d="M394 219Q378 221 363 223T318 225Q287 225 268 223T232 219Q229 214 215 191T184 139T156 83T143 44Q143 37 150 34T166 29T185 27T201 26L195 -3Q185 -3 171 -3T134 -1Q113 -1 99 -1T73 0Q56 0 44 0T22 -1T6 -2T-10 -3L-2 26Q21 26 36 28T63 37T87 60T116 103Q167 184 208 247T287 367T366 479T459 598Q461 601 469 610T479 622H511Q511 614 511 606T509 584T506 544T501 476Q499 453 497 403T492 296T487 183T485 91Q485 79 486 68T491 47T506 33T535 28Q551 28 564 32T586 40V12Q566 4 546 1T504 -3Q498 -3 483 -3T449 -1Q432 -1 416 -1T393 0Q359 0 343 0T307 -3L312 26Q336 29 350 32T371 41T382 59T386 90L394 219ZM408 473L406 475Q393 458 374 432T334 375T294 316T262 265Q268 264 273 264T286 263T303 262T328 262Q344 262 354 262T372 262T385 263T397 265L408 473ZM469 798H551L582 648H556L499 727L374 648H346L469 798Z"  />
<glyph unicode="&#xC3;" horiz-adv-x="583" d="M394 219Q378 221 363 223T318 225Q287 225 268 223T232 219Q229 214 215 191T184 139T156 83T143 44Q143 37 150 34T166 29T185 27T201 26L195 -3Q185 -3 171 -3T134 -1Q113 -1 99 -1T73 0Q56 0 44 0T22 -1T6 -2T-10 -3L-2 26Q21 26 36 28T63 37T87 60T116 103Q167 184 208 247T287 367T366 479T459 598Q461 601 469 610T479 622H511Q511 614 511 606T509 584T506 544T501 476Q499 453 497 403T492 296T487 183T485 91Q485 79 486 68T491 47T506 33T535 28Q551 28 564 32T586 40V12Q566 4 546 1T504 -3Q498 -3 483 -3T449 -1Q432 -1 416 -1T393 0Q359 0 343 0T307 -3L312 26Q336 29 350 32T371 41T382 59T386 90L394 219ZM408 473L406 475Q393 458 374 432T334 375T294 316T262 265Q268 264 273 264T286 263T303 262T328 262Q344 262 354 262T372 262T385 263T397 265L408 473ZM329 664Q332 674 337 690T353 722T380 749T420 761Q443 761 461 754T488 741Q510 730 522 726T545 721Q566 721 575 734T586 754H612Q609 737 602 719T583 686T555 661T517 651Q499 651 481 658T447 674Q421 687 412 691T394 695Q374 695 367 684T355 664H329Z"  />
<glyph unicode="&#xC4;" horiz-adv-x="583" d="M394 219Q378 221 363 223T318 225Q287 225 268 223T232 219Q229 214 215 191T184 139T156 83T143 44Q143 37 150 34T166 29T185 27T201 26L195 -3Q185 -3 171 -3T134 -1Q113 -1 99 -1T73 0Q56 0 44 0T22 -1T6 -2T-10 -3L-2 26Q21 26 36 28T63 37T87 60T116 103Q167 184 208 247T287 367T366 479T459 598Q461 601 469 610T479 622H511Q511 614 511 606T509 584T506 544T501 476Q499 453 497 403T492 296T487 183T485 91Q485 79 486 68T491 47T506 33T535 28Q551 28 564 32T586 40V12Q566 4 546 1T504 -3Q498 -3 483 -3T449 -1Q432 -1 416 -1T393 0Q359 0 343 0T307 -3L312 26Q336 29 350 32T371 41T382 59T386 90L394 219ZM408 473L406 475Q393 458 374 432T334 375T294 316T262 265Q268 264 273 264T286 263T303 262T328 262Q344 262 354 262T372 262T385 263T397 265L408 473ZM387 751Q407 751 422 737T437 702Q437 681 422 667T387 652Q367 652 353 666T338 702Q338 722 352 736T387 751ZM550 752Q570 752 585 738T600 702Q600 682 585 668T550 653Q530 653 516 667T501 702Q501 724 515 738T550 752Z"  />
<glyph unicode="&#xC5;" horiz-adv-x="583" d="M394 219Q378 221 363 223T318 225Q287 225 268 223T232 219Q229 214 215 191T184 139T156 83T143 44Q143 37 150 34T166 29T185 27T201 26L195 -3Q185 -3 171 -3T134 -1Q113 -1 99 -1T73 0Q56 0 44 0T22 -1T6 -2T-10 -3L-2 26Q21 26 36 28T63 37T87 60T116 103Q167 184 208 247T287 367T366 479T459 598Q461 601 469 610T479 622H511Q511 614 511 606T509 584T506 544T501 476Q499 453 497 403T492 296T487 183T485 91Q485 79 486 68T491 47T506 33T535 28Q551 28 564 32T586 40V12Q566 4 546 1T504 -3Q498 -3 483 -3T449 -1Q432 -1 416 -1T393 0Q359 0 343 0T307 -3L312 26Q336 29 350 32T371 41T382 59T386 90L394 219ZM408 473L406 475Q393 458 374 432T334 375T294 316T262 265Q268 264 273 264T286 263T303 262T328 262Q344 262 354 262T372 262T385 263T397 265L408 473ZM490 817Q527 817 553 791T580 727Q580 689 554 663T490 636Q452 636 426 662T399 727Q399 765 425 791T490 817ZM489 775Q469 775 455 761T441 727Q441 707 455 693T489 679Q509 679 523 693T538 727Q538 747 524 761T489 775Z"  />
<glyph unicode="&#xC6;" horiz-adv-x="802" d="M538 173Q536 166 534 155T529 132T525 107T523 85Q523 52 542 40T616 28Q657 28 682 31T724 44T753 68T782 109L802 89Q791 66 780 41T757 0H324L335 28Q356 28 369 31T391 43T406 70T420 118L459 294H335L186 64Q178 53 177 50T175 43Q175 36 181 35T216 31Q236 29 243 29T258 28L251 0H24V28Q49 28 67 31T103 46T139 80T186 142L468 544Q477 557 477 562Q477 567 467 570T442 574T411 576T383 576L392 603H825Q827 584 825 559T814 503H788Q787 518 782 536T769 568Q761 570 749 571T706 572Q674 572 657 571T626 568Q611 529 599 472T572 326H668Q681 326 690 327T706 333T720 351T736 384H762Q759 376 754 354T744 307T734 259T727 227H699L703 265Q705 286 696 290T651 294H565L538 173ZM515 556L513 558L357 326H469L515 556Z"  />
<glyph unicode="&#xC7;" horiz-adv-x="615" d="M329 -10Q274 -5 231 16T157 71T110 150T93 248Q93 325 123 392T205 510T328 589T482 618Q528 618 563 610T625 591T669 568T698 548Q695 537 692 523T686 494T681 464T677 438H649Q649 476 643 496T625 531Q607 552 572 566T495 581Q430 581 377 550T285 470T226 360T205 239Q205 204 215 167T248 97T303 45T382 24Q429 24 483 53T583 154L609 144Q605 135 600 122T589 95T579 67T571 44Q560 38 541 29T494 10T431 -5T352 -12L339 -35Q368 -42 375 -59T383 -91Q383 -114 373 -133T344 -167T301 -188T248 -196L251 -170Q281 -167 297 -159T320 -141T329 -124T331 -114Q331 -102 326 -95T314 -85T299 -82T287 -81L329 -10Z"  />
<glyph unicode="&#xC8;" horiz-adv-x="479" d="M412 262H383Q384 265 384 271T386 284T387 297T388 305Q388 312 385 316T373 322T349 324T308 325H269Q266 308 257 268T238 183T219 98T207 41Q217 41 235 40T273 38T311 37T339 36Q356 36 370 39T399 51T427 76T458 120L483 110Q480 101 477 91T469 68T455 38T433 -2Q416 -1 378 1Q361 2 341 2T299 2H111Q79 2 52 1T5 -2L1 29Q3 30 10 30T22 31Q41 32 54 33T76 39T91 50T102 69Q106 80 116 117T138 205T164 312T188 418T206 502T213 547Q213 557 210 563T195 572T162 575T103 577L107 605H532Q533 579 529 555T520 504H492Q492 530 488 544T477 564T461 572T439 573Q433 573 417 573T383 573T350 573T332 572Q328 561 320 531T304 466T287 401T276 357Q323 357 348 358T388 365T408 384T422 421H453L412 262ZM233 799H337L401 648H371L233 799Z"  />
<glyph unicode="&#xC9;" horiz-adv-x="479" d="M412 262H383Q384 265 384 271T386 284T387 297T388 305Q388 312 385 316T373 322T349 324T308 325H269Q266 308 257 268T238 183T219 98T207 41Q217 41 235 40T273 38T311 37T339 36Q356 36 370 39T399 51T427 76T458 120L483 110Q480 101 477 91T469 68T455 38T433 -2Q416 -1 378 1Q361 2 341 2T299 2H111Q79 2 52 1T5 -2L1 29Q3 30 10 30T22 31Q41 32 54 33T76 39T91 50T102 69Q106 80 116 117T138 205T164 312T188 418T206 502T213 547Q213 557 210 563T195 572T162 575T103 577L107 605H532Q533 579 529 555T520 504H492Q492 530 488 544T477 564T461 572T439 573Q433 573 417 573T383 573T350 573T332 572Q328 561 320 531T304 466T287 401T276 357Q323 357 348 358T388 365T408 384T422 421H453L412 262ZM355 648H326L418 798H520L355 648Z"  />
<glyph unicode="&#xCA;" horiz-adv-x="479" d="M412 262H383Q384 265 384 271T386 284T387 297T388 305Q388 312 385 316T373 322T349 324T308 325H269Q266 308 257 268T238 183T219 98T207 41Q217 41 235 40T273 38T311 37T339 36Q356 36 370 39T399 51T427 76T458 120L483 110Q480 101 477 91T469 68T455 38T433 -2Q416 -1 378 1Q361 2 341 2T299 2H111Q79 2 52 1T5 -2L1 29Q3 30 10 30T22 31Q41 32 54 33T76 39T91 50T102 69Q106 80 116 117T138 205T164 312T188 418T206 502T213 547Q213 557 210 563T195 572T162 575T103 577L107 605H532Q533 579 529 555T520 504H492Q492 530 488 544T477 564T461 572T439 573Q433 573 417 573T383 573T350 573T332 572Q328 561 320 531T304 466T287 401T276 357Q323 357 348 358T388 365T408 384T422 421H453L412 262ZM349 798H431L462 648H436L379 727L254 648H226L349 798Z"  />
<glyph unicode="&#xCB;" horiz-adv-x="479" d="M412 262H383Q384 265 384 271T386 284T387 297T388 305Q388 312 385 316T373 322T349 324T308 325H269Q266 308 257 268T238 183T219 98T207 41Q217 41 235 40T273 38T311 37T339 36Q356 36 370 39T399 51T427 76T458 120L483 110Q480 101 477 91T469 68T455 38T433 -2Q416 -1 378 1Q361 2 341 2T299 2H111Q79 2 52 1T5 -2L1 29Q3 30 10 30T22 31Q41 32 54 33T76 39T91 50T102 69Q106 80 116 117T138 205T164 312T188 418T206 502T213 547Q213 557 210 563T195 572T162 575T103 577L107 605H532Q533 579 529 555T520 504H492Q492 530 488 544T477 564T461 572T439 573Q433 573 417 573T383 573T350 573T332 572Q328 561 320 531T304 466T287 401T276 357Q323 357 348 358T388 365T408 384T422 421H453L412 262ZM292 751Q312 751 327 737T342 702Q342 681 327 667T292 652Q272 652 258 666T243 702Q243 722 257 736T292 751ZM455 752Q475 752 490 738T505 702Q505 682 490 668T455 653Q435 653 421 667T406 702Q406 724 420 738T455 752Z"  />
<glyph unicode="&#xCC;" horiz-adv-x="354" d="M223 488Q228 504 229 518T231 539Q231 556 213 566T142 578L151 605Q159 605 180 605T226 604Q250 603 271 603T302 602Q315 602 332 602T366 602T400 602T429 605V578Q397 578 379 573T350 558T335 532T326 498Q325 493 323 484T317 462T311 437T305 412L252 166Q250 158 248 144T242 113T237 83T235 63Q235 51 243 44T262 34T287 29T312 27Q326 27 335 29T354 34L372 11Q349 -2 325 -3T290 -4Q282 -4 263 -3T223 -1Q202 1 184 1T158 2Q153 2 138 2T105 1Q88 0 73 0T51 -1Q45 -1 40 -1T27 0L33 28Q64 30 82 33T112 47T130 81T146 145L223 488ZM171 799H275L339 648H309L171 799Z"  />
<glyph unicode="&#xCD;" horiz-adv-x="354" d="M223 488Q228 504 229 518T231 539Q231 556 213 566T142 578L151 605Q159 605 180 605T226 604Q250 603 271 603T302 602Q315 602 332 602T366 602T400 602T429 605V578Q397 578 379 573T350 558T335 532T326 498Q325 493 323 484T317 462T311 437T305 412L252 166Q250 158 248 144T242 113T237 83T235 63Q235 51 243 44T262 34T287 29T312 27Q326 27 335 29T354 34L372 11Q349 -2 325 -3T290 -4Q282 -4 263 -3T223 -1Q202 1 184 1T158 2Q153 2 138 2T105 1Q88 0 73 0T51 -1Q45 -1 40 -1T27 0L33 28Q64 30 82 33T112 47T130 81T146 145L223 488ZM293 648H264L356 798H458L293 648Z"  />
<glyph unicode="&#xCE;" horiz-adv-x="354" d="M223 488Q228 504 229 518T231 539Q231 556 213 566T142 578L151 605Q159 605 180 605T226 604Q250 603 271 603T302 602Q315 602 332 602T366 602T400 602T429 605V578Q397 578 379 573T350 558T335 532T326 498Q325 493 323 484T317 462T311 437T305 412L252 166Q250 158 248 144T242 113T237 83T235 63Q235 51 243 44T262 34T287 29T312 27Q326 27 335 29T354 34L372 11Q349 -2 325 -3T290 -4Q282 -4 263 -3T223 -1Q202 1 184 1T158 2Q153 2 138 2T105 1Q88 0 73 0T51 -1Q45 -1 40 -1T27 0L33 28Q64 30 82 33T112 47T130 81T146 145L223 488ZM285 798H367L398 648H372L315 727L190 648H162L285 798Z"  />
<glyph unicode="&#xCF;" horiz-adv-x="354" d="M223 488Q228 504 229 518T231 539Q231 556 213 566T142 578L151 605Q159 605 180 605T226 604Q250 603 271 603T302 602Q315 602 332 602T366 602T400 602T429 605V578Q397 578 379 573T350 558T335 532T326 498Q325 493 323 484T317 462T311 437T305 412L252 166Q250 158 248 144T242 113T237 83T235 63Q235 51 243 44T262 34T287 29T312 27Q326 27 335 29T354 34L372 11Q349 -2 325 -3T290 -4Q282 -4 263 -3T223 -1Q202 1 184 1T158 2Q153 2 138 2T105 1Q88 0 73 0T51 -1Q45 -1 40 -1T27 0L33 28Q64 30 82 33T112 47T130 81T146 145L223 488ZM230 751Q250 751 265 737T280 702Q280 681 265 667T230 652Q210 652 196 666T181 702Q181 722 195 736T230 751ZM393 752Q413 752 428 738T443 702Q443 682 428 668T393 653Q373 653 359 667T344 702Q344 724 358 738T393 752Z"  />
<glyph unicode="&#xD0;" horiz-adv-x="677" d="M75 325H174Q177 337 184 370T198 440T212 508T218 549Q218 551 216 558T204 569Q199 570 184 571T152 573T118 575T95 577L102 604Q127 605 152 605T223 606Q256 606 295 606T374 603T451 596T516 581Q555 568 589 545T650 488T691 410T706 312Q706 272 696 230T661 147T599 74T503 21Q486 15 469 11T428 4T375 0T305 -2H8V30Q33 30 49 30T76 33T94 40T107 52Q112 58 115 65T122 87T131 125T144 184Q145 187 146 194T150 211T153 229T157 246L166 287H69L75 325ZM269 287Q261 253 254 218T241 152T232 100T228 72Q228 64 230 57T241 43T268 34T318 30Q382 30 418 42T475 68Q516 93 539 129T575 202T590 271T593 321Q593 375 578 422T532 502T451 554T333 569L277 325H439L433 287H269Z"  />
<glyph unicode="&#xD1;" horiz-adv-x="646" d="M540 104Q539 99 536 85T526 38L516 -14H488Q486 -10 485 -7T481 0T475 12T465 31L246 449L180 158Q179 155 177 141T171 110T166 79T163 61Q163 39 180 34T235 26L230 -1Q203 1 188 2T163 3T149 3T140 3Q134 3 123 3T99 3T77 2T62 2L4 -1L8 26Q26 27 48 30T91 48Q104 57 114 77T131 119T142 159T147 184L203 440Q204 441 204 445T205 451L216 507Q216 511 212 518T200 532T185 546T167 558Q143 571 123 573T89 575V602H275L510 153L584 456Q586 462 589 474T594 500T599 525T601 542Q601 550 599 555T590 563T568 568T531 575L535 602Q560 601 585 601T636 600L738 602V575Q696 574 680 565T658 551Q652 545 644 525T629 479T616 430T607 393L540 104ZM318 664Q321 674 326 690T342 722T369 749T409 761Q432 761 450 754T477 741Q499 730 511 726T534 721Q555 721 564 734T575 754H601Q598 737 591 719T572 686T544 661T506 651Q488 651 470 658T436 674Q410 687 401 691T383 695Q363 695 356 684T344 664H318Z"  />
<glyph unicode="&#xD2;" horiz-adv-x="667" d="M704 356Q704 297 682 233T615 115T505 26T352 -9Q278 -9 228 17T146 83T102 170T88 258Q88 316 111 379T180 496T291 583T444 618Q499 618 546 598T629 542T684 459T704 356ZM591 392Q591 459 572 498T528 556T480 580T446 585Q402 585 366 568T302 522T254 456T221 378T202 298T196 223Q196 215 196 198T201 158T215 112T242 68T285 36T350 23Q414 23 459 59T534 151T577 271T591 392ZM333 799H437L501 648H471L333 799Z"  />
<glyph unicode="&#xD3;" horiz-adv-x="667" d="M704 356Q704 297 682 233T615 115T505 26T352 -9Q278 -9 228 17T146 83T102 170T88 258Q88 316 111 379T180 496T291 583T444 618Q499 618 546 598T629 542T684 459T704 356ZM591 392Q591 459 572 498T528 556T480 580T446 585Q402 585 366 568T302 522T254 456T221 378T202 298T196 223Q196 215 196 198T201 158T215 112T242 68T285 36T350 23Q414 23 459 59T534 151T577 271T591 392ZM449 648H420L512 798H614L449 648Z"  />
<glyph unicode="&#xD4;" horiz-adv-x="667" d="M704 356Q704 297 682 233T615 115T505 26T352 -9Q278 -9 228 17T146 83T102 170T88 258Q88 316 111 379T180 496T291 583T444 618Q499 618 546 598T629 542T684 459T704 356ZM591 392Q591 459 572 498T528 556T480 580T446 585Q402 585 366 568T302 522T254 456T221 378T202 298T196 223Q196 215 196 198T201 158T215 112T242 68T285 36T350 23Q414 23 459 59T534 151T577 271T591 392ZM449 798H531L562 648H536L479 727L354 648H326L449 798Z"  />
<glyph unicode="&#xD5;" horiz-adv-x="667" d="M704 356Q704 297 682 233T615 115T505 26T352 -9Q278 -9 228 17T146 83T102 170T88 258Q88 316 111 379T180 496T291 583T444 618Q499 618 546 598T629 542T684 459T704 356ZM591 392Q591 459 572 498T528 556T480 580T446 585Q402 585 366 568T302 522T254 456T221 378T202 298T196 223Q196 215 196 198T201 158T215 112T242 68T285 36T350 23Q414 23 459 59T534 151T577 271T591 392ZM328 664Q331 674 336 690T352 722T379 749T419 761Q442 761 460 754T487 741Q509 730 521 726T544 721Q565 721 574 734T585 754H611Q608 737 601 719T582 686T554 661T516 651Q498 651 480 658T446 674Q420 687 411 691T393 695Q373 695 366 684T354 664H328Z"  />
<glyph unicode="&#xD6;" horiz-adv-x="667" d="M704 356Q704 297 682 233T615 115T505 26T352 -9Q278 -9 228 17T146 83T102 170T88 258Q88 316 111 379T180 496T291 583T444 618Q499 618 546 598T629 542T684 459T704 356ZM591 392Q591 459 572 498T528 556T480 580T446 585Q402 585 366 568T302 522T254 456T221 378T202 298T196 223Q196 215 196 198T201 158T215 112T242 68T285 36T350 23Q414 23 459 59T534 151T577 271T591 392ZM386 751Q406 751 421 737T436 702Q436 681 421 667T386 652Q366 652 352 666T337 702Q337 722 351 736T386 751ZM549 752Q569 752 584 738T599 702Q599 682 584 668T549 653Q529 653 515 667T500 702Q500 724 514 738T549 752Z"  />
<glyph unicode="&#xD7;" horiz-adv-x="667" d="M377 311L577 511L622 465L422 266L620 68L575 23L377 221L180 23L135 68L332 266L133 465L178 511L377 311Z"  />
<glyph unicode="&#xD8;" horiz-adv-x="667" d="M635 535Q668 498 686 452T704 355Q704 296 682 232T615 115T505 26T352 -9Q314 -9 287 -3T239 12T205 31T181 49L116 -20L88 5L154 75Q131 101 118 128T98 181T90 226T88 259Q88 322 113 385T185 501T295 585T436 618Q473 618 502 612T552 596T586 577T607 561L670 629L698 602L635 535ZM223 95Q228 87 237 75T261 52T297 32T350 23Q413 23 458 59T533 150T577 269T591 391Q591 425 589 442T581 477L223 95ZM564 515Q558 524 549 536T525 559T489 577T440 585Q382 585 337 552T260 465T213 347T196 218Q196 185 199 168T208 133L564 515Z"  />
<glyph unicode="&#xD9;" horiz-adv-x="667" d="M200 500Q202 508 204 526T207 553Q207 562 204 567T186 573Q160 575 152 575T136 577L143 604H408L397 577Q370 575 355 573T332 567T320 554T311 530Q301 496 290 448T268 348T251 248T244 165Q244 134 253 108T280 62T324 31T383 19Q440 19 478 55T539 174Q544 192 549 210T559 247L611 477Q615 494 620 517T625 555Q625 561 623 564T613 569T591 571T551 573L559 604H752V573Q730 573 715 571T689 562T671 541T657 502Q652 485 647 465T640 434L591 233L564 136Q552 93 531 64T482 17T424 -8T359 -16Q254 -16 198 36T141 175Q141 198 146 230T156 285L200 500ZM333 799H437L501 648H471L333 799Z"  />
<glyph unicode="&#xDA;" horiz-adv-x="667" d="M200 500Q202 508 204 526T207 553Q207 562 204 567T186 573Q160 575 152 575T136 577L143 604H408L397 577Q370 575 355 573T332 567T320 554T311 530Q301 496 290 448T268 348T251 248T244 165Q244 134 253 108T280 62T324 31T383 19Q440 19 478 55T539 174Q544 192 549 210T559 247L611 477Q615 494 620 517T625 555Q625 561 623 564T613 569T591 571T551 573L559 604H752V573Q730 573 715 571T689 562T671 541T657 502Q652 485 647 465T640 434L591 233L564 136Q552 93 531 64T482 17T424 -8T359 -16Q254 -16 198 36T141 175Q141 198 146 230T156 285L200 500ZM449 648H420L512 798H614L449 648Z"  />
<glyph unicode="&#xDB;" horiz-adv-x="667" d="M200 500Q202 508 204 526T207 553Q207 562 204 567T186 573Q160 575 152 575T136 577L143 604H408L397 577Q370 575 355 573T332 567T320 554T311 530Q301 496 290 448T268 348T251 248T244 165Q244 134 253 108T280 62T324 31T383 19Q440 19 478 55T539 174Q544 192 549 210T559 247L611 477Q615 494 620 517T625 555Q625 561 623 564T613 569T591 571T551 573L559 604H752V573Q730 573 715 571T689 562T671 541T657 502Q652 485 647 465T640 434L591 233L564 136Q552 93 531 64T482 17T424 -8T359 -16Q254 -16 198 36T141 175Q141 198 146 230T156 285L200 500ZM442 798H524L555 648H529L472 727L347 648H319L442 798Z"  />
<glyph unicode="&#xDC;" horiz-adv-x="667" d="M200 500Q202 508 204 526T207 553Q207 562 204 567T186 573Q160 575 152 575T136 577L143 604H408L397 577Q370 575 355 573T332 567T320 554T311 530Q301 496 290 448T268 348T251 248T244 165Q244 134 253 108T280 62T324 31T383 19Q440 19 478 55T539 174Q544 192 549 210T559 247L611 477Q615 494 620 517T625 555Q625 561 623 564T613 569T591 571T551 573L559 604H752V573Q730 573 715 571T689 562T671 541T657 502Q652 485 647 465T640 434L591 233L564 136Q552 93 531 64T482 17T424 -8T359 -16Q254 -16 198 36T141 175Q141 198 146 230T156 285L200 500ZM386 751Q406 751 421 737T436 702Q436 681 421 667T386 652Q366 652 352 666T337 702Q337 722 351 736T386 751ZM549 752Q569 752 584 738T599 702Q599 682 584 668T549 653Q529 653 515 667T500 702Q500 724 514 738T549 752Z"  />
<glyph unicode="&#xDD;" horiz-adv-x="552" d="M194 523Q189 541 184 552T170 568T149 575T117 578L130 604Q136 604 150 604T182 604T214 603T236 602Q261 602 289 603T370 605L363 574Q343 573 331 572T313 569T306 562T304 550Q304 531 310 500T323 443L351 347Q370 366 399 398T455 464T501 524T520 559Q520 564 518 566T510 570T493 572T461 572L466 603Q491 603 520 603T577 603T628 604T666 605V574Q645 573 630 571T599 563T569 542T533 502L430 372Q419 358 403 335T378 283Q373 266 368 247T360 215L336 106L329 59Q329 50 334 45T346 38T362 35T376 34Q394 34 413 37T434 40L430 9Q406 5 394 4T367 2Q354 2 321 2T250 0T178 -1T130 -2Q118 -2 109 -2T91 0L98 27H141Q157 27 171 33T194 61Q218 124 231 185T256 300L194 523ZM392 648H363L455 798H557L392 648Z"  />
<glyph unicode="&#xDE;" horiz-adv-x="542" d="M237 435Q242 455 248 483T254 537Q254 546 252 553T240 565T215 573T170 577L180 605Q206 604 222 604T253 602H298Q305 602 326 602T374 604Q400 604 423 604T456 605V577Q424 576 406 573T378 561T364 537T354 499L350 481Q365 480 386 479T431 473T478 459T521 432T552 389T564 325Q564 297 554 268T520 214T460 175T372 159Q352 159 330 161T277 169Q270 141 266 125T260 97T255 74T249 44Q260 39 274 35T312 30Q338 30 356 36T385 47L382 15Q365 7 345 1T287 -6Q281 -6 267 -5T238 -3T210 0T192 2Q180 2 167 2T140 1Q97 1 63 -2V25Q74 26 86 28T111 35T132 47T145 68L157 108L237 435ZM285 201Q295 199 305 198T332 196Q370 196 394 208T433 239T453 280T459 322Q459 335 455 356T439 398T404 434T343 450L285 201Z"  />
<glyph unicode="&#xDF;" horiz-adv-x="427" d="M131 367Q145 446 161 502T201 595T257 648T334 665Q368 665 393 653T433 623T456 583T464 541Q464 527 459 507T438 463T393 418T316 376V374Q354 374 376 359T411 323T426 278T430 239Q430 192 415 147T375 66T318 10T249 -12Q210 -12 199 9T188 66Q196 80 215 88T252 104Q250 92 249 84T247 67Q247 44 255 36T271 28Q290 28 303 54T326 117T339 191T343 252Q343 279 337 297T322 326T303 343T286 348Q280 348 274 347T265 344L256 370Q280 386 302 404T343 446T372 497T383 560Q383 585 378 599T364 621T348 630T333 632Q309 632 293 618T265 576T244 509T225 422L143 7Q139 -12 133 -39T116 -96T88 -155T46 -208T-14 -246T-94 -261Q-99 -261 -111 -261T-135 -256T-156 -243T-165 -218Q-165 -199 -150 -191T-121 -182Q-115 -182 -102 -184T-74 -191Q-60 -194 -47 -197T-29 -200Q-19 -200 -9 -197T13 -177T36 -129T57 -41L131 367Z"  />
<glyph unicode="&#xE0;" horiz-adv-x="375" d="M376 73Q366 61 352 47T321 20T287 -1T256 -10Q241 -10 230 0T218 33Q218 55 221 76T228 114L226 116Q215 102 197 81T160 39T122 5T92 -9Q74 -9 63 -2T46 17T38 40T36 63Q36 76 41 107T60 175T101 251T171 317Q184 326 196 332T228 343T280 355T366 370Q361 356 357 342T347 309T337 263T325 199Q320 170 314 134T301 70Q299 66 299 59Q299 56 300 52T305 48Q313 48 326 59T353 83L363 91L376 73ZM112 85Q112 80 114 72T125 63Q131 63 141 71T163 89T186 111T203 130Q216 145 224 154T237 176T246 207T259 259Q261 268 263 280T268 296Q231 294 204 289T159 263Q148 250 140 228T125 182T116 132T112 85ZM129 572H233L297 421H267L129 572Z"  />
<glyph unicode="&#xE1;" horiz-adv-x="375" d="M376 73Q366 61 352 47T321 20T287 -1T256 -10Q241 -10 230 0T218 33Q218 55 221 76T228 114L226 116Q215 102 197 81T160 39T122 5T92 -9Q74 -9 63 -2T46 17T38 40T36 63Q36 76 41 107T60 175T101 251T171 317Q184 326 196 332T228 343T280 355T366 370Q361 356 357 342T347 309T337 263T325 199Q320 170 314 134T301 70Q299 66 299 59Q299 56 300 52T305 48Q313 48 326 59T353 83L363 91L376 73ZM112 85Q112 80 114 72T125 63Q131 63 141 71T163 89T186 111T203 130Q216 145 224 154T237 176T246 207T259 259Q261 268 263 280T268 296Q231 294 204 289T159 263Q148 250 140 228T125 182T116 132T112 85ZM256 421H227L319 571H421L256 421Z"  />
<glyph unicode="&#xE2;" horiz-adv-x="375" d="M376 73Q366 61 352 47T321 20T287 -1T256 -10Q241 -10 230 0T218 33Q218 55 221 76T228 114L226 116Q215 102 197 81T160 39T122 5T92 -9Q74 -9 63 -2T46 17T38 40T36 63Q36 76 41 107T60 175T101 251T171 317Q184 326 196 332T228 343T280 355T366 370Q361 356 357 342T347 309T337 263T325 199Q320 170 314 134T301 70Q299 66 299 59Q299 56 300 52T305 48Q313 48 326 59T353 83L363 91L376 73ZM112 85Q112 80 114 72T125 63Q131 63 141 71T163 89T186 111T203 130Q216 145 224 154T237 176T246 207T259 259Q261 268 263 280T268 296Q231 294 204 289T159 263Q148 250 140 228T125 182T116 132T112 85ZM245 571H327L358 421H332L275 500L150 421H122L245 571Z"  />
<glyph unicode="&#xE3;" horiz-adv-x="375" d="M376 73Q366 61 352 47T321 20T287 -1T256 -10Q241 -10 230 0T218 33Q218 55 221 76T228 114L226 116Q215 102 197 81T160 39T122 5T92 -9Q74 -9 63 -2T46 17T38 40T36 63Q36 76 41 107T60 175T101 251T171 317Q184 326 196 332T228 343T280 355T366 370Q361 356 357 342T347 309T337 263T325 199Q320 170 314 134T301 70Q299 66 299 59Q299 56 300 52T305 48Q313 48 326 59T353 83L363 91L376 73ZM112 85Q112 80 114 72T125 63Q131 63 141 71T163 89T186 111T203 130Q216 145 224 154T237 176T246 207T259 259Q261 268 263 280T268 296Q231 294 204 289T159 263Q148 250 140 228T125 182T116 132T112 85ZM135 437Q138 447 143 463T159 495T186 522T226 534Q249 534 267 527T294 514Q316 503 328 499T351 494Q372 494 381 507T392 527H418Q415 510 408 492T389 459T361 434T323 424Q305 424 287 431T253 447Q227 460 218 464T200 468Q180 468 173 457T161 437H135Z"  />
<glyph unicode="&#xE4;" horiz-adv-x="375" d="M376 73Q366 61 352 47T321 20T287 -1T256 -10Q241 -10 230 0T218 33Q218 55 221 76T228 114L226 116Q215 102 197 81T160 39T122 5T92 -9Q74 -9 63 -2T46 17T38 40T36 63Q36 76 41 107T60 175T101 251T171 317Q184 326 196 332T228 343T280 355T366 370Q361 356 357 342T347 309T337 263T325 199Q320 170 314 134T301 70Q299 66 299 59Q299 56 300 52T305 48Q313 48 326 59T353 83L363 91L376 73ZM112 85Q112 80 114 72T125 63Q131 63 141 71T163 89T186 111T203 130Q216 145 224 154T237 176T246 207T259 259Q261 268 263 280T268 296Q231 294 204 289T159 263Q148 250 140 228T125 182T116 132T112 85ZM193 524Q213 524 228 510T243 475Q243 454 228 440T193 425Q173 425 159 439T144 475Q144 495 158 509T193 524ZM356 525Q376 525 391 511T406 475Q406 455 391 441T356 426Q336 426 322 440T307 475Q307 497 321 511T356 525Z"  />
<glyph unicode="&#xE5;" horiz-adv-x="375" d="M376 73Q366 61 352 47T321 20T287 -1T256 -10Q241 -10 230 0T218 33Q218 55 221 76T228 114L226 116Q215 102 197 81T160 39T122 5T92 -9Q74 -9 63 -2T46 17T38 40T36 63Q36 76 41 107T60 175T101 251T171 317Q184 326 196 332T228 343T280 355T366 370Q361 356 357 342T347 309T337 263T325 199Q320 170 314 134T301 70Q299 66 299 59Q299 56 300 52T305 48Q313 48 326 59T353 83L363 91L376 73ZM112 85Q112 80 114 72T125 63Q131 63 141 71T163 89T186 111T203 130Q216 145 224 154T237 176T246 207T259 259Q261 268 263 280T268 296Q231 294 204 289T159 263Q148 250 140 228T125 182T116 132T112 85ZM266 590Q303 590 329 564T356 500Q356 462 330 436T266 409Q228 409 202 435T175 500Q175 538 201 564T266 590ZM265 548Q245 548 231 534T217 500Q217 480 231 466T265 452Q285 452 299 466T314 500Q314 520 300 534T265 548Z"  />
<glyph unicode="&#xE6;" horiz-adv-x="438" d="M418 69Q396 52 373 38T327 13T287 -4T257 -10Q238 -10 226 -2T207 19T198 49T195 84Q186 74 171 59T137 29T101 4T66 -7Q55 -7 49 -1T40 15T37 34T36 52Q36 79 43 111T61 173T86 230T116 273Q142 301 163 317T203 341T242 352T283 357Q287 357 300 360T317 363Q322 363 322 358Q322 354 315 338T306 313L308 311Q348 346 375 354T416 363Q438 363 447 348T456 321Q456 299 444 279T412 241T370 208T329 182T296 165T283 159Q281 150 279 132T276 98Q276 67 283 61T300 54Q303 54 317 56T351 67L405 89L418 69ZM384 296Q384 308 375 312T360 317Q348 317 338 304T318 273T303 233T292 197Q297 200 312 209T343 232T371 262T384 296ZM112 90Q112 80 116 72T128 63Q131 63 142 71T166 92T192 123T210 160Q218 188 223 206T234 239T246 267T262 299Q255 299 243 298T217 294T190 286T166 273Q152 261 142 235T125 180T115 126T112 90Z"  />
<glyph unicode="&#xE7;" horiz-adv-x="271" d="M75 -5Q59 -1 51 9T38 29T34 48T33 57Q33 78 40 109T59 173T90 241T129 301T176 345T229 362Q235 362 244 361T264 358T281 351T288 339Q288 332 286 323T280 307T272 294T263 288Q258 288 250 290Q236 295 218 297T190 299Q185 299 179 298T166 292T153 276T141 245Q135 221 131 198T124 154T120 118T118 95Q118 67 127 60T146 53Q166 53 188 64T226 84L241 64Q233 58 217 46T182 22T141 1T99 -8L84 -35Q113 -42 120 -59T128 -91Q128 -114 118 -133T89 -167T46 -188T-7 -196L-4 -170Q26 -167 42 -159T65 -141T74 -124T76 -114Q76 -102 71 -95T59 -85T44 -82T32 -81L75 -5Z"  />
<glyph unicode="&#xE8;" horiz-adv-x="281" d="M263 72Q254 66 234 52T190 25T140 1T96 -10Q71 -10 54 11T36 67Q36 98 44 132T64 195T84 246T97 273Q105 288 120 305T152 336T187 359T216 368Q221 368 235 367T263 360T289 345T300 315Q300 294 285 273T246 232T191 193T128 159Q125 143 122 126T119 92Q119 81 124 68T147 54Q155 54 181 62T250 93L263 72ZM135 198Q168 216 186 232T214 260T225 281T227 292Q227 305 216 309T193 314Q177 314 167 304T151 276T142 239T135 198ZM83 572H187L251 421H221L83 572Z"  />
<glyph unicode="&#xE9;" horiz-adv-x="281" d="M263 72Q254 66 234 52T190 25T140 1T96 -10Q71 -10 54 11T36 67Q36 98 44 132T64 195T84 246T97 273Q105 288 120 305T152 336T187 359T216 368Q221 368 235 367T263 360T289 345T300 315Q300 294 285 273T246 232T191 193T128 159Q125 143 122 126T119 92Q119 81 124 68T147 54Q155 54 181 62T250 93L263 72ZM135 198Q168 216 186 232T214 260T225 281T227 292Q227 305 216 309T193 314Q177 314 167 304T151 276T142 239T135 198ZM210 421H181L273 571H375L210 421Z"  />
<glyph unicode="&#xEA;" horiz-adv-x="281" d="M263 72Q254 66 234 52T190 25T140 1T96 -10Q71 -10 54 11T36 67Q36 98 44 132T64 195T84 246T97 273Q105 288 120 305T152 336T187 359T216 368Q221 368 235 367T263 360T289 345T300 315Q300 294 285 273T246 232T191 193T128 159Q125 143 122 126T119 92Q119 81 124 68T147 54Q155 54 181 62T250 93L263 72ZM135 198Q168 216 186 232T214 260T225 281T227 292Q227 305 216 309T193 314Q177 314 167 304T151 276T142 239T135 198ZM199 571H281L312 421H286L229 500L104 421H76L199 571Z"  />
<glyph unicode="&#xEB;" horiz-adv-x="281" d="M263 72Q254 66 234 52T190 25T140 1T96 -10Q71 -10 54 11T36 67Q36 98 44 132T64 195T84 246T97 273Q105 288 120 305T152 336T187 359T216 368Q221 368 235 367T263 360T289 345T300 315Q300 294 285 273T246 232T191 193T128 159Q125 143 122 126T119 92Q119 81 124 68T147 54Q155 54 181 62T250 93L263 72ZM135 198Q168 216 186 232T214 260T225 281T227 292Q227 305 216 309T193 314Q177 314 167 304T151 276T142 239T135 198ZM147 524Q167 524 182 510T197 475Q197 454 182 440T147 425Q127 425 113 439T98 475Q98 495 112 509T147 524ZM310 525Q330 525 345 511T360 475Q360 455 345 441T310 426Q290 426 276 440T261 475Q261 497 275 511T310 525Z"  />
<glyph unicode="&#xEC;" horiz-adv-x="240" d="M230 79Q224 73 211 59T182 29T147 3T114 -9Q99 -9 87 3T74 44Q74 53 77 73T86 119T99 172T112 226T122 272T129 303Q111 295 95 281T72 259L52 277Q66 292 83 307T118 334T156 355T195 363Q216 363 216 342Q216 332 211 310T199 259T184 199T168 141T156 92T151 63Q151 58 152 55T157 51Q162 51 171 59T185 72Q186 72 194 79T210 96L230 79ZM63 572H167L231 421H201L63 572Z"  />
<glyph unicode="&#xED;" horiz-adv-x="240" d="M230 79Q224 73 211 59T182 29T147 3T114 -9Q99 -9 87 3T74 44Q74 53 77 73T86 119T99 172T112 226T122 272T129 303Q111 295 95 281T72 259L52 277Q66 292 83 307T118 334T156 355T195 363Q216 363 216 342Q216 332 211 310T199 259T184 199T168 141T156 92T151 63Q151 58 152 55T157 51Q162 51 171 59T185 72Q186 72 194 79T210 96L230 79ZM190 421H161L253 571H355L190 421Z"  />
<glyph unicode="&#xEE;" horiz-adv-x="240" d="M230 79Q224 73 211 59T182 29T147 3T114 -9Q99 -9 87 3T74 44Q74 53 77 73T86 119T99 172T112 226T122 272T129 303Q111 295 95 281T72 259L52 277Q66 292 83 307T118 334T156 355T195 363Q216 363 216 342Q216 332 211 310T199 259T184 199T168 141T156 92T151 63Q151 58 152 55T157 51Q162 51 171 59T185 72Q186 72 194 79T210 96L230 79ZM179 571H261L292 421H266L209 500L84 421H56L179 571Z"  />
<glyph unicode="&#xEF;" horiz-adv-x="240" d="M230 79Q224 73 211 59T182 29T147 3T114 -9Q99 -9 87 3T74 44Q74 53 77 73T86 119T99 172T112 226T122 272T129 303Q111 295 95 281T72 259L52 277Q66 292 83 307T118 334T156 355T195 363Q216 363 216 342Q216 332 211 310T199 259T184 199T168 141T156 92T151 63Q151 58 152 55T157 51Q162 51 171 59T185 72Q186 72 194 79T210 96L230 79ZM127 524Q147 524 162 510T177 475Q177 454 162 440T127 425Q107 425 93 439T78 475Q78 495 92 509T127 524ZM290 525Q310 525 325 511T340 475Q340 455 325 441T290 426Q270 426 256 440T241 475Q241 497 255 511T290 525Z"  />
<glyph unicode="&#xF0;" horiz-adv-x="323" d="M121 181Q121 176 122 156T129 113T150 72T191 53Q211 53 224 73T245 117T256 165T259 194Q259 211 254 229T237 263T211 287T174 297Q157 297 147 283T131 250T123 212T121 181ZM212 561Q245 510 267 461T302 369T321 292T327 236Q327 206 316 172T287 105T246 43T197 -6Q192 -7 181 -8T162 -10Q134 -10 112 3T75 39T52 87T44 139Q44 173 60 211T100 281T154 333T209 354Q212 354 217 354T231 351Q226 388 212 438T174 539L73 479L58 502L161 563Q137 612 102 652L129 669Q148 648 165 627T196 584L298 644L312 621L212 561Z"  />
<glyph unicode="&#xF1;" horiz-adv-x="417" d="M55 0Q58 12 61 24T67 52T76 90T88 144Q89 148 94 171T106 222T118 272T123 297Q123 304 117 304Q111 304 102 299T85 286T70 272T61 263L42 280Q86 326 120 344T175 362Q194 362 198 352T202 328Q202 323 202 318T200 304T196 282T188 247Q187 242 186 237T184 231L186 229Q240 290 289 326T363 362Q374 362 381 352T388 331Q388 323 384 300T374 247T362 185T349 124T339 76T335 53Q335 45 339 45Q344 45 351 50T366 63T381 78T392 90L408 78Q388 51 370 35T337 9T311 -3T292 -6Q273 -6 266 5T258 35Q258 44 261 63T269 108T279 160T289 210T297 251T300 274Q300 277 298 280T291 283Q288 283 275 276T245 254T208 219T173 172Q164 134 158 108T148 62T140 28T134 0H55ZM156 437Q159 447 164 463T180 495T207 522T247 534Q270 534 288 527T315 514Q337 503 349 499T372 494Q393 494 402 507T413 527H439Q436 510 429 492T410 459T382 434T344 424Q326 424 308 431T274 447Q248 460 239 464T221 468Q201 468 194 457T182 437H156Z"  />
<glyph unicode="&#xF2;" horiz-adv-x="323" d="M327 236Q327 206 316 172T287 105T246 43T197 -6Q192 -7 181 -8T162 -10Q132 -10 110 4T74 40T52 88T44 139Q44 169 59 207T99 280T154 338T216 362Q234 362 253 354T289 329T316 290T327 236ZM121 181Q121 176 122 156T129 113T150 72T191 53Q211 53 224 73T245 117T256 165T259 194Q259 211 254 229T237 263T211 287T174 297Q157 297 147 283T131 250T123 212T121 181ZM104 572H208L272 421H242L104 572Z"  />
<glyph unicode="&#xF3;" horiz-adv-x="323" d="M327 236Q327 206 316 172T287 105T246 43T197 -6Q192 -7 181 -8T162 -10Q132 -10 110 4T74 40T52 88T44 139Q44 169 59 207T99 280T154 338T216 362Q234 362 253 354T289 329T316 290T327 236ZM121 181Q121 176 122 156T129 113T150 72T191 53Q211 53 224 73T245 117T256 165T259 194Q259 211 254 229T237 263T211 287T174 297Q157 297 147 283T131 250T123 212T121 181ZM231 421H202L294 571H396L231 421Z"  />
<glyph unicode="&#xF4;" horiz-adv-x="323" d="M327 236Q327 206 316 172T287 105T246 43T197 -6Q192 -7 181 -8T162 -10Q132 -10 110 4T74 40T52 88T44 139Q44 169 59 207T99 280T154 338T216 362Q234 362 253 354T289 329T316 290T327 236ZM121 181Q121 176 122 156T129 113T150 72T191 53Q211 53 224 73T245 117T256 165T259 194Q259 211 254 229T237 263T211 287T174 297Q157 297 147 283T131 250T123 212T121 181ZM220 571H302L333 421H307L250 500L125 421H97L220 571Z"  />
<glyph unicode="&#xF5;" horiz-adv-x="323" d="M327 236Q327 206 316 172T287 105T246 43T197 -6Q192 -7 181 -8T162 -10Q132 -10 110 4T74 40T52 88T44 139Q44 169 59 207T99 280T154 338T216 362Q234 362 253 354T289 329T316 290T327 236ZM121 181Q121 176 122 156T129 113T150 72T191 53Q211 53 224 73T245 117T256 165T259 194Q259 211 254 229T237 263T211 287T174 297Q157 297 147 283T131 250T123 212T121 181ZM110 437Q113 447 118 463T134 495T161 522T201 534Q224 534 242 527T269 514Q291 503 303 499T326 494Q347 494 356 507T367 527H393Q390 510 383 492T364 459T336 434T298 424Q280 424 262 431T228 447Q202 460 193 464T175 468Q155 468 148 457T136 437H110Z"  />
<glyph unicode="&#xF6;" horiz-adv-x="323" d="M327 236Q327 206 316 172T287 105T246 43T197 -6Q192 -7 181 -8T162 -10Q132 -10 110 4T74 40T52 88T44 139Q44 169 59 207T99 280T154 338T216 362Q234 362 253 354T289 329T316 290T327 236ZM121 181Q121 176 122 156T129 113T150 72T191 53Q211 53 224 73T245 117T256 165T259 194Q259 211 254 229T237 263T211 287T174 297Q157 297 147 283T131 250T123 212T121 181ZM168 524Q188 524 203 510T218 475Q218 454 203 440T168 425Q148 425 134 439T119 475Q119 495 133 509T168 524ZM331 525Q351 525 366 511T381 475Q381 455 366 441T331 426Q311 426 297 440T282 475Q282 497 296 511T331 525Z"  />
<glyph unicode="&#xF7;" horiz-adv-x="667" d="M418 490Q418 473 406 461T377 449Q360 449 348 461T336 490Q336 507 348 519T377 532Q394 532 406 520T418 490ZM112 298H643V234H112V298ZM418 42Q418 25 406 13T377 0Q360 0 348 12T336 42Q336 59 348 71T377 83Q394 83 406 71T418 42Z"  />
<glyph unicode="&#xF8;" horiz-adv-x="323" d="M300 317Q312 299 319 279T327 236Q327 208 319 179T296 122T264 68T228 22Q217 11 210 5T196 -5T181 -9T161 -10Q138 -10 124 -3T99 12L73 -27L48 -10L77 35Q66 50 60 66T50 97T45 123T44 140Q44 169 59 207T98 280T154 338T216 362Q236 362 253 353T277 339L305 381L332 365L300 317ZM144 80Q149 71 156 66T170 57T182 54T191 53Q211 53 224 73T245 117T256 165T259 194Q259 209 256 220T249 240L144 80ZM232 270Q212 290 196 293T174 297Q157 297 147 284T131 253T123 214T121 178Q121 157 124 141T130 114L232 270Z"  />
<glyph unicode="&#xF9;" horiz-adv-x="427" d="M120 261Q121 265 122 272T124 283Q124 288 121 291T115 294Q111 294 103 287T84 268T63 244T44 220L25 236Q31 245 48 265T87 307T131 345T171 362Q179 362 190 356T201 330Q201 325 200 311T197 291L169 130Q168 126 167 119T165 106T163 94T162 87Q162 78 167 78Q175 78 195 99T240 155T289 234T328 324Q332 335 335 337T344 342Q347 343 353 345T368 351T383 356T393 359Q400 359 400 349Q400 344 398 332T394 307T389 283T387 269L348 86Q347 85 345 73T343 59Q343 55 346 53T351 51Q360 51 378 67T413 102L433 89Q421 71 404 53T369 22T337 0T313 -9Q311 -9 304 -7T288 -1T272 11T265 30Q265 35 266 44T274 81L298 196L296 198Q280 168 257 133T208 67T154 15T101 -6Q91 -6 86 -3T79 5T76 15T75 25Q75 32 76 42T80 65T84 88T88 107L120 261ZM155 572H259L323 421H293L155 572Z"  />
<glyph unicode="&#xFA;" horiz-adv-x="427" d="M120 261Q121 265 122 272T124 283Q124 288 121 291T115 294Q111 294 103 287T84 268T63 244T44 220L25 236Q31 245 48 265T87 307T131 345T171 362Q179 362 190 356T201 330Q201 325 200 311T197 291L169 130Q168 126 167 119T165 106T163 94T162 87Q162 78 167 78Q175 78 195 99T240 155T289 234T328 324Q332 335 335 337T344 342Q347 343 353 345T368 351T383 356T393 359Q400 359 400 349Q400 344 398 332T394 307T389 283T387 269L348 86Q347 85 345 73T343 59Q343 55 346 53T351 51Q360 51 378 67T413 102L433 89Q421 71 404 53T369 22T337 0T313 -9Q311 -9 304 -7T288 -1T272 11T265 30Q265 35 266 44T274 81L298 196L296 198Q280 168 257 133T208 67T154 15T101 -6Q91 -6 86 -3T79 5T76 15T75 25Q75 32 76 42T80 65T84 88T88 107L120 261ZM282 421H253L345 571H447L282 421Z"  />
<glyph unicode="&#xFB;" horiz-adv-x="427" d="M120 261Q121 265 122 272T124 283Q124 288 121 291T115 294Q111 294 103 287T84 268T63 244T44 220L25 236Q31 245 48 265T87 307T131 345T171 362Q179 362 190 356T201 330Q201 325 200 311T197 291L169 130Q168 126 167 119T165 106T163 94T162 87Q162 78 167 78Q175 78 195 99T240 155T289 234T328 324Q332 335 335 337T344 342Q347 343 353 345T368 351T383 356T393 359Q400 359 400 349Q400 344 398 332T394 307T389 283T387 269L348 86Q347 85 345 73T343 59Q343 55 346 53T351 51Q360 51 378 67T413 102L433 89Q421 71 404 53T369 22T337 0T313 -9Q311 -9 304 -7T288 -1T272 11T265 30Q265 35 266 44T274 81L298 196L296 198Q280 168 257 133T208 67T154 15T101 -6Q91 -6 86 -3T79 5T76 15T75 25Q75 32 76 42T80 65T84 88T88 107L120 261ZM271 571H353L384 421H358L301 500L176 421H148L271 571Z"  />
<glyph unicode="&#xFC;" horiz-adv-x="427" d="M120 261Q121 265 122 272T124 283Q124 288 121 291T115 294Q111 294 103 287T84 268T63 244T44 220L25 236Q31 245 48 265T87 307T131 345T171 362Q179 362 190 356T201 330Q201 325 200 311T197 291L169 130Q168 126 167 119T165 106T163 94T162 87Q162 78 167 78Q175 78 195 99T240 155T289 234T328 324Q332 335 335 337T344 342Q347 343 353 345T368 351T383 356T393 359Q400 359 400 349Q400 344 398 332T394 307T389 283T387 269L348 86Q347 85 345 73T343 59Q343 55 346 53T351 51Q360 51 378 67T413 102L433 89Q421 71 404 53T369 22T337 0T313 -9Q311 -9 304 -7T288 -1T272 11T265 30Q265 35 266 44T274 81L298 196L296 198Q280 168 257 133T208 67T154 15T101 -6Q91 -6 86 -3T79 5T76 15T75 25Q75 32 76 42T80 65T84 88T88 107L120 261ZM219 524Q239 524 254 510T269 475Q269 454 254 440T219 425Q199 425 185 439T170 475Q170 495 184 509T219 524ZM382 525Q402 525 417 511T432 475Q432 455 417 441T382 426Q362 426 348 440T333 475Q333 497 347 511T382 525Z"  />
<glyph unicode="&#xFD;" horiz-adv-x="375" d="M-41 -171Q-30 -179 -16 -187T15 -195Q30 -195 58 -180T114 -138T163 -73T184 12Q184 51 174 99T151 188T124 258T103 286Q97 286 90 278T76 259T63 236T53 215L31 228Q54 291 86 328T138 366Q154 366 171 339T203 267T230 165T247 48H249Q275 101 297 154T319 262Q319 264 319 270T317 282T312 292T301 297Q296 297 292 295T280 284L267 301Q293 343 313 354T347 366Q351 366 355 360T362 344T366 322T368 299Q368 244 348 181T295 55T221 -65T136 -167T53 -237T-17 -264Q-48 -264 -64 -251T-90 -226L-41 -171ZM256 421H227L319 571H421L256 421Z"  />
<glyph unicode="&#xFE;" horiz-adv-x="385" d="M193 -263Q185 -263 161 -263T112 -261Q86 -260 67 -260T46 -259Q23 -259 2 -260T-31 -263V-238Q-10 -234 2 -231T20 -224T28 -212T34 -193L197 566Q198 570 200 583T203 601Q203 612 195 615T167 618Q161 618 154 618T133 617L140 644Q168 645 188 646T222 649T246 651T265 655Q269 657 272 657T277 657Q284 657 286 653T288 644Q288 640 287 633T285 618T283 604T281 595Q269 541 262 509T249 454T241 415T232 373Q230 363 228 352T223 329T218 310T215 298L217 296Q242 317 258 329T284 349T300 358T311 361Q319 361 331 354T356 334T376 300T385 253Q385 234 380 208T365 152T340 95T304 45T259 8T202 -6Q185 -6 175 -1T156 10L122 -152Q120 -163 118 -174Q116 -183 115 -191T114 -202Q114 -212 119 -218T131 -227T145 -232T155 -234Q157 -234 163 -234T176 -235T188 -237T196 -238L193 -263ZM169 74L181 59Q195 42 202 38T218 34Q239 34 254 46T278 78T293 120T302 165T305 204T306 229Q306 257 302 264T292 276Q288 278 281 284T267 290Q262 290 256 288T237 279Q236 278 227 272T210 263L169 74Z"  />
<glyph unicode="&#xFF;" horiz-adv-x="375" d="M-41 -171Q-30 -179 -16 -187T15 -195Q30 -195 58 -180T114 -138T163 -73T184 12Q184 51 174 99T151 188T124 258T103 286Q97 286 90 278T76 259T63 236T53 215L31 228Q54 291 86 328T138 366Q154 366 171 339T203 267T230 165T247 48H249Q275 101 297 154T319 262Q319 264 319 270T317 282T312 292T301 297Q296 297 292 295T280 284L267 301Q293 343 313 354T347 366Q351 366 355 360T362 344T366 322T368 299Q368 244 348 181T295 55T221 -65T136 -167T53 -237T-17 -264Q-48 -264 -64 -251T-90 -226L-41 -171ZM193 524Q213 524 228 510T243 475Q243 454 228 440T193 425Q173 425 159 439T144 475Q144 495 158 509T193 524ZM356 525Q376 525 391 511T406 475Q406 455 391 441T356 426Q336 426 322 440T307 475Q307 497 321 511T356 525Z"  />
<glyph unicode="&#x131;" horiz-adv-x="240" d="M230 79Q224 73 211 59T182 29T147 3T114 -9Q99 -9 87 3T74 44Q74 53 77 73T86 119T99 172T112 226T122 272T129 303Q111 295 95 281T72 259L52 277Q66 292 83 307T118 334T156 355T195 363Q216 363 216 342Q216 332 211 310T199 259T184 199T168 141T156 92T151 63Q151 58 152 55T157 51Q162 51 171 59T185 72Q186 72 194 79T210 96L230 79Z"  />
<glyph unicode="&#x152;" horiz-adv-x="750" d="M684 248H657Q659 261 659 267T660 279Q660 287 659 292T652 300T634 304T601 306Q596 306 584 306T559 306T533 305T517 304L486 167Q484 159 481 146T476 118T471 90T469 70Q469 53 477 48T492 40Q497 38 508 37T531 35T555 33T575 32H610Q623 32 638 35T670 45T700 66T726 100H759Q756 94 748 79T730 47T712 15T699 -7Q664 -3 639 -1T587 2H512Q492 2 464 1T409 -3Q382 -5 360 -6T329 -8Q273 -8 228 12T150 66T101 148T83 250Q83 275 90 311T112 387T154 467T217 538T306 589T423 609Q432 609 455 609T505 607Q532 605 555 605T589 604Q623 604 669 605T784 610Q783 589 779 563T767 512H744L745 528Q747 557 725 564T665 572Q628 572 610 570T576 566Q575 564 573 555T568 535T563 513T558 494L523 340Q543 340 555 340T576 339T588 338T598 338Q622 338 639 340T666 348T683 365T691 396H719L684 248ZM476 574Q468 575 455 576T428 578Q365 578 320 543T245 454T202 339T188 223Q188 168 201 130T234 68T274 34T310 23Q340 23 351 50T375 131L476 574Z"  />
<glyph unicode="&#x153;" horiz-adv-x="469" d="M461 71Q438 54 414 39T368 13T327 -4T294 -11Q286 -11 277 -9T259 2T245 24T240 63L238 65Q225 43 210 29T181 5T154 -7T131 -11Q96 -11 72 19T47 102Q47 136 63 181T105 266T167 335T241 364Q261 364 274 356T295 337T307 313T313 290Q319 299 329 311T354 335T388 355T432 364Q466 364 481 347T497 312Q497 286 473 260T418 211T360 174T326 156Q321 129 319 112T317 90Q317 76 321 69T331 58Q337 54 346 53Q357 53 371 57T400 68T427 80T449 92L461 71ZM423 288Q423 302 414 309T393 316Q377 316 367 306T351 280T341 241T333 193Q344 199 359 208T389 230T413 256T423 288ZM128 135Q128 105 132 87T142 58T154 44T167 40Q183 40 199 56T228 98T249 156T257 218Q257 225 256 240T250 272T235 299T206 311Q183 311 168 294T144 250T132 192T128 135Z"  />
<glyph unicode="&#x160;" horiz-adv-x="417" d="M412 470Q412 489 405 508T385 544T352 571T309 582Q295 582 281 577T255 561T236 532T228 490Q228 466 235 445T253 404T280 365T313 327Q349 285 373 246T398 161Q398 115 376 82T320 27T246 -5T169 -16Q142 -16 118 -11T75 1T46 16T35 29Q35 32 36 42T42 64T51 84T64 93Q70 93 75 90T88 78Q94 72 103 62T126 41T154 24T187 16Q197 16 214 22T249 41T278 78T291 136Q291 158 287 176T273 211T251 244T221 281Q197 308 180 329T150 371T133 411T127 456Q127 499 145 529T191 578T252 605T316 614Q346 614 367 609T405 596T433 578T455 559Q453 551 448 524T440 470H412ZM261 802H288L344 723L469 802H495L375 652H292L261 802Z"  />
<glyph unicode="&#x161;" horiz-adv-x="281" d="M250 117Q250 90 238 68T205 29T160 3T111 -6Q90 -6 76 -1T52 13T38 31T33 48Q33 55 47 73T78 111Q79 103 80 91T87 68T104 49T135 40Q150 40 166 49T183 82Q183 101 172 116T132 161Q103 192 93 210T83 246Q83 278 103 300T150 337T207 357T255 364Q268 364 281 360T295 338Q295 332 293 323T288 307T280 294T269 288Q266 288 260 290T248 294T235 299T227 303Q203 310 186 310Q174 310 167 306T155 297T150 288T149 281Q149 266 165 246T196 212Q202 206 211 196T229 174T244 147T250 117ZM151 575H178L234 496L359 575H385L265 425H182L151 575Z"  />
<glyph unicode="&#x178;" horiz-adv-x="552" d="M194 523Q189 541 184 552T170 568T149 575T117 578L130 604Q136 604 150 604T182 604T214 603T236 602Q261 602 289 603T370 605L363 574Q343 573 331 572T313 569T306 562T304 550Q304 531 310 500T323 443L351 347Q370 366 399 398T455 464T501 524T520 559Q520 564 518 566T510 570T493 572T461 572L466 603Q491 603 520 603T577 603T628 604T666 605V574Q645 573 630 571T599 563T569 542T533 502L430 372Q419 358 403 335T378 283Q373 266 368 247T360 215L336 106L329 59Q329 50 334 45T346 38T362 35T376 34Q394 34 413 37T434 40L430 9Q406 5 394 4T367 2Q354 2 321 2T250 0T178 -1T130 -2Q118 -2 109 -2T91 0L98 27H141Q157 27 171 33T194 61Q218 124 231 185T256 300L194 523ZM329 751Q349 751 364 737T379 702Q379 681 364 667T329 652Q309 652 295 666T280 702Q280 722 294 736T329 751ZM492 752Q512 752 527 738T542 702Q542 682 527 668T492 653Q472 653 458 667T443 702Q443 724 457 738T492 752Z"  />
<glyph unicode="&#x17D;" horiz-adv-x="531" d="M170 606H592Q554 552 515 500T434 395L317 242Q312 235 300 218T272 180T242 137T213 97L170 37Q189 36 217 36T281 35Q295 35 327 35T393 37T458 41T497 47Q500 48 514 57T545 88H577Q557 55 548 38T532 0H14L374 484Q376 486 384 498T403 526T423 554T436 573H206Q197 565 183 552T142 505L116 508L170 606ZM320 802H347L403 723L528 802H554L434 652H351L320 802Z"  />
<glyph unicode="&#x17E;" horiz-adv-x="365" d="M278 278Q260 278 248 279T217 285Q213 286 203 288T185 291Q160 291 143 272T114 233Q114 231 112 228T109 223Q99 231 96 234T90 244Q99 262 110 282T137 318T171 344T213 355Q219 355 234 353T267 347T301 342T324 339Q332 339 342 342T369 359Q371 360 373 362T378 366L390 340L119 72L121 70Q129 74 137 76T157 79Q163 79 177 76T207 70T238 64T259 61Q285 61 304 74T336 99L356 83Q345 70 331 54T298 24T258 0T214 -10Q209 -10 203 -10T189 -7L158 2Q142 7 124 10T91 13Q66 13 52 6T26 -8H-8L278 278ZM192 575H219L275 496L400 575H426L306 425H223L192 575Z"  />
<glyph unicode="&#x192;" horiz-adv-x="625" d="M521 372L515 334L403 331L366 108Q365 107 365 101T363 93Q357 51 347 12T318 -64T274 -131T210 -188Q180 -208 143 -221T63 -235Q58 -235 48 -235T26 -230T7 -217T-1 -191Q-1 -172 13 -162T51 -151Q57 -151 72 -153T104 -158T136 -163T158 -166Q190 -166 210 -149T242 -103T262 -39T275 34L322 331H248L257 366L333 372Q352 451 382 498T445 571T510 604T565 612Q586 612 606 603T626 569Q626 557 615 543T574 528Q569 528 556 530T528 534T500 538T481 540Q466 540 455 532T436 504T421 452T409 372H521Z"  />
<glyph unicode="&#x2C6;" horiz-adv-x="333" d="M224 571H306L337 421H311L254 500L129 421H101L224 571Z"  />
<glyph unicode="&#x2C7;" horiz-adv-x="333" d="M176 575H203L259 496L384 575H410L290 425H207L176 575Z"  />
<glyph unicode="&#x2DA;" horiz-adv-x="333" d="M245 590Q282 590 308 564T335 500Q335 462 309 436T245 409Q207 409 181 435T154 500Q154 538 180 564T245 590ZM244 548Q224 548 210 534T196 500Q196 480 210 466T244 452Q264 452 278 466T293 500Q293 520 279 534T244 548Z"  />
<glyph unicode="&#x2DC;" horiz-adv-x="333" d="M114 437Q117 447 122 463T138 495T165 522T205 534Q228 534 246 527T273 514Q295 503 307 499T330 494Q351 494 360 507T371 527H397Q394 510 387 492T368 459T340 434T302 424Q284 424 266 431T232 447Q206 460 197 464T179 468Q159 468 152 457T140 437H114Z"  />
<glyph unicode="&#x2013;" horiz-adv-x="500" d="M29 270H541V230H29V270Z"  />
<glyph unicode="&#x2014;" horiz-adv-x="1000" d="M29 270H1041V230H29V270Z"  />
<glyph unicode="&#x2018;" horiz-adv-x="177" d="M258 636Q227 625 208 609T178 577T163 544T159 518Q159 498 170 483T214 466V446Q191 432 177 414T153 371Q146 376 137 384T118 403T103 429T97 465Q97 491 107 523T138 584T190 637T265 668L258 636Z"  />
<glyph unicode="&#x2019;" horiz-adv-x="177" d="M93 404Q124 415 143 431T173 463T188 495T192 522Q192 542 181 557T137 573V594Q160 608 174 626T198 668Q205 663 214 656T233 637T248 610T254 575Q254 548 244 516T213 455T160 402T85 371L93 404Z"  />
<glyph unicode="&#x201A;" horiz-adv-x="177" d="M-17 -180Q14 -169 33 -153T63 -120T78 -88T82 -61Q82 -41 71 -26T27 -10V10Q50 24 65 42T89 85Q96 80 105 73T123 54T138 27T144 -10Q144 -39 133 -71T101 -132T49 -183T-24 -212L-17 -180Z"  />
<glyph unicode="&#x201C;" horiz-adv-x="344" d="M427 636Q396 625 377 609T347 577T332 544T328 518Q328 498 339 483T383 466V446Q339 420 322 371Q315 376 306 384T287 403T272 429T266 465Q266 491 276 523T307 584T359 637T434 668L427 636ZM256 636Q225 625 206 609T176 577T161 544T157 518Q157 498 168 483T212 466V446Q189 432 175 414T151 371Q144 376 135 384T116 403T101 429T95 465Q95 491 105 523T136 584T188 637T263 668L256 636Z"  />
<glyph unicode="&#x201D;" horiz-adv-x="344" d="M91 403Q122 414 141 430T171 462T186 494T190 521Q190 541 179 556T135 573V593Q179 619 196 668Q203 663 212 655T231 636T246 610T252 574Q252 548 242 516T211 455T159 402T84 371L91 403ZM262 403Q293 414 312 430T342 462T357 494T361 521Q361 541 350 556T306 573V593Q329 607 343 625T367 668Q374 663 383 655T402 636T417 610T423 574Q423 548 413 516T382 455T330 402T255 371L262 403Z"  />
<glyph unicode="&#x201E;" horiz-adv-x="344" d="M-19 -180Q12 -169 31 -153T61 -120T76 -88T80 -61Q80 -41 69 -26T25 -10V10Q48 24 62 42T86 85Q93 80 102 73T121 54T136 27T142 -10Q142 -39 131 -71T99 -132T47 -183T-27 -212L-19 -180ZM152 -180Q183 -169 202 -153T232 -120T247 -88T251 -61Q251 -41 240 -26T196 -10V10Q219 24 233 42T257 85Q264 80 273 73T292 54T307 27T313 -10Q313 -39 302 -71T270 -132T218 -183T145 -212L152 -180Z"  />
<glyph unicode="&#x2020;" horiz-adv-x="396" d="M88 291L117 429H143Q153 395 175 384T248 369Q246 383 243 400T240 440Q240 454 241 464T246 485T256 506T270 532Q272 536 274 542T277 554Q277 569 263 572T229 576L234 602H391L387 576Q363 577 351 572T332 556T325 526T324 484Q324 471 322 457T306 420L287 387L278 369Q296 369 314 369T348 374T379 388T405 415H432L405 285H382Q374 304 361 314T332 330T301 337T273 339Q271 331 271 325T270 310Q270 305 272 283T291 240Q272 209 255 168T224 81T199 -8T179 -88T166 -149T160 -179H125Q126 -174 131 -151T143 -92T157 -12T170 77T179 166T180 246Q211 269 223 290T244 339Q209 339 175 329T117 291H88Z"  />
<glyph unicode="&#x2021;" horiz-adv-x="375" d="M111 398L138 518H162Q166 505 173 496T192 482T222 475T267 471Q267 474 266 483T263 503T260 523T258 536Q258 544 261 558T272 581Q285 599 288 604T291 616Q291 619 291 623T286 632T272 639T245 641L250 668H405L401 641Q380 639 362 633T343 604Q343 603 343 598T344 586T345 574T346 566Q346 559 341 539T317 496Q309 486 307 483T300 471Q351 474 381 488T426 518H451L426 394H401Q396 403 389 411T370 425T340 435T294 441Q294 424 295 413T298 393T304 375T316 353Q292 318 277 289T254 236T242 191T238 151Q238 121 242 96T250 51Q237 40 228 32T212 14T199 -7T187 -35Q212 -35 231 -34T265 -29T292 -17T316 7H340L316 -122H290Q284 -104 272 -93T245 -77T212 -70T181 -67Q184 -80 188 -100T193 -136Q193 -151 190 -162T177 -194Q169 -214 169 -219Q169 -231 177 -233T205 -238L202 -264H50L55 -238Q61 -237 70 -235T88 -229T102 -216T108 -194Q108 -172 108 -158T113 -132T127 -105T153 -67Q121 -67 85 -76T29 -112H1L29 7H55Q70 -11 85 -20T115 -32T141 -36T162 -35Q165 -4 157 15T135 51Q161 92 177 123T201 180T212 227T215 269Q215 295 212 318T205 359Q217 370 225 379T241 397T253 416T263 441Q211 440 184 431T139 398H111Z"  />
<glyph unicode="&#x2022;" horiz-adv-x="354" d="M365 330Q365 301 354 276T325 232T281 202T226 191Q197 191 172 202T127 231T97 275T86 330Q86 359 97 384T127 428T171 458T226 469Q255 469 280 458T324 429T354 385T365 330Z"  />
<glyph unicode="&#x2026;" horiz-adv-x="1000" d="M425 34Q425 45 432 55T448 74T465 86T475 91Q488 91 499 77T510 45Q510 25 495 7T461 -12Q449 -12 442 -6T431 9T426 25T425 34ZM758 34Q758 45 765 55T781 74T798 86T808 91Q821 91 832 77T843 45Q843 25 828 7T794 -12Q782 -12 775 -6T764 9T759 25T758 34ZM92 34Q92 45 99 55T115 74T132 86T142 91Q155 91 166 77T177 45Q177 25 162 7T128 -12Q116 -12 109 -6T98 9T93 25T92 34Z"  />
<glyph unicode="&#x2030;" horiz-adv-x="1219" d="M377 554Q377 596 361 624T309 652Q281 652 261 637T227 597T205 546T192 494T186 453T184 435Q184 403 192 384T211 354T235 341T255 338Q287 338 310 362T348 421T370 492T377 554ZM671 670H712L233 -10H192L671 670ZM721 224Q721 266 705 294T654 322Q626 322 606 307T571 267T549 216T537 164T531 123T529 105Q529 73 537 54T556 24T579 11T599 8Q633 8 656 33T694 94T714 165T721 224ZM113 471Q113 508 126 544T164 608T224 653T302 670Q342 670 370 656T415 619T440 572T448 524Q448 495 438 460T404 393T346 341T260 320Q227 320 200 331T154 362T124 410T113 471ZM458 141Q458 178 471 214T508 278T568 323T646 340Q686 340 714 326T759 289T784 242T792 194Q792 165 782 130T748 63T690 11T604 -10Q572 -10 545 1T499 32T469 80T458 141ZM847 141Q847 178 860 214T897 278T957 323T1035 340Q1075 340 1103 326T1148 289T1173 242T1181 194Q1181 165 1171 130T1137 63T1079 11T993 -10Q961 -10 934 1T888 32T858 80T847 141ZM1110 224Q1110 266 1094 294T1043 322Q1015 322 995 307T960 267T938 216T926 164T920 123T918 105Q918 73 926 54T945 24T968 11T988 8Q1020 8 1043 32T1081 90T1103 161T1110 224Z"  />
<glyph unicode="&#x2039;" horiz-adv-x="250" d="M47 183L252 371H280L151 183L202 -1H176L47 183Z"  />
<glyph unicode="&#x203A;" horiz-adv-x="250" d="M280 186L75 -1H46L177 186L125 371H151L280 186Z"  />
<glyph unicode="&#x20AC;" horiz-adv-x="500" d="M473 284Q473 281 473 275T472 262T467 250T458 245H411Q394 245 370 244T320 240T267 237T219 234Q220 202 226 166T245 99T280 47T334 26Q371 26 404 60T466 156L490 146Q487 137 484 124T476 97T469 70T464 48Q456 42 443 33T411 15T370 0T321 -7Q277 -7 242 10T182 60T142 136T125 233Q95 233 72 233T32 236Q40 245 43 251T54 272Q68 269 78 268T111 267H125Q127 301 131 330Q79 330 52 333Q60 342 63 348T74 369Q81 367 86 367T98 365Q105 364 112 364T131 364H138Q151 418 175 463T232 542T306 593T392 612Q424 612 448 605T491 586T521 564T541 544Q539 534 537 520T533 490T530 461T527 436H498Q498 458 495 483T481 529T451 564T401 578Q368 578 341 561T293 515T256 448T232 366Q242 366 263 367T311 370T367 373T422 376T467 379T493 381Q493 378 493 372T492 359T487 347T478 342H431Q413 342 387 341T331 337T275 332T226 330Q221 300 220 270Q233 271 255 272T303 274T356 277T407 280T448 282T473 284Z"  />
<glyph unicode="&#x2122;" horiz-adv-x="1000" d="M44 668H400L410 570H393Q389 595 380 609T356 629T318 637T263 638V367Q263 348 264 334T270 311T287 297T321 292V274H124V292Q146 292 157 296T174 310T181 334T182 367V638Q150 638 127 637T89 630T64 609T51 570H34L44 668ZM584 668L717 389L847 668H987V650Q965 650 954 646T937 632T930 608T929 575V367Q929 348 930 334T936 311T953 297T987 292V274H790V292Q812 292 823 296T840 310T847 334T848 367V596H846L697 274H681L532 591H530V367Q530 348 531 334T537 311T554 297T588 292V274H442V292Q464 292 475 296T492 310T499 334T500 367V575Q500 594 499 608T493 631T476 645T442 650V668H584Z"  />

</font>
</defs>
</svg>
