<?xml  version="1.0" encoding="UTF-8"?>
<!DOCTYPE svg PUBLIC "-//W3C//DTD SVG 1.0//EN" "http://www.w3.org/TR/2001/REC-SVG-20010904/DTD/svg10.dtd" >
<svg xmlns="http://www.w3.org/2000/svg" >
<metadata>
<version>1.0</version>
<id><![CDATA[Futura W01 Bold]]></id>
<vendor>Monotype Imaging Inc.</vendor>
<credits>
<name>Fonts.com WebFonts</name>
<URL>http://webfonts.fonts.com</URL>
<role>Home of the Web fonts</role>
</credits>
<license>
<URL>http://webfonts.fonts.com/Legal</URL>
</license>
<copyright><![CDATA[Part of the digitally encoded machine readable outline data for producing the Typefaces provided is copyrighted © 2006 Linotype GmbH, www.linotype.com. All rights reserved. This software is the property of Linotype GmbH, and may not be reproduced, used, displayed, modified, disclosed or transferred without the express written approval of Linotype GmbH.  Copyright © 1987, 1991, 1992, 1993 Adobe Systems Incorporated. All Rights Reserved.]]></copyright>
<trademark><![CDATA[Futura is either a registered trademark or a trademark of Bauer Types SA.]]></trademark>
<licensee>
<name></name>
</licensee>
</metadata>
<defs >
<font horiz-adv-x="630" id="2a371030-ff67-40ac-8307-082c1fccf151">
<font-face font-family="" panose-1="2 11 8 2 2 2 4 2 2 4" ascent="1040" descent="-264" units-per-em="1000" alphabetic="0">
</font-face>
<missing-glyph horiz-adv-x="343" />

<glyph unicode="&#xA;" />
<glyph unicode="&#xD;" horiz-adv-x="0" />
<glyph unicode=" " horiz-adv-x="343" />
<glyph unicode="!" horiz-adv-x="384" d="M192 214Q216 214 237 205T275 180T300 143T309 97Q309 73 300 52T275 15T238 -10T192 -20Q168 -20 147 -11T109 14T84 51T75 97Q75 121 84 142T109 180T146 205T192 214ZM98 754H287V256H98V754Z"  />
<glyph unicode="&quot;" horiz-adv-x="500" d="M217 754L190 423H74L47 754H217ZM453 754L426 423H310L283 754H453Z"  />
<glyph unicode="#" horiz-adv-x="686" d="M371 726L332 523H433L472 726H577L538 523H618V410H520L496 286H590V173H472L439 0H333L366 173H265L232 0H126L159 173H68V286H181L205 410H109V523H226L265 726H371ZM287 286H389L415 410H311L287 286Z"  />
<glyph unicode="$" horiz-adv-x="686" d="M150 238Q167 222 188 207T233 180T282 161T331 154Q347 154 363 158T393 172T416 195T425 227Q425 248 412 261T376 284T326 302T268 322Q239 333 211 348T160 385T125 440T111 518Q111 562 125 603T167 676T231 729T315 753V874H408V753Q456 748 502 735T590 695L516 550Q489 572 456 585T388 599Q355 599 329 586T303 543Q303 526 313 513T339 491T371 476T401 465Q444 451 483 435T552 394T600 334T618 246Q618 193 604 153T562 84T496 34T408 2V-123H315V-4Q282 -4 250 2T186 21Q154 33 124 48T68 87L150 238Z"  />
<glyph unicode="%" horiz-adv-x="975" d="M225 764Q267 764 304 753T370 718T414 660T431 581Q431 535 415 501T371 443T306 407T225 395Q182 395 145 407T79 442T35 500T19 581Q19 626 35 660T80 717T145 752T225 764ZM225 664Q190 664 165 639T140 579Q140 544 165 520T225 495Q260 495 285 519T310 579Q310 614 285 639T225 664ZM755 754L317 0H219L657 754H755ZM750 359Q792 359 829 348T895 313T939 255T956 176Q956 130 940 96T896 38T831 2T750 -10Q707 -10 670 2T604 37T560 95T544 176Q544 221 560 255T605 312T670 347T750 359ZM750 259Q715 259 690 234T665 174Q665 139 690 115T750 90Q785 90 810 114T835 174Q835 209 810 234T750 259Z"  />
<glyph unicode="&amp;" horiz-adv-x="848" d="M312 315Q300 307 288 298T265 278T248 254T241 225Q241 208 248 195T268 174T296 161T326 156Q354 156 381 164T431 187L312 315ZM393 479Q419 493 441 516T463 571Q463 600 445 620T397 641Q371 641 353 624T334 579Q334 565 340 552T354 525T373 501T393 479ZM538 70Q481 32 415 6T280 -20Q231 -20 187 -6T110 36T58 104T38 196Q38 238 50 270T83 327T134 371T200 406L218 414L202 436Q193 448 184 461T166 490T153 525T148 567Q148 616 167 654T219 719T294 760T382 774Q427 774 469 760T545 720T598 656T618 569Q618 534 607 507T577 458T533 420T478 388L573 288Q601 313 626 339T672 395L783 289L688 187L679 178L848 0H603L538 70Z"  />
<glyph unicode="&apos;" horiz-adv-x="250" d="M210 754L183 423H67L40 754H210Z"  />
<glyph unicode="(" horiz-adv-x="352" d="M303 728Q272 678 251 623T215 510T195 392T188 274Q188 220 194 160T215 40T251 -76T303 -178L194 -240Q155 -189 127 -124T82 11T57 152T49 286Q49 348 58 415T85 549T130 677T194 790L303 728Z"  />
<glyph unicode=")" horiz-adv-x="352" d="M158 790Q195 739 222 678T267 550T294 416T303 286Q303 223 295 152T270 11T225 -124T158 -240L49 -178Q79 -133 100 -77T136 40T157 160T164 274Q164 332 158 391T137 509T102 623T49 728L158 790Z"  />
<glyph unicode="*" horiz-adv-x="483" d="M286 754L281 647L370 703L415 627L320 577L414 525L369 450L281 507L285 406H195L201 506L116 452L71 528L161 578L68 629L114 705L201 650L196 754H286Z"  />
<glyph unicode="+" horiz-adv-x="686" d="M268 513H418V332H599V182H418V0H268V182H87V332H268V513Z"  />
<glyph unicode="&#x2c;" horiz-adv-x="343" d="M323 191L139 -141H22L152 191H323Z"  />
<glyph unicode="-" horiz-adv-x="392" d="M339 396V246H53V396H339Z"  />
<glyph unicode="." horiz-adv-x="343" d="M172 214Q196 214 217 205T255 180T280 143T289 97Q289 73 280 52T255 15T218 -10T172 -20Q148 -20 127 -11T89 14T64 51T55 97Q55 121 64 142T89 180T126 205T172 214Z"  />
<glyph unicode="/" horiz-adv-x="579" d="M552 830L170 -93H27L409 830H552Z"  />
<glyph unicode="0" horiz-adv-x="686" d="M343 784Q427 784 487 748T587 654T644 523T663 377Q663 303 645 231T587 100T488 6T343 -30Q259 -30 199 6T99 100T42 230T23 377Q23 450 41 523T99 654T198 748T343 784ZM343 611Q305 611 281 585T243 522T224 445T218 378Q218 351 223 311T243 233T281 170T343 143Q381 143 405 169T443 233T462 310T468 378Q468 405 463 445T443 522T405 585T343 611Z"  />
<glyph unicode="1" horiz-adv-x="686" d="M161 588V754H465V0H269V588H161Z"  />
<glyph unicode="2" horiz-adv-x="686" d="M639 166V0H33L341 335Q374 371 400 419T427 520Q427 538 421 555T404 587T376 609T341 618Q301 618 280 591T259 526Q259 510 262 494H46Q48 559 69 612T128 704T219 763T340 784Q399 784 452 765T544 712T607 627T631 516Q631 475 623 443T599 382T561 327T509 275L392 166H639Z"  />
<glyph unicode="3" horiz-adv-x="686" d="M73 537Q79 597 102 642T161 719Q197 751 246 767T353 784Q404 784 448 770T524 728T575 659T594 565Q594 520 575 477T515 410Q545 402 568 382T606 336T630 280T638 220Q638 158 614 112T548 34T454 -14T345 -30Q280 -30 223 -11T120 55Q103 72 87 94T59 142T40 194T34 245H234Q234 200 263 169T339 138Q384 138 414 165T444 239Q444 260 436 278T413 310T380 332T340 340Q331 340 323 338T306 334V465H326Q364 465 388 487T412 548Q412 583 390 603T335 624Q297 624 276 599T255 537H73Z"  />
<glyph unicode="4" horiz-adv-x="686" d="M655 306V156H564V0H382V156H16V281L307 754H564V306H655ZM382 596H380L204 306H382V596Z"  />
<glyph unicode="5" horiz-adv-x="689" d="M304 588L291 502L353 507Q411 511 460 492T544 435T600 347T620 237Q620 177 595 124T523 33Q478 -3 419 -16T303 -30Q238 -30 175 -14T57 38L86 223Q130 184 183 160T296 136Q319 136 341 144T379 166T406 201T416 247Q416 281 401 305T363 345T310 368T251 376Q213 376 177 369T107 345L173 754H565V588H304Z"  />
<glyph unicode="6" horiz-adv-x="686" d="M528 754L314 499L316 497Q342 508 367 514T421 520Q476 520 521 498T597 439T646 355T663 255Q663 186 637 133T566 43T462 -11T339 -30Q284 -30 226 -15T124 35Q79 73 51 128T23 242Q23 283 33 323T59 401T98 474T144 542L306 754H528ZM338 124Q364 124 386 134T424 161T450 200T459 249Q459 274 450 296T425 336T386 362T338 372Q312 372 290 363T251 336T224 297T214 249Q214 223 224 201T250 161T289 134T338 124Z"  />
<glyph unicode="7" horiz-adv-x="686" d="M71 588V754H690L257 0H42L386 588H71Z"  />
<glyph unicode="8" horiz-adv-x="686" d="M343 648Q326 648 311 642T284 624T267 597T260 563Q260 545 266 530T284 503T310 485T343 478Q360 478 375 484T401 502T419 529T426 563Q426 581 420 596T402 623T375 641T343 648ZM343 317Q324 317 308 310T279 290T260 260T253 223Q253 204 260 187T279 158T307 138T343 131Q362 131 378 138T407 157T426 187T433 223Q433 242 426 259T407 289T379 309T343 317ZM343 784Q391 784 437 771T520 731T578 664T600 569Q600 539 591 512T567 463T529 424T481 398V396Q549 373 590 323T631 198Q631 139 605 97T536 26T443 -16T343 -30Q294 -30 243 -17T150 25T82 96T55 198Q55 273 96 323T205 396V398Q179 407 157 423T120 462T95 512T86 569Q86 623 108 663T166 730T248 770T343 784Z"  />
<glyph unicode="9" horiz-adv-x="686" d="M158 0L373 254L371 256Q345 245 320 239T265 233Q209 233 165 255T89 314T40 399T23 499Q23 568 49 621T120 711T223 765T347 784Q402 784 460 769T562 719Q608 682 635 627T663 511Q663 470 653 430T627 352T588 279T542 211L381 0H158ZM348 629Q322 629 300 620T262 593T236 554T227 505Q227 479 236 457T261 417T300 391T348 381Q374 381 396 390T436 417T463 456T473 505Q473 531 463 553T436 593T397 619T348 629Z"  />
<glyph unicode=":" horiz-adv-x="343" d="M172 214Q196 214 217 205T255 180T280 143T289 97Q289 73 280 52T255 15T218 -10T172 -20Q148 -20 127 -11T89 14T64 51T55 97Q55 121 64 142T89 180T126 205T172 214ZM172 551Q196 551 217 542T255 517T280 480T289 434Q289 410 280 389T255 352T218 327T172 317Q148 317 127 326T89 351T64 388T55 434Q55 458 64 479T89 517T126 542T172 551Z"  />
<glyph unicode=";" horiz-adv-x="343" d="M309 191L125 -141H8L138 191H309ZM218 551Q242 551 263 542T301 517T326 480T335 434Q335 410 326 389T301 352T264 327T218 317Q194 317 173 326T135 351T110 388T101 434Q101 458 110 479T135 517T172 542T218 551Z"  />
<glyph unicode="&lt;" horiz-adv-x="686" d="M99 317L588 499V349L314 258V256L588 165V15L99 197V317Z"  />
<glyph unicode="=" horiz-adv-x="686" d="M599 452V302H87V452H599ZM599 212V62H87V212H599Z"  />
<glyph unicode="&gt;" horiz-adv-x="686" d="M588 197L99 15V165L373 256V258L99 349V499L588 317V197Z"  />
<glyph unicode="?" horiz-adv-x="595" d="M186 446Q209 441 228 441Q249 441 272 447T314 465T345 496T357 540Q357 571 337 593T284 615Q249 615 232 593T214 539H15Q15 596 38 640T99 713T187 758T289 774Q337 774 382 759T464 712Q502 680 526 635T550 539Q550 497 536 463T498 401T440 355T369 323V252H186V446ZM281 214Q305 214 326 205T364 180T389 143T398 97Q398 73 389 52T364 15T327 -10T281 -20Q257 -20 236 -11T198 14T173 51T164 97Q164 121 173 142T198 180T235 205T281 214Z"  />
<glyph unicode="@" horiz-adv-x="740" d="M280 354Q280 317 299 290T356 262Q379 262 396 272T424 298T441 333T450 372Q455 415 435 442T378 469Q357 469 339 459T308 433T288 396T280 354ZM542 310Q540 301 538 289T535 267T539 250T554 244Q567 245 583 260T614 300T639 354T652 418Q655 481 635 530T579 612T492 663T384 680Q321 680 269 658T179 595T120 499T99 377Q99 308 122 252T185 157T281 96T401 74Q464 74 510 86T580 114L662 48Q609 21 542 1T393 -20Q312 -20 242 10T119 93T36 218T5 377Q5 462 34 534T116 660T237 743T387 774Q453 774 512 753T622 687Q673 642 703 584T734 453Q734 390 718 335T672 240Q636 192 595 171T518 152Q497 153 480 169T456 210Q436 187 405 170T328 152Q295 152 265 166T211 206T174 265T160 338Q160 384 174 427T215 504T279 558T364 579Q402 579 433 564T487 517L497 570H592L542 310Z"  />
<glyph unicode="A" horiz-adv-x="781" d="M256 131L204 0H-4L286 754H500L784 0H575L526 131H256ZM393 521H391L310 281H473L393 521Z"  />
<glyph unicode="B" horiz-adv-x="677" d="M260 150H285Q307 150 334 151T385 159T425 182T441 230Q441 264 425 281T385 305T332 312T280 312H260V150ZM64 0V754H344Q394 754 435 744T506 710T552 650T568 558Q568 507 550 467T485 404V402Q566 391 602 340T639 210Q639 151 616 111T554 46T467 11T366 0H64ZM260 458H282Q301 458 320 460T354 470T378 492T388 531Q388 557 378 571T351 593T314 602T274 604H260V458Z"  />
<glyph unicode="C" horiz-adv-x="660" d="M603 501Q573 542 528 563T431 584Q386 584 349 568T286 524T245 457T230 375Q230 330 244 293T286 228T350 186T434 170Q482 170 527 191T603 250V15Q554 0 515 -10T430 -20Q351 -20 279 8T147 91Q84 148 55 219T26 376Q26 454 54 525T137 652Q193 709 268 741T424 774Q472 774 515 764T603 736V501Z"  />
<glyph unicode="D" horiz-adv-x="752" d="M64 754H342Q421 754 490 725T612 645T694 525T725 377Q725 297 695 229T612 109T490 29T342 0H64V754ZM260 166H304Q348 166 387 178T456 216T503 282T521 377Q521 428 505 467T461 533T393 574T306 588H260V166Z"  />
<glyph unicode="E" horiz-adv-x="550" d="M260 588V462H481V296H260V166H493V0H64V754H493V588H260Z"  />
<glyph unicode="F" horiz-adv-x="542" d="M260 588V462H475V296H260V0H64V754H497V588H260Z"  />
<glyph unicode="G" horiz-adv-x="842" d="M816 421Q815 380 813 342T802 266T779 194T739 123Q683 45 603 10T428 -25Q339 -25 265 4T138 85T56 211T26 373Q26 465 55 540T139 668T268 750T435 779Q552 779 639 727T775 568L589 490Q569 544 528 577T426 610Q378 610 341 589T280 534T243 458T230 372Q230 328 243 286T281 210T343 157T429 136Q493 136 537 168T587 267H427V421H816Z"  />
<glyph unicode="H" horiz-adv-x="803" d="M543 463V754H739V0H543V309H260V0H64V754H260V463H543Z"  />
<glyph unicode="I" horiz-adv-x="324" d="M260 0H64V754H260V0Z"  />
<glyph unicode="J" horiz-adv-x="489" d="M429 754V245Q429 185 414 137T367 53T289 -1T179 -20Q116 -20 68 9T-15 91L98 210Q115 187 136 167T177 146Q199 146 210 157T227 186T232 222T233 257V754H429Z"  />
<glyph unicode="K" horiz-adv-x="758" d="M499 754H742L442 397L769 0H515L262 327H260V0H64V754H260V443H262L499 754Z"  />
<glyph unicode="L" horiz-adv-x="495" d="M260 166H495V0H64V754H260V166Z"  />
<glyph unicode="M" horiz-adv-x="983" d="M147 754H340L493 351L655 754H850L964 0H768L713 434H711L530 0H452L279 434H277L214 0H19L147 754Z"  />
<glyph unicode="N" horiz-adv-x="881" d="M64 754H260L619 293H621V754H817V0H621L262 462H260V0H64V754Z"  />
<glyph unicode="O" horiz-adv-x="887" d="M443 779Q524 779 599 751T733 671T825 548T860 391Q860 299 829 223T743 92T611 6T443 -25Q352 -25 276 5T144 91T57 223T26 391Q26 476 60 547T153 670T286 750T443 779ZM443 589Q399 589 361 573T293 529T247 465T230 390Q230 341 247 300T293 229T360 182T443 165Q487 165 525 182T593 229T639 300T656 390Q656 429 639 465T593 528T526 572T443 589Z"  />
<glyph unicode="P" horiz-adv-x="661" d="M64 754H364Q425 754 475 740T562 695T618 618T638 506Q638 372 569 311T371 250H260V0H64V754ZM260 408H293Q320 408 345 409T390 419T422 446T434 500Q434 536 423 555T392 584T347 594T293 596H260V408Z"  />
<glyph unicode="Q" horiz-adv-x="887" d="M621 263Q638 287 647 316T656 374Q656 416 640 455T595 524T527 571T444 589Q400 589 361 573T293 529T247 465T230 390Q230 341 247 300T293 229T361 182T444 165Q475 165 504 175L383 295L568 318L621 263ZM710 -47L650 24Q606 -2 555 -13T443 -25Q352 -25 276 5T144 91T57 223T26 391Q26 476 60 547T153 670T286 750T443 779Q531 779 607 751T739 669T828 542T860 375Q860 300 836 235T763 110L890 -19L710 -47Z"  />
<glyph unicode="R" horiz-adv-x="680" d="M691 0H447L262 290H260V0H64V754H357Q413 754 461 741T544 699T599 626T619 522Q619 483 609 448T577 384T525 336T454 309L691 0ZM260 416H279Q303 416 327 419T370 432T402 460T415 510Q415 541 403 559T371 588T327 601T279 604H260V416Z"  />
<glyph unicode="S" horiz-adv-x="616" d="M478 560Q451 583 418 596T348 610Q334 610 320 606T293 594T272 575T264 547Q264 530 273 519T295 499T323 485T351 475L401 460Q440 448 474 432T533 391T572 334T587 254Q587 198 571 144T509 51Q464 13 408 -3T295 -20Q223 -20 156 2T30 66L114 224Q151 192 194 169T288 146Q305 146 322 150T352 164T374 187T383 222Q383 243 371 257T340 281T301 297T264 308Q218 321 181 335T116 373T75 431T60 521Q60 578 79 625T133 705T215 756T320 774Q348 774 379 770T441 757T501 738T556 712L478 560Z"  />
<glyph unicode="T" horiz-adv-x="533" d="M364 0H168V588H6V754H526V588H364V0Z"  />
<glyph unicode="U" horiz-adv-x="778" d="M718 754V330Q718 294 716 258T707 188T683 123T639 64Q615 41 586 25T524 -1T457 -15T389 -20Q356 -20 322 -16T255 -1T193 25T139 64Q111 91 95 122T72 188T62 258T60 330V754H256V357Q256 320 259 284T275 218T315 170T389 152Q436 152 463 170T503 217T519 283T522 357V754H718Z"  />
<glyph unicode="V" horiz-adv-x="761" d="M380 296L563 754H776L454 0H302L-15 754H198L380 296Z"  />
<glyph unicode="W" horiz-adv-x="1117" d="M320 267H322L480 754H636L784 267H786L928 754H1132L891 0H691L559 437H557L409 0H210L-15 754H189L320 267Z"  />
<glyph unicode="X" horiz-adv-x="789" d="M46 754H287L402 559L517 754H758L517 403L796 0H560L402 246L229 0H-8L287 403L46 754Z"  />
<glyph unicode="Y" horiz-adv-x="714" d="M-19 754H216L357 549L498 754H733L455 362V0H259V362L-19 754Z"  />
<glyph unicode="Z" horiz-adv-x="707" d="M657 166V0H11L368 588H72V754H696L341 166H657Z"  />
<glyph unicode="[" horiz-adv-x="350" d="M191 -134H298V-240H52V790H298V684H191V-134Z"  />
<glyph unicode="\" horiz-adv-x="579" d="M171 830L552 0H410L27 830H171Z"  />
<glyph unicode="]" horiz-adv-x="350" d="M159 684H52V790H298V-240H52V-134H159V684Z"  />
<glyph unicode="^" horiz-adv-x="686" d="M103 407L283 784H403L583 407L469 340L343 609L217 340L103 407Z"  />
<glyph unicode="_" horiz-adv-x="500" d="M0 -125V-75H500V-125H0Z"  />
<glyph unicode="`" horiz-adv-x="402" d="M186 820L327 648L246 589L75 740L186 820Z"  />
<glyph unicode="a" horiz-adv-x="682" d="M328 372Q300 372 279 363T242 338T219 301T211 256Q211 207 241 174T328 141Q384 141 414 174T445 256Q445 280 437 301T414 337T378 362T328 372ZM621 0H439V57H437Q413 19 370 1T282 -17Q225 -17 178 5T96 64T42 152T23 257Q23 312 42 361T94 448T175 508T280 530Q325 530 367 514T439 463V513H621V0Z"  />
<glyph unicode="b" horiz-adv-x="682" d="M54 830H236V463Q265 497 307 513T395 530Q452 530 499 508T580 449T633 362T652 257Q652 201 633 152T580 65T498 5T393 -17Q348 -17 306 1T238 57H236V0H54V830ZM347 372Q319 372 298 363T261 338T238 301T230 256Q230 207 260 174T347 141Q403 141 433 174T464 256Q464 280 456 301T433 337T397 362T347 372Z"  />
<glyph unicode="c" horiz-adv-x="483" d="M430 346Q410 361 386 371T336 382Q310 382 287 373T247 346T221 307T211 257Q211 201 246 166T339 131Q363 131 387 140T430 166V12Q400 -3 368 -10T302 -17Q245 -17 195 3T106 59T45 144T23 251Q23 313 45 364T106 452T197 509T310 530Q342 530 372 523T430 500V346Z"  />
<glyph unicode="d" horiz-adv-x="682" d="M446 57H444Q420 19 377 1T289 -17Q232 -17 185 5T103 64T49 152T30 257Q30 312 49 361T101 448T182 508T287 530Q332 530 374 514T446 463V830H628V0H446V57ZM335 372Q307 372 286 363T249 338T226 301T218 256Q218 207 248 174T335 141Q391 141 421 174T452 256Q452 280 444 301T421 337T385 362T335 372Z"  />
<glyph unicode="e" horiz-adv-x="610" d="M418 331Q411 368 382 390T315 412Q275 412 245 392T207 331H418ZM587 226H204Q204 170 232 141T318 112Q347 112 368 122T405 159H580Q569 114 544 81T483 26T405 -6T319 -17Q255 -17 201 1T107 53T45 139T22 256Q22 320 43 371T101 457T191 511T306 530Q373 530 425 510T513 453T568 364T587 245V226Z"  />
<glyph unicode="f" horiz-adv-x="388" d="M260 0H78V363H14V513H78V578Q78 605 79 628T85 673T100 716T130 758Q164 798 210 819T309 840Q330 840 349 836T387 822V665Q371 672 356 677T323 682Q288 682 274 661T260 596V513H387V363H260V0Z"  />
<glyph unicode="g" horiz-adv-x="677" d="M623 50Q623 -32 603 -90T545 -185T452 -239T326 -256Q282 -256 233 -245T142 -209T70 -148T34 -60H238Q242 -74 251 -83T272 -99Q296 -111 324 -111Q361 -111 383 -100T419 -69T436 -22T441 36V60Q406 25 368 8T278 -10Q222 -10 176 10T96 65T44 148T25 252Q25 308 44 358T97 447T180 507T288 530Q333 530 372 514T439 459H441V513H623V50ZM330 376Q302 376 281 367T244 342T221 305T213 260Q213 211 243 178T330 145Q386 145 416 178T447 260Q447 284 439 305T416 341T380 366T330 376Z"  />
<glyph unicode="h" horiz-adv-x="661" d="M242 830V448H244Q276 490 315 510T408 530Q457 530 493 515T553 471T589 403T601 314V0H419V263Q419 285 417 307T406 346T381 374T337 385Q310 385 292 375T263 347T247 307T242 263V0H60V830H242Z"  />
<glyph unicode="i" horiz-adv-x="302" d="M242 0H60V513H242V0ZM151 812Q172 812 190 804T223 782T245 750T253 710Q253 689 245 671T223 638T191 616T151 608Q130 608 112 616T79 638T57 670T49 710Q49 731 57 749T79 782T111 804T151 812Z"  />
<glyph unicode="j" horiz-adv-x="302" d="M242 -256H60V513H242V-256ZM151 812Q172 812 190 804T223 782T245 750T253 710Q253 689 245 671T223 638T191 616T151 608Q130 608 112 616T79 638T57 670T49 710Q49 731 57 749T79 782T111 804T151 812Z"  />
<glyph unicode="k" horiz-adv-x="688" d="M242 328L431 513H680L423 276L696 0H441L242 209V0H60V830H242V328Z"  />
<glyph unicode="l" horiz-adv-x="302" d="M242 0H60V830H242V0Z"  />
<glyph unicode="m" horiz-adv-x="989" d="M242 449H244Q276 492 316 511T406 530Q462 530 507 507T581 432Q607 480 654 505T755 530Q804 530 837 515T891 473T921 409T930 327V0H748V245Q748 265 747 289T740 335T718 370T673 385Q641 385 624 372T598 338T588 293T586 245V0H404V245Q404 266 403 291T394 338T370 374T323 389Q293 389 277 375T253 339T244 292T242 245V0H60V513H242V449Z"  />
<glyph unicode="n" horiz-adv-x="661" d="M242 447H244Q276 494 315 512T408 530Q460 530 496 515T556 471T590 404T601 317V0H419V250Q419 268 419 291T412 336T388 371T337 385Q309 385 291 376T262 350T247 312T242 266V0H60V513H242V447Z"  />
<glyph unicode="o" horiz-adv-x="662" d="M331 530Q393 530 449 512T547 459T615 373T640 256Q640 191 615 140T548 54T449 1T331 -17Q269 -17 214 1T115 54T47 139T22 256Q22 322 47 373T114 459T213 512T331 530ZM331 372Q303 372 282 363T245 338T222 301T214 256Q214 207 244 174T331 141Q387 141 417 174T448 256Q448 280 440 301T417 337T381 362T331 372Z"  />
<glyph unicode="p" horiz-adv-x="682" d="M236 455H238Q263 493 305 511T393 530Q450 530 498 508T580 448T633 360T652 255Q652 199 633 150T581 64T500 5T395 -17Q350 -17 308 -1T236 49V-256H54V513H236V455ZM347 372Q319 372 298 363T261 338T238 301T230 256Q230 207 260 174T347 141Q403 141 433 174T464 256Q464 280 456 301T433 337T397 362T347 372Z"  />
<glyph unicode="q" horiz-adv-x="682" d="M628 -256H446V49Q417 15 375 -1T287 -17Q230 -17 183 4T101 63T49 150T30 255Q30 310 49 359T102 447T184 507T289 530Q334 530 377 512T444 455H446V513H628V-256ZM335 372Q307 372 286 363T249 338T226 301T218 256Q218 207 248 174T335 141Q391 141 421 174T452 256Q452 280 444 301T421 337T385 362T335 372Z"  />
<glyph unicode="r" horiz-adv-x="453" d="M242 429H244Q270 477 313 498T410 520H445V345Q426 356 408 359T368 362Q330 362 306 350T267 318T248 269T242 207V0H60V513H242V429Z"  />
<glyph unicode="s" horiz-adv-x="513" d="M399 381Q378 392 351 399T301 406Q293 406 283 404T265 398T250 388T244 371Q244 358 253 350T276 338T303 331T326 326Q358 320 385 309T432 279T463 236T475 174Q475 123 454 87T399 28T321 -6T233 -17Q178 -17 126 -2T26 42L92 169Q106 159 124 150T161 134T199 122T236 117Q245 117 255 119T273 126T287 138T293 156Q293 171 283 179T257 193T221 203T179 213Q158 219 138 227T101 251T75 290T65 348Q65 395 84 429T136 486T208 519T291 530Q335 530 377 523T460 497L399 381Z"  />
<glyph unicode="t" horiz-adv-x="360" d="M259 0H77V363H18V513H77V667H259V513H362V363H259V0Z"  />
<glyph unicode="u" horiz-adv-x="659" d="M239 513V239Q239 215 242 195T256 159T284 136T330 128Q358 128 376 136T404 159T417 194T421 239V513H603V204Q603 141 582 99T524 31T438 -6T330 -17Q272 -17 222 -6T136 30T78 98T57 204V513H239Z"  />
<glyph unicode="v" horiz-adv-x="623" d="M312 250L434 513H638L370 0H254L-15 513H189L312 250Z"  />
<glyph unicode="w" horiz-adv-x="996" d="M315 235L444 513H552L681 235L810 513H1011L743 0H625L498 281L371 0H253L-15 513H187L315 235Z"  />
<glyph unicode="x" horiz-adv-x="712" d="M33 513H264L356 407L448 513H683L471 278L727 0H488L356 152L224 0H-15L241 278L33 513Z"  />
<glyph unicode="y" horiz-adv-x="654" d="M-15 513H195L332 250L466 513H673L262 -256H58L233 70L-15 513Z"  />
<glyph unicode="z" horiz-adv-x="559" d="M528 151V0H8L249 362H40V513H552L312 151H528Z"  />
<glyph unicode="{" horiz-adv-x="352" d="M36 331Q43 331 55 331T78 336T98 352T106 384V637Q106 677 118 706T149 753T186 781T219 790H316V670H291Q274 670 265 665T251 651T246 632T245 611V386Q245 354 235 334T209 303T178 287T149 280V278Q161 276 177 273T209 258T234 224T245 161V-61Q245 -72 245 -82T250 -101T264 -115T291 -120H316V-240H219Q205 -240 186 -231T149 -204T119 -157T106 -89V164Q106 190 98 203T79 221T55 227T36 227V331Z"  />
<glyph unicode="|" horiz-adv-x="579" d="M365 -214H215V786H365V-214Z"  />
<glyph unicode="}" horiz-adv-x="352" d="M316 227Q308 227 297 227T274 222T254 203T246 164V-89Q246 -128 234 -156T203 -203T166 -231T133 -240H36V-120H61Q78 -120 87 -115T101 -102T106 -83T107 -61V161Q107 201 117 223T143 257T174 272T203 278V280Q191 282 175 287T143 303T118 334T107 386V611Q107 621 107 632T102 651T88 664T61 670H36V790H133Q146 790 165 781T203 754T233 706T246 637V384Q246 363 254 352T273 337T296 332T316 331V227Z"  />
<glyph unicode="~" horiz-adv-x="686" d="M637 276Q624 254 607 227T568 176T520 136T462 120Q425 120 395 136T339 168Q305 188 278 207T227 226Q217 226 208 218T190 196T175 169T162 142L49 238Q65 257 83 284T122 336T168 378T225 395Q256 395 290 378T353 339Q377 320 407 305T461 289Q471 289 480 298T498 321T513 348T523 373L637 276Z"  />
<glyph unicode="&#xA0;" horiz-adv-x="343" />
<glyph unicode="&#xA1;" horiz-adv-x="384" d="M192 532Q216 532 237 523T275 498T300 461T309 415Q309 391 300 370T275 333T238 308T192 298Q168 298 147 307T109 332T84 369T75 415Q75 439 84 460T109 498T146 523T192 532ZM287 255V-243H98V255H287Z"  />
<glyph unicode="&#xA2;" horiz-adv-x="686" d="M394 109Q341 111 295 133T215 192T161 276T141 377Q141 433 159 481T212 564T292 622T394 650V743H487V644L545 627V464Q527 481 505 491T457 502Q430 502 407 493T367 468T341 430T331 380Q331 354 340 332T365 293T403 267T451 257Q477 257 502 266T545 295V132Q531 127 517 123T487 116V10H394V109Z"  />
<glyph unicode="&#xA3;" horiz-adv-x="686" d="M336 300Q340 288 342 270T345 234T343 197T336 166L347 162Q362 157 381 151T420 140T460 132T495 128Q518 128 532 141T546 177H668Q665 136 653 101T618 39T562 -1T484 -16Q447 -16 414 -7T346 12Q333 16 317 20T283 28T249 34T219 37Q200 37 181 29T156 0H26Q32 32 46 63T83 120T134 161T198 177Q213 209 206 240T180 300H19V376H127Q110 404 101 436T91 504Q91 558 112 607T172 695Q216 737 270 752T383 768Q457 768 509 751T595 700T644 611T661 484H467V519Q467 538 460 555T441 585T412 606T376 614Q330 614 306 583T281 508Q281 471 291 438T322 376H478V300H336Z"  />
<glyph unicode="&#xA4;" horiz-adv-x="686" d="M115 218Q92 249 79 290T65 378Q65 425 77 469T115 543L49 610L111 673L178 606Q210 630 254 644T346 658Q392 658 434 644T506 606L573 673L635 611L573 548Q597 516 612 472T627 380Q627 333 612 291T571 219L637 153L577 88L510 154Q480 128 437 114T346 100Q297 100 253 114T177 155L111 89L49 152L115 218ZM346 508Q318 508 294 498T253 469T225 427T215 375Q215 346 225 323T252 284T294 259T346 250Q374 250 398 259T439 284T467 323T477 375Q477 403 467 427T440 469T398 497T346 508Z"  />
<glyph unicode="&#xA5;" horiz-adv-x="686" d="M491 446L435 362H633V286H435V0H251V286H51V362H250L193 446H51V522H143L-11 754H211L343 549L475 754H697L542 522H633V446H491Z"  />
<glyph unicode="&#xA6;" horiz-adv-x="579" d="M365 -89H215V161H365V-89ZM365 411H215V661H365V411Z"  />
<glyph unicode="&#xA7;" horiz-adv-x="686" d="M452 187Q463 196 470 211T478 241Q478 256 471 267T453 288T430 303T405 316L241 399Q227 391 219 377T210 345Q210 329 217 318T235 298T260 283T285 270L452 187ZM406 589Q400 615 382 632T335 649Q312 649 296 636T279 598Q279 579 288 566T311 542T341 525T372 510L483 454Q514 439 541 423T587 387T618 339T630 272Q630 224 607 184T546 115Q572 92 584 56T597 -15Q597 -69 575 -109T516 -177T432 -217T336 -230Q284 -230 233 -216T143 -172T80 -100T59 3H242Q241 -17 249 -33T272 -62T304 -81T340 -88Q371 -88 393 -71T416 -21Q416 -3 408 9T388 31T360 48T332 61L174 138Q122 164 90 203T57 303Q57 352 82 394T143 466Q121 487 110 520T98 583Q98 631 117 666T169 726T242 762T326 774Q371 774 412 764T487 732T540 674T563 589H406Z"  />
<glyph unicode="&#xA8;" horiz-adv-x="604" d="M174 800Q215 800 243 772T272 702Q272 660 244 632T174 604Q132 604 104 632T75 702Q75 743 103 771T174 800ZM430 800Q471 800 499 772T528 702Q528 660 500 632T430 604Q388 604 360 632T331 702Q331 743 359 771T430 800Z"  />
<glyph unicode="&#xA9;" horiz-adv-x="800" d="M400 -20Q317 -20 245 11T120 96T35 222T4 376Q4 459 35 531T119 658T245 743T400 774Q482 774 554 743T680 658T765 532T796 376Q796 294 765 222T681 96T555 11T400 -20ZM400 74Q464 74 519 96T614 159T678 254T702 376Q702 443 679 498T615 594T519 657T400 680Q335 680 280 658T185 595T121 499T98 376Q98 310 121 255T184 159T280 97T400 74ZM512 459Q506 496 479 514T414 532Q384 532 362 520T323 487T299 439T291 382Q291 354 300 327T325 278T365 243T417 229Q452 229 481 249T512 306H602Q598 270 582 242T540 193T483 163T417 152Q367 152 327 170T257 218T213 290T197 380Q197 429 212 471T255 544T323 592T415 609Q451 609 482 599T538 570T579 522T602 459H512Z"  />
<glyph unicode="&#xAA;" horiz-adv-x="409" d="M209 540Q241 540 263 560T285 610Q285 639 263 659T209 680Q177 680 155 660T133 610Q133 581 155 561T209 540ZM281 490H279Q264 467 236 457T179 446Q142 446 111 459T58 494T24 547T11 610Q11 643 23 673T57 725T110 761T178 774Q207 774 234 764T281 734V764H399V456H281V490Z"  />
<glyph unicode="&#xAB;" horiz-adv-x="603" d="M550 146L447 74L275 320L447 566L547 497L421 320L550 146ZM301 146L198 74L26 320L198 566L298 497L172 320L301 146Z"  />
<glyph unicode="&#xAC;" horiz-adv-x="686" d="M449 302H87V452H599V141H449V302Z"  />
<glyph unicode="&#xAD;" horiz-adv-x="392" d="M339 396V246H53V396H339Z"  />
<glyph unicode="&#xAE;" horiz-adv-x="800" d="M400 -20Q317 -20 245 11T120 96T35 222T4 376Q4 459 35 531T119 658T245 743T400 774Q482 774 554 743T680 658T765 532T796 376Q796 294 765 222T681 96T555 11T400 -20ZM400 74Q464 74 519 96T614 159T678 254T702 376Q702 443 679 498T615 594T519 657T400 680Q335 680 280 658T185 595T121 499T98 376Q98 310 121 255T184 159T280 97T400 74ZM590 175H490L398 349H334V175H242V587H442Q478 587 507 583T558 565T590 527T602 461Q602 404 574 379T490 349L590 175ZM444 411Q479 411 497 422T516 473Q516 489 507 497T485 510T455 514T423 515H334V411H444Z"  />
<glyph unicode="&#xAF;" horiz-adv-x="603" d="M527 752V645H75V752H527Z"  />
<glyph unicode="&#xB0;" horiz-adv-x="400" d="M350 623Q350 592 338 565T306 518T258 486T199 474Q167 474 140 485T93 517T62 565T50 623Q49 654 60 681T92 729T139 762T199 774Q230 774 257 762T305 730T338 682T350 623ZM265 624Q265 650 246 669T199 689Q173 689 154 670T135 624Q135 597 154 578T200 559Q227 559 246 578T265 624Z"  />
<glyph unicode="&#xB1;" horiz-adv-x="686" d="M268 654H418V512H599V362H418V220H268V362H87V512H268V654ZM599 150V0H87V150H599Z"  />
<glyph unicode="&#xB2;" horiz-adv-x="412" d="M237 413H397V314H3L204 515Q225 536 242 565T260 626Q260 647 245 665T204 684Q178 684 164 668T150 629Q150 624 150 620T152 610H12Q15 688 65 736T203 784Q242 784 276 773T336 741T377 690T392 623Q392 574 372 543T313 479L237 413Z"  />
<glyph unicode="&#xB3;" horiz-adv-x="412" d="M134 461Q134 434 153 416T202 398Q231 398 250 414T270 458Q270 484 250 501T203 518Q197 518 192 517T180 515V593H193Q218 593 233 606T249 643Q249 663 235 675T199 688Q175 688 161 673T147 636H29Q37 707 86 745T211 784Q244 784 272 776T322 750T356 709T368 653Q368 626 356 600T316 560Q335 555 350 544T375 516T391 482T396 446Q396 409 380 381T338 335T277 307T206 297Q164 297 127 308T60 348Q49 358 39 371T20 400T8 430T4 461H134Z"  />
<glyph unicode="&#xB4;" horiz-adv-x="402" d="M156 589L75 648L216 820L327 740L156 589Z"  />
<glyph unicode="&#xB5;" horiz-adv-x="659" d="M239 513V239Q239 215 242 195T256 159T284 136T330 128Q358 128 376 136T404 159T417 194T421 239V513H603V204Q603 139 580 96T522 28T446 -7T370 -17Q322 -17 289 -1T239 32V-256H57V513H239Z"  />
<glyph unicode="&#xB6;" horiz-adv-x="686" d="M640 754V663H574V-170H473V662H380V-170H279V290Q235 294 196 306T127 343T75 407T48 505Q43 550 59 595T106 675T178 732T263 754H640Z"  />
<glyph unicode="&#xB7;" horiz-adv-x="343" d="M172 373Q196 373 217 364T255 339T280 302T289 256Q289 232 280 211T255 174T218 149T172 139Q148 139 127 148T89 173T64 210T55 256Q55 280 64 301T89 339T126 364T172 373Z"  />
<glyph unicode="&#xB8;" horiz-adv-x="380" d="M153 -237L75 -188L205 -30L304 -94L153 -237Z"  />
<glyph unicode="&#xB9;" horiz-adv-x="412" d="M93 667V766H290V314H163V667H93Z"  />
<glyph unicode="&#xBA;" horiz-adv-x="410" d="M205 774Q245 774 281 763T345 731T389 680T406 610Q406 571 390 541T346 489T282 457T205 446Q165 446 129 457T65 489T21 540T5 610Q5 649 21 679T64 731T128 763T205 774ZM205 679Q173 679 152 659T130 610Q130 581 151 561T205 541Q237 541 259 561T281 610Q281 639 259 659T205 679Z"  />
<glyph unicode="&#xBB;" horiz-adv-x="603" d="M182 320L56 497L156 566L328 320L156 74L53 146L182 320ZM431 320L305 497L405 566L577 320L405 74L302 146L431 320Z"  />
<glyph unicode="&#xBC;" horiz-adv-x="1029" d="M100 655V754H297V302H170V655H100ZM929 184V94H870V0H752V94H514V169L703 452H870V184H929ZM752 357H750L636 183H752V357ZM743 754L305 0H207L645 754H743Z"  />
<glyph unicode="&#xBD;" horiz-adv-x="1029" d="M100 655V754H297V302H170V655H100ZM769 99H929V0H535L736 201Q757 222 774 251T792 312Q792 333 777 351T736 370Q710 370 696 354T682 315Q682 310 682 306T684 296H544Q547 374 597 422T735 470Q774 470 808 459T868 427T909 376T924 309Q924 260 904 229T845 165L769 99ZM715 754L277 0H179L617 754H715Z"  />
<glyph unicode="&#xBE;" horiz-adv-x="1029" d="M979 184V94H920V0H802V94H564V169L753 452H920V184H979ZM802 357H800L686 183H802V357ZM829 754L391 0H293L731 754H829ZM239 563Q264 563 279 576T295 613Q295 633 281 645T245 658Q221 658 207 643T193 606H75Q83 677 132 715T257 754Q290 754 318 746T368 720T402 679T414 623Q414 596 402 570T362 530Q381 525 396 514T421 486T437 452T442 416Q442 379 426 351T384 305T323 277T252 267Q210 267 173 278T106 318Q95 328 85 341T66 370T54 400T50 431H180Q180 403 199 386Q219 368 248 368Q277 368 296 384T316 428Q316 454 296 471T249 488Q243 488 238 487T226 485V563H239Z"  />
<glyph unicode="&#xBF;" horiz-adv-x="595" d="M409 64Q386 69 367 69Q346 69 323 63T281 45T250 14T238 -30Q238 -61 258 -83T311 -105Q346 -105 363 -83T381 -29H580Q580 -86 557 -130T496 -203T408 -248T306 -264Q258 -264 213 -249T131 -202Q93 -170 69 -125T45 -29Q45 13 59 47T97 109T155 155T226 187V258H409V64ZM314 532Q338 532 359 523T397 498T422 461T431 415Q431 391 422 370T397 333T360 308T314 298Q290 298 269 307T231 332T206 369T197 415Q197 439 206 460T231 498T268 523T314 532Z"  />
<glyph unicode="&#xC0;" horiz-adv-x="781" d="M256 131L204 0H-4L286 754H500L784 0H575L526 131H256ZM393 521H391L310 281H473L393 521ZM356 1031L497 859L416 800L245 951L356 1031Z"  />
<glyph unicode="&#xC1;" horiz-adv-x="781" d="M256 131L204 0H-4L286 754H500L784 0H575L526 131H256ZM393 521H391L310 281H473L393 521ZM366 800L285 859L426 1031L537 951L366 800Z"  />
<glyph unicode="&#xC2;" horiz-adv-x="781" d="M256 131L204 0H-4L286 754H500L784 0H575L526 131H256ZM393 521H391L310 281H473L393 521ZM389 1040L610 876L533 792L389 903L245 792L171 876L389 1040Z"  />
<glyph unicode="&#xC3;" horiz-adv-x="781" d="M256 131L204 0H-4L286 754H500L784 0H575L526 131H256ZM393 521H391L310 281H473L393 521ZM192 827L191 838Q191 862 196 884T213 927Q227 950 250 966T302 983Q321 983 343 978T388 966T430 955T465 949Q484 949 491 959T505 985H590Q588 958 579 930T555 879T516 842T460 827Q441 827 422 833T383 845T345 858T308 864Q290 864 285 853T274 827H192Z"  />
<glyph unicode="&#xC4;" horiz-adv-x="781" d="M256 131L204 0H-4L286 754H500L784 0H575L526 131H256ZM393 521H391L310 281H473L393 521ZM263 1011Q304 1011 332 983T361 913Q361 871 333 843T263 815Q221 815 193 843T164 913Q164 954 192 982T263 1011ZM519 1011Q560 1011 588 983T617 913Q617 871 589 843T519 815Q477 815 449 843T420 913Q420 954 448 982T519 1011Z"  />
<glyph unicode="&#xC5;" horiz-adv-x="781" d="M256 131L204 0H-4L286 754H500L784 0H575L526 131H256ZM393 521H391L310 281H473L393 521ZM389 1011Q417 1011 445 1006T495 987T530 951T544 896Q544 864 531 842T496 807T447 787T392 781Q364 781 337 786T287 805T251 840T237 895Q237 927 250 949T284 985T333 1005T389 1011ZM391 939Q370 939 351 930T332 896Q332 872 351 863T391 853Q411 853 430 862T449 896Q449 920 430 929T391 939Z"  />
<glyph unicode="&#xC6;" horiz-adv-x="1026" d="M389 505L304 281H470L389 505ZM523 131H250L203 0H-4L287 754H749L810 588H562L608 462H855L918 296H669L718 166H966L1026 0H572L523 131Z"  />
<glyph unicode="&#xC7;" horiz-adv-x="660" d="M603 501Q573 542 528 563T431 584Q386 584 349 568T286 524T245 457T230 375Q230 330 244 293T286 228T350 186T434 170Q482 170 527 191T603 250V15Q554 0 515 -10T430 -20Q351 -20 279 8T147 91Q84 148 55 219T26 376Q26 454 54 525T137 652Q193 709 268 741T424 774Q472 774 515 764T603 736V501ZM318 -237L240 -188L370 -30L469 -94L318 -237Z"  />
<glyph unicode="&#xC8;" horiz-adv-x="550" d="M260 588V462H481V296H260V166H493V0H64V754H493V588H260ZM260 1031L401 859L320 800L149 951L260 1031Z"  />
<glyph unicode="&#xC9;" horiz-adv-x="550" d="M260 588V462H481V296H260V166H493V0H64V754H493V588H260ZM230 800L149 859L290 1031L401 951L230 800Z"  />
<glyph unicode="&#xCA;" horiz-adv-x="550" d="M260 588V462H481V296H260V166H493V0H64V754H493V588H260ZM274 1040L495 876L418 792L274 903L130 792L56 876L274 1040Z"  />
<glyph unicode="&#xCB;" horiz-adv-x="550" d="M260 588V462H481V296H260V166H493V0H64V754H493V588H260ZM148 1011Q189 1011 217 983T246 913Q246 871 218 843T148 815Q106 815 78 843T49 913Q49 954 77 982T148 1011ZM404 1011Q445 1011 473 983T502 913Q502 871 474 843T404 815Q362 815 334 843T305 913Q305 954 333 982T404 1011Z"  />
<glyph unicode="&#xCC;" horiz-adv-x="324" d="M260 0H64V754H260V0ZM133 1031L274 859L193 800L22 951L133 1031Z"  />
<glyph unicode="&#xCD;" horiz-adv-x="324" d="M260 0H64V754H260V0ZM133 800L52 859L193 1031L304 951L133 800Z"  />
<glyph unicode="&#xCE;" horiz-adv-x="324" d="M260 0H64V754H260V0ZM176 1040L397 876L320 792L176 903L32 792L-42 876L176 1040Z"  />
<glyph unicode="&#xCF;" horiz-adv-x="324" d="M260 0H64V754H260V0ZM35 1011Q76 1011 104 983T133 913Q133 871 105 843T35 815Q-7 815 -35 843T-64 913Q-64 954 -36 982T35 1011ZM291 1011Q332 1011 360 983T389 913Q389 871 361 843T291 815Q249 815 221 843T192 913Q192 954 220 982T291 1011Z"  />
<glyph unicode="&#xD0;" horiz-adv-x="752" d="M260 463H370V309H260V166H304Q348 166 387 178T456 216T503 282T521 377Q521 428 505 467T461 533T393 574T306 588H260V463ZM64 309H-20V463H64V754H318Q407 754 482 726T611 648T695 528T725 377Q725 294 694 225T608 106T479 28T320 0H64V309Z"  />
<glyph unicode="&#xD1;" horiz-adv-x="881" d="M64 754H260L619 293H621V754H817V0H621L262 462H260V0H64V754ZM242 827L241 838Q241 862 246 884T263 927Q277 950 300 966T352 983Q371 983 393 978T438 966T480 955T515 949Q534 949 541 959T555 985H640Q638 958 629 930T605 879T566 842T510 827Q491 827 472 833T433 845T395 858T358 864Q340 864 335 853T324 827H242Z"  />
<glyph unicode="&#xD2;" horiz-adv-x="887" d="M443 779Q524 779 599 751T733 671T825 548T860 391Q860 299 829 223T743 92T611 6T443 -25Q352 -25 276 5T144 91T57 223T26 391Q26 476 60 547T153 670T286 750T443 779ZM443 589Q399 589 361 573T293 529T247 465T230 390Q230 341 247 300T293 229T360 182T443 165Q487 165 525 182T593 229T639 300T656 390Q656 429 639 465T593 528T526 572T443 589ZM409 1031L550 859L469 800L298 951L409 1031Z"  />
<glyph unicode="&#xD3;" horiz-adv-x="887" d="M443 779Q524 779 599 751T733 671T825 548T860 391Q860 299 829 223T743 92T611 6T443 -25Q352 -25 276 5T144 91T57 223T26 391Q26 476 60 547T153 670T286 750T443 779ZM443 589Q399 589 361 573T293 529T247 465T230 390Q230 341 247 300T293 229T360 182T443 165Q487 165 525 182T593 229T639 300T656 390Q656 429 639 465T593 528T526 572T443 589ZM419 800L338 859L479 1031L590 951L419 800Z"  />
<glyph unicode="&#xD4;" horiz-adv-x="887" d="M443 779Q524 779 599 751T733 671T825 548T860 391Q860 299 829 223T743 92T611 6T443 -25Q352 -25 276 5T144 91T57 223T26 391Q26 476 60 547T153 670T286 750T443 779ZM443 589Q399 589 361 573T293 529T247 465T230 390Q230 341 247 300T293 229T360 182T443 165Q487 165 525 182T593 229T639 300T656 390Q656 429 639 465T593 528T526 572T443 589ZM442 1040L663 876L586 792L442 903L298 792L224 876L442 1040Z"  />
<glyph unicode="&#xD5;" horiz-adv-x="887" d="M443 779Q524 779 599 751T733 671T825 548T860 391Q860 299 829 223T743 92T611 6T443 -25Q352 -25 276 5T144 91T57 223T26 391Q26 476 60 547T153 670T286 750T443 779ZM443 589Q399 589 361 573T293 529T247 465T230 390Q230 341 247 300T293 229T360 182T443 165Q487 165 525 182T593 229T639 300T656 390Q656 429 639 465T593 528T526 572T443 589ZM245 827L244 838Q244 862 249 884T266 927Q280 950 303 966T355 983Q374 983 396 978T441 966T483 955T518 949Q537 949 544 959T558 985H643Q641 958 632 930T608 879T569 842T513 827Q494 827 475 833T436 845T398 858T361 864Q343 864 338 853T327 827H245Z"  />
<glyph unicode="&#xD6;" horiz-adv-x="887" d="M443 779Q524 779 599 751T733 671T825 548T860 391Q860 299 829 223T743 92T611 6T443 -25Q352 -25 276 5T144 91T57 223T26 391Q26 476 60 547T153 670T286 750T443 779ZM443 589Q399 589 361 573T293 529T247 465T230 390Q230 341 247 300T293 229T360 182T443 165Q487 165 525 182T593 229T639 300T656 390Q656 429 639 465T593 528T526 572T443 589ZM316 1011Q357 1011 385 983T414 913Q414 871 386 843T316 815Q274 815 246 843T217 913Q217 954 245 982T316 1011ZM572 1011Q613 1011 641 983T670 913Q670 871 642 843T572 815Q530 815 502 843T473 913Q473 954 501 982T572 1011Z"  />
<glyph unicode="&#xD7;" horiz-adv-x="686" d="M87 407L193 513L343 361L492 513L598 407L449 256L599 106L493 0L343 150L193 0L87 106L238 256L87 407Z"  />
<glyph unicode="&#xD8;" horiz-adv-x="887" d="M550 560Q527 574 500 581T443 589Q399 589 361 573T293 529T247 465T230 390Q230 324 260 275L550 560ZM337 194Q384 165 443 165Q487 165 525 182T593 229T639 300T656 390Q656 440 630 481L337 194ZM111 129Q70 182 48 247T26 391Q26 476 60 547T153 670T286 750T443 779Q512 779 575 759T693 701L788 794L866 714L776 625Q815 578 837 519T860 391Q860 299 829 223T743 92T611 6T443 -25Q371 -25 308 -6T192 52L99 -40L21 40L111 129Z"  />
<glyph unicode="&#xD9;" horiz-adv-x="778" d="M718 754V330Q718 294 716 258T707 188T683 123T639 64Q615 41 586 25T524 -1T457 -15T389 -20Q356 -20 322 -16T255 -1T193 25T139 64Q111 91 95 122T72 188T62 258T60 330V754H256V357Q256 320 259 284T275 218T315 170T389 152Q436 152 463 170T503 217T519 283T522 357V754H718ZM354 1031L495 859L414 800L243 951L354 1031Z"  />
<glyph unicode="&#xDA;" horiz-adv-x="778" d="M718 754V330Q718 294 716 258T707 188T683 123T639 64Q615 41 586 25T524 -1T457 -15T389 -20Q356 -20 322 -16T255 -1T193 25T139 64Q111 91 95 122T72 188T62 258T60 330V754H256V357Q256 320 259 284T275 218T315 170T389 152Q436 152 463 170T503 217T519 283T522 357V754H718ZM364 800L283 859L424 1031L535 951L364 800Z"  />
<glyph unicode="&#xDB;" horiz-adv-x="778" d="M718 754V330Q718 294 716 258T707 188T683 123T639 64Q615 41 586 25T524 -1T457 -15T389 -20Q356 -20 322 -16T255 -1T193 25T139 64Q111 91 95 122T72 188T62 258T60 330V754H256V357Q256 320 259 284T275 218T315 170T389 152Q436 152 463 170T503 217T519 283T522 357V754H718ZM387 1040L608 876L531 792L387 903L243 792L169 876L387 1040Z"  />
<glyph unicode="&#xDC;" horiz-adv-x="778" d="M718 754V330Q718 294 716 258T707 188T683 123T639 64Q615 41 586 25T524 -1T457 -15T389 -20Q356 -20 322 -16T255 -1T193 25T139 64Q111 91 95 122T72 188T62 258T60 330V754H256V357Q256 320 259 284T275 218T315 170T389 152Q436 152 463 170T503 217T519 283T522 357V754H718ZM261 1011Q302 1011 330 983T359 913Q359 871 331 843T261 815Q219 815 191 843T162 913Q162 954 190 982T261 1011ZM517 1011Q558 1011 586 983T615 913Q615 871 587 843T517 815Q475 815 447 843T418 913Q418 954 446 982T517 1011Z"  />
<glyph unicode="&#xDD;" horiz-adv-x="714" d="M-19 754H216L357 549L498 754H733L455 362V0H259V362L-19 754ZM352 800L271 859L412 1031L523 951L352 800Z"  />
<glyph unicode="&#xDE;" horiz-adv-x="661" d="M64 754H260V634H364Q425 634 475 620T562 575T618 498T638 386Q638 252 569 191T371 130H260V0H64V754ZM260 288H293Q320 288 345 289T390 299T422 326T434 380Q434 416 423 435T392 464T347 474T293 476H260V288Z"  />
<glyph unicode="&#xDF;" horiz-adv-x="651" d="M60 589Q60 614 62 639T70 689T89 734T122 774Q161 810 214 825T320 840Q371 840 416 826T495 784T549 715T569 619Q569 565 546 530T480 462Q517 447 544 429T591 386T619 327T629 249Q629 223 624 195T609 140T584 90T549 49Q528 30 502 18T448 -2T390 -13T334 -17H295V138Q352 136 391 168T430 259Q430 287 419 310T390 350T347 375T295 381V526Q337 524 365 543T394 607Q394 642 374 662T318 683Q291 683 276 673T253 647T244 611T242 569V0H60V297H8V442H60V589Z"  />
<glyph unicode="&#xE0;" horiz-adv-x="682" d="M328 372Q300 372 279 363T242 338T219 301T211 256Q211 207 241 174T328 141Q384 141 414 174T445 256Q445 280 437 301T414 337T378 362T328 372ZM621 0H439V57H437Q413 19 370 1T282 -17Q225 -17 178 5T96 64T42 152T23 257Q23 312 42 361T94 448T175 508T280 530Q325 530 367 514T439 463V513H621V0ZM326 820L467 648L386 589L215 740L326 820Z"  />
<glyph unicode="&#xE1;" horiz-adv-x="682" d="M328 372Q300 372 279 363T242 338T219 301T211 256Q211 207 241 174T328 141Q384 141 414 174T445 256Q445 280 437 301T414 337T378 362T328 372ZM621 0H439V57H437Q413 19 370 1T282 -17Q225 -17 178 5T96 64T42 152T23 257Q23 312 42 361T94 448T175 508T280 530Q325 530 367 514T439 463V513H621V0ZM316 589L235 648L376 820L487 740L316 589Z"  />
<glyph unicode="&#xE2;" horiz-adv-x="682" d="M328 372Q300 372 279 363T242 338T219 301T211 256Q211 207 241 174T328 141Q384 141 414 174T445 256Q445 280 437 301T414 337T378 362T328 372ZM621 0H439V57H437Q413 19 370 1T282 -17Q225 -17 178 5T96 64T42 152T23 257Q23 312 42 361T94 448T175 508T280 530Q325 530 367 514T439 463V513H621V0ZM339 829L560 665L483 581L339 692L195 581L121 665L339 829Z"  />
<glyph unicode="&#xE3;" horiz-adv-x="682" d="M328 372Q300 372 279 363T242 338T219 301T211 256Q211 207 241 174T328 141Q384 141 414 174T445 256Q445 280 437 301T414 337T378 362T328 372ZM621 0H439V57H437Q413 19 370 1T282 -17Q225 -17 178 5T96 64T42 152T23 257Q23 312 42 361T94 448T175 508T280 530Q325 530 367 514T439 463V513H621V0ZM143 616L142 627Q142 651 147 673T164 716Q178 739 201 755T253 772Q272 772 294 767T339 755T381 744T416 738Q435 738 442 748T456 774H541Q539 747 530 719T506 668T467 631T411 616Q392 616 373 622T334 634T296 647T259 653Q241 653 236 642T225 616H143Z"  />
<glyph unicode="&#xE4;" horiz-adv-x="682" d="M328 372Q300 372 279 363T242 338T219 301T211 256Q211 207 241 174T328 141Q384 141 414 174T445 256Q445 280 437 301T414 337T378 362T328 372ZM621 0H439V57H437Q413 19 370 1T282 -17Q225 -17 178 5T96 64T42 152T23 257Q23 312 42 361T94 448T175 508T280 530Q325 530 367 514T439 463V513H621V0ZM213 800Q254 800 282 772T311 702Q311 660 283 632T213 604Q171 604 143 632T114 702Q114 743 142 771T213 800ZM469 800Q510 800 538 772T567 702Q567 660 539 632T469 604Q427 604 399 632T370 702Q370 743 398 771T469 800Z"  />
<glyph unicode="&#xE5;" horiz-adv-x="682" d="M328 372Q300 372 279 363T242 338T219 301T211 256Q211 207 241 174T328 141Q384 141 414 174T445 256Q445 280 437 301T414 337T378 362T328 372ZM621 0H439V57H437Q413 19 370 1T282 -17Q225 -17 178 5T96 64T42 152T23 257Q23 312 42 361T94 448T175 508T280 530Q325 530 367 514T439 463V513H621V0ZM340 815Q368 815 396 810T446 791T481 755T495 700Q495 668 482 646T447 611T398 591T343 585Q315 585 288 590T238 609T202 644T188 699Q188 731 201 753T235 789T284 809T340 815ZM342 743Q321 743 302 734T283 700Q283 676 302 667T342 657Q362 657 381 666T400 700Q400 724 381 733T342 743Z"  />
<glyph unicode="&#xE6;" horiz-adv-x="940" d="M752 331Q745 368 716 390T649 412Q609 412 579 392T541 331H752ZM274 218Q262 218 249 215T224 206T205 189T198 163Q198 147 206 137T226 120T252 111T280 108Q291 108 306 110T336 119T361 136T371 162Q371 179 361 190T335 207T304 215T274 218ZM535 226Q535 170 563 141T649 112Q678 112 699 122T736 159H911Q900 114 875 81T814 26T736 -6T650 -17Q620 -17 589 -12T530 4T480 35T444 84Q407 36 352 10T236 -17Q199 -17 161 -7T92 23T41 74T21 148Q21 194 39 226T86 279T153 309T232 319Q269 319 300 313T367 293V308Q367 335 357 352T329 379T290 394T245 398Q207 398 172 390T102 370V506Q138 516 175 523T251 530Q278 530 306 526T361 511T408 483T444 439Q459 462 481 479T528 507T582 524T637 530Q704 530 756 510T844 453T899 364T918 245V226H535Z"  />
<glyph unicode="&#xE7;" horiz-adv-x="483" d="M430 346Q410 361 386 371T336 382Q310 382 287 373T247 346T221 307T211 257Q211 201 246 166T339 131Q363 131 387 140T430 166V12Q400 -3 368 -10T302 -17Q245 -17 195 3T106 59T45 144T23 251Q23 313 45 364T106 452T197 509T310 530Q342 530 372 523T430 500V346ZM205 -237L127 -188L257 -30L356 -94L205 -237Z"  />
<glyph unicode="&#xE8;" horiz-adv-x="610" d="M418 331Q411 368 382 390T315 412Q275 412 245 392T207 331H418ZM587 226H204Q204 170 232 141T318 112Q347 112 368 122T405 159H580Q569 114 544 81T483 26T405 -6T319 -17Q255 -17 201 1T107 53T45 139T22 256Q22 320 43 371T101 457T191 511T306 530Q373 530 425 510T513 453T568 364T587 245V226ZM265 820L406 648L325 589L154 740L265 820Z"  />
<glyph unicode="&#xE9;" horiz-adv-x="610" d="M418 331Q411 368 382 390T315 412Q275 412 245 392T207 331H418ZM587 226H204Q204 170 232 141T318 112Q347 112 368 122T405 159H580Q569 114 544 81T483 26T405 -6T319 -17Q255 -17 201 1T107 53T45 139T22 256Q22 320 43 371T101 457T191 511T306 530Q373 530 425 510T513 453T568 364T587 245V226ZM285 589L204 648L345 820L456 740L285 589Z"  />
<glyph unicode="&#xEA;" horiz-adv-x="610" d="M418 331Q411 368 382 390T315 412Q275 412 245 392T207 331H418ZM587 226H204Q204 170 232 141T318 112Q347 112 368 122T405 159H580Q569 114 544 81T483 26T405 -6T319 -17Q255 -17 201 1T107 53T45 139T22 256Q22 320 43 371T101 457T191 511T306 530Q373 530 425 510T513 453T568 364T587 245V226ZM303 829L524 665L447 581L303 692L159 581L85 665L303 829Z"  />
<glyph unicode="&#xEB;" horiz-adv-x="610" d="M418 331Q411 368 382 390T315 412Q275 412 245 392T207 331H418ZM587 226H204Q204 170 232 141T318 112Q347 112 368 122T405 159H580Q569 114 544 81T483 26T405 -6T319 -17Q255 -17 201 1T107 53T45 139T22 256Q22 320 43 371T101 457T191 511T306 530Q373 530 425 510T513 453T568 364T587 245V226ZM177 800Q218 800 246 772T275 702Q275 660 247 632T177 604Q135 604 107 632T78 702Q78 743 106 771T177 800ZM433 800Q474 800 502 772T531 702Q531 660 503 632T433 604Q391 604 363 632T334 702Q334 743 362 771T433 800Z"  />
<glyph unicode="&#xEC;" horiz-adv-x="302" d="M242 0H60V513H242V0ZM122 820L263 648L182 589L11 740L122 820Z"  />
<glyph unicode="&#xED;" horiz-adv-x="302" d="M242 0H60V513H242V0ZM122 589L41 648L182 820L293 740L122 589Z"  />
<glyph unicode="&#xEE;" horiz-adv-x="302" d="M242 0H60V513H242V0ZM150 829L371 665L294 581L150 692L6 581L-68 665L150 829Z"  />
<glyph unicode="&#xEF;" horiz-adv-x="302" d="M242 0H60V513H242V0ZM24 800Q65 800 93 772T122 702Q122 660 94 632T24 604Q-18 604 -46 632T-75 702Q-75 743 -47 771T24 800ZM280 800Q321 800 349 772T378 702Q378 660 350 632T280 604Q238 604 210 632T181 702Q181 743 209 771T280 800Z"  />
<glyph unicode="&#xF0;" horiz-adv-x="662" d="M147 848Q187 830 212 817T255 795T284 779T305 765L432 832L497 759L393 704Q441 664 485 623T564 533T619 427T640 297Q640 214 613 155T542 57T442 1T325 -17Q277 -17 224 -2T126 47T52 131T22 255Q22 317 46 366T108 448T196 500T295 518Q314 518 327 516T354 512Q330 542 301 571T241 624L111 555L45 626L154 684Q127 701 99 716T41 744L147 848ZM331 372Q303 372 282 363T245 338T222 301T214 256Q214 207 244 174T331 141Q387 141 417 174T448 256Q448 280 440 301T417 337T381 362T331 372Z"  />
<glyph unicode="&#xF1;" horiz-adv-x="661" d="M242 447H244Q276 494 315 512T408 530Q460 530 496 515T556 471T590 404T601 317V0H419V250Q419 268 419 291T412 336T388 371T337 385Q309 385 291 376T262 350T247 312T242 266V0H60V513H242V447ZM132 616L131 627Q131 651 136 673T153 716Q167 739 190 755T242 772Q261 772 283 767T328 755T370 744T405 738Q424 738 431 748T445 774H530Q528 747 519 719T495 668T456 631T400 616Q381 616 362 622T323 634T285 647T248 653Q230 653 225 642T214 616H132Z"  />
<glyph unicode="&#xF2;" horiz-adv-x="662" d="M331 530Q393 530 449 512T547 459T615 373T640 256Q640 191 615 140T548 54T449 1T331 -17Q269 -17 214 1T115 54T47 139T22 256Q22 322 47 373T114 459T213 512T331 530ZM331 372Q303 372 282 363T245 338T222 301T214 256Q214 207 244 174T331 141Q387 141 417 174T448 256Q448 280 440 301T417 337T381 362T331 372ZM291 820L432 648L351 589L180 740L291 820Z"  />
<glyph unicode="&#xF3;" horiz-adv-x="662" d="M331 530Q393 530 449 512T547 459T615 373T640 256Q640 191 615 140T548 54T449 1T331 -17Q269 -17 214 1T115 54T47 139T22 256Q22 322 47 373T114 459T213 512T331 530ZM331 372Q303 372 282 363T245 338T222 301T214 256Q214 207 244 174T331 141Q387 141 417 174T448 256Q448 280 440 301T417 337T381 362T331 372ZM311 589L230 648L371 820L482 740L311 589Z"  />
<glyph unicode="&#xF4;" horiz-adv-x="662" d="M331 530Q393 530 449 512T547 459T615 373T640 256Q640 191 615 140T548 54T449 1T331 -17Q269 -17 214 1T115 54T47 139T22 256Q22 322 47 373T114 459T213 512T331 530ZM331 372Q303 372 282 363T245 338T222 301T214 256Q214 207 244 174T331 141Q387 141 417 174T448 256Q448 280 440 301T417 337T381 362T331 372ZM329 829L550 665L473 581L329 692L185 581L111 665L329 829Z"  />
<glyph unicode="&#xF5;" horiz-adv-x="662" d="M331 530Q393 530 449 512T547 459T615 373T640 256Q640 191 615 140T548 54T449 1T331 -17Q269 -17 214 1T115 54T47 139T22 256Q22 322 47 373T114 459T213 512T331 530ZM331 372Q303 372 282 363T245 338T222 301T214 256Q214 207 244 174T331 141Q387 141 417 174T448 256Q448 280 440 301T417 337T381 362T331 372ZM133 616L132 627Q132 651 137 673T154 716Q168 739 191 755T243 772Q262 772 284 767T329 755T371 744T406 738Q425 738 432 748T446 774H531Q529 747 520 719T496 668T457 631T401 616Q382 616 363 622T324 634T286 647T249 653Q231 653 226 642T215 616H133Z"  />
<glyph unicode="&#xF6;" horiz-adv-x="662" d="M331 530Q393 530 449 512T547 459T615 373T640 256Q640 191 615 140T548 54T449 1T331 -17Q269 -17 214 1T115 54T47 139T22 256Q22 322 47 373T114 459T213 512T331 530ZM331 372Q303 372 282 363T245 338T222 301T214 256Q214 207 244 174T331 141Q387 141 417 174T448 256Q448 280 440 301T417 337T381 362T331 372ZM203 800Q244 800 272 772T301 702Q301 660 273 632T203 604Q161 604 133 632T104 702Q104 743 132 771T203 800ZM459 800Q500 800 528 772T557 702Q557 660 529 632T459 604Q417 604 389 632T360 702Q360 743 388 771T459 800Z"  />
<glyph unicode="&#xF7;" horiz-adv-x="686" d="M599 332V182H87V332H599ZM343 127Q373 127 394 106T415 55Q415 25 394 4T343 -17Q313 -17 292 4T271 55Q271 85 292 106T343 127ZM343 531Q373 531 394 510T415 459Q415 429 394 408T343 387Q313 387 292 408T271 459Q271 489 292 510T343 531Z"  />
<glyph unicode="&#xF8;" horiz-adv-x="662" d="M374 365Q365 368 354 370T331 372Q303 372 282 363T245 338T222 301T214 256Q214 231 221 214L374 365ZM288 148Q306 141 331 141Q387 141 417 174T448 256Q448 279 441 299L288 148ZM87 81Q56 115 39 158T22 256Q22 322 47 373T114 459T213 512T331 530Q425 530 500 490L571 560L641 498L575 432Q605 398 622 354T640 256Q640 191 615 140T548 54T449 1T331 -17Q285 -17 243 -7T162 23L91 -47L21 16L87 81Z"  />
<glyph unicode="&#xF9;" horiz-adv-x="659" d="M239 513V239Q239 215 242 195T256 159T284 136T330 128Q358 128 376 136T404 159T417 194T421 239V513H603V204Q603 141 582 99T524 31T438 -6T330 -17Q272 -17 222 -6T136 30T78 98T57 204V513H239ZM285 820L426 648L345 589L174 740L285 820Z"  />
<glyph unicode="&#xFA;" horiz-adv-x="659" d="M239 513V239Q239 215 242 195T256 159T284 136T330 128Q358 128 376 136T404 159T417 194T421 239V513H603V204Q603 141 582 99T524 31T438 -6T330 -17Q272 -17 222 -6T136 30T78 98T57 204V513H239ZM315 589L234 648L375 820L486 740L315 589Z"  />
<glyph unicode="&#xFB;" horiz-adv-x="659" d="M239 513V239Q239 215 242 195T256 159T284 136T330 128Q358 128 376 136T404 159T417 194T421 239V513H603V204Q603 141 582 99T524 31T438 -6T330 -17Q272 -17 222 -6T136 30T78 98T57 204V513H239ZM328 829L549 665L472 581L328 692L184 581L110 665L328 829Z"  />
<glyph unicode="&#xFC;" horiz-adv-x="659" d="M239 513V239Q239 215 242 195T256 159T284 136T330 128Q358 128 376 136T404 159T417 194T421 239V513H603V204Q603 141 582 99T524 31T438 -6T330 -17Q272 -17 222 -6T136 30T78 98T57 204V513H239ZM202 800Q243 800 271 772T300 702Q300 660 272 632T202 604Q160 604 132 632T103 702Q103 743 131 771T202 800ZM458 800Q499 800 527 772T556 702Q556 660 528 632T458 604Q416 604 388 632T359 702Q359 743 387 771T458 800Z"  />
<glyph unicode="&#xFD;" horiz-adv-x="654" d="M-15 513H195L332 250L466 513H673L262 -256H58L233 70L-15 513ZM322 589L241 648L382 820L493 740L322 589Z"  />
<glyph unicode="&#xFE;" horiz-adv-x="682" d="M236 455H238Q263 493 305 511T393 530Q450 530 498 508T580 448T633 360T652 255Q652 199 633 150T581 64T500 5T395 -17Q350 -17 308 -1T236 49V-256H54V830H236V455ZM347 372Q319 372 298 363T261 338T238 301T230 256Q230 207 260 174T347 141Q403 141 433 174T464 256Q464 280 456 301T433 337T397 362T347 372Z"  />
<glyph unicode="&#xFF;" horiz-adv-x="654" d="M-15 513H195L332 250L466 513H673L262 -256H58L233 70L-15 513ZM214 800Q255 800 283 772T312 702Q312 660 284 632T214 604Q172 604 144 632T115 702Q115 743 143 771T214 800ZM470 800Q511 800 539 772T568 702Q568 660 540 632T470 604Q428 604 400 632T371 702Q371 743 399 771T470 800Z"  />
<glyph unicode="&#x131;" horiz-adv-x="302" d="M242 0H60V513H242V0Z"  />
<glyph unicode="&#x152;" horiz-adv-x="1140" d="M660 83Q609 27 551 1T420 -25Q339 -25 268 7T142 95T57 224T26 377Q26 457 57 530T142 658T267 746T420 779Q566 779 660 685V754H1084V588H855V462H1068V296H855V166H1084V0H660V83ZM441 589Q397 589 359 573T292 527T247 460T230 377Q230 333 246 295T292 228T359 182T441 165Q485 165 523 182T589 227T634 294T651 377Q651 421 635 459T590 527T523 572T441 589Z"  />
<glyph unicode="&#x153;" horiz-adv-x="1022" d="M829 331Q822 368 793 390T726 412Q686 412 656 392T618 331H829ZM330 372Q306 372 285 363T248 338T223 301T213 256Q213 232 222 211T247 175T284 150T330 141Q354 141 375 150T412 174T437 211T447 256Q447 280 438 301T413 337T376 362T330 372ZM1001 226H618Q618 170 646 141T732 112Q761 112 782 122T819 159H994Q983 114 958 81T897 26T819 -6T733 -17Q664 -17 612 2T525 72Q481 22 433 3T317 -17Q254 -17 200 1T106 53T44 139T21 256Q21 320 43 371T105 457T199 511T315 530Q379 530 428 514T525 453Q542 475 564 490T612 514T665 526T720 530Q787 530 839 510T927 453T982 364T1001 245V226Z"  />
<glyph unicode="&#x160;" horiz-adv-x="616" d="M478 560Q451 583 418 596T348 610Q334 610 320 606T293 594T272 575T264 547Q264 530 273 519T295 499T323 485T351 475L401 460Q440 448 474 432T533 391T572 334T587 254Q587 198 571 144T509 51Q464 13 408 -3T295 -20Q223 -20 156 2T30 66L114 224Q151 192 194 169T288 146Q305 146 322 150T352 164T374 187T383 222Q383 243 371 257T340 281T301 297T264 308Q218 321 181 335T116 373T75 431T60 521Q60 578 79 625T133 705T215 756T320 774Q348 774 379 770T441 757T501 738T556 712L478 560ZM162 1040L306 928L450 1040L527 955L306 792L88 955L162 1040Z"  />
<glyph unicode="&#x161;" horiz-adv-x="513" d="M399 381Q378 392 351 399T301 406Q293 406 283 404T265 398T250 388T244 371Q244 358 253 350T276 338T303 331T326 326Q358 320 385 309T432 279T463 236T475 174Q475 123 454 87T399 28T321 -6T233 -17Q178 -17 126 -2T26 42L92 169Q106 159 124 150T161 134T199 122T236 117Q245 117 255 119T273 126T287 138T293 156Q293 171 283 179T257 193T221 203T179 213Q158 219 138 227T101 251T75 290T65 348Q65 395 84 429T136 486T208 519T291 530Q335 530 377 523T460 497L399 381ZM112 829L256 717L400 829L477 744L256 581L38 744L112 829Z"  />
<glyph unicode="&#x178;" horiz-adv-x="714" d="M-19 754H216L357 549L498 754H733L455 362V0H259V362L-19 754ZM239 1011Q280 1011 308 983T337 913Q337 871 309 843T239 815Q197 815 169 843T140 913Q140 954 168 982T239 1011ZM495 1011Q536 1011 564 983T593 913Q593 871 565 843T495 815Q453 815 425 843T396 913Q396 954 424 982T495 1011Z"  />
<glyph unicode="&#x17D;" horiz-adv-x="707" d="M657 166V0H11L368 588H72V754H696L341 166H657ZM218 1040L362 928L506 1040L583 955L362 792L144 955L218 1040Z"  />
<glyph unicode="&#x17E;" horiz-adv-x="559" d="M528 151V0H8L249 362H40V513H552L312 151H528ZM135 829L279 717L423 829L500 744L279 581L61 744L135 829Z"  />
<glyph unicode="&#x192;" horiz-adv-x="686" d="M581 505L568 429H458L407 150Q396 85 379 26T322 -85Q277 -142 223 -164T100 -181L-6 -172L24 -7Q41 -10 59 -13T95 -16Q135 -16 158 -1T198 52Q210 82 218 122T232 196L274 429H188L200 505H288L308 613Q316 656 328 692T370 761Q402 797 443 813T532 830Q566 830 599 823T662 796L633 639Q616 651 596 660T555 669Q533 669 520 658T500 631T488 596T481 560L471 505H581Z"  />
<glyph unicode="&#x2C6;" horiz-adv-x="590" d="M293 829L514 665L437 581L293 692L149 581L75 665L293 829Z"  />
<glyph unicode="&#x2C7;" horiz-adv-x="590" d="M149 829L293 717L437 829L514 744L293 581L75 744L149 829Z"  />
<glyph unicode="&#x2DA;" horiz-adv-x="457" d="M227 815Q255 815 283 810T333 791T368 755T382 700Q382 668 369 646T334 611T285 591T230 585Q202 585 175 590T125 609T89 644T75 699Q75 731 88 753T122 789T171 809T227 815ZM229 743Q208 743 189 734T170 700Q170 676 189 667T229 657Q249 657 268 666T287 700Q287 724 268 733T229 743Z"  />
<glyph unicode="&#x2DC;" horiz-adv-x="549" d="M76 616L75 627Q75 651 80 673T97 716Q111 739 134 755T186 772Q205 772 227 767T272 755T314 744T349 738Q368 738 375 748T389 774H474Q472 747 463 719T439 668T400 631T344 616Q325 616 306 622T267 634T229 647T192 653Q174 653 169 642T158 616H76Z"  />
<glyph unicode="&#x2013;" horiz-adv-x="500" d="M500 396V246H0V396H500Z"  />
<glyph unicode="&#x2014;" horiz-adv-x="1000" d="M870 396V246H130V396H870Z"  />
<glyph unicode="&#x2018;" horiz-adv-x="372" d="M19 423L203 754H319L189 423H19Z"  />
<glyph unicode="&#x2019;" horiz-adv-x="372" d="M353 754L169 423H53L183 754H353Z"  />
<glyph unicode="&#x201A;" horiz-adv-x="338" d="M319 191L135 -140H19L149 191H319Z"  />
<glyph unicode="&#x201C;" horiz-adv-x="628" d="M275 423L459 754H575L445 423H275ZM19 423L203 754H319L189 423H19Z"  />
<glyph unicode="&#x201D;" horiz-adv-x="628" d="M353 754L169 423H53L183 754H353ZM609 754L425 423H309L439 754H609Z"  />
<glyph unicode="&#x201E;" horiz-adv-x="594" d="M319 191L135 -140H19L149 191H319ZM575 191L391 -140H275L405 191H575Z"  />
<glyph unicode="&#x2020;" horiz-adv-x="686" d="M426 754V549H603V405H426V-180H260V405H84V549H260V754H426Z"  />
<glyph unicode="&#x2021;" horiz-adv-x="686" d="M427 754V569H603V425H427V283H603V139H427V-179H261V139H84V283H261V425H84V569H261V754H427Z"  />
<glyph unicode="&#x2022;" horiz-adv-x="686" d="M344 566Q384 566 418 551T478 511T518 451T532 377Q532 338 518 304T479 245T419 204T344 189Q303 189 269 204T209 244T170 304T155 377Q155 416 169 450T209 510T268 551T344 566Z"  />
<glyph unicode="&#x2026;" horiz-adv-x="1000" d="M500 214Q524 214 545 205T583 180T608 143T617 97Q617 73 608 52T583 15T546 -10T500 -20Q476 -20 455 -11T417 14T392 51T383 97Q383 121 392 142T417 180T454 205T500 214ZM833 214Q857 214 878 205T916 180T941 143T950 97Q950 73 941 52T916 15T879 -10T833 -20Q809 -20 788 -11T750 14T725 51T716 97Q716 121 725 142T750 180T787 205T833 214ZM167 214Q191 214 212 205T250 180T275 143T284 97Q284 73 275 52T250 15T213 -10T167 -20Q143 -20 122 -11T84 14T59 51T50 97Q50 121 59 142T84 180T121 205T167 214Z"  />
<glyph unicode="&#x2030;" horiz-adv-x="1460" d="M225 764Q267 764 304 753T370 718T414 660T431 581Q431 535 415 501T371 443T306 407T225 395Q182 395 145 407T79 442T35 500T19 581Q19 626 35 660T80 717T145 752T225 764ZM225 664Q190 664 165 639T140 579Q140 544 165 520T225 495Q260 495 285 519T310 579Q310 614 285 639T225 664ZM755 754L317 0H219L657 754H755ZM750 359Q792 359 829 348T895 313T939 255T956 176Q956 130 940 96T896 38T831 2T750 -10Q707 -10 670 2T604 37T560 95T544 176Q544 221 560 255T605 312T670 347T750 359ZM750 259Q715 259 690 234T665 174Q665 139 690 115T750 90Q785 90 810 114T835 174Q835 209 810 234T750 259ZM1235 359Q1277 359 1314 348T1380 313T1424 255T1441 176Q1441 130 1425 96T1381 38T1316 2T1235 -10Q1192 -10 1155 2T1089 37T1045 95T1029 176Q1029 221 1045 255T1090 312T1155 347T1235 359ZM1235 259Q1200 259 1175 234T1150 174Q1150 139 1175 115T1235 90Q1270 90 1295 114T1320 174Q1320 209 1295 234T1235 259Z"  />
<glyph unicode="&#x2039;" horiz-adv-x="354" d="M301 146L198 74L26 320L198 566L298 497L172 320L301 146Z"  />
<glyph unicode="&#x203A;" horiz-adv-x="354" d="M182 320L56 497L156 566L328 320L156 74L53 146L182 320Z"  />
<glyph unicode="&#x20AC;" horiz-adv-x="686" d="M637 24Q609 8 562 -3T455 -14Q389 -14 332 7T230 65T156 155T117 271H18L44 348H107Q106 356 106 363T106 378Q106 385 106 392T108 407H23L50 486H110Q122 546 154 597T235 686T347 745T486 767Q507 767 530 765T577 760T621 751T658 739L598 586Q576 597 547 602T487 607Q457 607 428 599T375 575T332 537T307 486H576L551 407H298Q297 399 297 393T297 378Q297 371 297 364T298 348H536L510 271H308Q318 238 335 215T375 177T422 156T473 149Q511 149 545 157T603 180L637 24Z"  />
<glyph unicode="&#x2122;" horiz-adv-x="940" d="M899 350H811V676H809L692 350H640L523 676H521V350H433V754H575L666 515L757 754H899V350ZM384 676H261V350H164V676H41V754H384V676Z"  />

</font>
</defs>
</svg>
