<?xml  version="1.0" encoding="UTF-8"?>
<!DOCTYPE svg PUBLIC "-//W3C//DTD SVG 1.0//EN" "http://www.w3.org/TR/2001/REC-SVG-20010904/DTD/svg10.dtd" >
<svg xmlns="http://www.w3.org/2000/svg" >
<metadata>
<version>1.0</version>
<id><![CDATA[News Gothic MT W01 Bold Cond]]></id>
<vendor>Monotype Imaging Inc.</vendor>
<credits>
<name>Fonts.com WebFonts</name>
<URL>http://webfonts.fonts.com</URL>
<role>Home of the Web fonts</role>
</credits>
<license>
<URL>http://webfonts.fonts.com/Legal</URL>
</license>
<copyright><![CDATA[Copyright 1996 The Monotype Corporation. All rights reserved.]]></copyright>
<trademark><![CDATA[News Gothic  is a trademark of Monotype Imaging, Inc. and may be registered in certain jurisdictions; Monotype is a trademark of Monotype Imaging, Inc. Registered in U.S. Patent and Trademark Office and may be registered in certain other jurisdictions.]]></trademark>
<licensee>
<name></name>
</licensee>
</metadata>
<defs >
<font horiz-adv-x="383" id="1490226b-5713-4496-8b3a-3e118d4f8b27">
<font-face font-family="" panose-1="2 11 8 6 2 1 3 2 2 3" ascent="977" descent="-227" units-per-em="1000" alphabetic="0">
</font-face>
<missing-glyph horiz-adv-x="219" />

<glyph unicode="&#xA;" />
<glyph unicode="&#xD;" />
<glyph unicode=" " horiz-adv-x="219" />
<glyph unicode="!" horiz-adv-x="281" d="M205 745L177 227H103L75 745H205ZM194 122V0H88V122H194Z"  />
<glyph unicode="&quot;" horiz-adv-x="250" d="M94 735V617L74 480H29L8 617V735H94ZM242 735V617L222 480H177L156 617V735H242Z"  />
<glyph unicode="#" horiz-adv-x="667" d="M198 482L240 676H310L268 482H463L504 676H574L533 482H625V412H519L484 241H625V171H470L429 -22H359L401 171H204L164 -22H93L134 171H42V241H149L184 412H42V482H198ZM254 412L218 242H414L450 412H254Z"  />
<glyph unicode="$" horiz-adv-x="417" d="M239 800V745Q287 737 315 716T357 668T375 613T379 562H299Q300 611 284 635T239 663V413Q261 395 287 373T337 321T375 255T391 175Q391 160 387 135T368 82T323 30T239 -6V-123H180V-6Q134 4 105 22T59 65T35 119T26 181H103Q108 137 123 112T180 74V338Q157 357 132 381T85 436T49 501T35 579Q35 622 49 651T84 700T131 730T180 745V800H239ZM180 661Q149 655 135 630T121 579Q121 561 126 545T141 515T160 488T180 467V661ZM239 76Q258 79 272 88T294 110T307 135T311 160Q311 171 308 185T298 215T276 249T239 285V76Z"  />
<glyph unicode="%" horiz-adv-x="844" d="M649 -189Q623 -189 598 -179T553 -148Q529 -124 517 -83T505 33Q505 47 505 68T510 114T523 162T548 206T589 238T650 251Q686 251 711 239T752 208T778 164T791 116T796 70T797 33Q797 -44 782 -87T738 -155Q723 -168 708 -175T679 -185T658 -188T649 -189ZM650 -121Q697 -121 714 -79T732 33Q732 65 729 93T716 141T691 174T651 186Q626 186 611 174T586 140T574 91T570 32Q570 6 572 -21T583 -70T608 -107T650 -121ZM819 735L108 -192H24L655 625L653 627Q628 619 587 610T485 600Q471 600 423 602T308 618Q314 603 318 589T324 561T328 529T329 488Q329 416 318 372T280 301Q260 281 233 271T178 261Q140 261 118 275T85 300Q61 324 47 364T33 483Q33 517 37 555T57 625T104 679T189 701Q199 701 213 700T241 696T270 692T295 688Q356 677 399 672T480 666Q549 666 614 682T737 735H819ZM180 327Q227 327 245 367T263 482Q263 516 259 544T246 592T221 623T181 634Q151 634 135 618T111 579T102 528T100 478Q100 464 101 439T110 388T134 345T180 327Z"  />
<glyph unicode="&amp;" horiz-adv-x="656" d="M581 345Q576 294 565 244T527 147Q533 142 539 137T552 126T570 113T595 95Q596 94 599 92T605 88L539 0Q520 13 508 21T486 36T470 48T455 59Q447 53 433 42T396 19T343 0T276 -8Q232 -8 193 5T123 44T75 103T57 180Q57 213 68 243T97 299T140 349T192 391Q174 426 156 472T138 573Q138 612 151 643T188 696T243 731T311 743Q346 743 376 732T427 700T461 653T474 595Q474 563 462 535T430 479T384 427T330 376Q334 370 337 365T351 346Q369 320 382 303T405 271T426 246T448 221Q462 249 469 281T479 358L581 345ZM290 456Q306 471 322 486T351 518T371 554T379 595Q379 622 363 641T320 661Q308 661 295 656T272 641T255 616T248 582Q248 544 263 511T290 456ZM244 301Q232 292 218 280T192 253T173 220T165 181Q165 156 174 137T199 105T234 85T275 78Q279 78 290 79T316 84T348 99T381 127Q364 145 349 162T319 199T285 243T244 301Z"  />
<glyph unicode="&apos;" horiz-adv-x="250" d="M168 735V617L148 480H103L82 617V735H168Z"  />
<glyph unicode="(" horiz-adv-x="375" d="M330 684Q310 661 282 626T228 542T184 428T165 282Q165 206 180 146T218 37T271 -51T330 -125L270 -189Q241 -163 203 -124T130 -30T71 101T47 275Q47 375 71 451T131 584T204 679T270 743L330 684Z"  />
<glyph unicode=")" horiz-adv-x="375" d="M45 -130Q65 -108 93 -73T147 12T191 126T210 272Q210 348 195 408T157 517T104 605T45 679L105 743Q134 717 172 678T245 584T304 453T328 279Q328 179 304 103T244 -30T171 -125T105 -189L45 -130Z"  />
<glyph unicode="*" horiz-adv-x="427" d="M236 587Q245 595 253 604T276 633Q299 663 311 672T337 682Q358 682 370 667T382 634Q382 619 374 610T354 595T329 589T306 586Q277 583 265 581T242 574V558Q248 556 253 555T264 552T280 549T304 546Q316 545 329 543T355 536T374 521T382 496Q382 480 370 465T340 449Q322 449 309 460T276 497Q262 518 254 526T236 545L221 534Q223 518 229 503T242 472Q247 461 252 448T258 424Q258 408 248 394T213 379Q188 379 178 392T168 420Q168 433 174 449T186 476Q192 490 198 504T207 534L192 545Q183 537 176 530T155 502Q135 473 120 461T88 449Q70 449 58 464T45 498Q45 513 53 522T73 537T98 543T120 546Q149 548 161 550T185 558V574Q171 579 158 582T116 587Q109 587 97 589T74 596T54 611T45 638Q45 653 56 668T87 683Q107 683 119 673T148 639Q165 614 174 604T192 587L207 595Q205 606 202 616T186 651Q175 674 172 686T168 708Q168 728 180 740T214 753Q239 753 248 738T258 708Q258 696 252 680T240 652Q229 627 226 617T221 595L236 587Z"  />
<glyph unicode="+" horiz-adv-x="667" d="M295 364V593H372V364H601V287H372V58H295V287H66V364H295Z"  />
<glyph unicode="&#x2c;" horiz-adv-x="281" d="M194 122V0L112 -160H72L136 0H87V122H194Z"  />
<glyph unicode="-" horiz-adv-x="375" d="M296 337V240H79V337H296Z"  />
<glyph unicode="." horiz-adv-x="281" d="M194 122V0H87V122H194Z"  />
<glyph unicode="/" horiz-adv-x="552" d="M552 735L81 0H0L471 735H552Z"  />
<glyph unicode="0" horiz-adv-x="438" d="M221 -8Q187 -8 161 2T114 32T80 75T57 129Q38 186 34 248T30 358Q30 425 35 478T49 571T74 642T110 694Q126 711 154 727T220 743Q243 743 261 738T292 725T314 710T327 698Q347 678 362 651T388 586T403 494T408 367Q408 230 388 150T318 28Q314 25 306 19T286 7T258 -3T221 -8ZM219 74Q265 74 284 120Q291 138 295 176T302 257T304 340T305 403Q305 422 304 454T300 520T292 583T277 628Q268 643 255 652T222 661Q202 661 184 650T158 618Q153 606 149 582T143 528T138 465T135 401T134 344T133 303Q133 282 134 251T139 189T152 130T175 90Q186 81 197 78T219 74Z"  />
<glyph unicode="1" horiz-adv-x="438" d="M275 735V82H382V0H63V82H172V615H58V686Q89 689 112 695T151 708T179 722T198 735H275Z"  />
<glyph unicode="2" horiz-adv-x="438" d="M389 82V0H39V72Q49 91 60 112T88 160T127 222T183 303Q215 348 235 384T266 451T281 508T285 557Q285 606 268 633T218 661Q206 661 194 656T170 636T150 599T137 540L55 546Q59 582 70 617T101 680T151 725T225 743Q267 743 298 727T349 685T378 626T388 559Q388 488 349 412T246 247Q225 217 210 196T184 156T165 120T147 82H389Z"  />
<glyph unicode="3" horiz-adv-x="438" d="M118 179Q119 170 122 153T134 119T158 90T200 77Q237 77 262 109T288 202Q288 271 256 309T154 347H118V429H180Q214 429 234 442T266 475T281 514T285 550Q285 566 282 584T270 617T246 641T205 651Q182 651 167 644T143 625T127 602T118 580L36 599Q40 611 50 635T80 683T133 725T214 743Q255 743 287 729T341 692T376 636T388 568Q388 557 386 535T371 486T335 434T267 391Q281 384 303 372T345 338T380 283T395 201Q395 156 381 118T341 51T280 8T205 -8Q195 -8 168 -4T111 18T57 73T30 179H118Z"  />
<glyph unicode="4" horiz-adv-x="438" d="M348 735V258H391V176H348V0H245V176H32V258L225 735H348ZM245 625H243L97 258H245V625Z"  />
<glyph unicode="5" horiz-adv-x="438" d="M394 735V653H172L156 447Q173 461 197 475T259 490Q296 490 319 475T351 451Q368 434 378 412T393 366T401 317T403 270Q403 218 395 168T366 79T310 16T219 -8Q163 -8 130 13T78 64T53 122T44 168L125 180Q130 159 137 141T155 108T180 86T213 77Q241 77 257 96T282 144T293 206T296 269Q296 284 295 308T287 356T265 395T223 412Q204 412 191 404T169 385T156 362T148 342L74 357L103 735H394Z"  />
<glyph unicode="6" horiz-adv-x="438" d="M309 591Q306 600 302 611T289 632T269 650T239 657Q190 657 170 602T149 417Q162 429 184 443T249 458Q284 458 313 441T362 394T394 323T405 235Q405 181 391 136T353 59T295 10T224 -8Q164 -8 129 25T73 109Q53 160 48 221T42 341Q42 384 45 430T55 522T77 607T112 677T164 725T236 743Q290 743 331 710T389 604L309 591ZM143 327Q143 322 143 313T142 293T141 270T141 251Q141 221 143 190T153 133T176 91T217 74Q244 74 260 89T286 127T298 177T302 227Q302 301 280 336T222 371Q207 371 195 366T172 354T155 340T143 327Z"  />
<glyph unicode="7" horiz-adv-x="438" d="M392 735V661L170 0H67L303 653H44V735H392Z"  />
<glyph unicode="8" horiz-adv-x="438" d="M148 392Q139 399 124 414T92 452T65 505T53 574Q53 612 65 643T100 697T154 731T223 743Q266 743 297 728T348 688T379 633T389 574Q389 520 361 474T290 392Q345 351 376 297T408 186Q408 146 393 111T352 49T290 8T216 -8Q179 -8 145 6T86 47T45 110T30 191Q30 232 42 263T71 319T109 361T148 392ZM220 444Q270 474 287 506T305 566Q305 584 299 602T282 635T254 659T217 668Q197 668 182 660T155 637T139 606T133 571Q133 559 136 545T148 514T174 480T220 444ZM220 338Q208 327 193 313T164 281T142 238T133 182Q133 133 156 104T216 74Q237 74 253 83T281 109T299 146T305 189Q305 216 297 238T277 278T250 311T220 338Z"  />
<glyph unicode="9" horiz-adv-x="438" d="M134 146Q135 139 139 128T150 107T171 89T204 81Q230 81 247 97T274 145T287 220T291 318Q257 291 231 285T193 279Q154 279 125 298T75 348T45 419T34 502Q34 550 46 593T82 670T139 723T215 743Q273 743 309 712T364 631T390 517T397 387Q397 350 395 306T386 218T366 133T332 61T279 11T203 -8Q198 -8 179 -6T135 10T88 51T53 132L134 146ZM297 410Q298 467 297 513T289 592T267 643T221 661Q179 661 158 619T137 512Q137 500 138 476T148 428T172 385T219 366Q247 366 266 381T297 410Z"  />
<glyph unicode=":" horiz-adv-x="281" d="M194 122V0H87V122H194ZM194 526V404H87V526H194Z"  />
<glyph unicode=";" horiz-adv-x="281" d="M194 122V0L112 -160H72L136 0H87V122H194ZM194 526V404H87V526H194Z"  />
<glyph unicode="&lt;" horiz-adv-x="667" d="M66 291V361L601 585V502L170 326L601 150V67L66 291Z"  />
<glyph unicode="=" horiz-adv-x="667" d="M601 481V404H66V481H601ZM601 250V173H66V250H601Z"  />
<glyph unicode="&gt;" horiz-adv-x="667" d="M601 360V291L66 67V150L497 325L66 501V585L601 360Z"  />
<glyph unicode="?" horiz-adv-x="417" d="M125 226Q126 247 128 274T139 331T164 395T208 462Q209 463 212 467T217 473Q252 516 263 545T274 596Q274 619 258 638T212 658Q206 658 196 656T174 647T154 625T139 585L45 597Q47 607 51 621T62 652T80 684T110 715Q130 732 157 742T216 753Q251 753 279 741T328 708T359 658T370 596Q370 563 362 535T341 483T313 440T283 403Q263 380 251 362T232 325T223 283T220 226H125ZM224 122V0H118V122H224Z"  />
<glyph unicode="@" horiz-adv-x="833" d="M551 188Q549 179 549 176T549 170Q549 152 567 152Q587 152 613 167T662 213T700 289T716 392Q716 453 697 504T642 592T557 649T445 670Q377 670 318 646T215 576T146 464T120 313Q120 227 146 164T216 57T317 -7T437 -28Q487 -28 527 -17T599 8T651 38T684 63H787Q771 44 750 21T690 -26Q633 -63 569 -82T438 -101Q360 -101 289 -74T164 6T79 134T47 308Q47 389 70 467T143 607T266 705T443 743Q534 743 599 712T707 631T768 518T788 392Q788 306 761 245T694 145T612 88T537 70Q514 70 501 75T479 88T468 107T461 126Q445 111 432 101T406 83T378 73T345 69Q302 69 272 87T223 134T194 200T185 277Q185 329 199 384T240 484T306 559T395 589Q420 589 439 582T471 563T493 540T508 519L516 574H613L551 188ZM286 249Q286 228 290 209T304 174T326 149T358 140Q384 140 405 156T441 211Q461 266 470 321T479 415Q479 431 476 448T464 480T443 503T410 513Q382 513 362 496T329 453T307 394T294 333T288 281T286 249Z"  />
<glyph unicode="A" horiz-adv-x="563" d="M347 735L550 0H442L388 198H175L120 0H13L217 735H347ZM283 584H281L202 295H362L283 584Z"  />
<glyph unicode="B" horiz-adv-x="563" d="M293 735Q341 735 381 723T451 686T497 627T514 546Q514 525 509 501T489 453T448 412T379 384V382Q392 378 415 369T462 340T503 287T520 203Q520 153 503 116T455 52T379 13T281 0H73V735H293ZM186 638V429H289Q311 429 331 435T367 454T392 487T401 537Q401 591 372 614T293 638H186ZM186 332V97H281Q335 97 371 126T408 214Q408 244 398 266T370 303T329 325T281 332H186Z"  />
<glyph unicode="C" horiz-adv-x="531" d="M401 508Q400 519 396 543T381 591T348 633T293 652Q275 652 260 646T233 630T213 612T200 595Q184 571 176 535T164 462T160 397T159 356Q159 344 159 327T160 288T165 245T175 200Q181 178 190 158T213 123T244 100T285 91Q321 91 344 109T381 152T401 204T411 252L504 233Q502 217 499 200T491 163T476 125T452 84Q420 39 374 16T276 -8Q248 -8 225 -2T182 14T149 35T124 57Q107 73 93 96T67 155T49 242T42 368Q42 384 42 409T46 463T55 525T72 589Q84 620 101 648T145 697T207 730T288 743Q338 743 372 729T430 694T466 646T485 594T493 548T496 516L401 508Z"  />
<glyph unicode="D" horiz-adv-x="594" d="M235 735Q317 735 369 717T458 662Q486 635 504 602T532 531T546 454T550 375Q550 289 535 220T483 102T389 27T244 0H73V735H235ZM186 638V97H261Q281 97 298 102T329 113T353 128T369 142Q382 156 393 175T414 221T428 286T433 374Q433 410 429 455T405 542Q386 583 349 610T244 638H186Z"  />
<glyph unicode="E" horiz-adv-x="500" d="M443 735V638H188V421H386V324H188V97H467V0H75V735H443Z"  />
<glyph unicode="F" horiz-adv-x="469" d="M439 735V638H184V420H363V323H184V0H71V735H439Z"  />
<glyph unicode="G" horiz-adv-x="563" d="M406 499Q404 529 398 556T377 605T341 639T287 652Q244 652 219 627T180 562T162 471T157 368Q157 354 157 335T158 294T163 248T173 202Q185 157 211 124T285 91Q313 91 338 105T378 142Q394 168 397 197T402 247H308V340H514V0H442L422 76Q390 38 351 15T260 -8Q238 -8 204 2T132 50Q112 70 95 96T66 159T47 246T40 364Q40 378 40 402T44 455T53 517T70 582Q82 614 99 643T143 694T205 730T286 743Q327 743 356 734T406 711T440 684T460 659Q489 617 496 578T506 512L406 499Z"  />
<glyph unicode="H" horiz-adv-x="573" d="M182 735V427H391V735H504V0H391V330H182V0H69V735H182Z"  />
<glyph unicode="I" horiz-adv-x="271" d="M192 735V0H79V735H192Z"  />
<glyph unicode="J" horiz-adv-x="375" d="M308 735V207Q308 172 304 147T292 104T276 74T256 51Q233 29 195 11T97 -8Q68 -8 48 -4T11 7L32 97Q34 97 36 97T44 95Q51 93 66 90T95 87Q102 87 118 89T152 104T182 142T195 214V735H308Z"  />
<glyph unicode="K" horiz-adv-x="583" d="M186 735V396H188L426 735H547L358 465L571 0H461L291 370L186 222V0H73V735H186Z"  />
<glyph unicode="L" horiz-adv-x="490" d="M186 735V97H460V0H73V735H186Z"  />
<glyph unicode="M" horiz-adv-x="740" d="M272 735L368 232H370L467 735H666V0H553V693H551L418 0H320L188 693H186V0H73V735H272Z"  />
<glyph unicode="N" horiz-adv-x="625" d="M236 735L449 186H451V735H549V0H427L177 642H175V0H77V735H236Z"  />
<glyph unicode="O" horiz-adv-x="594" d="M297 -8Q259 -8 229 0T176 21T136 53T105 92Q75 140 60 210T44 363Q44 428 53 495T92 618Q120 673 169 708T299 743Q374 743 422 711T499 624Q528 570 539 504T550 369Q550 315 542 250T508 127Q495 98 476 74T432 31T373 3T297 -8ZM295 86Q325 86 350 97T393 139T422 227T433 372Q433 427 428 477T408 567T367 629T298 652Q259 652 233 632T190 575T168 486T161 368Q161 290 169 236T194 149T236 101T295 86Z"  />
<glyph unicode="P" horiz-adv-x="552" d="M304 735Q353 735 392 719T457 674T498 607T512 524Q512 472 496 432T453 365T391 323T316 309H182V0H69V735H304ZM182 638V406H272Q329 406 364 433T399 524Q399 552 390 573T367 609T333 630T293 638H182Z"  />
<glyph unicode="Q" horiz-adv-x="583" d="M555 -91V-172H474Q399 -172 355 -155T287 -113T257 -57T249 0Q197 6 162 30T103 90T67 166T48 246T41 317T40 368Q40 438 51 505T90 626T168 711T294 743Q349 743 388 725T456 677T501 608T527 528T540 445T543 369Q543 335 540 292T527 204T496 119T443 48Q415 24 390 15T345 0Q346 -18 351 -34T372 -63T415 -83T486 -91H555ZM289 86Q323 86 349 100T392 149T417 237T426 373Q426 435 420 486T399 574T358 631T293 652Q253 652 227 632T186 575T164 485T157 368Q157 227 187 157T289 86Z"  />
<glyph unicode="R" horiz-adv-x="542" d="M277 735Q323 735 364 724T436 690T485 628T503 536Q503 472 475 427T392 353L509 0H400L291 325H183V0H70V735H277ZM183 638V422H254Q282 422 307 428T350 447T379 482T390 536Q390 563 381 582T357 614T323 632T284 638H183Z"  />
<glyph unicode="S" horiz-adv-x="510" d="M378 542Q363 586 335 617T261 648Q223 648 197 623T171 562Q171 544 178 528T201 495T245 458T314 411Q348 389 378 368T431 321T466 266T479 197Q479 153 463 116T419 51T350 8T260 -8Q195 -8 152 15T84 70Q57 104 47 133T31 189L124 210Q138 163 159 137T201 99T238 85T260 83Q281 83 299 90T332 111T354 143T362 182Q362 203 354 220T332 251T299 279T258 306Q229 324 195 348T130 404T79 473T58 560Q58 595 71 628T109 686T171 727T256 743Q317 743 356 722T419 673T454 615T471 567L378 542Z"  />
<glyph unicode="T" horiz-adv-x="542" d="M515 735V638H327V0H214V638H27V735H515Z"  />
<glyph unicode="U" horiz-adv-x="615" d="M182 735V236Q182 207 188 181T208 135T247 103T307 91Q340 91 364 101T403 131T426 175T433 230V735H546V216Q546 184 541 157T526 109T507 73T486 48Q470 32 449 21T405 4T357 -5T311 -8Q295 -8 272 -7T222 1T171 20T124 53Q109 69 99 90T82 133T72 177T69 216V735H182Z"  />
<glyph unicode="V" horiz-adv-x="531" d="M120 735L264 119H266L411 735H518L343 0H188L13 735H120Z"  />
<glyph unicode="W" horiz-adv-x="688" d="M118 735L205 248H207L295 735H394L481 248H483L571 735H675L542 0H444L346 551H344L244 0H145L13 735H118Z"  />
<glyph unicode="X" horiz-adv-x="531" d="M163 735L265 501L367 735H487L323 373L493 0H373L265 244L157 0H37L207 373L43 735H163Z"  />
<glyph unicode="Y" horiz-adv-x="521" d="M128 735L260 432L394 735H506L316 305V0H203V305L16 735H128Z"  />
<glyph unicode="Z" horiz-adv-x="448" d="M415 735V684L156 97H411V0H33V74L282 638H61V735H415Z"  />
<glyph unicode="[" horiz-adv-x="375" d="M332 735V657H182V-97H332V-175H73V735H332Z"  />
<glyph unicode="\" horiz-adv-x="552" d="M552 0H471L0 735H81L552 0Z"  />
<glyph unicode="]" horiz-adv-x="375" d="M43 -175V-97H193V657H43V735H302V-175H43Z"  />
<glyph unicode="^" horiz-adv-x="500" d="M42 343L214 735H285L458 343H370L249 635L132 343H42Z"  />
<glyph unicode="_" horiz-adv-x="500" d="M-6 -75H506V-125H-6V-75Z"  />
<glyph unicode="`" horiz-adv-x="333" d="M244 578H207L18 735H142L244 578Z"  />
<glyph unicode="a" horiz-adv-x="448" d="M394 78Q394 67 394 53T396 28Q397 20 397 12T398 0H313L297 63Q277 41 259 28T224 6T192 -5T160 -8Q145 -8 124 -3T82 17T48 57T34 122Q34 171 56 206T116 265T200 307T297 337V371Q297 411 275 432T221 454Q199 454 183 446T156 425T139 401T130 381L50 412Q54 426 64 446T95 486T148 520T228 534Q302 534 348 497T394 389V78ZM297 270Q276 263 246 252T188 224T139 182T119 125Q119 96 139 80T186 63Q205 63 225 72T261 97T287 131T297 171V270Z"  />
<glyph unicode="b" horiz-adv-x="479" d="M161 745V432H163Q169 443 179 460T206 494T243 522T293 534Q316 534 340 524T383 494Q396 480 406 462T425 419T437 361T442 282Q442 215 433 162T406 71T360 13T297 -8Q264 -8 230 12T161 82L137 0H50Q54 31 56 62T60 117T63 157T64 174V745H161ZM161 160Q161 156 163 151T175 129Q176 127 182 119T199 103T222 88T253 81Q280 81 297 97T323 140T335 203T339 281Q339 297 338 325T330 381T305 429T257 449Q236 449 219 438T189 412T169 382T161 358V160Z"  />
<glyph unicode="c" horiz-adv-x="427" d="M291 368Q289 377 286 392T276 421T255 445T221 456Q196 456 175 434Q161 418 154 388T143 326T139 269T138 240Q138 223 139 196T149 142T174 97T223 77Q246 77 262 88T289 115T306 147T315 172L401 159Q396 122 382 92T344 39T292 5T227 -8Q187 -8 153 6T95 43Q60 78 48 132T35 250Q35 289 40 338T64 430T120 504T220 534Q228 534 252 532T303 515T352 468T379 378L291 368Z"  />
<glyph unicode="d" horiz-adv-x="479" d="M415 745V174Q415 173 416 158T418 118T422 62T429 0H342L318 82Q283 32 249 12T182 -8Q146 -8 119 12T74 70T46 161T37 282Q37 371 53 419T96 494Q115 514 139 524T186 534Q214 534 235 523T273 495T299 461T316 432H318V745H415ZM318 358Q318 366 311 381T291 412T261 438T222 449Q191 449 174 429T150 382T141 326T140 281Q140 240 143 204T156 140T182 97T226 81Q243 81 256 87T280 102T296 119T304 129Q314 146 316 151T318 160V358Z"  />
<glyph unicode="e" horiz-adv-x="448" d="M136 249Q136 223 138 194T150 139T178 98T227 81Q232 81 243 82T267 92T295 116T320 163L419 141Q404 93 379 64T326 19T272 -2T229 -8Q200 -8 166 2T103 42T53 124T33 261Q33 293 37 327T51 395T80 456T128 505Q144 516 168 525T226 534Q268 534 298 519T350 485T382 445T398 415Q406 395 410 373T417 329T419 286T419 249H136ZM310 320Q310 330 308 352T298 397T272 436T224 453Q192 453 175 438T149 402T138 358T136 320H310Z"  />
<glyph unicode="f" horiz-adv-x="292" d="M88 596Q88 648 101 679T136 727T185 748T238 753Q254 753 262 753T282 750V667Q248 667 229 662T200 643T188 606T185 545V526H276V441H185V0H88V441H18V526H88V596Z"  />
<glyph unicode="g" horiz-adv-x="469" d="M452 458Q438 459 426 457T396 445Q407 428 416 406T426 346Q426 308 412 274T371 213T310 170T233 154Q212 154 197 157T167 165Q157 158 146 149T135 126Q135 117 146 111T172 101T202 95T227 91Q241 89 265 85T316 75T367 58T407 34Q430 13 439 -8T448 -51Q448 -82 435 -103T410 -136Q385 -161 343 -175T223 -189Q184 -189 157 -186T109 -176T75 -162T51 -144Q27 -123 27 -92Q27 -61 46 -36T109 21Q115 26 116 27T123 32Q115 35 102 40T76 54T54 75T44 102Q44 117 53 130T76 153T103 171T127 184Q95 206 78 231T52 278T41 318T39 344Q39 379 53 413T93 474T154 517T231 534Q280 534 311 518T359 488Q372 503 382 512T402 526T424 532T452 534V458ZM232 232Q258 232 275 242T303 269T318 305T323 345Q323 363 319 383T305 419T277 445T233 456Q209 456 192 447T163 422T147 386T142 345Q142 294 165 263T232 232ZM176 14Q170 10 158 3T135 -14T115 -36T106 -62Q106 -80 118 -90T148 -104T182 -110T209 -111Q223 -111 248 -110T298 -102T341 -85T360 -52Q360 -42 356 -35T339 -21T305 -10T249 1Q224 5 208 8T176 14Z"  />
<glyph unicode="h" horiz-adv-x="500" d="M168 745V450Q246 534 319 534Q342 534 364 527T402 504T429 464T439 407V0H342V373Q342 380 339 391T329 413T310 430T280 438Q259 438 241 428T209 404T184 376T168 352V0H71V745H168Z"  />
<glyph unicode="i" horiz-adv-x="250" d="M174 526V0H77V526H174ZM174 745V634H77V745H174Z"  />
<glyph unicode="j" horiz-adv-x="261" d="M184 526V-6Q184 -36 180 -68T161 -127T117 -171T38 -189Q16 -189 1 -187T-28 -181V-98Q-11 -101 -5 -102T7 -103Q46 -103 66 -79T87 -17V526H184ZM184 745V633H87V745H184Z"  />
<glyph unicode="k" horiz-adv-x="448" d="M163 745V324H165L303 526H404L271 337L432 0H341L217 259L163 181V0H66V745H163Z"  />
<glyph unicode="l" horiz-adv-x="250" d="M174 745V0H77V745H174Z"  />
<glyph unicode="m" horiz-adv-x="708" d="M657 0H560V364Q560 399 546 422T502 445Q485 445 470 438T444 422T423 403T409 387V0H312V364Q312 396 298 420T252 445Q237 445 225 439T202 424T185 407T176 395Q172 387 167 377T161 364V0H64V526H161V452H163Q172 465 183 479T211 506T247 526T296 534Q327 534 346 525T376 504T393 477T402 452Q409 461 421 475T450 502T490 524T542 534Q575 534 597 522T632 490T651 449T657 405V0Z"  />
<glyph unicode="n" horiz-adv-x="479" d="M430 0H333V373Q333 380 330 391T320 413T301 430T271 438Q262 438 250 435T222 423T191 396T158 349V0H61V526H158V448Q170 460 185 475T220 503T261 525T310 534Q323 534 343 530T383 511T416 471T430 400V0Z"  />
<glyph unicode="o" horiz-adv-x="469" d="M231 -8Q221 -8 207 -6T176 1T141 17T106 44Q72 77 55 127T38 260Q38 305 42 339T55 400T76 446T105 481Q160 534 233 534Q260 534 294 525T361 484Q395 451 413 400T431 266Q431 177 409 117T336 23Q319 12 301 6T267 -3Q249 -7 231 -8ZM231 74Q263 74 282 90T311 132T325 191T328 257Q328 357 306 404T233 452Q205 452 187 438T159 399T145 340T141 267Q141 231 144 197T157 135T184 91T231 74Z"  />
<glyph unicode="p" horiz-adv-x="479" d="M159 -181H62V526H159V430H161Q180 468 200 489T238 520T271 532T292 534Q322 534 346 520T384 493Q414 463 427 410T441 280Q441 268 441 243T436 185T423 119T398 57T356 10T295 -8Q267 -8 245 3T205 30T177 60T161 85H159V-181ZM159 164Q159 160 160 157T164 149T173 135T189 111Q197 99 216 90T256 81Q287 81 303 104T327 161T336 229T338 288Q338 303 337 330T328 384T303 431T254 451Q232 451 215 439T185 410T166 380T159 362V164Z"  />
<glyph unicode="q" horiz-adv-x="479" d="M342 526H416V-181H319V81H317Q311 72 300 57T271 27T232 3T183 -8Q148 -8 124 8T84 51T59 109T45 173T39 232T38 276Q38 347 50 400T90 485Q111 509 136 521T185 534Q190 534 203 532T236 521T276 490T319 430L342 526ZM319 360Q319 363 318 366T316 371Q310 383 302 396T283 422T258 441T225 449Q194 449 177 430T152 383T143 325T141 273Q141 250 142 218T152 154T177 102T224 80Q246 80 263 90T293 113T312 140T319 160V360Z"  />
<glyph unicode="r" horiz-adv-x="333" d="M334 437Q294 436 268 428T224 405T192 369T164 322Q159 312 159 302V0H62V526H159V444H161Q178 472 197 489T238 516T283 529T334 534V437Z"  />
<glyph unicode="s" horiz-adv-x="385" d="M265 383Q256 415 239 439T188 464Q161 464 143 445T125 399Q125 366 150 348T216 312Q236 303 261 291T308 260T345 212T360 144Q360 114 349 87T316 38T263 5T194 -8Q143 -8 111 12T61 58T35 110T25 148L106 169Q108 159 112 142T126 109T152 80T196 68Q225 68 247 85T270 136Q270 155 262 169T240 194T211 212T179 226Q165 232 141 243T93 272T52 318T35 384Q35 409 46 436T77 484T127 520T193 534Q236 534 263 519T308 482T334 439T347 403L265 383Z"  />
<glyph unicode="t" horiz-adv-x="292" d="M185 718V526H282V441H185V134Q185 102 197 88T253 74Q268 74 276 75T292 77V0Q275 -3 257 -6T216 -9Q159 -9 124 19T88 102V441H21V526H88V718H185Z"  />
<glyph unicode="u" horiz-adv-x="490" d="M150 526V168Q150 132 168 111T211 90Q229 90 245 97T275 117T301 144T324 175V526H421V0H324V79Q316 70 302 56T269 27T225 3T172 -8Q118 -8 86 28T53 122V526H150Z"  />
<glyph unicode="v" horiz-adv-x="438" d="M111 526L217 139H219L327 526H422L275 0H160L15 526H111Z"  />
<glyph unicode="w" horiz-adv-x="646" d="M108 526L202 151H204L289 526H359L441 155H443L538 526H633L499 0H404L325 356H323L243 0H146L13 526H108Z"  />
<glyph unicode="x" horiz-adv-x="427" d="M142 526L214 386L288 526H391L267 284L412 0H307L214 183L120 0H15L162 284L39 526H142Z"  />
<glyph unicode="y" horiz-adv-x="438" d="M113 526L217 158H219L325 526H422L265 -14Q247 -74 223 -109T169 -162T104 -184T28 -189V-117Q61 -116 83 -111T121 -95T147 -65T169 -14L15 526H113Z"  />
<glyph unicode="z" horiz-adv-x="406" d="M379 526V468L148 85H379V0H26V66L255 441H40V526H379Z"  />
<glyph unicode="{" horiz-adv-x="365" d="M339 639Q307 639 293 638T269 631Q258 624 252 606T242 566T238 523T237 488Q237 444 234 410T221 350T192 303T142 265Q175 249 194 227T223 172T236 96T239 -7Q239 -40 242 -60T255 -90T286 -104T339 -108V-204Q309 -204 286 -204T244 -199T209 -187T178 -163Q148 -132 142 -88T136 23Q136 68 134 103T122 162T90 201T32 217V314Q68 316 89 329T120 366T133 424T136 502Q136 538 137 567T142 619T156 660T180 694Q195 709 211 717T245 730T287 734T339 735V639Z"  />
<glyph unicode="|" horiz-adv-x="542" d="M310 745V-181H232V745H310Z"  />
<glyph unicode="}" horiz-adv-x="365" d="M26 -108Q58 -108 72 -107T96 -100Q107 -93 113 -75T123 -36T127 7T128 43Q128 87 131 121T144 181T172 228T223 266Q190 282 171 304T142 359T129 435T126 538Q126 571 123 591T110 621T79 635T26 639V735Q56 735 79 735T121 730T156 718T187 694Q202 679 210 660T223 619T228 569T229 508Q229 463 231 428T243 369T274 330T333 314V217Q297 215 276 202T245 165T232 107T229 29Q229 -7 228 -36T223 -88T209 -129T185 -163Q170 -178 154 -186T119 -198T78 -203T26 -204V-108Z"  />
<glyph unicode="~" horiz-adv-x="656" d="M62 340Q90 364 115 376T159 395T192 402T210 403Q223 403 236 401T266 394T302 379T352 357Q375 346 402 336T452 325Q475 325 496 332T536 350T568 373T594 395V312Q566 288 542 275T500 256T469 249T452 248Q437 248 423 250T391 257T352 272T300 297Q266 314 245 320T206 327Q183 327 161 320T121 301T87 278T62 258V340Z"  />
<glyph unicode="&#xA0;" horiz-adv-x="219" />
<glyph unicode="&#xA1;" horiz-adv-x="281" d="M76 -219L104 299H178L206 -219H76ZM87 404V526H193V404H87Z"  />
<glyph unicode="&#xA2;" horiz-adv-x="417" d="M279 336Q277 349 275 355T271 372H269L203 57Q211 55 216 55Q221 55 231 57T254 68T279 96T301 150L368 138Q365 123 358 98T334 48T291 5T220 -13Q210 -13 203 -12T189 -10L153 -181H109L147 1Q113 19 94 47T66 106T55 168T53 221Q53 261 58 307T80 393T128 459T210 486Q221 486 229 485T248 481L285 657H330L289 463Q308 449 320 432T338 398T347 367T351 344L279 336ZM234 414Q229 416 224 418T210 420Q190 420 181 411T167 394Q157 376 151 348T142 292T137 240T136 206Q136 197 136 181T139 147T147 111T164 84L234 414Z"  />
<glyph unicode="&#xA3;" horiz-adv-x="417" d="M288 578Q290 627 276 648T245 669Q222 669 212 649T202 601Q202 584 204 558T214 486L222 430H310V348H232Q234 325 235 300T237 252Q237 207 232 180T222 132L233 124Q256 107 270 100T295 93Q307 93 313 102T323 123T326 148T327 170H395Q396 141 393 109T380 51Q370 25 352 9T303 -8Q268 -8 239 13T187 56Q183 50 176 39T159 18T134 0T100 -8Q62 -8 41 22T20 94Q20 111 24 127T37 157T61 179T97 188Q113 188 124 184T149 174Q150 194 148 237T132 348H52V430H121Q116 473 113 502T110 558Q110 598 118 631T143 690T185 729T243 743Q279 743 303 731T343 696T365 642T372 573L288 578ZM141 99Q127 111 117 119T93 127Q80 127 73 116T66 91Q66 75 75 64T98 52Q109 52 116 57T129 69T136 85T141 99Z"  />
<glyph unicode="&#xA4;" horiz-adv-x="565" d="M515 174Q503 162 491 150T467 125Q450 142 433 158T399 192Q348 155 283 155Q257 155 226 163T167 192Q150 175 133 159T99 125Q86 137 75 149T50 174Q67 191 84 207T119 239Q82 294 82 354Q82 383 91 413T119 469Q102 486 85 502T50 535Q63 547 74 559T99 584Q116 567 133 551T167 517Q196 537 226 545T283 554Q310 554 341 546T398 517Q415 534 432 550T467 584Q479 572 491 560T515 535Q498 518 481 502T447 469Q467 440 475 410T484 354Q484 294 447 239Q481 207 515 174ZM415 355Q415 384 404 408T374 449T332 475T283 485Q255 485 231 475T189 446T161 405T151 355Q151 328 161 304T190 262T232 234T283 223Q310 223 334 233T376 262T404 304T415 355Z"  />
<glyph unicode="&#xA5;" horiz-adv-x="521" d="M506 432V372H346L316 305V243H506V183H316V0H203V183H16V243H203V305L174 372H16V432H148L16 735H128L260 432L394 735H506L372 432H506Z"  />
<glyph unicode="&#xA6;" horiz-adv-x="542" d="M310 174V-181H232V174H310ZM310 745V390H232V745H310Z"  />
<glyph unicode="&#xA7;" horiz-adv-x="469" d="M325 591Q321 620 311 636T288 660T264 670T245 672Q216 672 198 655T180 611Q180 592 187 576T208 545T241 515T283 481Q314 456 341 433T388 386T419 333T431 268Q431 254 428 233T413 188T379 137T318 87Q328 76 340 63T363 34T381 -3T388 -49Q388 -111 342 -150T218 -189Q143 -189 103 -151T51 -44L145 -35Q146 -42 150 -55T163 -82T186 -105T225 -115Q256 -115 273 -96T290 -52Q290 -16 262 12T192 72Q161 96 133 119T84 167T51 222T38 288Q38 326 51 356T82 409T120 447T151 471Q143 478 132 490T109 520T90 558T82 606Q82 631 92 656T123 700T175 731T249 743Q304 743 336 726T386 686T410 639T418 601L325 591ZM192 432Q183 424 171 413T149 386T131 353T124 314Q124 290 132 271T158 232T199 191T257 143L277 126Q286 133 298 144T320 169T338 201T346 244Q346 262 341 278T324 312T289 351T231 400L192 432Z"  />
<glyph unicode="&#xA8;" horiz-adv-x="333" d="M121 710V600H32V710H121ZM301 710V600H212V710H301Z"  />
<glyph unicode="&#xA9;" horiz-adv-x="833" d="M586 287Q575 249 557 225T516 186T469 166T422 160Q389 160 356 171T295 206T250 269T233 366Q233 412 245 451T282 517T341 560T423 576Q467 576 496 563T543 530T571 491T586 457L507 439Q504 446 499 457T484 480T459 499T420 507Q387 507 367 492T337 456T323 411T319 369Q319 329 327 302T350 259T380 237T414 230Q440 230 457 240T484 263T500 291T507 313L586 287ZM416 743Q494 743 562 714T681 634T761 515T791 369Q791 291 762 223T681 104T562 24T416 -6Q338 -6 270 23T152 104T72 223T42 369Q42 447 71 515T151 633T270 713T416 743ZM417 669Q354 669 299 645T204 581T140 485T116 369Q116 306 139 252T204 156T300 92T417 68Q479 68 533 91T629 156T693 252T717 369Q717 430 694 485T630 580T535 645T417 669Z"  />
<glyph unicode="&#xAA;" horiz-adv-x="302" d="M254 404H202L192 442Q175 426 155 413T108 399Q94 399 80 404T55 419T37 446T30 483Q30 514 43 535T78 572T130 599T192 620Q192 628 192 641T188 666T173 686T143 695Q120 695 108 682T87 650L40 667Q43 674 48 686T66 711T98 733T149 743Q200 743 227 718T254 657V404ZM192 576Q178 572 159 565T121 547T91 520T78 484Q78 465 91 454T119 443Q132 443 145 449T169 465T185 488T192 517V576Z"  />
<glyph unicode="&#xAB;" horiz-adv-x="469" d="M441 526L325 265L441 0H341L225 265L341 526H441ZM251 526L135 265L251 0H151L35 265L151 526H251Z"  />
<glyph unicode="&#xAC;" horiz-adv-x="667" d="M601 481V173H525V404H66V481H601Z"  />
<glyph unicode="&#xAD;" horiz-adv-x="375" d="M296 337V240H79V337H296Z"  />
<glyph unicode="&#xAE;" horiz-adv-x="833" d="M248 566H328Q383 566 416 566T471 563T504 556T527 542Q547 525 558 502T569 454Q569 437 564 420T547 386T514 359T462 343V341Q476 336 486 330T506 313T524 286T547 248L593 169H494L461 233Q443 267 429 287T402 317T377 329T349 332H328V169H248V566ZM328 394H361Q388 394 410 395T449 401T475 417T484 449Q484 469 475 480T449 496T409 502T360 503H328V394ZM416 743Q494 743 562 714T681 634T761 515T791 369Q791 291 762 223T681 104T562 24T416 -6Q338 -6 270 23T152 104T72 223T42 369Q42 447 71 515T151 633T270 713T416 743ZM417 669Q354 669 299 645T204 581T140 485T116 369Q116 306 139 252T204 156T300 92T417 68Q479 68 533 91T629 156T693 252T717 369Q717 430 694 485T630 580T535 645T417 669Z"  />
<glyph unicode="&#xAF;" horiz-adv-x="333" d="M297 695V617H36V695H297Z"  />
<glyph unicode="&#xB0;" horiz-adv-x="396" d="M198 743Q228 743 254 732T300 701T331 655T343 598Q343 568 332 542T301 496T255 465T198 453Q168 453 142 464T96 495T65 541T53 598Q53 628 64 654T96 700T142 731T198 743ZM198 676Q166 676 143 654T119 598Q119 566 142 543T198 519Q231 519 254 542T277 598Q277 631 254 653T198 676Z"  />
<glyph unicode="&#xB1;" horiz-adv-x="667" d="M295 447V676H372V447H601V370H372V141H295V370H66V447H295ZM601 77V0H66V77H601Z"  />
<glyph unicode="&#xB2;" horiz-adv-x="323" d="M268 416V361H50V406Q61 424 70 437T88 463T108 490T135 523Q145 535 155 548T175 577T189 609T195 644Q195 661 188 674T161 688Q148 688 140 681T128 665T121 645T118 629L58 632Q63 684 90 713T165 743Q191 743 210 735T242 713T261 681T268 645Q268 607 243 568T182 487Q171 474 165 466T153 450T142 435T129 416H268Z"  />
<glyph unicode="&#xB3;" horiz-adv-x="323" d="M107 464Q108 458 109 449T115 432T128 419T150 413Q173 413 184 429T196 467Q196 500 179 516T123 533H96V587H138Q157 587 168 593T186 608T193 626T195 641Q195 661 185 672T153 684Q129 684 120 673T105 648L45 660Q48 669 55 683T74 710T107 733T159 743Q210 743 238 716T267 649Q267 629 261 615T246 590T227 573T209 561Q248 542 259 516T271 468Q271 445 263 425T238 390T201 366T153 357Q121 357 95 371T54 413Q47 427 46 437T44 464H107Z"  />
<glyph unicode="&#xB4;" horiz-adv-x="333" d="M315 735L126 578H89L191 735H315Z"  />
<glyph unicode="&#xB5;" horiz-adv-x="500" d="M163 526V275Q163 258 164 236T167 191T174 148T187 114Q201 89 215 79T251 69Q277 69 293 82T324 139Q327 150 329 167T333 203T336 240T337 270V526H434V0H347V65H345Q340 54 334 41T316 16T289 -4T250 -12Q232 -12 219 -7T196 6T179 25T165 45H163V-202H66V526H163Z"  />
<glyph unicode="&#xB6;" horiz-adv-x="542" d="M291 630V-181H193V332Q132 336 94 357T35 408T5 470T-3 529Q-3 551 2 576T18 625T46 669T90 704Q112 716 130 722T167 731T203 734T242 735H543V630H480V-181H382V630H291Z"  />
<glyph unicode="&#xB7;" horiz-adv-x="281" d="M194 429V307H87V429H194Z"  />
<glyph unicode="&#xB8;" horiz-adv-x="333" d="M13 -140Q32 -142 56 -143T99 -145Q104 -145 118 -145T148 -140T174 -126T186 -99Q186 -87 180 -79T165 -67T145 -60T125 -58Q114 -58 97 -59T60 -67L72 -19Q99 -12 122 -10T156 -8Q181 -8 203 -14T242 -31T269 -60T279 -100Q279 -129 264 -148T225 -181T169 -199T106 -205Q98 -205 87 -205T62 -203T36 -201T13 -197V-140Z"  />
<glyph unicode="&#xB9;" horiz-adv-x="323" d="M200 739V416H264V361H64V416H128V666H61V714Q91 716 109 721T148 739H200Z"  />
<glyph unicode="&#xBA;" horiz-adv-x="302" d="M152 400Q136 400 113 406T68 434Q46 456 36 487T26 574Q26 585 28 613T41 670T78 721T151 743Q183 743 204 733T240 706T261 669T272 630T276 596T277 572Q277 560 275 532T262 475T225 423T152 400ZM149 452Q170 452 182 462T201 490T210 527T212 568Q212 629 199 662T150 695Q115 695 103 662T90 576Q90 557 92 536T100 496T117 465T149 452Z"  />
<glyph unicode="&#xBB;" horiz-adv-x="469" d="M28 0L144 261L28 526H128L244 261L128 0H28ZM218 0L334 261L218 526H318L434 261L318 0H218Z"  />
<glyph unicode="&#xBC;" horiz-adv-x="844" d="M458 52L647 384H751V58H800V-22H751V-123H664V-22H458V52ZM664 58V284L536 58H664ZM176 -92L619 762L674 727L231 -123L176 -92ZM113 668Q92 659 76 657T45 654V734Q65 736 85 742T127 762H199V364H269V284H37V364H113V668Z"  />
<glyph unicode="&#xBD;" horiz-adv-x="844" d="M509 -57Q518 -22 545 18T617 108Q641 135 658 152T686 182T703 208T709 237Q709 263 695 281T654 300Q636 300 619 284T590 234L518 252Q535 315 570 348T662 382Q692 382 717 371T761 340T790 296T800 243Q800 224 796 207T781 172T753 132T709 86Q692 69 679 56T654 30T632 4T608 -26H803V-123H509V-57ZM113 668Q92 659 76 657T45 654V734Q65 736 85 742T127 762H199V364H269V284H37V364H113V668ZM158 -92L601 762L656 727L213 -123L158 -92Z"  />
<glyph unicode="&#xBE;" horiz-adv-x="844" d="M680 727L239 -123L185 -89L625 762L680 727ZM53 698Q80 722 116 742T193 762Q219 762 244 753T288 727T318 688T330 638Q330 609 313 579T251 525Q337 492 337 406Q337 374 326 347T295 299T248 268T187 257Q139 257 95 279T24 351L103 396Q113 379 135 361T185 343Q209 343 227 360T246 407Q246 438 219 458T147 479H122V555H158Q199 555 219 577T240 625Q240 654 222 669T183 685Q163 685 140 671T104 640L53 698ZM458 52L647 384H751V58H800V-22H751V-123H664V-22H458V52ZM664 58V284L536 58H664Z"  />
<glyph unicode="&#xBF;" horiz-adv-x="417" d="M292 300Q291 279 289 252T278 195T253 131T209 64Q208 63 205 59T200 53Q165 10 154 -19T143 -70Q143 -93 159 -112T205 -132Q211 -132 221 -130T243 -121T263 -100T278 -59L372 -71Q370 -82 366 -96T355 -126T337 -158T307 -189Q287 -206 260 -216T201 -227Q166 -227 138 -215T89 -182T58 -132T47 -70Q47 -37 55 -9T76 43T104 86T134 123Q153 146 165 164T185 201T194 243T197 300H292ZM193 404V526H299V404H193Z"  />
<glyph unicode="&#xC0;" horiz-adv-x="563" d="M347 735L550 0H442L388 198H175L120 0H13L217 735H347ZM283 584H281L202 295H362L283 584ZM389 779H352L163 936H287L389 779Z"  />
<glyph unicode="&#xC1;" horiz-adv-x="563" d="M347 735L550 0H442L388 198H175L120 0H13L217 735H347ZM283 584H281L202 295H362L283 584ZM430 936L241 779H204L306 936H430Z"  />
<glyph unicode="&#xC2;" horiz-adv-x="563" d="M347 735L550 0H442L388 198H175L120 0H13L217 735H347ZM283 584H281L202 295H362L283 584ZM311 936L430 780H392L281 864L171 780H133L250 936H311Z"  />
<glyph unicode="&#xC3;" horiz-adv-x="563" d="M347 735L550 0H442L388 198H175L120 0H13L217 735H347ZM283 584H281L202 295H362L283 584ZM436 914Q435 882 427 861T405 825T376 805T341 799Q332 799 314 802T260 824Q252 828 237 834T208 841Q196 841 189 837T178 826T171 812T168 799H126Q128 842 141 865T169 899T199 912T218 914Q230 914 248 911T303 890Q314 885 328 879T354 873Q368 873 379 883T394 914H436Z"  />
<glyph unicode="&#xC4;" horiz-adv-x="563" d="M347 735L550 0H442L388 198H175L120 0H13L217 735H347ZM283 584H281L202 295H362L283 584ZM236 911V801H147V911H236ZM416 911V801H327V911H416Z"  />
<glyph unicode="&#xC5;" horiz-adv-x="563" d="M347 735L550 0H442L388 198H175L120 0H13L217 735H347ZM283 584H281L202 295H362L283 584ZM281 936Q257 936 241 920T224 879Q224 855 240 838T281 821Q305 821 321 838T338 879Q338 903 322 919T281 936ZM281 977Q322 977 350 949T379 879Q379 859 372 841T351 810T319 788T281 780Q261 780 243 788T212 809T191 841T183 879Q183 920 211 948T281 977Z"  />
<glyph unicode="&#xC6;" horiz-adv-x="667" d="M628 735V639H393V419H563V324H393V97H637V0H281V199H157L112 0H13L180 735H628ZM257 639L180 291H281V639H257Z"  />
<glyph unicode="&#xC7;" horiz-adv-x="531" d="M402 506Q399 533 393 558T374 604T342 637T294 650Q261 650 238 634T200 592T177 533T165 468T160 406T159 356Q159 340 159 314T164 258T175 198T197 144T232 104T286 89Q322 89 345 106T382 149T402 202T412 250L504 229Q502 211 499 191T488 149T469 106T437 62Q420 43 403 32T370 13T338 1T308 -7L294 -31Q333 -36 357 -53T381 -108Q381 -131 369 -146T338 -171T296 -185T249 -189Q210 -189 173 -181T104 -165L133 -119L166 -126Q186 -131 202 -133T235 -136Q258 -136 271 -131T284 -108Q284 -97 278 -91T260 -81T235 -77T204 -76L246 -7Q176 5 136 44T74 136T47 251T41 371Q41 426 46 475T64 568T101 646T161 706Q195 729 228 736T286 743Q302 743 324 741T371 729T418 703T460 657Q486 618 490 582T497 514L402 506Z"  />
<glyph unicode="&#xC8;" horiz-adv-x="500" d="M443 735V638H188V421H386V324H188V97H467V0H75V735H443ZM358 779H321L132 936H256L358 779Z"  />
<glyph unicode="&#xC9;" horiz-adv-x="500" d="M443 735V638H188V421H386V324H188V97H467V0H75V735H443ZM399 936L210 779H173L275 936H399Z"  />
<glyph unicode="&#xCA;" horiz-adv-x="500" d="M443 735V638H188V421H386V324H188V97H467V0H75V735H443ZM280 936L399 780H361L250 864L140 780H102L219 936H280Z"  />
<glyph unicode="&#xCB;" horiz-adv-x="500" d="M443 735V638H188V421H386V324H188V97H467V0H75V735H443ZM205 911V801H116V911H205ZM385 911V801H296V911H385Z"  />
<glyph unicode="&#xCC;" horiz-adv-x="271" d="M192 735V0H79V735H192ZM215 779H178L-11 936H113L215 779Z"  />
<glyph unicode="&#xCD;" horiz-adv-x="271" d="M192 735V0H79V735H192ZM286 936L97 779H60L162 936H286Z"  />
<glyph unicode="&#xCE;" horiz-adv-x="271" d="M192 735V0H79V735H192ZM167 936L286 780H248L137 864L27 780H-11L106 936H167Z"  />
<glyph unicode="&#xCF;" horiz-adv-x="271" d="M192 735V0H79V735H192ZM92 911V801H3V911H92ZM272 911V801H183V911H272Z"  />
<glyph unicode="&#xD0;" horiz-adv-x="594" d="M235 735Q317 735 369 717T458 662Q486 635 504 602T532 531T546 454T550 375Q550 289 535 220T483 102T389 27T244 0H73V328H-3V406H73V735H235ZM186 638V406H310V328H186V97H261Q281 97 298 102T329 113T353 128T369 142Q382 156 393 175T414 221T428 286T433 374Q433 410 429 455T405 542Q386 583 349 610T244 638H186Z"  />
<glyph unicode="&#xD1;" horiz-adv-x="625" d="M236 735L449 186H451V735H549V0H427L177 642H175V0H77V735H236ZM487 914Q486 882 478 861T456 825T427 805T392 799Q383 799 365 802T311 824Q303 828 288 834T259 841Q247 841 240 837T229 826T222 812T219 799H177Q179 842 192 865T220 899T250 912T269 914Q281 914 299 911T354 890Q365 885 379 879T405 873Q419 873 430 883T445 914H487Z"  />
<glyph unicode="&#xD2;" horiz-adv-x="594" d="M297 -8Q259 -8 229 0T176 21T136 53T105 92Q75 140 60 210T44 363Q44 428 53 495T92 618Q120 673 169 708T299 743Q374 743 422 711T499 624Q528 570 539 504T550 369Q550 315 542 250T508 127Q495 98 476 74T432 31T373 3T297 -8ZM295 86Q325 86 350 97T393 139T422 227T433 372Q433 427 428 477T408 567T367 629T298 652Q259 652 233 632T190 575T168 486T161 368Q161 290 169 236T194 149T236 101T295 86ZM405 779H368L179 936H303L405 779Z"  />
<glyph unicode="&#xD3;" horiz-adv-x="594" d="M297 -8Q259 -8 229 0T176 21T136 53T105 92Q75 140 60 210T44 363Q44 428 53 495T92 618Q120 673 169 708T299 743Q374 743 422 711T499 624Q528 570 539 504T550 369Q550 315 542 250T508 127Q495 98 476 74T432 31T373 3T297 -8ZM295 86Q325 86 350 97T393 139T422 227T433 372Q433 427 428 477T408 567T367 629T298 652Q259 652 233 632T190 575T168 486T161 368Q161 290 169 236T194 149T236 101T295 86ZM446 936L257 779H220L322 936H446Z"  />
<glyph unicode="&#xD4;" horiz-adv-x="594" d="M297 -8Q259 -8 229 0T176 21T136 53T105 92Q75 140 60 210T44 363Q44 428 53 495T92 618Q120 673 169 708T299 743Q374 743 422 711T499 624Q528 570 539 504T550 369Q550 315 542 250T508 127Q495 98 476 74T432 31T373 3T297 -8ZM295 86Q325 86 350 97T393 139T422 227T433 372Q433 427 428 477T408 567T367 629T298 652Q259 652 233 632T190 575T168 486T161 368Q161 290 169 236T194 149T236 101T295 86ZM327 936L446 780H408L297 864L187 780H149L266 936H327Z"  />
<glyph unicode="&#xD5;" horiz-adv-x="594" d="M297 -8Q259 -8 229 0T176 21T136 53T105 92Q75 140 60 210T44 363Q44 428 53 495T92 618Q120 673 169 708T299 743Q374 743 422 711T499 624Q528 570 539 504T550 369Q550 315 542 250T508 127Q495 98 476 74T432 31T373 3T297 -8ZM295 86Q325 86 350 97T393 139T422 227T433 372Q433 427 428 477T408 567T367 629T298 652Q259 652 233 632T190 575T168 486T161 368Q161 290 169 236T194 149T236 101T295 86ZM452 914Q451 882 443 861T421 825T392 805T357 799Q348 799 330 802T276 824Q268 828 253 834T224 841Q212 841 205 837T194 826T187 812T184 799H142Q144 842 157 865T185 899T215 912T234 914Q246 914 264 911T319 890Q330 885 344 879T370 873Q384 873 395 883T410 914H452Z"  />
<glyph unicode="&#xD6;" horiz-adv-x="594" d="M297 -8Q259 -8 229 0T176 21T136 53T105 92Q75 140 60 210T44 363Q44 428 53 495T92 618Q120 673 169 708T299 743Q374 743 422 711T499 624Q528 570 539 504T550 369Q550 315 542 250T508 127Q495 98 476 74T432 31T373 3T297 -8ZM295 86Q325 86 350 97T393 139T422 227T433 372Q433 427 428 477T408 567T367 629T298 652Q259 652 233 632T190 575T168 486T161 368Q161 290 169 236T194 149T236 101T295 86ZM252 911V801H163V911H252ZM432 911V801H343V911H432Z"  />
<glyph unicode="&#xD7;" horiz-adv-x="667" d="M140 573L334 379L528 573L582 519L388 325L581 132L527 78L334 271L141 78L87 132L280 325L86 519L140 573Z"  />
<glyph unicode="&#xD8;" horiz-adv-x="594" d="M181 183Q184 173 190 157T210 125T244 98T298 86Q339 86 365 106T406 164T427 256T433 380Q433 406 432 428T427 477L181 183ZM414 548Q403 587 386 608T350 638T317 650T298 652Q256 652 230 630T188 570T167 482T161 374Q161 330 163 301T168 254L414 548ZM54 30L10 65L78 146Q73 159 67 177T56 222T48 283T44 364Q44 426 53 493T90 615T168 707T300 743Q344 743 376 732T430 705T467 671T491 640L546 707L589 672L517 585Q521 573 526 556T537 512T546 451T550 368Q550 331 547 289T534 205T507 125T462 57T394 10T297 -8Q252 -8 220 2T165 28T129 60T105 91L54 30Z"  />
<glyph unicode="&#xD9;" horiz-adv-x="615" d="M182 735V236Q182 207 188 181T208 135T247 103T307 91Q340 91 364 101T403 131T426 175T433 230V735H546V216Q546 184 541 157T526 109T507 73T486 48Q470 32 449 21T405 4T357 -5T311 -8Q295 -8 272 -7T222 1T171 20T124 53Q109 69 99 90T82 133T72 177T69 216V735H182ZM415 779H378L189 936H313L415 779Z"  />
<glyph unicode="&#xDA;" horiz-adv-x="615" d="M182 735V236Q182 207 188 181T208 135T247 103T307 91Q340 91 364 101T403 131T426 175T433 230V735H546V216Q546 184 541 157T526 109T507 73T486 48Q470 32 449 21T405 4T357 -5T311 -8Q295 -8 272 -7T222 1T171 20T124 53Q109 69 99 90T82 133T72 177T69 216V735H182ZM456 936L267 779H230L332 936H456Z"  />
<glyph unicode="&#xDB;" horiz-adv-x="615" d="M182 735V236Q182 207 188 181T208 135T247 103T307 91Q340 91 364 101T403 131T426 175T433 230V735H546V216Q546 184 541 157T526 109T507 73T486 48Q470 32 449 21T405 4T357 -5T311 -8Q295 -8 272 -7T222 1T171 20T124 53Q109 69 99 90T82 133T72 177T69 216V735H182ZM337 936L456 780H418L307 864L197 780H159L276 936H337Z"  />
<glyph unicode="&#xDC;" horiz-adv-x="615" d="M182 735V236Q182 207 188 181T208 135T247 103T307 91Q340 91 364 101T403 131T426 175T433 230V735H546V216Q546 184 541 157T526 109T507 73T486 48Q470 32 449 21T405 4T357 -5T311 -8Q295 -8 272 -7T222 1T171 20T124 53Q109 69 99 90T82 133T72 177T69 216V735H182ZM262 911V801H173V911H262ZM442 911V801H353V911H442Z"  />
<glyph unicode="&#xDD;" horiz-adv-x="521" d="M128 735L260 432L394 735H506L316 305V0H203V305L16 735H128ZM409 936L220 779H183L285 936H409Z"  />
<glyph unicode="&#xDE;" horiz-adv-x="552" d="M182 735V579H304Q353 579 392 563T457 518T498 451T512 368Q512 316 496 276T453 209T391 167T316 153H182V0H69V735H182ZM182 482V250H272Q329 250 364 277T399 368Q399 396 390 417T367 453T333 474T293 482H182Z"  />
<glyph unicode="&#xDF;" horiz-adv-x="469" d="M67 534Q67 545 68 566T73 611T88 661T117 706T165 740T237 753Q281 753 314 740T370 704T403 651T414 587Q414 545 402 517T372 470T335 441T303 424Q321 418 345 407T391 372T428 308T443 204Q443 157 433 118T404 51T359 8T299 -8Q270 -8 249 1T206 24L248 94Q266 84 277 83T292 81Q318 81 330 112T342 215Q342 296 320 337T237 384V461Q248 463 259 465T283 478Q297 489 305 504T316 533T321 560T322 578Q322 590 320 608T310 642T287 671T246 683Q219 683 203 671T177 640T165 599T162 558V0H67V534Z"  />
<glyph unicode="&#xE0;" horiz-adv-x="448" d="M394 78Q394 67 394 53T396 28Q397 20 397 12T398 0H313L297 63Q277 41 259 28T224 6T192 -5T160 -8Q145 -8 124 -3T82 17T48 57T34 122Q34 171 56 206T116 265T200 307T297 337V371Q297 411 275 432T221 454Q199 454 183 446T156 425T139 401T130 381L50 412Q54 426 64 446T95 486T148 520T228 534Q302 534 348 497T394 389V78ZM297 270Q276 263 246 252T188 224T139 182T119 125Q119 96 139 80T186 63Q205 63 225 72T261 97T287 131T297 171V270ZM322 588H285L96 745H220L322 588Z"  />
<glyph unicode="&#xE1;" horiz-adv-x="448" d="M394 78Q394 67 394 53T396 28Q397 20 397 12T398 0H313L297 63Q277 41 259 28T224 6T192 -5T160 -8Q145 -8 124 -3T82 17T48 57T34 122Q34 171 56 206T116 265T200 307T297 337V371Q297 411 275 432T221 454Q199 454 183 446T156 425T139 401T130 381L50 412Q54 426 64 446T95 486T148 520T228 534Q302 534 348 497T394 389V78ZM297 270Q276 263 246 252T188 224T139 182T119 125Q119 96 139 80T186 63Q205 63 225 72T261 97T287 131T297 171V270ZM373 745L184 588H147L249 745H373Z"  />
<glyph unicode="&#xE2;" horiz-adv-x="448" d="M394 78Q394 67 394 53T396 28Q397 20 397 12T398 0H313L297 63Q277 41 259 28T224 6T192 -5T160 -8Q145 -8 124 -3T82 17T48 57T34 122Q34 171 56 206T116 265T200 307T297 337V371Q297 411 275 432T221 454Q199 454 183 446T156 425T139 401T130 381L50 412Q54 426 64 446T95 486T148 520T228 534Q302 534 348 497T394 389V78ZM297 270Q276 263 246 252T188 224T139 182T119 125Q119 96 139 80T186 63Q205 63 225 72T261 97T287 131T297 171V270ZM254 745L373 589H335L224 673L114 589H76L193 745H254Z"  />
<glyph unicode="&#xE3;" horiz-adv-x="448" d="M394 78Q394 67 394 53T396 28Q397 20 397 12T398 0H313L297 63Q277 41 259 28T224 6T192 -5T160 -8Q145 -8 124 -3T82 17T48 57T34 122Q34 171 56 206T116 265T200 307T297 337V371Q297 411 275 432T221 454Q199 454 183 446T156 425T139 401T130 381L50 412Q54 426 64 446T95 486T148 520T228 534Q302 534 348 497T394 389V78ZM297 270Q276 263 246 252T188 224T139 182T119 125Q119 96 139 80T186 63Q205 63 225 72T261 97T287 131T297 171V270ZM379 723Q378 691 370 670T348 634T319 614T284 608Q275 608 257 611T203 633Q195 637 180 643T151 650Q139 650 132 646T121 635T114 621T111 608H69Q71 651 84 674T112 708T142 721T161 723Q173 723 191 720T246 699Q257 694 271 688T297 682Q311 682 322 692T337 723H379Z"  />
<glyph unicode="&#xE4;" horiz-adv-x="448" d="M394 78Q394 67 394 53T396 28Q397 20 397 12T398 0H313L297 63Q277 41 259 28T224 6T192 -5T160 -8Q145 -8 124 -3T82 17T48 57T34 122Q34 171 56 206T116 265T200 307T297 337V371Q297 411 275 432T221 454Q199 454 183 446T156 425T139 401T130 381L50 412Q54 426 64 446T95 486T148 520T228 534Q302 534 348 497T394 389V78ZM297 270Q276 263 246 252T188 224T139 182T119 125Q119 96 139 80T186 63Q205 63 225 72T261 97T287 131T297 171V270ZM179 720V610H90V720H179ZM359 720V610H270V720H359Z"  />
<glyph unicode="&#xE5;" horiz-adv-x="448" d="M394 78Q394 67 394 53T396 28Q397 20 397 12T398 0H313L297 63Q277 41 259 28T224 6T192 -5T160 -8Q145 -8 124 -3T82 17T48 57T34 122Q34 171 56 206T116 265T200 307T297 337V371Q297 411 275 432T221 454Q199 454 183 446T156 425T139 401T130 381L50 412Q54 426 64 446T95 486T148 520T228 534Q302 534 348 497T394 389V78ZM297 270Q276 263 246 252T188 224T139 182T119 125Q119 96 139 80T186 63Q205 63 225 72T261 97T287 131T297 171V270ZM244 745Q220 745 204 729T187 688Q187 664 203 647T244 630Q268 630 284 647T301 688Q301 712 285 728T244 745ZM244 786Q285 786 313 758T342 688Q342 668 335 650T314 619T282 597T244 589Q224 589 206 597T175 618T154 650T146 688Q146 729 174 757T244 786Z"  />
<glyph unicode="&#xE6;" horiz-adv-x="656" d="M379 250Q379 223 380 194T387 141T408 100T449 84Q482 84 501 106T531 163L624 144Q611 96 590 66T543 20T494 -2T452 -8Q405 -8 371 12T313 70Q305 61 292 48T260 22T218 1T164 -8Q130 -8 107 4T68 35T47 76T40 116Q40 153 53 183T87 236T134 276T188 305T240 326T283 339Q283 352 283 371T276 408T256 438T214 451Q194 451 180 443T157 424T141 399T132 377L52 407Q59 425 72 447T105 488T156 521T227 534Q235 534 248 533T276 528T307 515T340 489Q363 512 391 523T452 534Q481 534 516 520T579 464Q595 440 603 412T616 356T622 300T624 250H379ZM527 320Q529 383 507 418T452 453Q441 453 428 448T403 428T385 387T379 320H527ZM283 276Q274 273 248 263T195 236T147 192T125 132Q125 105 143 87T186 69Q202 69 219 78T250 102T274 135T283 172V276Z"  />
<glyph unicode="&#xE7;" horiz-adv-x="427" d="M290 363Q285 404 266 426T220 449Q202 449 191 442T176 431Q161 414 153 385T142 325T137 269T136 238Q136 220 137 192T147 138T172 92T220 73Q243 73 259 83T285 108T302 139T312 167L400 153Q396 138 388 113T363 64T316 19T239 -6L224 -33Q231 -34 245 -37T274 -48T299 -70T310 -107Q310 -128 300 -143T272 -169T233 -184T186 -189Q151 -189 119 -182T64 -170L91 -126Q105 -131 125 -136T172 -142Q196 -142 211 -134T227 -109Q227 -94 217 -87T192 -78T165 -75T144 -76L188 -6Q133 3 103 32T57 100T39 177T35 244Q35 266 36 296T44 358T62 420T94 475T145 514T220 529Q230 529 254 526T303 509T350 463T376 374L290 363Z"  />
<glyph unicode="&#xE8;" horiz-adv-x="448" d="M136 249Q136 223 138 194T150 139T178 98T227 81Q232 81 243 82T267 92T295 116T320 163L419 141Q404 93 379 64T326 19T272 -2T229 -8Q200 -8 166 2T103 42T53 124T33 261Q33 293 37 327T51 395T80 456T128 505Q144 516 168 525T226 534Q268 534 298 519T350 485T382 445T398 415Q406 395 410 373T417 329T419 286T419 249H136ZM310 320Q310 330 308 352T298 397T272 436T224 453Q192 453 175 438T149 402T138 358T136 320H310ZM322 588H285L96 745H220L322 588Z"  />
<glyph unicode="&#xE9;" horiz-adv-x="448" d="M136 249Q136 223 138 194T150 139T178 98T227 81Q232 81 243 82T267 92T295 116T320 163L419 141Q404 93 379 64T326 19T272 -2T229 -8Q200 -8 166 2T103 42T53 124T33 261Q33 293 37 327T51 395T80 456T128 505Q144 516 168 525T226 534Q268 534 298 519T350 485T382 445T398 415Q406 395 410 373T417 329T419 286T419 249H136ZM310 320Q310 330 308 352T298 397T272 436T224 453Q192 453 175 438T149 402T138 358T136 320H310ZM373 745L184 588H147L249 745H373Z"  />
<glyph unicode="&#xEA;" horiz-adv-x="448" d="M136 249Q136 223 138 194T150 139T178 98T227 81Q232 81 243 82T267 92T295 116T320 163L419 141Q404 93 379 64T326 19T272 -2T229 -8Q200 -8 166 2T103 42T53 124T33 261Q33 293 37 327T51 395T80 456T128 505Q144 516 168 525T226 534Q268 534 298 519T350 485T382 445T398 415Q406 395 410 373T417 329T419 286T419 249H136ZM310 320Q310 330 308 352T298 397T272 436T224 453Q192 453 175 438T149 402T138 358T136 320H310ZM254 745L373 589H335L224 673L114 589H76L193 745H254Z"  />
<glyph unicode="&#xEB;" horiz-adv-x="448" d="M136 249Q136 223 138 194T150 139T178 98T227 81Q232 81 243 82T267 92T295 116T320 163L419 141Q404 93 379 64T326 19T272 -2T229 -8Q200 -8 166 2T103 42T53 124T33 261Q33 293 37 327T51 395T80 456T128 505Q144 516 168 525T226 534Q268 534 298 519T350 485T382 445T398 415Q406 395 410 373T417 329T419 286T419 249H136ZM310 320Q310 330 308 352T298 397T272 436T224 453Q192 453 175 438T149 402T138 358T136 320H310ZM179 720V610H90V720H179ZM359 720V610H270V720H359Z"  />
<glyph unicode="&#xEC;" horiz-adv-x="250" d="M174 526V0H77V526H174ZM225 588H188L-1 745H123L225 588Z"  />
<glyph unicode="&#xED;" horiz-adv-x="250" d="M174 526V0H77V526H174ZM276 745L87 588H50L152 745H276Z"  />
<glyph unicode="&#xEE;" horiz-adv-x="250" d="M174 526V0H77V526H174ZM157 745L276 589H238L127 673L17 589H-21L96 745H157Z"  />
<glyph unicode="&#xEF;" horiz-adv-x="250" d="M174 526V0H77V526H174ZM82 720V610H-7V720H82ZM262 720V610H173V720H262Z"  />
<glyph unicode="&#xF0;" horiz-adv-x="469" d="M214 745L254 709L307 745L334 709L283 674Q315 631 336 596T375 520Q396 468 413 399T431 251Q431 219 425 175T398 90T339 21T237 -8Q191 -8 158 7T103 47T69 101T50 161T41 216T39 258Q39 273 40 301T48 361T69 426T108 484Q131 508 163 521T229 534Q246 534 258 532T282 526Q272 552 259 580T226 638L122 568L98 604L202 673Q195 681 187 692T170 711L147 734L137 745H214ZM233 75Q256 75 273 84T303 115T321 172T327 259Q327 314 321 351T303 410T274 441T234 450Q184 450 163 407T141 270Q141 162 165 119T233 75Z"  />
<glyph unicode="&#xF1;" horiz-adv-x="479" d="M430 0H333V373Q333 380 330 391T320 413T301 430T271 438Q262 438 250 435T222 423T191 396T158 349V0H61V526H158V448Q170 460 185 475T220 503T261 525T310 534Q323 534 343 530T383 511T416 471T430 400V0ZM394 723Q393 691 385 670T363 634T334 614T299 608Q290 608 272 611T218 633Q210 637 195 643T166 650Q154 650 147 646T136 635T129 621T126 608H84Q86 651 99 674T127 708T157 721T176 723Q188 723 206 720T261 699Q272 694 286 688T312 682Q326 682 337 692T352 723H394Z"  />
<glyph unicode="&#xF2;" horiz-adv-x="469" d="M231 -8Q221 -8 207 -6T176 1T141 17T106 44Q72 77 55 127T38 260Q38 305 42 339T55 400T76 446T105 481Q160 534 233 534Q260 534 294 525T361 484Q395 451 413 400T431 266Q431 177 409 117T336 23Q319 12 301 6T267 -3Q249 -7 231 -8ZM231 74Q263 74 282 90T311 132T325 191T328 257Q328 357 306 404T233 452Q205 452 187 438T159 399T145 340T141 267Q141 231 144 197T157 135T184 91T231 74ZM332 588H295L106 745H230L332 588Z"  />
<glyph unicode="&#xF3;" horiz-adv-x="469" d="M231 -8Q221 -8 207 -6T176 1T141 17T106 44Q72 77 55 127T38 260Q38 305 42 339T55 400T76 446T105 481Q160 534 233 534Q260 534 294 525T361 484Q395 451 413 400T431 266Q431 177 409 117T336 23Q319 12 301 6T267 -3Q249 -7 231 -8ZM231 74Q263 74 282 90T311 132T325 191T328 257Q328 357 306 404T233 452Q205 452 187 438T159 399T145 340T141 267Q141 231 144 197T157 135T184 91T231 74ZM383 745L194 588H157L259 745H383Z"  />
<glyph unicode="&#xF4;" horiz-adv-x="469" d="M231 -8Q221 -8 207 -6T176 1T141 17T106 44Q72 77 55 127T38 260Q38 305 42 339T55 400T76 446T105 481Q160 534 233 534Q260 534 294 525T361 484Q395 451 413 400T431 266Q431 177 409 117T336 23Q319 12 301 6T267 -3Q249 -7 231 -8ZM231 74Q263 74 282 90T311 132T325 191T328 257Q328 357 306 404T233 452Q205 452 187 438T159 399T145 340T141 267Q141 231 144 197T157 135T184 91T231 74ZM264 745L383 589H345L234 673L124 589H86L203 745H264Z"  />
<glyph unicode="&#xF5;" horiz-adv-x="469" d="M231 -8Q221 -8 207 -6T176 1T141 17T106 44Q72 77 55 127T38 260Q38 305 42 339T55 400T76 446T105 481Q160 534 233 534Q260 534 294 525T361 484Q395 451 413 400T431 266Q431 177 409 117T336 23Q319 12 301 6T267 -3Q249 -7 231 -8ZM231 74Q263 74 282 90T311 132T325 191T328 257Q328 357 306 404T233 452Q205 452 187 438T159 399T145 340T141 267Q141 231 144 197T157 135T184 91T231 74ZM389 723Q388 691 380 670T358 634T329 614T294 608Q285 608 267 611T213 633Q205 637 190 643T161 650Q149 650 142 646T131 635T124 621T121 608H79Q81 651 94 674T122 708T152 721T171 723Q183 723 201 720T256 699Q267 694 281 688T307 682Q321 682 332 692T347 723H389Z"  />
<glyph unicode="&#xF6;" horiz-adv-x="469" d="M231 -8Q221 -8 207 -6T176 1T141 17T106 44Q72 77 55 127T38 260Q38 305 42 339T55 400T76 446T105 481Q160 534 233 534Q260 534 294 525T361 484Q395 451 413 400T431 266Q431 177 409 117T336 23Q319 12 301 6T267 -3Q249 -7 231 -8ZM231 74Q263 74 282 90T311 132T325 191T328 257Q328 357 306 404T233 452Q205 452 187 438T159 399T145 340T141 267Q141 231 144 197T157 135T184 91T231 74ZM189 720V610H100V720H189ZM369 720V610H280V720H369Z"  />
<glyph unicode="&#xF7;" horiz-adv-x="667" d="M382 528Q382 508 368 494T334 480Q314 480 300 494T285 528Q285 548 299 562T334 576Q354 576 368 562T382 528ZM382 123Q382 103 368 89T334 75Q314 75 300 89T285 123Q285 143 299 157T334 171Q354 171 368 157T382 123ZM601 364V287H66V364H601Z"  />
<glyph unicode="&#xF8;" horiz-adv-x="469" d="M54 7L18 36L68 98Q63 108 58 121T49 152T41 194T38 254Q38 302 43 338T57 402T79 450T108 485Q134 511 166 522T235 534Q267 534 290 527T330 510T357 489T375 470L419 526L456 494L401 428Q405 419 410 407T420 377T428 332T431 265Q431 167 410 114T351 33Q325 13 297 3T234 -8Q192 -8 158 8T95 56L54 7ZM312 393Q310 400 306 410T292 429T269 445T234 452Q201 452 183 434T155 390T144 333T141 279Q141 227 144 190L312 393ZM158 133Q161 126 165 116T178 97T200 81T233 74Q267 74 286 93T315 140T327 197T329 248Q329 275 328 294T324 334L158 133Z"  />
<glyph unicode="&#xF9;" horiz-adv-x="490" d="M150 526V168Q150 132 168 111T211 90Q229 90 245 97T275 117T301 144T324 175V526H421V0H324V79Q316 70 302 56T269 27T225 3T172 -8Q118 -8 86 28T53 122V526H150ZM343 588H306L117 745H241L343 588Z"  />
<glyph unicode="&#xFA;" horiz-adv-x="490" d="M150 526V168Q150 132 168 111T211 90Q229 90 245 97T275 117T301 144T324 175V526H421V0H324V79Q316 70 302 56T269 27T225 3T172 -8Q118 -8 86 28T53 122V526H150ZM394 745L205 588H168L270 745H394Z"  />
<glyph unicode="&#xFB;" horiz-adv-x="490" d="M150 526V168Q150 132 168 111T211 90Q229 90 245 97T275 117T301 144T324 175V526H421V0H324V79Q316 70 302 56T269 27T225 3T172 -8Q118 -8 86 28T53 122V526H150ZM275 745L394 589H356L245 673L135 589H97L214 745H275Z"  />
<glyph unicode="&#xFC;" horiz-adv-x="490" d="M150 526V168Q150 132 168 111T211 90Q229 90 245 97T275 117T301 144T324 175V526H421V0H324V79Q316 70 302 56T269 27T225 3T172 -8Q118 -8 86 28T53 122V526H150ZM200 720V610H111V720H200ZM380 720V610H291V720H380Z"  />
<glyph unicode="&#xFD;" horiz-adv-x="438" d="M113 526L217 158H219L325 526H422L265 -14Q247 -74 223 -109T169 -162T104 -184T28 -189V-117Q61 -116 83 -111T121 -95T147 -65T169 -14L15 526H113ZM368 745L179 588H142L244 745H368Z"  />
<glyph unicode="&#xFE;" horiz-adv-x="479" d="M159 -181H62V745H159V430H161Q180 468 200 489T238 520T271 532T292 534Q322 534 346 520T384 493Q414 463 427 410T441 280Q441 268 441 243T436 185T423 119T398 57T356 10T295 -8Q267 -8 245 3T205 30T177 60T161 85H159V-181ZM159 164Q159 160 160 157T164 149T173 135T189 111Q197 99 216 90T256 81Q287 81 303 104T327 161T336 229T338 288Q338 303 337 330T328 384T303 431T254 451Q232 451 215 439T185 410T166 380T159 362V164Z"  />
<glyph unicode="&#xFF;" horiz-adv-x="438" d="M113 526L217 158H219L325 526H422L265 -14Q247 -74 223 -109T169 -162T104 -184T28 -189V-117Q61 -116 83 -111T121 -95T147 -65T169 -14L15 526H113ZM174 720V610H85V720H174ZM354 720V610H265V720H354Z"  />
<glyph unicode="&#x131;" horiz-adv-x="250" d="M174 526V0H77V526H174Z"  />
<glyph unicode="&#x152;" horiz-adv-x="792" d="M517 419H690V324H517V95H764V0H407V46Q396 36 385 27T357 10T321 -3T274 -8Q244 -8 221 -2T180 14T152 32T136 46Q104 80 85 126T56 217T43 303T40 366Q40 411 46 459T65 553T98 637T149 700Q155 705 166 712T192 726T227 738T274 743Q299 743 320 738T359 724T388 707T407 691V735H754V639H517V419ZM279 83Q319 83 343 105T381 166T399 255T404 362Q404 421 399 473T381 564T343 625T280 648Q240 648 216 623T179 558T162 466T158 362Q158 326 160 278T175 186T211 113T279 83Z"  />
<glyph unicode="&#x153;" horiz-adv-x="698" d="M408 249Q408 234 409 206T417 151T442 104T491 83Q495 83 505 84T527 92T552 116T572 163L668 143Q654 94 632 64T586 18T538 -3T497 -8Q466 -8 442 0T401 19T373 41T357 58Q349 49 338 38T311 17T274 -1T224 -8Q195 -8 162 2T102 39Q66 74 51 127T36 262Q36 327 49 386T103 486Q153 534 223 534Q253 534 276 527T315 509T343 486T361 466Q390 498 422 516T495 534Q542 534 574 512T624 462Q640 437 649 408T662 350T667 295T668 249H408ZM572 319Q572 331 570 354T560 399T536 438T490 455Q460 455 444 439T420 402T410 357T408 319H572ZM222 73Q252 73 269 90T297 134T310 196T313 264Q313 304 309 339T295 400T268 441T223 456Q197 456 181 440T155 397T142 336T138 264Q138 224 142 190T155 129T181 88T222 73Z"  />
<glyph unicode="&#x160;" horiz-adv-x="510" d="M378 542Q363 586 335 617T261 648Q223 648 197 623T171 562Q171 544 178 528T201 495T245 458T314 411Q348 389 378 368T431 321T466 266T479 197Q479 153 463 116T419 51T350 8T260 -8Q195 -8 152 15T84 70Q57 104 47 133T31 189L124 210Q138 163 159 137T201 99T238 85T260 83Q281 83 299 90T332 111T354 143T362 182Q362 203 354 220T332 251T299 279T258 306Q229 324 195 348T130 404T79 473T58 560Q58 595 71 628T109 686T171 727T256 743Q317 743 356 722T419 673T454 615T471 567L378 542ZM226 780L107 936H145L256 852L366 936H404L287 780H226Z"  />
<glyph unicode="&#x161;" horiz-adv-x="385" d="M265 383Q256 415 239 439T188 464Q161 464 143 445T125 399Q125 366 150 348T216 312Q236 303 261 291T308 260T345 212T360 144Q360 114 349 87T316 38T263 5T194 -8Q143 -8 111 12T61 58T35 110T25 148L106 169Q108 159 112 142T126 109T152 80T196 68Q225 68 247 85T270 136Q270 155 262 169T240 194T211 212T179 226Q165 232 141 243T93 272T52 318T35 384Q35 409 46 436T77 484T127 520T193 534Q236 534 263 519T308 482T334 439T347 403L265 383ZM163 589L44 745H82L193 661L303 745H341L224 589H163Z"  />
<glyph unicode="&#x178;" horiz-adv-x="521" d="M128 735L260 432L394 735H506L316 305V0H203V305L16 735H128ZM215 911V801H126V911H215ZM395 911V801H306V911H395Z"  />
<glyph unicode="&#x17D;" horiz-adv-x="448" d="M415 735V684L156 97H411V0H33V74L282 638H61V735H415ZM195 780L76 936H114L225 852L335 936H373L256 780H195Z"  />
<glyph unicode="&#x17E;" horiz-adv-x="406" d="M379 526V468L148 85H379V0H26V66L255 441H40V526H379ZM174 589L55 745H93L204 661L314 745H352L235 589H174Z"  />
<glyph unicode="&#x192;" horiz-adv-x="531" d="M14 -89Q16 -90 19 -90T23 -91Q32 -93 53 -96T96 -100Q112 -100 122 -94T139 -77T148 -52T154 -22L234 448H135L150 533H248L258 588Q262 615 269 642T291 692T333 729T405 743Q449 743 478 736T528 723L506 632Q492 636 471 640T426 645Q396 645 386 626T368 572L361 533H461L446 448H346L258 -59Q253 -85 246 -109T223 -153T183 -184T118 -196Q100 -196 65 -193T-8 -180L14 -89Z"  />
<glyph unicode="&#x2C6;" horiz-adv-x="333" d="M196 735L315 579H277L166 663L56 579H18L135 735H196Z"  />
<glyph unicode="&#x2C7;" horiz-adv-x="333" d="M137 579L18 735H56L167 651L277 735H315L198 579H137Z"  />
<glyph unicode="&#x2DA;" horiz-adv-x="333" d="M166 735Q142 735 126 719T109 678Q109 654 125 637T166 620Q190 620 206 637T223 678Q223 702 207 718T166 735ZM166 776Q207 776 235 748T264 678Q264 658 257 640T236 609T204 587T166 579Q146 579 128 587T97 608T76 640T68 678Q68 719 96 747T166 776Z"  />
<glyph unicode="&#x2DC;" horiz-adv-x="333" d="M321 713Q320 681 312 660T290 624T261 604T226 598Q217 598 199 601T145 623Q137 627 122 633T93 640Q81 640 74 636T63 625T56 611T53 598H11Q13 641 26 664T54 698T84 711T103 713Q115 713 133 710T188 689Q199 684 213 678T239 672Q253 672 264 682T279 713H321Z"  />
<glyph unicode="&#x2013;" horiz-adv-x="500" d="M506 281V218H-6V281H506Z"  />
<glyph unicode="&#x2014;" horiz-adv-x="1000" d="M1006 281V218H-6V281H1006Z"  />
<glyph unicode="&#x2018;" horiz-adv-x="281" d="M82 463V585L164 745H204L140 585H189V463H82Z"  />
<glyph unicode="&#x2019;" horiz-adv-x="281" d="M199 745V623L117 463H77L141 623H92V745H199Z"  />
<glyph unicode="&#x201A;" horiz-adv-x="281" d="M192 122V0L110 -160H70L134 0H85V122H192Z"  />
<glyph unicode="&#x201C;" horiz-adv-x="469" d="M76 463V585L158 745H198L134 585H183V463H76ZM285 463V585L367 745H407L343 585H392V463H285Z"  />
<glyph unicode="&#x201D;" horiz-adv-x="469" d="M393 745V623L311 463H271L335 623H286V745H393ZM184 745V623L102 463H62L126 623H77V745H184Z"  />
<glyph unicode="&#x201E;" horiz-adv-x="469" d="M393 122V0L311 -160H271L335 0H286V122H393ZM184 122V0L102 -160H62L126 0H77V122H184Z"  />
<glyph unicode="&#x2020;" horiz-adv-x="417" d="M256 735L231 461L384 486V392L230 417L264 -212H154L187 417L33 392V486L186 461L162 735H256Z"  />
<glyph unicode="&#x2021;" horiz-adv-x="417" d="M255 735L228 507L377 530V443L228 467L246 261L228 58L377 83V-4L228 18L255 -211H162L190 18L40 -4V83L190 58L172 261L190 467L40 443V530L190 507L162 735H255Z"  />
<glyph unicode="&#x2022;" horiz-adv-x="417" d="M352 353Q352 323 341 297T310 251T264 220T208 209Q178 209 152 220T106 251T75 297T64 353Q64 383 75 409T105 455T151 486T208 498Q238 498 264 487T309 456T340 410T352 353Z"  />
<glyph unicode="&#x2026;" horiz-adv-x="844" d="M200 122V0H93V122H200ZM758 122V0H651V122H758ZM479 122V0H372V122H479Z"  />
<glyph unicode="&#x2030;" horiz-adv-x="1240" d="M649 -189Q623 -189 598 -179T553 -148Q529 -124 517 -83T505 33Q505 47 505 68T510 114T523 162T548 206T589 238T650 251Q686 251 711 239T752 208T777 164T791 116T796 70T797 33Q797 -44 782 -87T738 -155Q723 -168 708 -175T679 -185T658 -188T649 -189ZM650 -121Q697 -121 714 -79T732 33Q732 65 729 93T716 141T691 174T651 186Q626 186 611 174T586 140T574 91T570 32Q570 6 572 -21T583 -70T608 -107T650 -121ZM819 735L108 -192H24L655 625L653 627Q628 619 587 610T485 600Q471 600 423 602T308 618Q314 603 318 589T324 561T328 529T329 488Q329 416 318 372T280 301Q260 281 233 271T178 261Q140 261 118 275T85 300Q61 324 47 364T33 483Q33 517 37 555T57 625T104 679T189 701Q199 701 213 700T241 696T270 692T295 688Q356 677 399 672T480 666Q548 666 614 682T737 735H819ZM180 327Q226 327 244 367T263 482Q263 516 259 544T246 592T221 623T181 634Q151 634 135 618T111 579T102 528T100 478Q100 464 101 439T110 388T134 345T180 327ZM1056 -189Q1030 -189 1005 -179T959 -148Q936 -124 924 -83T911 33Q911 47 911 68T916 114T929 162T954 206T995 238T1057 251Q1093 251 1118 239T1159 208T1184 164T1198 116T1203 70T1204 33Q1204 -44 1189 -87T1145 -155Q1130 -168 1114 -175T1086 -185T1065 -188T1056 -189ZM1056 -121Q1103 -121 1120 -79T1138 33Q1138 65 1135 93T1122 141T1097 174T1057 186Q1032 186 1017 174T992 140T980 91T976 32Q976 6 978 -21T989 -70T1014 -107T1056 -121Z"  />
<glyph unicode="&#x2039;" horiz-adv-x="281" d="M248 526L132 265L248 0H148L32 265L148 526H248Z"  />
<glyph unicode="&#x203A;" horiz-adv-x="281" d="M33 0L149 261L33 526H133L249 261L133 0H33Z"  />
<glyph unicode="&#x20AC;" horiz-adv-x="438" d="M379 476L368 404H131Q131 397 131 388T130 368Q130 361 130 355T131 343H360L349 271H137Q137 216 143 179T162 118T190 85T227 75Q252 75 271 83T304 106T327 139T342 176L429 147Q420 107 400 78T353 30T297 1T236 -9Q176 -9 139 14T80 77T48 166T30 271H-15L-4 343H25Q24 354 24 362T24 375Q24 380 24 387T26 404H-15L-4 476H32Q39 526 50 573T83 658T142 719T238 742Q273 742 301 731T352 701T392 656T422 600L336 562Q322 612 294 636T233 661Q204 661 187 649T161 614T147 557T138 476H379Z"  />
<glyph unicode="&#x2122;" horiz-adv-x="823" d="M141 665H17V735H342V665H222V335H141V665ZM390 735H517L588 459H590L662 735H789V335H712V654H710L626 335H552L468 654H466V335H390V735Z"  />

</font>
</defs>
</svg>
