<?xml version="1.0" standalone="no"?>
<!DOCTYPE svg PUBLIC "-//W3C//DTD SVG 1.1//EN" "http://www.w3.org/Graphics/SVG/1.1/DTD/svg11.dtd" >
<svg xmlns="http://www.w3.org/2000/svg">
<metadata></metadata>
<defs>
<font id="playerbold" horiz-adv-x="1239" >
<font-face units-per-em="2048" ascent="1638" descent="-410" />
<missing-glyph horiz-adv-x="512" />
<glyph unicode="Fi" horiz-adv-x="1665" d="M61 0v246h93v987h-93v246h971v-424h-244v178h-360v-361h279v52h245v-349h-245v52h-279v-381h90v-246h-457zM1145 0v246h92v987h-92v246h459v-246h-93v-987h93v-246h-459z" />
<glyph unicode="Fl" horiz-adv-x="2150" d="M61 0v246h93v987h-93v246h971v-424h-244v178h-360v-361h279v52h245v-349h-245v52h-279v-381h90v-246h-457zM1145 0v246h92v987h-92v246h459v-246h-93v-987h344v219h244v-465h-954z" />
<glyph horiz-adv-x="2048" />
<glyph horiz-adv-x="2048" />
<glyph unicode="&#xd;" horiz-adv-x="512" />
<glyph unicode=" "  horiz-adv-x="512" />
<glyph unicode="&#x09;" horiz-adv-x="512" />
<glyph unicode="&#xa0;" horiz-adv-x="512" />
<glyph unicode="!" horiz-adv-x="499" d="M113 0v246h274v-246h-274zM113 389v1090h274v-1090h-274z" />
<glyph unicode="&#x22;" horiz-adv-x="712" d="M41 1479h274l-49 -414h-174zM397 1479h275l-49 -414h-174z" />
<glyph unicode="#" horiz-adv-x="2299" d="M61 0v246h93v987h-93v246h506l422 -998v752h-92v246h459v-246h-92v-1239h-357l-479 1085v-833h92v-246h-459zM1411 584v479l123 149h561l123 -147v-483l-123 -152h-561zM1595 61v226h469v-226h-469zM1665 655h299v332h-299v-332z" />
<glyph unicode="$" horiz-adv-x="1099" d="M61 147v289h275v-190h151v405l-311 41l-115 142v495l123 150h303v88h121v-88h307l123 -148v-280h-274v182h-156v-336l346 -45l84 -133v-569l-123 -150h-307v-117h-121v117h-303zM336 936l151 -21v318h-151v-297zM608 246h156v368l-156 19v-387z" />
<glyph unicode="%" horiz-adv-x="2162" d="M82 768v561l123 150h561l123 -148v-565l-123 -152h-561zM336 840h299v413h-299v-413zM684 0l590 1479h209l-590 -1479h-209zM1274 154v561l123 149h561l123 -147v-565l-123 -152h-561zM1528 225h299v414h-299v-414z" />
<glyph unicode="&#x26;" horiz-adv-x="1198" d="M61 156v540l205 195l-153 211v258l116 119h760l84 -119v-299h-264v172h-412l21 -121l399 -518l137 199h211v-246h-67l-115 -166l98 -137h97v-244h-228l-121 158l-110 -158h-565zM336 244h252l80 129l-256 325l-76 -71v-383z" />
<glyph unicode="'" horiz-adv-x="356" d="M41 1479h274l-49 -414h-174z" />
<glyph unicode="(" horiz-adv-x="516" d="M82 766q0 190 73.5 393t217.5 438l164 -94q-139 -199 -202 -369.5t-63 -342.5q0 -182 63.5 -377t190.5 -434l-145 -115q-147 266 -223 489.5t-76 411.5z" />
<glyph unicode=")" horiz-adv-x="516" d="M-20 1503l161 94q145 -236 219 -438.5t74 -392.5q0 -188 -75.5 -411.5t-225.5 -489.5l-143 115q125 240 189.5 434t64.5 377q0 172 -62.5 343t-201.5 369z" />
<glyph unicode="*" horiz-adv-x="542" d="M27 1280l141 88l-141 88l53 90l141 -86v164h105v-164l139 86l53 -90l-143 -88l143 -88l-53 -90l-139 86v-164h-105v164l-141 -86z" />
<glyph unicode="+" horiz-adv-x="843" d="M51 623v243h234v250h274v-250h234v-243h-234v-236h-274v236h-234z" />
<glyph unicode="," horiz-adv-x="356" d="M41 0v246h274v-246l-139 -197h-8v197h-127z" />
<glyph unicode="-" horiz-adv-x="632" d="M41 610v246h551v-246h-551z" />
<glyph unicode="." horiz-adv-x="356" d="M41 0v246h274v-246h-274z" />
<glyph unicode="/" horiz-adv-x="747" d="M-66 0l590 1479h209l-590 -1479h-209z" />
<glyph unicode="0" horiz-adv-x="1196" d="M123 154v1175l123 150h704l123 -148v-1179l-123 -152h-704zM397 246h418v987h-418v-987z" />
<glyph unicode="1" horiz-adv-x="602" d="M72 0v246h92v987h-92v164l178 82h188v-1233h92v-246h-458z" />
<glyph unicode="2" horiz-adv-x="1148" d="M82 0v748l111 118h600v367h-437v-154h-274v252l123 148h739l123 -150v-575l-127 -133h-584v-375h430v164h275v-410h-979z" />
<glyph unicode="3" horiz-adv-x="1179" d="M92 154v317h264v-225h437v426h-385v246h385v315h-437v-160h-264v256l123 150h729l123 -148v-426l-96 -90l96 -86v-577l-123 -152h-729z" />
<glyph unicode="4" horiz-adv-x="1206" d="M41 481v316l600 686h375v-756h149v-246h-149v-235h92v-246h-459v246h92v235h-700zM295 727h446v492z" />
<glyph unicode="5" horiz-adv-x="1148" d="M82 147v263h274v-164h437v375h-600l-111 118v740h979v-246h-705v-367h584l127 -133v-583l-123 -150h-739z" />
<glyph unicode="6" horiz-adv-x="1200" d="M123 147v1180l123 152h739l123 -154v-246h-274v154h-437v-367h584l127 -133v-583l-123 -150h-739zM397 246h437v375h-437v-375z" />
<glyph unicode="7" horiz-adv-x="1212" d="M72 1040v439h1099v-234l-518 -999h88v-246h-458v246h92l522 987h-582v-193h-243z" />
<glyph unicode="8" horiz-adv-x="1210" d="M113 154v563l96 88l-96 92v432l123 150h739l123 -148v-436l-97 -90l97 -86v-567l-123 -152h-739zM387 246h436v436h-436v-436zM387 928h436v305h-436v-305z" />
<glyph unicode="9" horiz-adv-x="1200" d="M92 154v256h275v-164h436v375h-584l-127 133v575l123 150h739l123 -148v-1179l-123 -152h-739zM367 866h436v367h-436v-367z" />
<glyph unicode=":" horiz-adv-x="356" d="M41 0v246h274v-246h-274zM41 586v245h274v-245h-274z" />
<glyph unicode=";" horiz-adv-x="356" d="M41 0v246h274v-246l-139 -197h-8v197h-127zM41 586v245h274v-245h-274z" />
<glyph unicode="&#x3c;" horiz-adv-x="1003" d="M41 555v363l922 434v-273l-699 -342l699 -346v-274z" />
<glyph unicode="=" horiz-adv-x="915" d="M45 584v243h823v-243h-823zM45 666v243h823v-243h-823z" />
<glyph unicode="&#x3e;" horiz-adv-x="1003" d="M41 117v274l698 346l-698 342v273l922 -434v-363z" />
<glyph unicode="?" horiz-adv-x="1155" d="M51 1051v280l123 148h797l123 -150v-516l-115 -141l-367 -76v-207h-274v311l84 134l397 81v318h-493v-182h-275zM338 0v246h274v-246h-274z" />
<glyph unicode="@" horiz-adv-x="1931" d="M102 -205v1534l123 150h1481l123 -148v-1184l-123 -147h-1090l-122 150v385l127 133h542v223h-395v-92h-274v164l122 153h699l123 -151v-760h157v1069h-1259v-1479h-234zM768 205h395v278h-395v-278z" />
<glyph unicode="A" d="M20 0v246h93l274 987h-90v246h651v-246h-92l270 -987h93v-246h-457v246h92l-51 190h-369l-51 -190h92v-246h-455zM506 682h227l-112 444z" />
<glyph unicode="B" horiz-adv-x="1171" d="M61 0v246h93v987h-93v246h895l123 -148v-432l-96 -151l96 -148v-448l-123 -152h-895zM428 246h377v379h-377v-379zM428 870h377v363h-377v-363z" />
<glyph unicode="C" horiz-adv-x="1105" d="M102 154v1175l123 150h686l123 -148v-317h-243v219h-414v-987h414v217h243v-311l-123 -152h-686z" />
<glyph unicode="D" horiz-adv-x="1161" d="M61 0v246h93v987h-93v246h875l123 -148v-1179l-123 -152h-875zM428 246h356v987h-356v-987z" />
<glyph unicode="E" horiz-adv-x="1124" d="M61 0v246h93v987h-93v246h971v-424h-244v178h-360v-361h279v52h245v-349h-245v52h-279v-381h360v178h244v-424h-971z" />
<glyph unicode="F" horiz-adv-x="1083" d="M61 0v246h93v987h-93v246h971v-424h-244v178h-360v-361h279v52h245v-349h-245v52h-279v-381h90v-246h-457z" />
<glyph unicode="G" horiz-adv-x="1138" d="M102 154v1175l123 150h719l123 -148v-274h-244v176h-446v-987h436v366h-205v246h459v-706l-123 -152h-719z" />
<glyph unicode="H" horiz-adv-x="1335" d="M61 0v246h93v987h-93v246h459v-246h-92v-361h479v361h-92v246h459v-246h-92v-987h92v-246h-459v246h92v381h-479v-381h92v-246h-459z" />
<glyph unicode="I" horiz-adv-x="581" d="M61 0v246h93v987h-93v246h459v-246h-92v-987h92v-246h-459z" />
<glyph unicode="J" horiz-adv-x="1099" d="M51 154v305h275v-213h346v987h-92v246h458v-246h-92v-1081l-123 -152h-649z" />
<glyph unicode="K" horiz-adv-x="1224" d="M61 0v246h93v987h-93v246h459v-246h-92v-430l354 430h-69v246h456v-246h-73l-226 -281l242 -706h92v-246h-315l-236 700l-225 -256v-198h92v-246h-459z" />
<glyph unicode="L" horiz-adv-x="1067" d="M61 0v246h93v987h-93v246h459v-246h-92v-987h344v219h244v-465h-955z" />
<glyph unicode="M" horiz-adv-x="1570" d="M61 0v246h93v987h-93v246h527l196 -637l199 637h526v-246h-92v-987h92v-246h-458v246h92v874l-307 -884h-101l-307 884v-874h92v-246h-459z" />
<glyph unicode="N" horiz-adv-x="1406" d="M61 0v246h93v987h-93v246h506l422 -998v752h-92v246h459v-246h-92v-1239h-357l-479 1085v-833h92v-246h-459z" />
<glyph unicode="O" horiz-adv-x="1155" d="M102 154v1175l123 150h705l123 -148v-1179l-123 -152h-705zM377 246h418v987h-418v-987z" />
<glyph unicode="P" horiz-adv-x="1122" d="M61 0v246h93v987h-93v246h857l122 -148v-635l-122 -151h-490v-299h92v-246h-459zM428 791h338v442h-338v-442z" />
<glyph unicode="Q" horiz-adv-x="1175" d="M102 154v1175l123 150h725l123 -148v-1179l-123 -152h-239v-174h-246v174h-240zM377 246h422v987h-422v-987z" />
<glyph unicode="R" horiz-adv-x="1220" d="M61 0v246h93v987h-93v246h857l122 -148v-600l-145 -139l180 -346h92v-246h-467v246h93l-154 299h-211v-299h92v-246h-459zM428 791h338v442h-338v-442z" />
<glyph unicode="S" horiz-adv-x="1083" d="M61 147v289h275v-190h412v368l-572 78l-115 142v495l123 150h715l123 -148v-280h-274v182h-412v-297l602 -84l84 -133v-569l-123 -150h-715z" />
<glyph unicode="T" horiz-adv-x="1314" d="M51 1014v465h1213v-465h-244v219h-223v-987h92v-246h-459v246h92v987h-227v-219h-244z" />
<glyph unicode="U" horiz-adv-x="1335" d="M61 1233v246h459v-246h-92v-987h479v987h-92v246h459v-246h-92v-1081l-123 -152h-783l-122 154v1079h-93z" />
<glyph unicode="V" d="M20 1233v246h459v-246h-92l229 -907l236 907h-92v246h459v-246h-93l-335 -1239h-347l-331 1239h-93z" />
<glyph unicode="W" horiz-adv-x="2000" d="M20 1233v246h459v-246h-92l229 -907l238 907h-92v246h479v-246h-92l229 -907l236 907h-92v246h458v-246h-92l-336 -1239h-335l-218 831l-219 -831h-336l-331 1239h-93z" />
<glyph unicode="X" horiz-adv-x="1200" d="M20 0v246h93l340 493l-340 494h-93v246h472v-246h-95l197 -293l199 293h-95v246h471v-246h-92l-340 -494l340 -493h92v-246h-471v246h95l-199 291l-197 -291h95v-246h-472z" />
<glyph unicode="Y" horiz-adv-x="1216" d="M20 1233v246h459v-246h-92l221 -361l221 361h-92v246h459v-246h-92l-359 -612v-375h93v-246h-459v246h92v381l-358 606h-93z" />
<glyph unicode="Z" horiz-adv-x="1126" d="M41 0v307l729 926h-453v-232h-243v478h1001v-308l-729 -925h483v217h244v-463h-1032z" />
<glyph unicode="[" horiz-adv-x="440" d="M102 -133v1749l82 108h308v-204h-156v-1561h156v-205h-308z" />
<glyph unicode="\" horiz-adv-x="634" d="M4 1479h201l426 -1479h-201z" />
<glyph unicode="]" horiz-adv-x="440" d="M-51 -41h155v1561h-155v204h307l82 -108v-1749l-82 -113h-307v205z" />
<glyph unicode="^" d="M20 0v246h93l346 1235h325l342 -1235h93v-246h-457v246h92l-51 190h-369l-51 -190h92v-246h-455zM506 682h227l-112 444z" />
<glyph unicode="_" horiz-adv-x="796" d="M0 -121v246h797v-246h-797z" />
<glyph unicode="`" horiz-adv-x="698" d="M164 1804h211l78 -254h-158z" />
<glyph unicode="a" d="M20 0v246h93l274 987h-80v246h631v-246h-82l270 -987h93v-246h-457v246h92l-51 190h-369l-51 -190h92v-246h-455zM506 682h227l-112 444z" />
<glyph unicode="b" horiz-adv-x="1171" d="M61 0v246h93v987h-93v246h895l123 -148v-432l-96 -151l96 -148v-448l-123 -152h-895zM428 246h377v379h-377v-379zM428 870h377v363h-377v-363z" />
<glyph unicode="c" horiz-adv-x="1105" d="M102 154v1175l123 150h686l123 -148v-317h-243v219h-414v-987h414v217h243v-311l-123 -152h-686z" />
<glyph unicode="d" horiz-adv-x="1161" d="M61 0v246h93v987h-93v246h875l123 -148v-1179l-123 -152h-875zM428 246h356v987h-356v-987z" />
<glyph unicode="e" horiz-adv-x="1124" d="M61 0v246h93v987h-93v246h971v-424h-244v178h-360v-361h279v52h245v-349h-245v52h-279v-381h360v178h244v-424h-971z" />
<glyph unicode="f" horiz-adv-x="1083" d="M61 0v246h93v987h-93v246h971v-424h-244v178h-360v-361h279v52h245v-349h-245v52h-279v-381h90v-246h-457z" />
<glyph unicode="g" horiz-adv-x="1138" d="M102 154v1175l123 150h719l123 -148v-274h-244v176h-446v-987h436v366h-205v246h459v-706l-123 -152h-719z" />
<glyph unicode="h" horiz-adv-x="1335" d="M61 0v246h93v987h-93v246h459v-246h-92v-361h479v361h-92v246h459v-246h-92v-987h92v-246h-459v246h92v381h-479v-381h92v-246h-459z" />
<glyph unicode="i" horiz-adv-x="581" d="M61 0v246h93v987h-93v246h459v-246h-92v-987h92v-246h-459z" />
<glyph unicode="j" horiz-adv-x="1099" d="M51 154v305h275v-213h346v987h-92v246h458v-246h-92v-1081l-123 -152h-649z" />
<glyph unicode="k" horiz-adv-x="1224" d="M61 0v246h93v987h-93v246h459v-246h-92v-430l354 430h-69v246h456v-246h-73l-226 -281l242 -706h92v-246h-315l-236 700l-225 -256v-198h92v-246h-459z" />
<glyph unicode="l" horiz-adv-x="1067" d="M61 0v246h93v987h-93v246h459v-246h-92v-987h344v219h244v-465h-955z" />
<glyph unicode="m" horiz-adv-x="1570" d="M61 0v246h93v987h-93v246h527l196 -637l199 637h526v-246h-92v-987h92v-246h-458v246h92v874l-307 -884h-101l-307 884v-874h92v-246h-459z" />
<glyph unicode="n" horiz-adv-x="1406" d="M61 0v246h93v987h-93v246h506l422 -998v752h-92v246h459v-246h-92v-1239h-357l-479 1085v-833h92v-246h-459z" />
<glyph unicode="o" horiz-adv-x="1155" d="M102 154v1175l123 150h705l123 -148v-1179l-123 -152h-705zM377 246h418v987h-418v-987z" />
<glyph unicode="p" horiz-adv-x="1122" d="M61 0v246h93v987h-93v246h857l122 -148v-635l-122 -151h-490v-299h92v-246h-459zM428 791h338v442h-338v-442z" />
<glyph unicode="q" horiz-adv-x="1175" d="M102 154v1175l123 150h725l123 -148v-1179l-123 -152h-239v-174h-246v174h-240zM377 246h422v987h-422v-987z" />
<glyph unicode="r" horiz-adv-x="1220" d="M61 0v246h93v987h-93v246h857l122 -148v-600l-145 -139l180 -346h92v-246h-467v246h93l-154 299h-211v-299h92v-246h-459zM428 791h338v442h-338v-442z" />
<glyph unicode="s" horiz-adv-x="1083" d="M61 147v289h275v-190h412v368l-572 78l-115 142v495l123 150h715l123 -148v-280h-274v182h-412v-297l602 -84l84 -133v-569l-123 -150h-715z" />
<glyph unicode="t" horiz-adv-x="1314" d="M51 1014v465h1213v-465h-244v219h-223v-987h92v-246h-459v246h92v987h-227v-219h-244z" />
<glyph unicode="u" horiz-adv-x="1335" d="M61 1233v246h459v-246h-92v-987h479v987h-92v246h459v-246h-92v-1081l-123 -152h-783l-122 154v1079h-93z" />
<glyph unicode="v" horiz-adv-x="1280" d="M20 1233v246h459v-246h-92l250 -907l256 907h-92v246h459v-246h-93l-356 -1239h-346l-352 1239h-93z" />
<glyph unicode="w" horiz-adv-x="2082" d="M20 1233v246h459v-246h-92l250 -907l258 907h-92v246h479v-246h-92l250 -907l256 907h-92v246h458v-246h-92l-356 -1239h-336l-238 831l-239 -831h-336l-352 1239h-93z" />
<glyph unicode="x" horiz-adv-x="1200" d="M20 0v246h93l340 493l-340 494h-93v246h472v-246h-95l197 -293l199 293h-95v246h471v-246h-92l-340 -494l340 -493h92v-246h-471v246h95l-199 291l-197 -291h95v-246h-472z" />
<glyph unicode="y" horiz-adv-x="1216" d="M20 1233v246h459v-246h-92l221 -361l221 361h-92v246h459v-246h-92l-359 -612v-375h93v-246h-459v246h92v381l-358 606h-93z" />
<glyph unicode="z" horiz-adv-x="1126" d="M41 0v307l729 926h-453v-232h-243v478h1001v-308l-729 -925h483v217h244v-463h-1032z" />
<glyph unicode="{" horiz-adv-x="1124" d="M61 0v246h93v987h-93v246h971v-424h-244v178h-360v-361h483v-245h-483v-381h360v178h244v-424h-971z" />
<glyph unicode="|" horiz-adv-x="520" d="M123 -205v1684h274v-1684h-274z" />
<glyph unicode="}" horiz-adv-x="1083" d="M61 0v246h93v987h-93v246h971v-424h-244v178h-360v-361h483v-245h-483v-381h92v-246h-459z" />
<glyph unicode="~" horiz-adv-x="1107" d="M61 147v291h275v-192h436v375h-584l-127 133v575l123 150h740l123 -148v-280h-275v182h-436v-367h584l127 -133v-583l-123 -150h-740z" />
<glyph unicode="&#xa1;" horiz-adv-x="499" d="M113 123v858h274v-858h-274zM113 698v478h274v-478h-274z" />
<glyph unicode="&#xa2;" horiz-adv-x="1105" d="M102 358v766l123 150h246v205h213v-205h227l123 -148v-276h-243v178h-414v-577h414v176h243v-271l-123 -151h-227v-205h-213v205h-246z" />
<glyph unicode="&#xa3;" horiz-adv-x="1136" d="M61 610v246h191l-191 416l99 207h727l123 -148v-235h-244v137h-416l174 -377h375v-246h-375l-166 -364h461v135h244v-381h-1000v287l185 323h-187z" />
<glyph unicode="&#xa4;" horiz-adv-x="1105" d="M20 545v133h82v123h-82v133h82v395l123 150h686l123 -148v-276h-243v178h-414v-299h604v-133h-604v-123h604v-133h-604v-299h414v176h243v-270l-123 -152h-686l-123 154v391h-82z" />
<glyph unicode="&#xa5;" horiz-adv-x="1216" d="M20 1233v246h459v-246h-92l221 -371l221 371h-92v246h459v-246h-92l-295 -506h367v-133h-422l-9 -88v-2h431v-133h-431v-125h93v-246h-459v246h92v125h-430v133h430v41l-8 49h-422v133h369l-297 506h-93z" />
<glyph unicode="&#xa6;" horiz-adv-x="520" d="M123 -205v615h274v-615h-274zM123 819v660h274v-660h-274z" />
<glyph unicode="&#xa7;" horiz-adv-x="1253" d="M20 0v246h93v1079l123 154h782l123 -152v-1081h92v-246h-459v246h92v379h-479v-379h92v-246h-459zM387 870h479v363h-479v-363z" />
<glyph unicode="&#xa8;" horiz-adv-x="651" d="M72 1567v180h192v-180h-192zM387 1567v180h193v-180h-193z" />
<glyph unicode="&#xa9;" horiz-adv-x="1708" d="M102 154v1175l123 150h1258l123 -148v-1179l-123 -152h-1258zM336 205h1036v1069h-1036v-1069zM481 481v520l123 150h502l123 -147v-154h-203v96h-311v-414h311v95h203v-148l-123 -151h-502z" />
<glyph unicode="&#xaa;" horiz-adv-x="3674" d="M31 49q63 23 107 35t83 27q45 16 88 45.5t76 66.5t52.5 77t19.5 77q0 92 -59.5 138t-145.5 46q-27 0 -59.5 -3t-60.5 -14.5t-46 -31.5t-18 -55t35.5 -53.5t74.5 -18.5t72 22.5t63 49.5v-19q-20 -29 -57 -55.5t-78 -26.5q-51 0 -91 27t-40 74q0 39 19.5 63.5t48 37.5 t62.5 18.5t65 5.5q115 0 176 -58.5t61 -156.5q0 -43 -23.5 -84t-54 -75t-61.5 -59.5t-45 -35.5l37 -9q49 -10 92 -24t82 -38t74.5 -56.5t72.5 -79.5h-4v-4q-12 4 -22.5 6t-20.5 2q-37 0 -51 -17.5t-14 -39.5q0 -31 20.5 -52.5t49 -35t60 -19.5t54.5 -6q35 0 68.5 15.5 t52.5 37.5h-8q-16 0 -42 5t-49.5 16.5t-40 30t-16.5 44.5q0 31 19.5 44.5t48.5 13.5q47 0 87 -32t40 -75q0 -8 -4 -20q27 6 55.5 19.5t51 35t36.5 50t14 67.5q0 23 -2 38t-10 40h8q4 -8 9.5 -31.5t5.5 -46.5q0 -78 -52.5 -130t-124.5 -65q-20 -37 -64 -54t-83 -17 q-29 0 -63.5 7t-64.5 22.5t-50.5 39t-20.5 58.5q0 29 17.5 51t50.5 22h13t18 -4q-88 78 -172 113t-201 35q-47 0 -98.5 -5.5t-122.5 -15.5zM117 1511q0 45 15 93.5t43 86.5t67 62.5t84 24.5q12 0 32 -4v-13q-8 2 -24 2q-43 0 -79 -22.5t-63.5 -58t-43 -79.5t-15.5 -87 q0 -41 14.5 -75t47.5 -57q33 74 86 157t113.5 152.5t120.5 115.5t108 46q27 0 43 -13t24 -34.5t11.5 -46t3.5 -45.5q0 -57 -27 -113.5t-71 -103.5t-98 -85t-110 -58q0 -2 -1 -3t-1 -5q-10 -35 -19 -76t-18.5 -81t-14.5 -77t-5 -67q0 -33 13.5 -52.5t30.5 -29t31.5 -12.5 t18.5 -3q68 0 129 45q-20 14 -43.5 19.5t-46.5 5.5q-18 0 -42.5 -5t-29.5 -9v8q10 10 33 16t35 6q61 0 106 -28q49 41 79 104.5t30 128.5q0 39 -13.5 78t-58.5 39q-37 0 -66.5 -18.5t-50 -46t-31.5 -62.5t-11 -68q0 -18 9 -47t38 -29q20 0 35.5 14.5t25.5 35t15.5 43 t5.5 41.5q0 6 -2 14t-5 18h17q4 -10 4 -19v-13q0 -23 -7 -48.5t-20.5 -48t-31 -38t-37.5 -15.5q-39 0 -50.5 34t-11.5 64q0 33 12.5 69t34 66.5t52 50t69.5 19.5q55 0 87 -49t32 -115t-34 -125t-91 -100q33 -33 33 -88q0 -53 -33 -88t-80 -55q2 -4 2 -11q0 -41 -34.5 -66.5 t-69.5 -25.5h-10l6 11q10 0 25.5 5t28.5 14t23.5 22.5t10.5 31.5q0 8 -2 13q-25 -10 -50.5 -13.5t-50.5 -3.5q-18 0 -49 4t-58.5 14.5t-48 27t-20.5 42.5q0 18 11.5 29.5t29 18.5t35.5 10.5t31 3.5q20 0 48 -7.5t53.5 -20.5t47 -31.5t33.5 -39.5q39 16 66.5 46t27.5 73 q0 45 -22 74q-33 -20 -69 -31.5t-77 -11.5q-59 0 -110.5 21.5t-89 63.5t-59 101.5t-21.5 132.5q0 41 26 111q-35 25 -51 63.5t-16 85.5zM248 819q0 -20 14 -32.5t35.5 -19.5t46.5 -9t43 -2q52 0 105 18q-23 41 -72 66.5t-90 25.5q-10 0 -23.5 -2t-27 -6t-22.5 -14t-9 -25z M406 1380q51 23 97 65t79.5 95t54 115t20.5 123q0 20 -6 35.5t-28 15.5q-23 0 -43.5 -24.5t-55.5 -98.5q0 -4 -14 -40t-33.5 -87t-39 -105.5t-31.5 -93.5zM537 176q0 53 30.5 98t81.5 45q35 0 50.5 -24.5t15.5 -50.5q0 -51 -28 -95.5t-79 -44.5q-10 0 -21.5 4.5t-21.5 8.5 q8 -31 35 -52.5t53 -21.5q43 0 75 30.5t55.5 79t40 107.5t28.5 117q-63 27 -92 82q-25 -10 -37 -10q-145 0 -145 153q0 55 21.5 109.5t59 97.5t90 68.5t111.5 25.5q61 0 100 -10t67 -22.5t48.5 -22.5t44.5 -10q10 0 20.5 1t20.5 3v-11q-70 -16 -134 -61t-105 -102 q-6 49 -41 78.5t-88 29.5q-39 0 -74 -17.5t-61.5 -46t-43 -65.5t-16.5 -76q0 -109 119 -108q20 0 37 8q-14 29 -15 72q0 57 30 91t54 34q23 0 34 -15.5t11 -36.5q0 -43 -29.5 -85t-64.5 -64q12 -27 33.5 -44t48.5 -28q16 70 42 139.5t79 133.5q8 10 28.5 29.5t45 39t52 34.5 t54.5 20v-15q-37 -18 -60.5 -50t-36.5 -70t-18.5 -81t-5.5 -81q0 -45 6 -97q35 16 58.5 47t23.5 72q0 29 -8 55.5t-22 40.5v4q16 -10 25 -32.5t14 -44.5q12 25 43.5 54.5t83.5 29.5q31 0 54 -16.5t38.5 -43t22.5 -62.5t7 -73q0 -25 -14 -64.5t-31.5 -83.5t-32 -90.5 t-14.5 -83.5q0 -43 25 -43q27 0 48 29t39.5 76t33 107.5t27 122t23.5 118.5t21 100q16 -8 32.5 -14t35.5 -6q29 0 48 14.5t40 26.5q-10 -53 -26.5 -123t-32 -142.5t-25.5 -141t-6 -117.5l2 -35q41 -10 67.5 -43t26.5 -86q0 -41 -18.5 -72t-42.5 -51h-19q29 23 47.5 50.5 t18.5 64.5q0 29 -12.5 62.5t-63.5 45.5q4 -25 8 -56.5t4 -80.5q0 -53 -25.5 -92t-64.5 -63.5t-87 -36t-93 -11.5q-31 0 -61.5 9.5t-56 27.5t-41 44t-15.5 58q0 35 14.5 56.5t33.5 34t39.5 16.5t33.5 4q23 0 32 -2q16 31 45 58.5t72 45.5v7q-4 16 -5 32.5t-1 28.5 q-23 -45 -57.5 -75.5t-85.5 -30.5t-84 53t-33 131q0 39 14.5 83t31.5 89t31.5 85t14.5 68q0 35 -6 47.5t-16 12.5q-16 0 -30.5 -10.5t-27 -23.5t-19.5 -25.5t-9 -18.5q0 -51 -26 -85t-65 -52q0 -188 -75.5 -278.5t-223.5 -90.5q-39 0 -76.5 8.5t-66.5 29t-47 52t-18 78.5z M711 -121q0 -18 12 -31.5t30.5 -21.5t38 -11t35.5 -3q20 0 29.5 4.5t9.5 27.5q0 37 -33.5 61.5t-66.5 24.5q-23 0 -39 -12t-16 -39zM758 541q0 -39 10 -60q33 23 59.5 59.5t26.5 71.5q0 16 -6 28.5t-25 12.5q-20 0 -32.5 -12t-19.5 -29.5t-10 -37t-3 -33.5zM770 1208 q0 45 28.5 103.5t69.5 111t89.5 88t86.5 35.5q43 0 64 -59l14 53q16 -8 32.5 -14t35.5 -6q29 0 48 14t40 27q-6 -37 -22.5 -117t-34 -167t-30.5 -163t-13 -102q0 -35 18 -35q25 0 42 33.5t34 74.5h18q-6 -25 -14 -48t-22.5 -43.5t-35 -33t-47.5 -12.5q-41 0 -75.5 30 t-46.5 95q-41 -82 -71 -104.5t-63 -22.5q-39 0 -66.5 27.5t-45 68.5t-25.5 86.5t-8 79.5zM924 995q0 -6 2 -14t14 -8q27 0 54.5 43t49.5 141q4 47 18 117.5t30 136.5q0 68 -11.5 91.5t-25.5 23.5t-25.5 -16.5t-21 -38t-14.5 -44t-7 -34.5q-4 -23 -15 -77t-21.5 -117.5 t-18.5 -121t-8 -82.5zM1169 -158q0 -29 13.5 -50t34 -36.5t47 -22.5t53.5 -7q25 0 51.5 8t50 24.5t39 40t15.5 54.5q0 43 -20.5 95t-31.5 91q-35 -10 -61.5 -31.5t-42.5 -56.5q41 -14 58.5 -44t17.5 -48q0 -14 -11.5 -33t-40.5 -19q-25 0 -41 26t-16 52v18.5t4 18.5 q-10 2 -17 2h-16q-39 0 -62.5 -21.5t-23.5 -60.5zM1229 748q0 37 32.5 51t57.5 14l119 -12q23 0 44 9t21 38q0 31 -23.5 46t-52.5 15q-20 0 -39.5 -9t-19.5 -28q0 -27 33 -26q25 0 43 12l4 -14q-10 -4 -21.5 -8.5t-23.5 -4.5q-20 0 -35.5 10.5t-15.5 28.5q0 25 27.5 38.5 t50.5 13.5q35 0 61.5 -18.5t26.5 -53.5t-28 -48.5t-50 -13.5l-121 15q-23 0 -50.5 -12.5t-27.5 -42.5q0 -20 18.5 -28.5t34.5 -8.5q25 0 51.5 10t52 23.5t49 23.5t42.5 10q53 0 88 -36.5t35 -94.5l-13 2v6q-10 59 -41.5 80t-54.5 21q-18 0 -37.5 -9.5t-43 -20.5t-53.5 -20.5 t-71 -9.5q-37 0 -53 16.5t-16 35.5zM1307 -97v-14q0 -20 7 -40.5t23 -20.5q18 0 24.5 8.5t6.5 16.5q0 23 -18.5 38t-40.5 25q-2 -6 -2 -13zM1329 1409q8 25 17.5 48.5t24.5 43t37 31.5t52 12q57 0 85 -34.5t36 -82.5q12 16 26.5 37t31 39.5t37 30.5t46.5 12q33 0 56.5 -20.5 t40 -54t24.5 -75.5t8 -85q0 -74 -16 -137.5t-34.5 -121t-35 -112.5t-16.5 -113q0 -55 14.5 -85.5t36 -48t47 -29t49 -26.5t42 -42t26.5 -74q37 63 63.5 82t57.5 19q39 0 67.5 -29t48 -71t28.5 -86t9 -75q0 -35 -8 -75.5t-24 -81.5q16 -25 27.5 -54.5t11.5 -64.5 q0 -41 -13.5 -83t-38 -77t-60.5 -57.5t-81 -22.5q-35 0 -58.5 18.5t-23.5 53.5q0 23 17.5 40t40.5 17q12 0 18 -2v-8q-18 0 -38.5 -12t-20.5 -35q0 -27 18 -41t41 -14q39 0 72.5 23.5t58.5 58.5t38 74.5t13 74.5q0 27 -8 49.5t-20 42.5q-29 -63 -74 -113t-107 -50 q-47 0 -63.5 33.5t-16.5 74.5q0 39 12.5 67.5t31 48t38 30t33.5 14.5q6 37 11.5 80t9.5 83t7 71.5t3 49.5q0 4 -6 12.5t-19 8.5q-10 0 -24.5 -9t-28.5 -28.5t-24.5 -50.5t-10.5 -74q0 -20 -9 -78.5t-22.5 -133.5t-30 -156.5t-30.5 -152.5t-25.5 -119t-13.5 -56 q-16 8 -31.5 14t-35.5 6q-29 0 -48.5 -14t-37.5 -27q4 25 16 91.5t29.5 153.5t35 185.5t33 183.5t25.5 148.5t10 81.5q0 45 -15.5 70.5t-38 45t-49 40t-49 56.5t-38 93.5t-15.5 153.5q0 55 14.5 111.5t33 115t32.5 116.5t14 114q0 45 -18 45q-23 0 -59.5 -43t-65.5 -115 q-4 -29 -15.5 -94.5t-23.5 -134t-24.5 -125t-14.5 -66.5q-16 8 -31.5 15.5t-35.5 7.5q-29 0 -45.5 -6.5t-34.5 -18.5q6 37 20.5 116t28.5 164t25.5 158.5t11.5 102.5q0 14 -4 24.5t-15 10.5q-25 0 -42 -34t-33 -75h-21zM1860 805l2 2q35 -41 82 -71.5t112 -30.5q25 0 48.5 6 t39.5 20q-31 6 -76 19.5t-87 39t-70.5 63.5t-28.5 91q0 16 3 35.5t18 34.5l8 -8q-10 -31 -10 -56q0 -49 27.5 -82.5t67.5 -57.5t86 -36t85 -14q6 14 6 35q0 47 -38 79.5t-89 32.5q-20 0 -42 -5t-40 -15l-8 2q16 16 39.5 23.5t46.5 7.5q27 0 52.5 -9.5t46 -25t33.5 -39 t13 -49.5q0 -23 -6 -37h8q33 0 68 8t65.5 26.5t52 46t29.5 68.5l21 -10q-6 -35 -28.5 -65.5t-55.5 -54t-74 -38t-84 -14.5h-22q-16 -16 -43 -24.5t-56 -8.5q-59 0 -116.5 27t-85.5 84zM1935 1208q0 45 29 103.5t70 111t89 88t87 35.5q45 0 65 -59l15 53q16 -8 31.5 -14 t35.5 -6q29 0 48.5 14t37.5 27q-6 -37 -22.5 -117t-32.5 -167t-29.5 -163t-13.5 -102q0 -35 16 -35q25 0 42.5 33.5t33.5 74.5h21q-6 -25 -15.5 -48t-23 -43.5t-34 -33t-46.5 -12.5q-41 0 -76 30t-47 95q-43 -82 -71.5 -104.5t-61.5 -22.5q-39 0 -66.5 27.5t-46 68.5 t-27 86.5t-8.5 79.5zM1952 119q0 -18 10 -44t39 -26q12 0 21.5 24.5t14.5 59.5t8 72.5t7 62.5q-23 -2 -41 -16t-31.5 -35.5t-20.5 -47.5t-7 -50zM2089 995q0 -6 2 -14t14 -8q29 0 56.5 43t50.5 141q4 47 17.5 117.5t27.5 136.5q0 68 -10.5 91.5t-26.5 23.5 q-18 0 -30.5 -15.5t-19.5 -37t-11.5 -44t-6.5 -36.5q-4 -23 -14 -77t-21.5 -117.5t-19.5 -121t-8 -82.5zM2294 305q0 41 28.5 95.5t74.5 103.5t105.5 84t120.5 35q41 0 72 -32t31 -106q0 -47 -25.5 -87t-63.5 -69.5t-84 -48t-89 -22.5q-12 -70 -18.5 -119t-6.5 -51 q0 -23 15.5 -34t37.5 -11q8 0 15 2v2q0 35 12 78t35.5 82t55.5 64.5t71 25.5q18 0 26.5 -16.5t8.5 -34.5q0 -33 -17.5 -70t-45 -68.5t-61.5 -54t-69 -26.5q0 -121 42 -173.5t106 -52.5q57 0 124.5 38t131.5 102q-72 35 -118 97t-46 152q0 31 9 62t26.5 57.5t43 47t58.5 26.5 v-8q-63 -18 -93 -74.5t-30 -118.5q0 -76 47 -134t119 -89q49 53 91 120.5t65 143.5l-234 72l103 41l-138 278l111 -32l-25 163l107 -120l63 92l64 -201l86 277l43 -72l162 94v-182h100l-213 -211l211 59l-35 -108l160 -17l-154 -73l82 -66l-293 -55l19 -105l-180 146 q-31 -72 -73 -136.5t-95 -117.5q51 -18 108 -19q78 0 121 28t68 79h8q-6 -31 -25.5 -55.5t-45.5 -42t-56.5 -25.5t-59.5 -8q-74 0 -137 24q-70 -70 -146.5 -111.5t-146.5 -41.5q-66 0 -108.5 56t-42.5 192q-4 -2 -15 -2q-37 0 -72.5 17t-63 52t-45 88t-17.5 125zM2468 279 q39 6 70.5 38.5t52 75.5t32 88t11.5 76q0 45 -21 45q-25 0 -47 -29.5t-40.5 -76.5t-33 -104.5t-24.5 -112.5zM2484 1208q0 45 29 103.5t69.5 111t89 88t87.5 35.5t61 -49q10 51 20.5 100.5t18.5 88t13 63.5t7 31q16 -8 33 -14.5t35 -6.5q29 0 48.5 14.5t39.5 26.5 q-4 -25 -16.5 -87t-27.5 -143t-32.5 -172t-32 -170t-23.5 -138.5t-9 -77.5q0 -14 4 -24.5t14 -10.5q18 0 38 21.5t35 52t27.5 64.5t18.5 56h23q-4 -14 -14.5 -50t-30 -73.5t-47 -67.5t-66.5 -30q-41 0 -79 30t-52 95q-23 -41 -40.5 -66.5t-32.5 -40t-29.5 -18.5t-30.5 -4 q-39 0 -67 27.5t-46 68.5t-26.5 86.5t-8.5 79.5zM2507 795q0 39 32.5 75.5t75.5 38.5v-8q-33 -6 -60.5 -31.5t-27.5 -60.5q0 -33 12.5 -53.5t34 -31.5t47 -15t54.5 -4q27 0 54.5 4t51 15t39.5 31.5t19 51.5q-6 -2 -15 -2q-47 0 -79.5 18.5t-32.5 50.5q0 16 16 28.5t31 12.5 q33 0 58.5 -25.5t33.5 -58.5q63 8 120.5 53.5t73.5 108.5h4q-14 -90 -73.5 -133t-122.5 -53q-2 -53 -55.5 -96t-126.5 -43q-27 0 -55.5 6t-53.5 20.5t-40 39t-15 61.5zM2521 47q25 0 54.5 20.5t56 51.5t44 66.5t17.5 66.5q0 10 -3 19.5t-15 9.5q-31 0 -58.5 -24t-49 -58.5 t-34 -74.5t-12.5 -73v-4zM2638 995q0 -6 2 -14t14 -8q27 0 45.5 22.5t34.5 74.5t32.5 140.5t39.5 221.5q-2 55 -13.5 74.5t-23.5 19.5q-18 0 -30.5 -15.5t-19.5 -37t-11.5 -44t-6.5 -36.5q-4 -23 -14 -77t-21.5 -117.5t-19.5 -121t-8 -82.5zM2734 872q0 -25 29.5 -33 t64.5 -8h8q-6 29 -24.5 48.5t-46.5 19.5q-12 0 -21.5 -5t-9.5 -22zM3090 1208q0 45 29 103.5t70 111t89 88t87 35.5q45 0 65 -59l15 53q16 -8 31.5 -14t35.5 -6q29 0 48.5 14t37.5 27q-6 -37 -22.5 -117t-32.5 -167t-29.5 -163t-13.5 -102q0 -35 16 -35q25 0 42.5 33.5 t33.5 74.5h21q-6 -25 -15.5 -48t-23 -43.5t-33.5 -33t-47 -12.5q-41 0 -76 30t-47 95q-43 -82 -71.5 -104.5t-61.5 -22.5q-39 0 -66.5 27.5t-46 68.5t-27 86.5t-8.5 79.5zM3244 995q0 -6 2 -14t14 -8q29 0 56.5 43t50.5 141q4 47 17.5 117.5t27.5 136.5q0 68 -10.5 91.5 t-26.5 23.5q-18 0 -30.5 -15.5t-19.5 -37t-11 -44t-6 -36.5q-4 -23 -14.5 -77t-22 -117.5t-19.5 -121t-8 -82.5z" />
<glyph unicode="&#xab;" horiz-adv-x="1024" d="M41 543v200l451 334v-280l-236 -152l236 -156v-284zM532 543v198l451 336v-280l-235 -152l235 -156v-284z" />
<glyph unicode="&#xac;" horiz-adv-x="1175" d="M102 154v1175l123 150h725l123 -148v-1179l-76 -95l58 -75l-189 -132l-116 150h-525zM377 246h205l-41 53l157 154l101 -136v916h-422v-987z" />
<glyph unicode="&#xad;" horiz-adv-x="1024" d="M0 610v246h1024v-246h-1024z" />
<glyph unicode="&#xae;" horiz-adv-x="1243" d="M86 526v860l78 93h913l78 -93v-864l-78 -92h-913zM248 573h745v762h-745v-762zM344 641v143h31v340h-31v144h449l77 -92v-158l-73 -88l88 -146h30v-143h-225v143h33l-84 142h-102v-142h30v-143h-223zM537 1026h172v98h-172v-98z" />
<glyph unicode="&#xaf;" horiz-adv-x="550" d="M0 1559v163h551v-163h-551z" />
<glyph unicode="&#xb0;" horiz-adv-x="776" d="M82 1026v332l113 121h376l123 -119v-336l-123 -123h-376zM285 1075h207v230h-207v-230z" />
<glyph unicode="&#xb1;" d="M20 1233v246h455v-246h-92l235 -881l236 881h-92v246h457v-246h-93l-272 -987h90v-246h-651v246h92l-272 987h-93z" />
<glyph unicode="&#xb4;" horiz-adv-x="698" d="M328 1550l78 254h210l-131 -254h-157z" />
<glyph unicode="&#xb6;" horiz-adv-x="1142" d="M82 737v594l123 148h897v-246h-92v-1438h-172v1438h-142v-1438h-274v791h-217z" />
<glyph unicode="&#xb7;" horiz-adv-x="356" d="M41 586v245h274v-245h-274z" />
<glyph unicode="&#xb8;" horiz-adv-x="698" d="M252 -246l80 295h231l-133 -295h-178z" />
<glyph unicode="&#xb9;" horiz-adv-x="1134" d="M61 0v246h93v987h-93v246h857l122 -148v-600l-131 -127l82 -358h92v-246h-305l-135 545h-215v-299h92v-246h-459zM428 791h338v442h-338v-442z" />
<glyph unicode="&#xba;" horiz-adv-x="929" d="M82 645v479l123 150h520l123 -148v-483l-123 -151h-520zM266 123v225h428v-225h-428zM336 717h258v332h-258v-332z" />
<glyph unicode="&#xbb;" horiz-adv-x="1024" d="M41 205v284l235 156l-235 152v280l451 -336v-198zM532 205v284l236 156l-236 152v280l451 -334v-200z" />
<glyph unicode="&#xbf;" horiz-adv-x="1155" d="M66 -55v516l114 141l367 76v207h274v-312l-84 -133l-397 -82v-317h494v182h274v-280l-123 -148h-797zM547 1028v246h274v-246h-274z" />
<glyph unicode="&#xc0;" d="M20 0v246h93l274 987h-90v246h651v-246h-92l270 -987h93v-246h-457v246h92l-51 190h-369l-51 -190h92v-246h-455zM420 1804h211l78 -254h-158zM506 682h227l-112 444z" />
<glyph unicode="&#xc1;" d="M20 0v246h93l274 987h-90v246h651v-246h-92l270 -987h93v-246h-457v246h92l-51 190h-369l-51 -190h92v-246h-455zM506 682h227l-112 444zM553 1550l78 254h211l-131 -254h-158z" />
<glyph unicode="&#xc2;" d="M20 0v246h93l274 987h-90v246h651v-246h-92l270 -987h93v-246h-457v246h92l-51 190h-369l-51 -190h92v-246h-455zM393 1550l133 254h185l133 -254h-148l-78 123l-77 -123h-148zM506 682h227l-112 444z" />
<glyph unicode="&#xc3;" d="M20 0v246h93l274 987h-90v246h651v-246h-92l270 -987h93v-246h-457v246h92l-51 190h-369l-51 -190h92v-246h-455zM309 1544v152l76 69h197l182 -104v104h164v-155l-64 -66h-184l-197 105v-105h-174zM506 682h227l-112 444z" />
<glyph unicode="&#xc4;" d="M20 0v246h93l274 987h-90v246h651v-246h-92l270 -987h93v-246h-457v246h92l-51 190h-369l-51 -190h92v-246h-455zM365 1567v180h192v-180h-192zM506 682h227l-112 444zM680 1567v180h192v-180h-192z" />
<glyph unicode="&#xc5;" d="M20 0v246h93l274 987h-90v246h651v-246h-92l270 -987h93v-246h-457v246h92l-51 190h-369l-51 -190h92v-246h-455zM369 1653v233l92 99h315l92 -97v-237l-92 -101h-315zM506 682h227l-112 444zM541 1694h155v147h-155v-147z" />
<glyph unicode="&#xc6;" horiz-adv-x="1857" d="M20 0v246h91l575 987h-90v246h1169v-424h-243v178h-361v-361h279v52h246v-349h-246v52h-279v-381h361v178h243v-424h-970v246h92v186h-398l-104 -186h92v-246h-457zM639 678h248v420z" />
<glyph unicode="&#xc7;" horiz-adv-x="1105" d="M102 154v1175l123 150h686l123 -148v-317h-243v219h-414v-987h414v217h243v-311l-123 -152h-202l-109 -246h-178l65 246h-262z" />
<glyph unicode="&#xc8;" horiz-adv-x="1124" d="M61 0v246h93v987h-93v246h971v-424h-244v178h-360v-361h279v52h245v-349h-245v52h-279v-381h360v178h244v-424h-971zM381 1804h211l78 -254h-158z" />
<glyph unicode="&#xc9;" horiz-adv-x="1124" d="M61 0v246h93v987h-93v246h971v-424h-244v178h-360v-361h279v52h245v-349h-245v52h-279v-381h360v178h244v-424h-971zM500 1550l78 254h210l-131 -254h-157z" />
<glyph unicode="&#xca;" horiz-adv-x="1124" d="M61 0v246h93v987h-93v246h971v-424h-244v178h-360v-361h279v52h245v-349h-245v52h-279v-381h360v178h244v-424h-971zM338 1550l133 254h184l133 -254h-147l-78 123l-78 -123h-147z" />
<glyph unicode="&#xcb;" horiz-adv-x="1124" d="M61 0v246h93v987h-93v246h971v-424h-244v178h-360v-361h279v52h245v-349h-245v52h-279v-381h360v178h244v-424h-971zM307 1567v180h193v-180h-193zM623 1567v180h192v-180h-192z" />
<glyph unicode="&#xcc;" horiz-adv-x="581" d="M61 0v246h93v987h-93v246h459v-246h-92v-987h92v-246h-459zM100 1804h211l78 -254h-158z" />
<glyph unicode="&#xcd;" horiz-adv-x="581" d="M61 0v246h93v987h-93v246h459v-246h-92v-987h92v-246h-459zM223 1550l78 254h211l-131 -254h-158z" />
<glyph unicode="&#xce;" horiz-adv-x="581" d="M61 0v246h93v987h-93v246h459v-246h-92v-987h92v-246h-459zM66 1550l133 254h184l133 -254h-147l-78 123l-78 -123h-147z" />
<glyph unicode="&#xcf;" horiz-adv-x="581" d="M37 1567v180h192v-180h-192zM61 0v246h93v987h-93v246h459v-246h-92v-987h92v-246h-459zM352 1567v180h193v-180h-193z" />
<glyph unicode="&#xd0;" horiz-adv-x="1161" d="M16 612v244h138v377h-93v246h875l123 -148v-1179l-123 -152h-875v246h93v366h-138zM428 246h356v987h-356v-377h197v-244h-197v-366z" />
<glyph unicode="&#xd1;" horiz-adv-x="1406" d="M61 0v246h93v987h-93v246h506l422 -998v752h-92v246h459v-246h-92v-1239h-357l-479 1085v-833h92v-246h-459zM395 1544v152l76 69h197l182 -104v104h164v-155l-64 -66h-184l-197 105v-105h-174z" />
<glyph unicode="&#xd2;" horiz-adv-x="1155" d="M102 154v1175l123 150h705l123 -148v-1179l-123 -152h-705zM377 246h418v987h-418v-987zM391 1804h211l78 -254h-158z" />
<glyph unicode="&#xd3;" horiz-adv-x="1155" d="M102 154v1175l123 150h705l123 -148v-1179l-123 -152h-705zM377 246h418v987h-418v-987zM496 1550l77 254h211l-131 -254h-157z" />
<glyph unicode="&#xd4;" horiz-adv-x="1155" d="M102 154v1175l123 150h705l123 -148v-1179l-123 -152h-705zM352 1550l133 254h185l133 -254h-148l-77 123l-78 -123h-148zM377 246h418v987h-418v-987z" />
<glyph unicode="&#xd5;" horiz-adv-x="1155" d="M102 154v1175l123 150h705l123 -148v-1179l-123 -152h-705zM268 1544v152l76 69h197l182 -104v104h164v-155l-64 -66h-184l-197 105v-105h-174zM377 246h418v987h-418v-987z" />
<glyph unicode="&#xd6;" horiz-adv-x="1155" d="M102 154v1175l123 150h705l123 -148v-1179l-123 -152h-705zM324 1567v180h192v-180h-192zM377 246h418v987h-418v-987zM639 1567v180h192v-180h-192z" />
<glyph unicode="&#xd7;" horiz-adv-x="790" d="M41 590l166 168l-166 164l172 172l166 -164l176 176l195 -195l-177 -176l164 -166l-172 -172l-164 166l-168 -166z" />
<glyph unicode="&#xd8;" horiz-adv-x="1157" d="M102 154v1175l123 150h529l32 82h209l-43 -111l101 -119v-1179l-123 -152h-541l-39 -102h-209l54 139zM377 504l282 729h-282v-729zM485 246h310v796z" />
<glyph unicode="&#xd9;" horiz-adv-x="1335" d="M61 1233v246h459v-246h-92v-987h479v987h-92v246h459v-246h-92v-1081l-123 -152h-783l-122 154v1079h-93zM469 1804h211l78 -254h-158z" />
<glyph unicode="&#xda;" horiz-adv-x="1335" d="M61 1233v246h459v-246h-92v-987h479v987h-92v246h459v-246h-92v-1081l-123 -152h-783l-122 154v1079h-93zM586 1550l78 254h210l-131 -254h-157z" />
<glyph unicode="&#xdb;" horiz-adv-x="1335" d="M61 1233v246h459v-246h-92v-987h479v987h-92v246h459v-246h-92v-1081l-123 -152h-783l-122 154v1079h-93zM442 1550l133 254h185l133 -254h-148l-77 123l-78 -123h-148z" />
<glyph unicode="&#xdc;" horiz-adv-x="1335" d="M61 1233v246h459v-246h-92v-987h479v987h-92v246h459v-246h-92v-1081l-123 -152h-783l-122 154v1079h-93zM414 1567v180h192v-180h-192zM729 1567v180h193v-180h-193z" />
<glyph unicode="&#xdd;" horiz-adv-x="1216" d="M20 1233v246h459v-246h-92l221 -361l221 361h-92v246h459v-246h-92l-359 -612v-375h93v-246h-459v246h92v381l-358 606h-93zM537 1550l77 254h211l-131 -254h-157z" />
<glyph unicode="&#xde;" horiz-adv-x="1122" d="M61 0v246h93v987h-93v246h459v-246h-92v-82h490l122 -147v-512l-122 -152h-490v-94h92v-246h-459zM428 565h338v361h-338v-361z" />
<glyph unicode="&#xdf;" horiz-adv-x="2166" d="M61 147v289h275v-190h412v368l-572 78l-115 142v495l123 150h715l123 -148v-280h-274v182h-412v-297l602 -84l84 -133v-569l-123 -150h-715zM1145 147v289h274v-190h412v368l-571 78l-115 142v495l123 150h714l123 -148v-280h-274v182h-412v-297l602 -84l84 -133v-569 l-123 -150h-714z" />
<glyph unicode="&#xe0;" d="M20 0v246h93l274 987h-90v246h651v-246h-92l270 -987h93v-246h-457v246h92l-51 190h-369l-51 -190h92v-246h-455zM420 1804h211l78 -254h-158zM506 682h227l-112 444z" />
<glyph unicode="&#xe1;" d="M20 0v246h93l274 987h-90v246h651v-246h-92l270 -987h93v-246h-457v246h92l-51 190h-369l-51 -190h92v-246h-455zM506 682h227l-112 444zM553 1550l78 254h211l-131 -254h-158z" />
<glyph unicode="&#xe2;" d="M20 0v246h93l274 987h-90v246h651v-246h-92l270 -987h93v-246h-457v246h92l-51 190h-369l-51 -190h92v-246h-455zM393 1550l133 254h185l133 -254h-148l-78 123l-77 -123h-148zM506 682h227l-112 444z" />
<glyph unicode="&#xe3;" d="M20 0v246h93l274 987h-90v246h651v-246h-92l270 -987h93v-246h-457v246h92l-51 190h-369l-51 -190h92v-246h-455zM309 1544v152l76 69h197l182 -104v104h164v-155l-64 -66h-184l-197 105v-105h-174zM506 682h227l-112 444z" />
<glyph unicode="&#xe4;" d="M20 0v246h93l274 987h-90v246h651v-246h-92l270 -987h93v-246h-457v246h92l-51 190h-369l-51 -190h92v-246h-455zM453 1567v180h192v-180h-192zM506 682h227l-112 444zM590 1567v180h192v-180h-192z" />
<glyph unicode="&#xe5;" d="M20 0v246h93l274 987h-90v246h651v-246h-92l270 -987h93v-246h-457v246h92l-51 190h-369l-51 -190h92v-246h-455zM369 1653v233l92 99h315l92 -97v-237l-92 -101h-315zM506 682h227l-112 444zM541 1694h155v147h-155v-147z" />
<glyph unicode="&#xe6;" horiz-adv-x="1857" d="M20 0v246h91l575 987h-80v246h1159v-424h-243v178h-361v-361h279v52h246v-349h-246v52h-279v-381h361v178h243v-424h-970v246h92v186h-398l-104 -186h92v-246h-457zM639 678h248v426z" />
<glyph unicode="&#xe7;" horiz-adv-x="1105" d="M102 154v1175l123 150h686l123 -148v-317h-243v219h-414v-987h414v217h243v-311l-123 -152h-202l-109 -246h-178l65 246h-262z" />
<glyph unicode="&#xe8;" horiz-adv-x="1124" d="M61 0v246h93v987h-93v246h971v-424h-244v178h-360v-361h279v52h245v-349h-245v52h-279v-381h360v178h244v-424h-971zM381 1804h211l78 -254h-158z" />
<glyph unicode="&#xe9;" horiz-adv-x="1124" d="M61 0v246h93v987h-93v246h971v-424h-244v178h-360v-361h279v52h245v-349h-245v52h-279v-381h360v178h244v-424h-971zM500 1550l78 254h210l-131 -254h-157z" />
<glyph unicode="&#xea;" horiz-adv-x="1124" d="M61 0v246h93v987h-93v246h971v-424h-244v178h-360v-361h279v52h245v-349h-245v52h-279v-381h360v178h244v-424h-971zM338 1550l133 254h184l133 -254h-147l-78 123l-78 -123h-147z" />
<glyph unicode="&#xeb;" horiz-adv-x="1124" d="M61 0v246h93v987h-93v246h971v-424h-244v178h-360v-361h279v52h245v-349h-245v52h-279v-381h360v178h244v-424h-971zM307 1567v180h193v-180h-193zM623 1567v180h192v-180h-192z" />
<glyph unicode="&#xec;" horiz-adv-x="581" d="M61 0v246h93v987h-93v246h459v-246h-92v-987h92v-246h-459zM100 1804h211l78 -254h-158z" />
<glyph unicode="&#xed;" horiz-adv-x="581" d="M61 0v246h93v987h-93v246h459v-246h-92v-987h92v-246h-459zM223 1550l78 254h211l-131 -254h-158z" />
<glyph unicode="&#xee;" horiz-adv-x="581" d="M61 0v246h93v987h-93v246h459v-246h-92v-987h92v-246h-459zM66 1550l133 254h184l133 -254h-147l-78 123l-78 -123h-147z" />
<glyph unicode="&#xef;" horiz-adv-x="581" d="M37 1567v180h192v-180h-192zM61 0v246h93v987h-93v246h459v-246h-92v-987h92v-246h-459zM352 1567v180h193v-180h-193z" />
<glyph unicode="&#xf0;" horiz-adv-x="1161" d="M16 612v244h138v377h-93v246h875l123 -148v-1179l-123 -152h-875v246h93v366h-138zM428 246h356v987h-356v-377h197v-244h-197v-366z" />
<glyph unicode="&#xf1;" horiz-adv-x="1406" d="M61 0v246h93v987h-93v246h506l422 -998v752h-92v246h459v-246h-92v-1239h-357l-479 1085v-833h92v-246h-459zM395 1544v152l76 69h197l182 -104v104h164v-155l-64 -66h-184l-197 105v-105h-174z" />
<glyph unicode="&#xf2;" horiz-adv-x="1155" d="M102 154v1175l123 150h705l123 -148v-1179l-123 -152h-705zM377 246h418v987h-418v-987zM391 1804h211l78 -254h-158z" />
<glyph unicode="&#xf3;" horiz-adv-x="1155" d="M102 154v1175l123 150h705l123 -148v-1179l-123 -152h-705zM377 246h418v987h-418v-987zM496 1550l77 254h211l-131 -254h-157z" />
<glyph unicode="&#xf4;" horiz-adv-x="1155" d="M102 154v1175l123 150h705l123 -148v-1179l-123 -152h-705zM352 1550l133 254h185l133 -254h-148l-77 123l-78 -123h-148zM377 246h418v987h-418v-987z" />
<glyph unicode="&#xf5;" horiz-adv-x="1155" d="M102 154v1175l123 150h705l123 -148v-1179l-123 -152h-705zM268 1544v152l76 69h197l182 -104v104h164v-155l-64 -66h-184l-197 105v-105h-174zM377 246h418v987h-418v-987z" />
<glyph unicode="&#xf6;" horiz-adv-x="1155" d="M102 154v1175l123 150h705l123 -148v-1179l-123 -152h-705zM324 1567v180h192v-180h-192zM377 246h418v987h-418v-987zM639 1567v180h192v-180h-192z" />
<glyph unicode="&#xf7;" horiz-adv-x="1980" d="M20 1233v246h455v-246h-92l235 -860l236 860h-92v246h457v-246h-93l236 -860l235 860h-92v246h455v-246h-92l-273 -987h93v-246h-553l-21 162h47l-172 678l-168 -678h45l-18 -162h-555v246h92l-272 987h-93z" />
<glyph unicode="&#xf8;" horiz-adv-x="1157" d="M102 154v1175l123 150h529l32 82h209l-43 -111l101 -119v-1179l-123 -152h-541l-39 -102h-209l54 139zM377 504l282 729h-282v-729zM485 246h310v796z" />
<glyph unicode="&#xf9;" horiz-adv-x="1335" d="M61 1233v246h459v-246h-92v-987h479v987h-92v246h459v-246h-92v-1081l-123 -152h-783l-122 154v1079h-93zM469 1804h211l78 -254h-158z" />
<glyph unicode="&#xfa;" horiz-adv-x="1335" d="M61 1233v246h459v-246h-92v-987h479v987h-92v246h459v-246h-92v-1081l-123 -152h-783l-122 154v1079h-93zM586 1550l78 254h210l-131 -254h-157z" />
<glyph unicode="&#xfb;" horiz-adv-x="1335" d="M61 1233v246h459v-246h-92v-987h479v987h-92v246h459v-246h-92v-1081l-123 -152h-783l-122 154v1079h-93zM442 1550l133 254h185l133 -254h-148l-77 123l-78 -123h-148z" />
<glyph unicode="&#xfc;" horiz-adv-x="1335" d="M61 1233v246h459v-246h-92v-987h479v987h-92v246h459v-246h-92v-1081l-123 -152h-783l-122 154v1079h-93zM414 1567v180h192v-180h-192zM729 1567v180h193v-180h-193z" />
<glyph unicode="&#xfd;" horiz-adv-x="1216" d="M20 1233v246h459v-246h-92l221 -361l221 361h-92v246h459v-246h-92l-359 -612v-375h93v-246h-459v246h92v381l-358 606h-93zM537 1550l77 254h211l-131 -254h-157z" />
<glyph unicode="&#xfe;" horiz-adv-x="1122" d="M61 0v246h93v987h-93v246h459v-246h-92v-82h490l122 -147v-512l-122 -152h-490v-94h92v-246h-459zM428 565h338v361h-338v-361z" />
<glyph unicode="&#xff;" horiz-adv-x="1216" d="M20 1233v246h459v-246h-92l221 -361l221 361h-92v246h459v-246h-92l-359 -612v-375h93v-246h-459v246h92v381l-358 606h-93zM354 1567v180h193v-180h-193zM670 1567v180h192v-180h-192z" />
<glyph unicode="&#x152;" horiz-adv-x="1748" d="M82 154v1175l123 150h1452v-424h-244v178h-360v-361h278v52h246v-349h-246v52h-278v-381h360v178h244v-424h-1452zM356 246h422v987h-422v-987z" />
<glyph unicode="&#x153;" horiz-adv-x="1748" d="M82 154v1175l123 150h1452v-424h-244v178h-360v-361h278v52h246v-349h-246v52h-278v-381h360v178h244v-424h-1452zM356 246h422v987h-422v-987z" />
<glyph unicode="&#x178;" horiz-adv-x="1216" d="M20 1233v246h459v-246h-92l221 -361l221 361h-92v246h459v-246h-92l-359 -612v-375h93v-246h-459v246h92v381l-358 606h-93zM354 1567v180h193v-180h-193zM670 1567v180h192v-180h-192z" />
<glyph unicode="&#x2c6;" horiz-adv-x="634" d="M92 1550l133 254h185l133 -254h-148l-78 123l-77 -123h-148z" />
<glyph unicode="&#x2dc;" horiz-adv-x="925" d="M154 1544v152l75 69h197l182 -104v104h164v-155l-63 -66h-185l-196 105v-105h-174z" />
<glyph unicode="&#x2000;" horiz-adv-x="992" />
<glyph unicode="&#x2001;" horiz-adv-x="1985" />
<glyph unicode="&#x2002;" horiz-adv-x="992" />
<glyph unicode="&#x2003;" horiz-adv-x="1985" />
<glyph unicode="&#x2004;" horiz-adv-x="661" />
<glyph unicode="&#x2005;" horiz-adv-x="496" />
<glyph unicode="&#x2006;" horiz-adv-x="330" />
<glyph unicode="&#x2007;" horiz-adv-x="330" />
<glyph unicode="&#x2008;" horiz-adv-x="248" />
<glyph unicode="&#x2009;" horiz-adv-x="397" />
<glyph unicode="&#x200a;" horiz-adv-x="110" />
<glyph unicode="&#x2010;" horiz-adv-x="632" d="M41 610v246h551v-246h-551z" />
<glyph unicode="&#x2011;" horiz-adv-x="632" d="M41 610v246h551v-246h-551z" />
<glyph unicode="&#x2012;" horiz-adv-x="632" d="M41 610v246h551v-246h-551z" />
<glyph unicode="&#x2013;" horiz-adv-x="960" d="M41 610v246h879v-246h-879z" />
<glyph unicode="&#x2014;" horiz-adv-x="1247" d="M41 610v246h1165v-246h-1165z" />
<glyph unicode="&#x2018;" horiz-adv-x="356" d="M41 1034v246l139 197h8v-197h127v-246h-274z" />
<glyph unicode="&#x2019;" horiz-adv-x="356" d="M41 1231v246h274v-246l-139 -197h-8v197h-127z" />
<glyph unicode="&#x201a;" horiz-adv-x="356" d="M41 0v246h274v-246l-139 -197h-8v197h-127z" />
<glyph unicode="&#x201c;" horiz-adv-x="733" d="M41 1034v246l139 197h8v-197h127v-246h-274zM418 1034v246l139 197h8v-197h127v-246h-274z" />
<glyph unicode="&#x201d;" horiz-adv-x="733" d="M41 1231v246h274v-246l-139 -197h-8v197h-127zM418 1231v246h274v-246l-139 -197h-8v197h-127z" />
<glyph unicode="&#x201e;" horiz-adv-x="733" d="M41 0v246h274v-246l-139 -197h-8v197h-127zM418 0v246h274v-246l-139 -197h-8v197h-127z" />
<glyph unicode="&#x2022;" horiz-adv-x="561" d="M72 752q0 88 59 149.5t148 61.5q43 0 81.5 -16.5t67.5 -45.5t45 -67.5t16 -81.5q0 -90 -61 -148.5t-149 -58.5t-147.5 58.5t-59.5 148.5z" />
<glyph unicode="&#x2026;" horiz-adv-x="1191" d="M41 0v246h274v-246h-274zM459 0v246h274v-246h-274zM877 0v246h274v-246h-274z" />
<glyph unicode="&#x202f;" horiz-adv-x="397" />
<glyph unicode="&#x2039;" horiz-adv-x="532" d="M41 543v200l451 334v-280l-236 -152l236 -156v-284z" />
<glyph unicode="&#x203a;" horiz-adv-x="532" d="M41 205v284l235 156l-235 152v280l451 -334v-200z" />
<glyph unicode="&#x205f;" horiz-adv-x="496" />
<glyph unicode="&#x20ac;" horiz-adv-x="1105" d="M20 545v133h82v123h-82v133h82v395l123 150h686l123 -148v-276h-243v178h-414v-299h604v-133h-604v-123h604v-133h-604v-299h414v176h243v-270l-123 -152h-686l-123 154v391h-82z" />
<glyph unicode="&#x2122;" horiz-adv-x="1632" d="M41 1227v252h643v-252h-154v96h-81v-389h40v-154h-249v154h41v389h-86v-96h-154zM756 780v154h41v389h-41v156h309l88 -258l90 258h307v-156h-41v-389h41v-154h-250v154h41v403l-163 -446h-52l-161 446v-403h41v-154h-250z" />
<glyph unicode="&#xe000;" horiz-adv-x="1474" d="M0 0v1475h1475v-1475h-1475z" />
</font>
</defs>
</svg>
