<?xml version="1.0" standalone="no"?>
<!DOCTYPE svg PUBLIC "-//W3C//DTD SVG 1.1//EN" "http://www.w3.org/Graphics/SVG/1.1/DTD/svg11.dtd" >
<svg xmlns="http://www.w3.org/2000/svg">
<metadata></metadata>
<defs>
<font id="player_blackregular" horiz-adv-x="1361" >
<font-face units-per-em="2048" ascent="1638" descent="-410" />
<missing-glyph horiz-adv-x="512" />
<glyph unicode="Fi" horiz-adv-x="1910" d="M61 0v328h93v823h-93v328h1135v-465h-326v137h-360v-238h278v11h328v-349h-328v11h-278v-258h90v-328h-539zM1309 0v328h92v823h-92v328h540v-328h-92v-823h92v-328h-540z" />
<glyph unicode="Fl" horiz-adv-x="2478" d="M61 0v328h93v823h-93v328h1135v-465h-326v137h-360v-238h278v11h328v-349h-328v11h-278v-258h90v-328h-539zM1309 0v328h92v823h-92v328h540v-328h-92v-823h344v219h326v-547h-1118z" />
<glyph horiz-adv-x="2048" />
<glyph horiz-adv-x="2048" />
<glyph unicode="&#xd;" horiz-adv-x="512" />
<glyph unicode=" "  horiz-adv-x="512" />
<glyph unicode="&#x09;" horiz-adv-x="512" />
<glyph unicode="&#xa0;" horiz-adv-x="512" />
<glyph unicode="!" horiz-adv-x="581" d="M113 0v328h356v-328h-356zM113 389v1090h356v-1090h-356z" />
<glyph unicode="&#x22;" horiz-adv-x="876" d="M41 1479h356l-69 -455h-215zM479 1479h357l-70 -455h-215z" />
<glyph unicode="#" horiz-adv-x="2709" d="M61 0v328h93v823h-93v328h670l422 -1028v700h-92v328h541v-328h-93v-1157h-520l-479 1055v-721h92v-328h-541zM1657 586v520l123 149h725l123 -147v-524l-123 -152h-725zM1950 0v307h417v-307h-417zM1993 739h299v209h-299v-209z" />
<glyph unicode="$" horiz-adv-x="1247" d="M61 147v330h357v-149h147v256l-389 47l-115 141v557l123 150h381v84h111v-84h387l123 -148v-321h-357v141h-153v-227l426 -52l84 -133v-589l-123 -150h-387v-121h-111v121h-381zM418 956l147 -16v211h-147v-195zM676 328h153v225l-153 16v-241z" />
<glyph unicode="%" horiz-adv-x="2572" d="M82 686v643l123 150h725l123 -148v-647l-123 -152h-725zM418 840h299v331h-299v-331zM848 0l590 1479h291l-590 -1479h-291zM1520 154v643l122 149h725l123 -147v-647l-123 -152h-725zM1855 307h299v332h-299v-332z" />
<glyph unicode="&#x26;" horiz-adv-x="1325" d="M61 156v530l213 201l-161 207v266l116 119h883l84 -119v-320h-346v111h-371l39 -51l373 -434l162 221h252v-328h-78l-117 -151l64 -82h131v-326h-287l-113 135l-102 -135h-649zM418 326h231l47 65l-235 266l-43 -41v-290z" />
<glyph unicode="'" horiz-adv-x="438" d="M41 1479h356l-69 -455h-215z" />
<glyph unicode="(" horiz-adv-x="598" d="M82 766q0 190 80 409.5t233 462.5l223 -135q-139 -199 -207.5 -369.5t-68.5 -342.5q0 -90 18.5 -183.5t52 -193t83 -208t112.5 -226.5l-198 -168q-162 274 -245 520t-83 434z" />
<glyph unicode=")" horiz-adv-x="598" d="M-20 1503l223 135q154 -244 233.5 -463t79.5 -409q0 -188 -83 -434t-245 -520l-198 168q125 240 195.5 434t70.5 377q0 172 -68.5 343t-207.5 369z" />
<glyph unicode="*" horiz-adv-x="610" d="M33 1272l129 74l-129 75l71 127l132 -75v151h145v-151l131 75l72 -127l-131 -75l131 -74l-72 -127l-131 76v-150h-145v150l-132 -76z" />
<glyph unicode="+" horiz-adv-x="843" d="M51 582v325h193v209h356v-209h193v-325h-193v-195h-356v195h-193z" />
<glyph unicode="," horiz-adv-x="438" d="M41 0v328h356v-328l-180 -238h-8v238h-168z" />
<glyph unicode="-" horiz-adv-x="714" d="M41 569v328h633v-328h-633z" />
<glyph unicode="." horiz-adv-x="438" d="M41 0v328h356v-328h-356z" />
<glyph unicode="/" horiz-adv-x="747" d="M-147 0l589 1479h291l-590 -1479h-290z" />
<glyph unicode="0" horiz-adv-x="1341" d="M123 154v1175l123 150h850l123 -148v-1179l-123 -152h-850zM479 328h414v823h-414v-823z" />
<glyph unicode="1" horiz-adv-x="684" d="M72 0v328h92v823h-92v246l260 82h188v-1151h92v-328h-540z" />
<glyph unicode="2" horiz-adv-x="1312" d="M82 0v788l111 119h681v244h-436v-72h-356v252l123 148h903l123 -150v-616l-127 -133h-666v-252h430v82h357v-410h-1143z" />
<glyph unicode="3" horiz-adv-x="1343" d="M92 154v358h346v-184h436v303h-385v327h385v193h-436v-119h-346v297l123 150h893l123 -148v-426l-96 -90l96 -86v-577l-123 -152h-893z" />
<glyph unicode="4" horiz-adv-x="1370" d="M41 440v398l600 645h498v-715h190v-328h-190v-112h92v-328h-541v328h92v112h-741zM377 768h405v389z" />
<glyph unicode="5" horiz-adv-x="1312" d="M82 147v263h356v-82h436v252h-681l-111 118v781h1143v-328h-787v-244h666l127 -133v-624l-123 -150h-903z" />
<glyph unicode="6" horiz-adv-x="1363" d="M123 147v1180l123 152h903l123 -154v-246h-357v72h-436v-244h666l127 -133v-624l-123 -150h-903zM479 328h436v252h-436v-252z" />
<glyph unicode="7" horiz-adv-x="1335" d="M72 999v480h1222v-316l-497 -835h88v-328h-541v328h92l502 823h-541v-152h-325z" />
<glyph unicode="8" horiz-adv-x="1374" d="M113 154v553l96 88l-96 92v442l123 150h903l123 -148v-446l-97 -90l97 -86v-557l-123 -152h-903zM469 328h436v303h-436v-303zM469 958h436v193h-436v-193z" />
<glyph unicode="9" horiz-adv-x="1363" d="M92 154v256h357v-82h436v252h-666l-127 133v616l123 150h903l123 -148v-1179l-123 -152h-903zM449 907h436v244h-436v-244z" />
<glyph unicode=":" horiz-adv-x="438" d="M41 0v328h356v-328h-356zM41 504v327h356v-327h-356z" />
<glyph unicode=";" horiz-adv-x="438" d="M41 0v328h356v-328l-180 -238h-8v238h-168zM41 504v327h356v-327h-356z" />
<glyph unicode="&#x3c;" horiz-adv-x="1044" d="M41 494v485l963 455v-355l-678 -342l678 -346v-356z" />
<glyph unicode="=" horiz-adv-x="987" d="M41 336v326h905v-326h-905zM41 831v326h905v-326h-905z" />
<glyph unicode="&#x3e;" horiz-adv-x="1044" d="M41 35v356l678 346l-678 342v355l963 -455v-485z" />
<glyph unicode="?" horiz-adv-x="1400" d="M51 1010v321l123 148h1043l122 -150v-598l-114 -141l-449 -76v-125h-356v311l84 134l479 81v236h-575v-141h-357zM420 0v328h356v-328h-356z" />
<glyph unicode="@" horiz-adv-x="2136" d="M102 -205v1534l123 150h1686l123 -148v-1184l-123 -147h-1254l-122 150v364l127 133h583v141h-354v-10h-356v144l122 153h822l123 -151v-678h157v987h-1382v-1438h-275zM891 246h354v196h-354v-196z" />
<glyph unicode="A" d="M20 0v328h93l254 823h-91v328h816v-328h-93l250 -823h92v-328h-534v328h92l-33 102h-372l-31 -102h92v-328h-535zM592 758h178l-88 307z" />
<glyph unicode="B" horiz-adv-x="1335" d="M61 0v328h93v823h-93v328h1059l123 -148v-432l-96 -151l96 -148v-448l-123 -152h-1059zM510 328h377v256h-377v-256zM510 911h377v240h-377v-240z" />
<glyph unicode="C" horiz-adv-x="1269" d="M102 154v1175l123 150h850l123 -148v-399h-326v219h-413v-823h413v217h326v-393l-123 -152h-850z" />
<glyph unicode="D" horiz-adv-x="1325" d="M61 0v328h93v823h-93v328h1039l123 -148v-1179l-123 -152h-1039zM510 328h356v823h-356v-823z" />
<glyph unicode="E" horiz-adv-x="1288" d="M61 0v328h93v823h-93v328h1135v-465h-326v137h-360v-238h278v11h328v-349h-328v11h-278v-258h360v137h326v-465h-1135z" />
<glyph unicode="F" horiz-adv-x="1247" d="M61 0v328h93v823h-93v328h1135v-465h-326v137h-360v-238h278v11h328v-349h-328v11h-278v-258h90v-328h-539z" />
<glyph unicode="G" horiz-adv-x="1302" d="M102 154v1175l123 150h883l123 -148v-315h-326v135h-446v-823h436v243h-205v328h541v-747l-123 -152h-883z" />
<glyph unicode="H" horiz-adv-x="1499" d="M61 0v328h93v823h-93v328h541v-328h-92v-238h479v238h-92v328h541v-328h-92v-823h92v-328h-541v328h92v258h-479v-258h92v-328h-541z" />
<glyph unicode="I" horiz-adv-x="663" d="M61 0v328h93v823h-93v328h541v-328h-92v-823h92v-328h-541z" />
<glyph unicode="J" horiz-adv-x="1263" d="M51 154v387h357v-213h346v823h-92v328h540v-328h-92v-999l-123 -152h-813z" />
<glyph unicode="K" horiz-adv-x="1388" d="M61 0v328h93v823h-93v328h541v-328h-92v-315l334 315h-70v328h559v-328h-73l-207 -203l223 -620h92v-328h-387l-221 664l-250 -228v-108h92v-328h-541z" />
<glyph unicode="L" horiz-adv-x="1230" d="M61 0v328h93v823h-93v328h541v-328h-92v-823h344v219h326v-547h-1119z" />
<glyph unicode="M" horiz-adv-x="1898" d="M61 0v328h93v823h-93v328h691l196 -637l199 637h690v-328h-92v-823h92v-328h-541v328h93v782l-349 -936h-182l-348 936v-782h92v-328h-541z" />
<glyph unicode="N" horiz-adv-x="1652" d="M61 0v328h93v823h-93v328h670l422 -1028v700h-92v328h541v-328h-93v-1157h-520l-479 1055v-721h92v-328h-541z" />
<glyph unicode="O" horiz-adv-x="1300" d="M102 154v1175l123 150h850l123 -148v-1179l-123 -152h-850zM459 328h413v823h-413v-823z" />
<glyph unicode="P" horiz-adv-x="1286" d="M61 0v328h93v823h-93v328h1020l123 -148v-676l-123 -151h-571v-176h92v-328h-541zM510 831h338v320h-338v-320z" />
<glyph unicode="Q" horiz-adv-x="1339" d="M102 154v1175l123 150h889l123 -148v-1179l-123 -152h-280v-164h-328v164h-281zM459 328h422v823h-422v-823z" />
<glyph unicode="R" horiz-adv-x="1413" d="M61 0v328h93v823h-93v328h1020l123 -148v-598l-117 -139l181 -266h92v-328h-555v328h92l-129 176h-258v-176h92v-328h-541zM510 831h338v320h-338v-320z" />
<glyph unicode="S" horiz-adv-x="1247" d="M61 147v330h357v-149h411v225l-653 78l-115 141v557l123 150h879l123 -148v-321h-357v141h-411v-195l684 -84l84 -133v-589l-123 -150h-879z" />
<glyph unicode="T" horiz-adv-x="1560" d="M51 932v547h1458v-547h-325v219h-223v-823h92v-328h-541v328h92v823h-227v-219h-326z" />
<glyph unicode="U" horiz-adv-x="1499" d="M61 1151v328h541v-328h-92v-823h479v823h-92v328h541v-328h-92v-999l-123 -152h-947l-122 154v997h-93z" />
<glyph unicode="V" d="M20 1151v328h541v-328h-92l211 -758l213 758h-92v328h540v-328h-92l-344 -1157h-450l-342 1157h-93z" />
<glyph unicode="W" horiz-adv-x="2183" d="M20 1151v328h541v-328h-92l211 -758l213 758h-92v328h581v-328h-92l211 -758l213 758h-92v328h541v-328h-92l-345 -1157h-430l-204 727l-207 -727h-430l-342 1157h-93z" />
<glyph unicode="X" horiz-adv-x="1323" d="M10 0v328h92l361 411l-361 412h-92v328h565v-328h-96l172 -197l172 197h-98v328h567v-328h-92l-360 -412l360 -411h92v-328h-567v328h98l-172 194l-172 -194h96v-328h-565z" />
<glyph unicode="Y" horiz-adv-x="1339" d="M20 1151v328h541v-328h-92l201 -291l200 291h-92v328h541v-328h-92l-379 -594v-229h92v-328h-541v328h93v235l-379 588h-93z" />
<glyph unicode="Z" horiz-adv-x="1290" d="M41 0v410l780 741h-422v-231h-325v559h1165v-410l-780 -741h452v217h326v-545h-1196z" />
<glyph unicode="[" horiz-adv-x="522" d="M102 -174v1831l82 108h389v-245h-155v-1561h155v-246h-389z" />
<glyph unicode="\" horiz-adv-x="716" d="M4 1479h283l426 -1479h-283z" />
<glyph unicode="]" horiz-adv-x="522" d="M-51 -41h155v1561h-155v245h389l82 -108v-1831l-82 -113h-389v246z" />
<glyph unicode="^" d="M20 0v328h93l356 1151h430l350 -1151h92v-328h-534v328h92l-33 102h-372l-31 -102h92v-328h-535zM592 758h178l-88 307z" />
<glyph unicode="_" horiz-adv-x="837" d="M0 -162v328h838v-328h-838z" />
<glyph unicode="`" horiz-adv-x="739" d="M164 1845h252l78 -295h-199z" />
<glyph unicode="a" d="M20 0v328h93l254 823h-91v328h816v-328h-93l250 -823h92v-328h-534v328h92l-33 102h-372l-31 -102h92v-328h-535zM592 758h178l-88 307z" />
<glyph unicode="b" horiz-adv-x="1335" d="M61 0v328h93v823h-93v328h1059l123 -148v-432l-96 -151l96 -148v-448l-123 -152h-1059zM510 328h377v256h-377v-256zM510 911h377v240h-377v-240z" />
<glyph unicode="c" horiz-adv-x="1269" d="M102 154v1175l123 150h850l123 -148v-399h-326v219h-413v-823h413v217h326v-393l-123 -152h-850z" />
<glyph unicode="d" horiz-adv-x="1325" d="M61 0v328h93v823h-93v328h1039l123 -148v-1179l-123 -152h-1039zM510 328h356v823h-356v-823z" />
<glyph unicode="e" horiz-adv-x="1288" d="M61 0v328h93v823h-93v328h1135v-465h-326v137h-360v-238h278v11h328v-349h-328v11h-278v-258h360v137h326v-465h-1135z" />
<glyph unicode="f" horiz-adv-x="1247" d="M61 0v328h93v823h-93v328h1135v-465h-326v137h-360v-238h278v11h328v-349h-328v11h-278v-258h90v-328h-539z" />
<glyph unicode="g" horiz-adv-x="1302" d="M102 154v1175l123 150h883l123 -148v-315h-326v135h-446v-823h436v243h-205v328h541v-747l-123 -152h-883z" />
<glyph unicode="h" horiz-adv-x="1499" d="M61 0v328h93v823h-93v328h541v-328h-92v-238h479v238h-92v328h541v-328h-92v-823h92v-328h-541v328h92v258h-479v-258h92v-328h-541z" />
<glyph unicode="i" horiz-adv-x="663" d="M61 0v328h93v823h-93v328h541v-328h-92v-823h92v-328h-541z" />
<glyph unicode="j" horiz-adv-x="1263" d="M51 154v387h357v-213h346v823h-92v328h540v-328h-92v-999l-123 -152h-813z" />
<glyph unicode="k" horiz-adv-x="1388" d="M61 0v328h93v823h-93v328h541v-328h-92v-315l334 315h-70v328h559v-328h-73l-207 -203l223 -620h92v-328h-387l-221 664l-250 -228v-108h92v-328h-541z" />
<glyph unicode="l" horiz-adv-x="1230" d="M61 0v328h93v823h-93v328h541v-328h-92v-823h344v219h326v-547h-1119z" />
<glyph unicode="m" horiz-adv-x="1898" d="M61 0v328h93v823h-93v328h691l196 -637l199 637h690v-328h-92v-823h92v-328h-541v328h93v782l-349 -936h-182l-348 936v-782h92v-328h-541z" />
<glyph unicode="n" horiz-adv-x="1652" d="M61 0v328h93v823h-93v328h670l422 -1028v700h-92v328h541v-328h-93v-1157h-520l-479 1055v-721h92v-328h-541z" />
<glyph unicode="o" horiz-adv-x="1300" d="M102 154v1175l123 150h850l123 -148v-1179l-123 -152h-850zM459 328h413v823h-413v-823z" />
<glyph unicode="p" horiz-adv-x="1286" d="M61 0v328h93v823h-93v328h1020l123 -148v-676l-123 -151h-571v-176h92v-328h-541zM510 831h338v320h-338v-320z" />
<glyph unicode="q" horiz-adv-x="1339" d="M102 154v1175l123 150h889l123 -148v-1179l-123 -152h-280v-164h-328v164h-281zM459 328h422v823h-422v-823z" />
<glyph unicode="r" horiz-adv-x="1413" d="M61 0v328h93v823h-93v328h1020l123 -148v-598l-117 -139l181 -266h92v-328h-555v328h92l-129 176h-258v-176h92v-328h-541zM510 831h338v320h-338v-320z" />
<glyph unicode="s" horiz-adv-x="1247" d="M61 147v330h357v-149h411v225l-653 78l-115 141v557l123 150h879l123 -148v-321h-357v141h-411v-195l684 -84l84 -133v-589l-123 -150h-879z" />
<glyph unicode="t" horiz-adv-x="1560" d="M51 932v547h1458v-547h-325v219h-223v-823h92v-328h-541v328h92v823h-227v-219h-326z" />
<glyph unicode="u" horiz-adv-x="1499" d="M61 1151v328h541v-328h-92v-823h479v823h-92v328h541v-328h-92v-999l-123 -152h-947l-122 154v997h-93z" />
<glyph unicode="v" horiz-adv-x="1443" d="M20 1151v328h541v-328h-92l252 -758l254 758h-92v328h540v-328h-92l-385 -1157h-450l-383 1157h-93z" />
<glyph unicode="w" horiz-adv-x="2347" d="M20 1151v328h541v-328h-92l252 -758l254 758h-92v328h581v-328h-92l252 -758l254 758h-92v328h541v-328h-93l-385 -1157h-430l-245 727l-248 -727h-430l-383 1157h-93z" />
<glyph unicode="x" horiz-adv-x="1323" d="M10 0v328h92l361 411l-361 412h-92v328h565v-328h-96l172 -197l172 197h-98v328h567v-328h-92l-360 -412l360 -411h92v-328h-567v328h98l-172 194l-172 -194h96v-328h-565z" />
<glyph unicode="y" horiz-adv-x="1339" d="M20 1151v328h541v-328h-92l201 -291l200 291h-92v328h541v-328h-92l-379 -594v-229h92v-328h-541v328h93v235l-379 588h-93z" />
<glyph unicode="z" horiz-adv-x="1290" d="M41 0v410l780 741h-422v-231h-325v559h1165v-410l-780 -741h452v217h326v-545h-1196z" />
<glyph unicode="{" horiz-adv-x="1288" d="M61 0v328h93v823h-93v328h1135v-465h-326v137h-360v-238h524v-327h-524v-258h360v137h326v-465h-1135z" />
<glyph unicode="|" horiz-adv-x="602" d="M123 -205v1684h356v-1684h-356z" />
<glyph unicode="}" horiz-adv-x="1247" d="M61 0v328h93v823h-93v328h1135v-465h-326v137h-360v-238h524v-327h-524v-258h92v-328h-541z" />
<glyph unicode="~" horiz-adv-x="1271" d="M61 147v332h357v-151h436v252h-666l-127 133v616l123 150h903l123 -148v-321h-356v141h-436v-244h665l127 -133v-624l-123 -150h-903z" />
<glyph unicode="&#xa1;" horiz-adv-x="581" d="M113 -205v1090h356v-1090h-356zM113 946v328h356v-328h-356z" />
<glyph unicode="&#xa2;" horiz-adv-x="1269" d="M102 358v766l123 150h287v205h295v-205h268l123 -148v-317h-326v137h-413v-414h413v136h326v-312l-123 -151h-268v-205h-295v205h-287z" />
<glyph unicode="&#xa3;" horiz-adv-x="1300" d="M61 569v328h191l-191 334l99 248h891l123 -148v-276h-326v96h-395l153 -254h457v-328h-457l-145 -241h440v94h326v-422h-1164v369l185 200h-187z" />
<glyph unicode="&#xa4;" horiz-adv-x="1269" d="M20 565v113h82v123h-82v112h82v416l123 150h850l123 -148v-317h-326v137h-413v-238h727v-112h-727v-123h727v-113h-727v-237h413v135h326v-311l-123 -152h-850l-123 154v411h-82z" />
<glyph unicode="&#xa5;" horiz-adv-x="1339" d="M20 1151v328h541v-328h-92l201 -309l200 309h-92v328h541v-328h-92l-305 -477h381v-113h-439l-16 -55v-2h455v-113h-455v-63h92v-328h-541v328h93v63h-455v113h455v20l-17 37h-438v113h381l-305 477h-93z" />
<glyph unicode="&#xa6;" horiz-adv-x="602" d="M123 -205v615h356v-615h-356zM123 819v660h356v-660h-356z" />
<glyph unicode="&#xa7;" horiz-adv-x="1417" d="M20 0v328h93v997l123 154h946l123 -152v-999h92v-328h-541v328h92v256h-479v-256h92v-328h-541zM469 911h479v240h-479v-240z" />
<glyph unicode="&#xa8;" horiz-adv-x="651" d="M31 1567v221h233v-221h-233zM387 1567v221h234v-221h-234z" />
<glyph unicode="&#xa9;" horiz-adv-x="1789" d="M102 154v1175l123 150h1340l123 -148v-1179l-123 -152h-1340zM377 246h1036v987h-1036v-987zM492 502v479l122 149h564l122 -147v-154h-243v56h-291v-291h291v53h243v-147l-122 -152h-564z" />
<glyph unicode="&#xaa;" horiz-adv-x="3674" d="M31 49q63 23 107 35t83 27q45 16 88 45.5t76 66.5t52.5 77t19.5 77q0 92 -59.5 138t-145.5 46q-27 0 -59.5 -3t-60.5 -14.5t-46 -31.5t-18 -55t35.5 -53.5t74.5 -18.5t72 22.5t63 49.5v-19q-20 -29 -57 -55.5t-78 -26.5q-51 0 -91 27t-40 74q0 39 19.5 63.5t48 37.5 t62.5 18.5t65 5.5q115 0 176 -58.5t61 -156.5q0 -43 -23.5 -84t-54 -75t-61.5 -59.5t-45 -35.5l37 -9q49 -10 92 -24t82 -38t74.5 -56.5t72.5 -79.5h-4v-4q-12 4 -22.5 6t-20.5 2q-37 0 -51 -17.5t-14 -39.5q0 -31 20.5 -52.5t49 -35t60 -19.5t54.5 -6q35 0 68.5 15.5 t52.5 37.5h-8q-16 0 -42 5t-49.5 16.5t-40 30t-16.5 44.5q0 31 19.5 44.5t48.5 13.5q47 0 87 -32t40 -75q0 -8 -4 -20q27 6 55.5 19.5t51 35t36.5 50t14 67.5q0 23 -2 38t-10 40h8q4 -8 9.5 -31.5t5.5 -46.5q0 -78 -52.5 -130t-124.5 -65q-20 -37 -64 -54t-83 -17 q-29 0 -63.5 7t-64.5 22.5t-50.5 39t-20.5 58.5q0 29 17.5 51t50.5 22h13t18 -4q-88 78 -172 113t-201 35q-47 0 -98.5 -5.5t-122.5 -15.5zM117 1511q0 45 15 93.5t43 86.5t67 62.5t84 24.5q12 0 32 -4v-13q-8 2 -24 2q-43 0 -79 -22.5t-63.5 -58t-43 -79.5t-15.5 -87 q0 -41 14.5 -75t47.5 -57q33 74 86 157t113.5 152.5t120.5 115.5t108 46q27 0 43 -13t24 -34.5t11.5 -46t3.5 -45.5q0 -57 -27 -113.5t-71 -103.5t-98 -85t-110 -58q0 -2 -1 -3t-1 -5q-10 -35 -19 -76t-18.5 -81t-14.5 -77t-5 -67q0 -33 13.5 -52.5t30.5 -29t31.5 -12.5 t18.5 -3q68 0 129 45q-20 14 -43.5 19.5t-46.5 5.5q-18 0 -42.5 -5t-29.5 -9v8q10 10 33 16t35 6q61 0 106 -28q49 41 79 104.5t30 128.5q0 39 -13.5 78t-58.5 39q-37 0 -66.5 -18.5t-50 -46t-31.5 -62.5t-11 -68q0 -18 9 -47t38 -29q20 0 35.5 14.5t25.5 35t15.5 43 t5.5 41.5q0 6 -2 14t-5 18h17q4 -10 4 -19v-13q0 -23 -7 -48.5t-20.5 -48t-31 -38t-37.5 -15.5q-39 0 -50.5 34t-11.5 64q0 33 12.5 69t34 66.5t52 50t69.5 19.5q55 0 87 -49t32 -115t-34 -125t-91 -100q33 -33 33 -88q0 -53 -33 -88t-80 -55q2 -4 2 -11q0 -41 -34.5 -66.5 t-69.5 -25.5h-10l6 11q10 0 25.5 5t28.5 14t23.5 22.5t10.5 31.5q0 8 -2 13q-25 -10 -50.5 -13.5t-50.5 -3.5q-18 0 -49 4t-58.5 14.5t-48 27t-20.5 42.5q0 18 11.5 29.5t29 18.5t35.5 10.5t31 3.5q20 0 48 -7.5t53.5 -20.5t47 -31.5t33.5 -39.5q39 16 66.5 46t27.5 73 q0 45 -22 74q-33 -20 -69 -31.5t-77 -11.5q-59 0 -110.5 21.5t-89 63.5t-59 101.5t-21.5 132.5q0 41 26 111q-35 25 -51 63.5t-16 85.5zM248 819q0 -20 14 -32.5t35.5 -19.5t46.5 -9t43 -2q52 0 105 18q-23 41 -72 66.5t-90 25.5q-10 0 -23.5 -2t-27 -6t-22.5 -14t-9 -25z M406 1380q51 23 97 65t79.5 95t54 115t20.5 123q0 20 -6 35.5t-28 15.5q-23 0 -43.5 -24.5t-55.5 -98.5q0 -4 -14 -40t-33.5 -87t-39 -105.5t-31.5 -93.5zM537 176q0 53 30.5 98t81.5 45q35 0 50.5 -24.5t15.5 -50.5q0 -51 -28 -95.5t-79 -44.5q-10 0 -21.5 4.5t-21.5 8.5 q8 -31 35 -52.5t53 -21.5q43 0 75 30.5t55.5 79t40 107.5t28.5 117q-63 27 -92 82q-25 -10 -37 -10q-145 0 -145 153q0 55 21.5 109.5t59 97.5t90 68.5t111.5 25.5q61 0 100 -10t67 -22.5t48.5 -22.5t44.5 -10q10 0 20.5 1t20.5 3v-11q-70 -16 -134 -61t-105 -102 q-6 49 -41 78.5t-88 29.5q-39 0 -74 -17.5t-61.5 -46t-43 -65.5t-16.5 -76q0 -109 119 -108q20 0 37 8q-14 29 -15 72q0 57 30 91t54 34q23 0 34 -15.5t11 -36.5q0 -43 -29.5 -85t-64.5 -64q12 -27 33.5 -44t48.5 -28q16 70 42 139.5t79 133.5q8 10 28.5 29.5t45 39t52 34.5 t54.5 20v-15q-37 -18 -60.5 -50t-36.5 -70t-18.5 -81t-5.5 -81q0 -45 6 -97q35 16 58.5 47t23.5 72q0 29 -8 55.5t-22 40.5v4q16 -10 25 -32.5t14 -44.5q12 25 43.5 54.5t83.5 29.5q31 0 54 -16.5t38.5 -43t22.5 -62.5t7 -73q0 -25 -14 -64.5t-31.5 -83.5t-32 -90.5 t-14.5 -83.5q0 -43 25 -43q27 0 48 29t39.5 76t33 107.5t27 122t23.5 118.5t21 100q16 -8 32.5 -14t35.5 -6q29 0 48 14.5t40 26.5q-10 -53 -26.5 -123t-32 -142.5t-25.5 -141t-6 -117.5l2 -35q41 -10 67.5 -43t26.5 -86q0 -41 -18.5 -72t-42.5 -51h-19q29 23 47.5 50.5 t18.5 64.5q0 29 -12.5 62.5t-63.5 45.5q4 -25 8 -56.5t4 -80.5q0 -53 -25.5 -92t-64.5 -63.5t-87 -36t-93 -11.5q-31 0 -61.5 9.5t-56 27.5t-41 44t-15.5 58q0 35 14.5 56.5t33.5 34t39.5 16.5t33.5 4q23 0 32 -2q16 31 45 58.5t72 45.5v7q-4 16 -5 32.5t-1 28.5 q-23 -45 -57.5 -75.5t-85.5 -30.5t-84 53t-33 131q0 39 14.5 83t31.5 89t31.5 85t14.5 68q0 35 -6 47.5t-16 12.5q-16 0 -30.5 -10.5t-27 -23.5t-19.5 -25.5t-9 -18.5q0 -51 -26 -85t-65 -52q0 -188 -75.5 -278.5t-223.5 -90.5q-39 0 -76.5 8.5t-66.5 29t-47 52t-18 78.5z M711 -121q0 -18 12 -31.5t30.5 -21.5t38 -11t35.5 -3q20 0 29.5 4.5t9.5 27.5q0 37 -33.5 61.5t-66.5 24.5q-23 0 -39 -12t-16 -39zM758 541q0 -39 10 -60q33 23 59.5 59.5t26.5 71.5q0 16 -6 28.5t-25 12.5q-20 0 -32.5 -12t-19.5 -29.5t-10 -37t-3 -33.5zM770 1208 q0 45 28.5 103.5t69.5 111t89.5 88t86.5 35.5q43 0 64 -59l14 53q16 -8 32.5 -14t35.5 -6q29 0 48 14t40 27q-6 -37 -22.5 -117t-34 -167t-30.5 -163t-13 -102q0 -35 18 -35q25 0 42 33.5t34 74.5h18q-6 -25 -14 -48t-22.5 -43.5t-35 -33t-47.5 -12.5q-41 0 -75.5 30 t-46.5 95q-41 -82 -71 -104.5t-63 -22.5q-39 0 -66.5 27.5t-45 68.5t-25.5 86.5t-8 79.5zM924 995q0 -6 2 -14t14 -8q27 0 54.5 43t49.5 141q4 47 18 117.5t30 136.5q0 68 -11.5 91.5t-25.5 23.5t-25.5 -16.5t-21 -38t-14.5 -44t-7 -34.5q-4 -23 -15 -77t-21.5 -117.5 t-18.5 -121t-8 -82.5zM1169 -158q0 -29 13.5 -50t34 -36.5t47 -22.5t53.5 -7q25 0 51.5 8t50 24.5t39 40t15.5 54.5q0 43 -20.5 95t-31.5 91q-35 -10 -61.5 -31.5t-42.5 -56.5q41 -14 58.5 -44t17.5 -48q0 -14 -11.5 -33t-40.5 -19q-25 0 -41 26t-16 52v18.5t4 18.5 q-10 2 -17 2h-16q-39 0 -62.5 -21.5t-23.5 -60.5zM1229 748q0 37 32.5 51t57.5 14l119 -12q23 0 44 9t21 38q0 31 -23.5 46t-52.5 15q-20 0 -39.5 -9t-19.5 -28q0 -27 33 -26q25 0 43 12l4 -14q-10 -4 -21.5 -8.5t-23.5 -4.5q-20 0 -35.5 10.5t-15.5 28.5q0 25 27.5 38.5 t50.5 13.5q35 0 61.5 -18.5t26.5 -53.5t-28 -48.5t-50 -13.5l-121 15q-23 0 -50.5 -12.5t-27.5 -42.5q0 -20 18.5 -28.5t34.5 -8.5q25 0 51.5 10t52 23.5t49 23.5t42.5 10q53 0 88 -36.5t35 -94.5l-13 2v6q-10 59 -41.5 80t-54.5 21q-18 0 -37.5 -9.5t-43 -20.5t-53.5 -20.5 t-71 -9.5q-37 0 -53 16.5t-16 35.5zM1307 -97v-14q0 -20 7 -40.5t23 -20.5q18 0 24.5 8.5t6.5 16.5q0 23 -18.5 38t-40.5 25q-2 -6 -2 -13zM1329 1409q8 25 17.5 48.5t24.5 43t37 31.5t52 12q57 0 85 -34.5t36 -82.5q12 16 26.5 37t31 39.5t37 30.5t46.5 12q33 0 56.5 -20.5 t40 -54t24.5 -75.5t8 -85q0 -74 -16 -137.5t-34.5 -121t-35 -112.5t-16.5 -113q0 -55 14.5 -85.5t36 -48t47 -29t49 -26.5t42 -42t26.5 -74q37 63 63.5 82t57.5 19q39 0 67.5 -29t48 -71t28.5 -86t9 -75q0 -35 -8 -75.5t-24 -81.5q16 -25 27.5 -54.5t11.5 -64.5 q0 -41 -13.5 -83t-38 -77t-60.5 -57.5t-81 -22.5q-35 0 -58.5 18.5t-23.5 53.5q0 23 17.5 40t40.5 17q12 0 18 -2v-8q-18 0 -38.5 -12t-20.5 -35q0 -27 18 -41t41 -14q39 0 72.5 23.5t58.5 58.5t38 74.5t13 74.5q0 27 -8 49.5t-20 42.5q-29 -63 -74 -113t-107 -50 q-47 0 -63.5 33.5t-16.5 74.5q0 39 12.5 67.5t31 48t38 30t33.5 14.5q6 37 11.5 80t9.5 83t7 71.5t3 49.5q0 4 -6 12.5t-19 8.5q-10 0 -24.5 -9t-28.5 -28.5t-24.5 -50.5t-10.5 -74q0 -20 -9 -78.5t-22.5 -133.5t-30 -156.5t-30.5 -152.5t-25.5 -119t-13.5 -56 q-16 8 -31.5 14t-35.5 6q-29 0 -48.5 -14t-37.5 -27q4 25 16 91.5t29.5 153.5t35 185.5t33 183.5t25.5 148.5t10 81.5q0 45 -15.5 70.5t-38 45t-49 40t-49 56.5t-38 93.5t-15.5 153.5q0 55 14.5 111.5t33 115t32.5 116.5t14 114q0 45 -18 45q-23 0 -59.5 -43t-65.5 -115 q-4 -29 -15.5 -94.5t-23.5 -134t-24.5 -125t-14.5 -66.5q-16 8 -31.5 15.5t-35.5 7.5q-29 0 -45.5 -6.5t-34.5 -18.5q6 37 20.5 116t28.5 164t25.5 158.5t11.5 102.5q0 14 -4 24.5t-15 10.5q-25 0 -42 -34t-33 -75h-21zM1860 805l2 2q35 -41 82 -71.5t112 -30.5q25 0 48.5 6 t39.5 20q-31 6 -76 19.5t-87 39t-70.5 63.5t-28.5 91q0 16 3 35.5t18 34.5l8 -8q-10 -31 -10 -56q0 -49 27.5 -82.5t67.5 -57.5t86 -36t85 -14q6 14 6 35q0 47 -38 79.5t-89 32.5q-20 0 -42 -5t-40 -15l-8 2q16 16 39.5 23.5t46.5 7.5q27 0 52.5 -9.5t46 -25t33.5 -39 t13 -49.5q0 -23 -6 -37h8q33 0 68 8t65.5 26.5t52 46t29.5 68.5l21 -10q-6 -35 -28.5 -65.5t-55.5 -54t-74 -38t-84 -14.5h-22q-16 -16 -43 -24.5t-56 -8.5q-59 0 -116.5 27t-85.5 84zM1935 1208q0 45 29 103.5t70 111t89 88t87 35.5q45 0 65 -59l15 53q16 -8 31.5 -14 t35.5 -6q29 0 48.5 14t37.5 27q-6 -37 -22.5 -117t-32.5 -167t-29.5 -163t-13.5 -102q0 -35 16 -35q25 0 42.5 33.5t33.5 74.5h21q-6 -25 -15.5 -48t-23 -43.5t-34 -33t-46.5 -12.5q-41 0 -76 30t-47 95q-43 -82 -71.5 -104.5t-61.5 -22.5q-39 0 -66.5 27.5t-46 68.5 t-27 86.5t-8.5 79.5zM1952 119q0 -18 10 -44t39 -26q12 0 21.5 24.5t14.5 59.5t8 72.5t7 62.5q-23 -2 -41 -16t-31.5 -35.5t-20.5 -47.5t-7 -50zM2089 995q0 -6 2 -14t14 -8q29 0 56.5 43t50.5 141q4 47 17.5 117.5t27.5 136.5q0 68 -10.5 91.5t-26.5 23.5 q-18 0 -30.5 -15.5t-19.5 -37t-11.5 -44t-6.5 -36.5q-4 -23 -14 -77t-21.5 -117.5t-19.5 -121t-8 -82.5zM2294 305q0 41 28.5 95.5t74.5 103.5t105.5 84t120.5 35q41 0 72 -32t31 -106q0 -47 -25.5 -87t-63.5 -69.5t-84 -48t-89 -22.5q-12 -70 -18.5 -119t-6.5 -51 q0 -23 15.5 -34t37.5 -11q8 0 15 2v2q0 35 12 78t35.5 82t55.5 64.5t71 25.5q18 0 26.5 -16.5t8.5 -34.5q0 -33 -17.5 -70t-45 -68.5t-61.5 -54t-69 -26.5q0 -121 42 -173.5t106 -52.5q57 0 124.5 38t131.5 102q-72 35 -118 97t-46 152q0 31 9 62t26.5 57.5t43 47t58.5 26.5 v-8q-63 -18 -93 -74.5t-30 -118.5q0 -76 47 -134t119 -89q49 53 91 120.5t65 143.5l-234 72l103 41l-138 278l111 -32l-25 163l107 -120l63 92l64 -201l86 277l43 -72l162 94v-182h100l-213 -211l211 59l-35 -108l160 -17l-154 -73l82 -66l-293 -55l19 -105l-180 146 q-31 -72 -73 -136.5t-95 -117.5q51 -18 108 -19q78 0 121 28t68 79h8q-6 -31 -25.5 -55.5t-45.5 -42t-56.5 -25.5t-59.5 -8q-74 0 -137 24q-70 -70 -146.5 -111.5t-146.5 -41.5q-66 0 -108.5 56t-42.5 192q-4 -2 -15 -2q-37 0 -72.5 17t-63 52t-45 88t-17.5 125zM2468 279 q39 6 70.5 38.5t52 75.5t32 88t11.5 76q0 45 -21 45q-25 0 -47 -29.5t-40.5 -76.5t-33 -104.5t-24.5 -112.5zM2484 1208q0 45 29 103.5t69.5 111t89 88t87.5 35.5t61 -49q10 51 20.5 100.5t18.5 88t13 63.5t7 31q16 -8 33 -14.5t35 -6.5q29 0 48.5 14.5t39.5 26.5 q-4 -25 -16.5 -87t-27.5 -143t-32.5 -172t-32 -170t-23.5 -138.5t-9 -77.5q0 -14 4 -24.5t14 -10.5q18 0 38 21.5t35 52t27.5 64.5t18.5 56h23q-4 -14 -14.5 -50t-30 -73.5t-47 -67.5t-66.5 -30q-41 0 -79 30t-52 95q-23 -41 -40.5 -66.5t-32.5 -40t-29.5 -18.5t-30.5 -4 q-39 0 -67 27.5t-46 68.5t-26.5 86.5t-8.5 79.5zM2507 795q0 39 32.5 75.5t75.5 38.5v-8q-33 -6 -60.5 -31.5t-27.5 -60.5q0 -33 12.5 -53.5t34 -31.5t47 -15t54.5 -4q27 0 54.5 4t51 15t39.5 31.5t19 51.5q-6 -2 -15 -2q-47 0 -79.5 18.5t-32.5 50.5q0 16 16 28.5t31 12.5 q33 0 58.5 -25.5t33.5 -58.5q63 8 120.5 53.5t73.5 108.5h4q-14 -90 -73.5 -133t-122.5 -53q-2 -53 -55.5 -96t-126.5 -43q-27 0 -55.5 6t-53.5 20.5t-40 39t-15 61.5zM2521 47q25 0 54.5 20.5t56 51.5t44 66.5t17.5 66.5q0 10 -3 19.5t-15 9.5q-31 0 -58.5 -24t-49 -58.5 t-34 -74.5t-12.5 -73v-4zM2638 995q0 -6 2 -14t14 -8q27 0 45.5 22.5t34.5 74.5t32.5 140.5t39.5 221.5q-2 55 -13.5 74.5t-23.5 19.5q-18 0 -30.5 -15.5t-19.5 -37t-11.5 -44t-6.5 -36.5q-4 -23 -14 -77t-21.5 -117.5t-19.5 -121t-8 -82.5zM2734 872q0 -25 29.5 -33 t64.5 -8h8q-6 29 -24.5 48.5t-46.5 19.5q-12 0 -21.5 -5t-9.5 -22zM3090 1208q0 45 29 103.5t70 111t89 88t87 35.5q45 0 65 -59l15 53q16 -8 31.5 -14t35.5 -6q29 0 48.5 14t37.5 27q-6 -37 -22.5 -117t-32.5 -167t-29.5 -163t-13.5 -102q0 -35 16 -35q25 0 42.5 33.5 t33.5 74.5h21q-6 -25 -15.5 -48t-23 -43.5t-33.5 -33t-47 -12.5q-41 0 -76 30t-47 95q-43 -82 -71.5 -104.5t-61.5 -22.5q-39 0 -66.5 27.5t-46 68.5t-27 86.5t-8.5 79.5zM3244 995q0 -6 2 -14t14 -8q29 0 56.5 43t50.5 141q4 47 17.5 117.5t27.5 136.5q0 68 -10.5 91.5 t-26.5 23.5q-18 0 -30.5 -15.5t-19.5 -37t-11 -44t-6 -36.5q-4 -23 -14.5 -77t-22 -117.5t-19.5 -121t-8 -82.5z" />
<glyph unicode="&#xab;" horiz-adv-x="1228" d="M41 502v282l532 334v-362l-235 -111l235 -115v-366zM655 502v282l533 334v-362l-236 -111l236 -115v-366z" />
<glyph unicode="&#xac;" horiz-adv-x="1339" d="M102 154v1175l123 150h889l123 -148v-1179l-76 -95l68 -86l-252 -155l-146 184h-606zM459 328l422 4v819h-422v-823z" />
<glyph unicode="&#xad;" horiz-adv-x="1024" d="M0 569v328h1024v-328h-1024z" />
<glyph unicode="&#xae;" horiz-adv-x="1355" d="M92 444v942l78 93h1016l78 -93v-946l-78 -92h-1016zM295 532h766v762h-766v-762zM360 580v184h31v299h-31v184h531l78 -92v-199l-74 -88l88 -104h31v-184h-266v184h32l-84 100h-102v-100h31v-184h-265zM594 965h172v98h-172v-98z" />
<glyph unicode="&#xaf;" horiz-adv-x="550" d="M-41 1559v204h633v-204h-633z" />
<glyph unicode="&#xb0;" horiz-adv-x="868" d="M82 985v373l113 121h469l122 -119v-377l-122 -123h-469zM326 1075h217v189h-217v-189z" />
<glyph unicode="&#xb1;" d="M20 1151v328h535v-328h-92l217 -737l219 737h-92v328h534v-328h-92l-252 -823h90v-328h-815v328h93l-252 823h-93z" />
<glyph unicode="&#xb4;" horiz-adv-x="739" d="M328 1550l78 295h251l-131 -295h-198z" />
<glyph unicode="&#xb6;" horiz-adv-x="1306" d="M82 737v594l123 148h1061v-328h-92v-1356h-213v1356h-142v-1356h-356v791h-258z" />
<glyph unicode="&#xb7;" horiz-adv-x="438" d="M41 504v327h356v-327h-356z" />
<glyph unicode="&#xb8;" horiz-adv-x="739" d="M252 -287l80 336h272l-133 -336h-219z" />
<glyph unicode="&#xb9;" horiz-adv-x="1306" d="M61 0v328h93v823h-93v328h1020l123 -148v-594l-102 -127l61 -282h92v-328h-370l-121 504h-254v-176h92v-328h-541zM510 831h338v320h-338v-320z" />
<glyph unicode="&#xba;" horiz-adv-x="1134" d="M82 586v520l123 149h725l123 -147v-524l-123 -152h-725zM375 0v307h418v-307h-418zM418 739h299v209h-299v-209z" />
<glyph unicode="&#xbb;" horiz-adv-x="1228" d="M41 164v366l235 115l-235 111v362l532 -334v-282zM655 164v366l236 115l-236 111v362l533 -334v-282z" />
<glyph unicode="&#xbf;" horiz-adv-x="1400" d="M63 -55v598l115 141l449 76v125h356v-312l-84 -133l-479 -82v-235h575v141h357v-321l-123 -148h-1043zM627 946v328h356v-328h-356z" />
<glyph unicode="&#xc0;" d="M20 0v328h93l254 823h-91v328h816v-328h-93l250 -823h92v-328h-534v328h92l-33 102h-372l-31 -102h92v-328h-535zM451 1843h251l78 -295h-198zM592 758h178l-88 307z" />
<glyph unicode="&#xc1;" d="M20 0v328h93l254 823h-91v328h816v-328h-93l250 -823h92v-328h-534v328h92l-33 102h-372l-31 -102h92v-328h-535zM592 758h178l-88 307zM592 1548l78 295h252l-131 -295h-199z" />
<glyph unicode="&#xc2;" d="M20 0v328h93l254 823h-91v328h816v-328h-93l250 -823h92v-328h-534v328h92l-33 102h-372l-31 -102h92v-328h-535zM414 1548l133 295h266l133 -295h-188l-78 144l-78 -144h-188zM592 758h178l-88 307z" />
<glyph unicode="&#xc3;" d="M20 0v328h93l254 823h-91v328h816v-328h-93l250 -823h92v-328h-534v328h92l-33 102h-372l-31 -102h92v-328h-535zM340 1542v172l76 70h237l183 -105v105h184v-176l-64 -66h-215l-196 105v-105h-205zM592 758h178l-88 307z" />
<glyph unicode="&#xc4;" d="M20 0v328h93l254 823h-91v328h816v-328h-93l250 -823h92v-328h-534v328h92l-33 102h-372l-31 -102h92v-328h-535zM385 1565v221h233v-221h-233zM592 758h178l-88 307zM741 1565v221h234v-221h-234z" />
<glyph unicode="&#xc5;" d="M20 0v328h93l254 823h-91v328h816v-328h-93l250 -823h92v-328h-534v328h92l-33 102h-372l-31 -102h92v-328h-535zM410 1651v274l92 98h356l92 -96v-278l-92 -101h-356zM592 758h178l-88 307zM602 1712h156v148h-156v-148z" />
<glyph unicode="&#xc6;" horiz-adv-x="2062" d="M20 0v328h91l530 823h-90v328h1419v-465h-325v137h-361v-238h279v11h327v-349h-327v11h-279v-258h361v137h325v-465h-1134v328h92v94h-402l-59 -94h92v-328h-539zM735 750h193v297z" />
<glyph unicode="&#xc7;" horiz-adv-x="1269" d="M102 154v1175l123 150h850l123 -148v-399h-326v219h-413v-823h413v217h326v-393l-123 -152h-260l-113 -287h-219l68 287h-326z" />
<glyph unicode="&#xc8;" horiz-adv-x="1288" d="M61 0v328h93v823h-93v328h1135v-465h-326v137h-360v-238h278v11h328v-349h-328v11h-278v-258h360v137h326v-465h-1135zM444 1843h252l78 -295h-199z" />
<glyph unicode="&#xc9;" horiz-adv-x="1288" d="M61 0v328h93v823h-93v328h1135v-465h-326v137h-360v-238h278v11h328v-349h-328v11h-278v-258h360v137h326v-465h-1135zM563 1548l78 295h252l-131 -295h-199z" />
<glyph unicode="&#xca;" horiz-adv-x="1288" d="M61 0v328h93v823h-93v328h1135v-465h-326v137h-360v-238h278v11h328v-349h-328v11h-278v-258h360v137h326v-465h-1135zM377 1548l133 295h266l133 -295h-188l-78 144l-78 -144h-188z" />
<glyph unicode="&#xcb;" horiz-adv-x="1288" d="M61 0v328h93v823h-93v328h1135v-465h-326v137h-360v-238h278v11h328v-349h-328v11h-278v-258h360v137h326v-465h-1135zM348 1565v221h234v-221h-234zM705 1565v221h233v-221h-233z" />
<glyph unicode="&#xcc;" horiz-adv-x="663" d="M61 0v328h93v823h-93v328h541v-328h-92v-823h92v-328h-541zM121 1843h252l78 -295h-199z" />
<glyph unicode="&#xcd;" horiz-adv-x="663" d="M61 0v328h93v823h-93v328h541v-328h-92v-823h92v-328h-541zM246 1548l78 295h251l-131 -295h-198z" />
<glyph unicode="&#xce;" horiz-adv-x="663" d="M61 0v328h93v823h-93v328h541v-328h-92v-823h92v-328h-541zM66 1548l133 295h266l133 -295h-188l-78 144l-78 -144h-188z" />
<glyph unicode="&#xcf;" horiz-adv-x="663" d="M37 1565v221h233v-221h-233zM61 0v328h93v823h-93v328h541v-328h-92v-823h92v-328h-541zM393 1565v221h234v-221h-234z" />
<glyph unicode="&#xd0;" horiz-adv-x="1325" d="M14 573v324h140v254h-93v328h1039l123 -148v-1179l-123 -152h-1039v328h93v245h-140zM510 328h356v823h-356v-254h207v-324h-207v-245z" />
<glyph unicode="&#xd1;" horiz-adv-x="1652" d="M61 0v328h93v823h-93v328h670l422 -1028v700h-92v328h541v-328h-93v-1157h-520l-479 1055v-721h92v-328h-541zM492 1542v172l75 70h238l182 -105v105h184v-176l-63 -66h-215l-197 105v-105h-204z" />
<glyph unicode="&#xd2;" horiz-adv-x="1300" d="M102 154v1175l123 150h850l123 -148v-1179l-123 -152h-850zM449 1843h251l78 -295h-198zM459 328h413v823h-413v-823z" />
<glyph unicode="&#xd3;" horiz-adv-x="1300" d="M102 154v1175l123 150h850l123 -148v-1179l-123 -152h-850zM459 328h413v823h-413v-823zM557 1548l78 295h252l-131 -295h-199z" />
<glyph unicode="&#xd4;" horiz-adv-x="1300" d="M102 154v1175l123 150h850l123 -148v-1179l-123 -152h-850zM383 1548l133 295h266l133 -295h-188l-78 144l-78 -144h-188zM459 328h413v823h-413v-823z" />
<glyph unicode="&#xd5;" horiz-adv-x="1300" d="M102 154v1175l123 150h850l123 -148v-1179l-123 -152h-850zM309 1542v172l76 70h238l182 -105v105h184v-176l-63 -66h-215l-197 105v-105h-205zM459 328h413v823h-413v-823z" />
<glyph unicode="&#xd6;" horiz-adv-x="1300" d="M102 154v1175l123 150h850l123 -148v-1179l-123 -152h-850zM354 1565v221h234v-221h-234zM459 328h413v823h-413v-823zM711 1565v221h233v-221h-233z" />
<glyph unicode="&#xd7;" horiz-adv-x="847" d="M41 621l137 137l-137 135l231 231l136 -137l147 148l252 -252l-148 -148l138 -135l-232 -231l-135 137l-137 -137z" />
<glyph unicode="&#xd8;" horiz-adv-x="1300" d="M102 154v1175l123 150h512l23 104h127l-23 -104h209l123 -148v-1179l-123 -152h-510l-20 -102h-127l20 102h-211zM459 328h43l170 823h-213v-823zM629 328h211v823h-41z" />
<glyph unicode="&#xd9;" horiz-adv-x="1499" d="M61 1151v328h541v-328h-92v-823h479v823h-92v328h541v-328h-92v-999l-123 -152h-947l-122 154v997h-93zM524 1845h252l78 -295h-199z" />
<glyph unicode="&#xda;" horiz-adv-x="1499" d="M61 1151v328h541v-328h-92v-823h479v823h-92v328h541v-328h-92v-999l-123 -152h-947l-122 154v997h-93zM643 1550l78 295h252l-131 -295h-199z" />
<glyph unicode="&#xdb;" horiz-adv-x="1499" d="M61 1151v328h541v-328h-92v-823h479v823h-92v328h541v-328h-92v-999l-123 -152h-947l-122 154v997h-93zM483 1550l133 295h267l133 -295h-189l-77 144l-78 -144h-189z" />
<glyph unicode="&#xdc;" horiz-adv-x="1499" d="M61 1151v328h541v-328h-92v-823h479v823h-92v328h541v-328h-92v-999l-123 -152h-947l-122 154v997h-93zM455 1567v221h233v-221h-233zM811 1567v221h233v-221h-233z" />
<glyph unicode="&#xdd;" horiz-adv-x="1339" d="M20 1151v328h541v-328h-92l201 -291l200 291h-92v328h541v-328h-92l-379 -594v-229h92v-328h-541v328h93v235l-379 588h-93zM573 1550l78 295h252l-131 -295h-199z" />
<glyph unicode="&#xde;" horiz-adv-x="1286" d="M61 0v328h93v823h-93v328h541v-328h-92v-41h571l123 -147v-431l-123 -151h-571v-53h92v-328h-541zM510 668h338v155h-338v-155z" />
<glyph unicode="&#xdf;" horiz-adv-x="2494" d="M61 147v330h357v-149h411v225l-653 78l-115 141v557l123 150h879l123 -148v-321h-357v141h-411v-195l684 -84l84 -133v-589l-123 -150h-879zM1309 147v330h356v-149h412v225l-654 78l-114 141v557l123 150h878l123 -148v-321h-356v141h-412v-195l684 -84l84 -133v-589 l-123 -150h-878z" />
<glyph unicode="&#xe0;" d="M20 0v328h93l254 823h-91v328h816v-328h-93l250 -823h92v-328h-534v328h92l-33 102h-372l-31 -102h92v-328h-535zM451 1843h251l78 -295h-198zM592 758h178l-88 307z" />
<glyph unicode="&#xe1;" d="M20 0v328h93l254 823h-91v328h816v-328h-93l250 -823h92v-328h-534v328h92l-33 102h-372l-31 -102h92v-328h-535zM592 758h178l-88 307zM592 1548l78 295h252l-131 -295h-199z" />
<glyph unicode="&#xe2;" d="M20 0v328h93l254 823h-91v328h816v-328h-93l250 -823h92v-328h-534v328h92l-33 102h-372l-31 -102h92v-328h-535zM414 1548l133 295h266l133 -295h-188l-78 144l-78 -144h-188zM592 758h178l-88 307z" />
<glyph unicode="&#xe3;" d="M20 0v328h93l254 823h-91v328h816v-328h-93l250 -823h92v-328h-534v328h92l-33 102h-372l-31 -102h92v-328h-535zM340 1542v172l76 70h237l183 -105v105h184v-176l-64 -66h-215l-196 105v-105h-205zM592 758h178l-88 307z" />
<glyph unicode="&#xe4;" d="M20 0v328h93l254 823h-91v328h816v-328h-93l250 -823h92v-328h-534v328h92l-33 102h-372l-31 -102h92v-328h-535zM563 1565v221h234v-221h-234zM563 1565v221h234v-221h-234zM592 758h178l-88 307z" />
<glyph unicode="&#xe5;" d="M20 0v328h93l254 823h-91v328h816v-328h-93l250 -823h92v-328h-534v328h92l-33 102h-372l-31 -102h92v-328h-535zM410 1651v274l92 98h356l92 -96v-278l-92 -101h-356zM592 758h178l-88 307zM602 1712h156v148h-156v-148z" />
<glyph unicode="&#xe6;" horiz-adv-x="2062" d="M20 0v328h91l530 823h-70v328h1399v-465h-325v137h-361v-238h279v11h327v-349h-327v11h-279v-258h361v137h325v-465h-1134v328h92v94h-402l-59 -94h92v-328h-539zM735 750h193v297z" />
<glyph unicode="&#xe7;" horiz-adv-x="1269" d="M102 154v1175l123 150h850l123 -148v-399h-326v219h-413v-823h413v217h326v-393l-123 -152h-260l-113 -287h-219l68 287h-326z" />
<glyph unicode="&#xe8;" horiz-adv-x="1288" d="M61 0v328h93v823h-93v328h1135v-465h-326v137h-360v-238h278v11h328v-349h-328v11h-278v-258h360v137h326v-465h-1135zM444 1843h252l78 -295h-199z" />
<glyph unicode="&#xe9;" horiz-adv-x="1288" d="M61 0v328h93v823h-93v328h1135v-465h-326v137h-360v-238h278v11h328v-349h-328v11h-278v-258h360v137h326v-465h-1135zM563 1548l78 295h252l-131 -295h-199z" />
<glyph unicode="&#xea;" horiz-adv-x="1288" d="M61 0v328h93v823h-93v328h1135v-465h-326v137h-360v-238h278v11h328v-349h-328v11h-278v-258h360v137h326v-465h-1135zM377 1548l133 295h266l133 -295h-188l-78 144l-78 -144h-188z" />
<glyph unicode="&#xeb;" horiz-adv-x="1288" d="M61 0v328h93v823h-93v328h1135v-465h-326v137h-360v-238h278v11h328v-349h-328v11h-278v-258h360v137h326v-465h-1135zM348 1565v221h234v-221h-234zM705 1565v221h233v-221h-233z" />
<glyph unicode="&#xec;" horiz-adv-x="663" d="M61 0v328h93v823h-93v328h541v-328h-92v-823h92v-328h-541zM121 1843h252l78 -295h-199z" />
<glyph unicode="&#xed;" horiz-adv-x="663" d="M61 0v328h93v823h-93v328h541v-328h-92v-823h92v-328h-541zM246 1548l78 295h251l-131 -295h-198z" />
<glyph unicode="&#xee;" horiz-adv-x="663" d="M61 0v328h93v823h-93v328h541v-328h-92v-823h92v-328h-541zM66 1548l133 295h266l133 -295h-188l-78 144l-78 -144h-188z" />
<glyph unicode="&#xef;" horiz-adv-x="663" d="M37 1565v221h233v-221h-233zM61 0v328h93v823h-93v328h541v-328h-92v-823h92v-328h-541zM393 1565v221h234v-221h-234z" />
<glyph unicode="&#xf0;" horiz-adv-x="1325" d="M14 573v324h140v254h-93v328h1039l123 -148v-1179l-123 -152h-1039v328h93v245h-140zM510 328h356v823h-356v-254h207v-324h-207v-245z" />
<glyph unicode="&#xf1;" horiz-adv-x="1652" d="M61 0v328h93v823h-93v328h670l422 -1028v700h-92v328h541v-328h-93v-1157h-520l-479 1055v-721h92v-328h-541zM492 1542v172l75 70h238l182 -105v105h184v-176l-63 -66h-215l-197 105v-105h-204z" />
<glyph unicode="&#xf2;" horiz-adv-x="1300" d="M102 154v1175l123 150h850l123 -148v-1179l-123 -152h-850zM449 1843h251l78 -295h-198zM459 328h413v823h-413v-823z" />
<glyph unicode="&#xf3;" horiz-adv-x="1300" d="M102 154v1175l123 150h850l123 -148v-1179l-123 -152h-850zM459 328h413v823h-413v-823zM557 1548l78 295h252l-131 -295h-199z" />
<glyph unicode="&#xf4;" horiz-adv-x="1300" d="M102 154v1175l123 150h850l123 -148v-1179l-123 -152h-850zM383 1548l133 295h266l133 -295h-188l-78 144l-78 -144h-188zM459 328h413v823h-413v-823z" />
<glyph unicode="&#xf5;" horiz-adv-x="1300" d="M102 154v1175l123 150h850l123 -148v-1179l-123 -152h-850zM309 1542v172l76 70h238l182 -105v105h184v-176l-63 -66h-215l-197 105v-105h-205zM459 328h413v823h-413v-823z" />
<glyph unicode="&#xf6;" horiz-adv-x="1300" d="M102 154v1175l123 150h850l123 -148v-1179l-123 -152h-850zM354 1565v221h234v-221h-234zM459 328h413v823h-413v-823zM711 1565v221h233v-221h-233z" />
<glyph unicode="&#xf7;" horiz-adv-x="2148" d="M20 1151v328h535v-328h-92l217 -737l219 737h-92v328h534v-328h-92l217 -737l220 737h-93v328h535v-328h-92l-252 -823h90v-328h-617l-40 160l-144 588l-141 -586l-39 -162h-621v328h93l-252 823h-93z" />
<glyph unicode="&#xf8;" horiz-adv-x="1300" d="M102 154v1175l123 150h512l23 104h127l-23 -104h209l123 -148v-1179l-123 -152h-510l-20 -102h-127l20 102h-211zM459 328h43l170 823h-213v-823zM629 328h211v823h-41z" />
<glyph unicode="&#xf9;" horiz-adv-x="1499" d="M61 1151v328h541v-328h-92v-823h479v823h-92v328h541v-328h-92v-999l-123 -152h-947l-122 154v997h-93zM524 1845h252l78 -295h-199z" />
<glyph unicode="&#xfa;" horiz-adv-x="1499" d="M61 1151v328h541v-328h-92v-823h479v823h-92v328h541v-328h-92v-999l-123 -152h-947l-122 154v997h-93zM643 1550l78 295h252l-131 -295h-199z" />
<glyph unicode="&#xfb;" horiz-adv-x="1499" d="M61 1151v328h541v-328h-92v-823h479v823h-92v328h541v-328h-92v-999l-123 -152h-947l-122 154v997h-93zM483 1550l133 295h267l133 -295h-189l-77 144l-78 -144h-189z" />
<glyph unicode="&#xfc;" horiz-adv-x="1499" d="M61 1151v328h541v-328h-92v-823h479v823h-92v328h541v-328h-92v-999l-123 -152h-947l-122 154v997h-93zM455 1567v221h233v-221h-233zM811 1567v221h233v-221h-233z" />
<glyph unicode="&#xfd;" horiz-adv-x="1339" d="M20 1151v328h541v-328h-92l201 -291l200 291h-92v328h541v-328h-92l-379 -594v-229h92v-328h-541v328h93v235l-379 588h-93zM573 1550l78 295h252l-131 -295h-199z" />
<glyph unicode="&#xfe;" horiz-adv-x="1286" d="M61 0v328h93v823h-93v328h541v-328h-92v-41h571l123 -147v-431l-123 -151h-571v-53h92v-328h-541zM510 668h338v155h-338v-155z" />
<glyph unicode="&#xff;" horiz-adv-x="1339" d="M20 1151v328h541v-328h-92l201 -291l200 291h-92v328h541v-328h-92l-379 -594v-229h92v-328h-541v328h93v235l-379 588h-93zM375 1565v221h233v-221h-233zM731 1565v221h234v-221h-234z" />
<glyph unicode="&#x152;" horiz-adv-x="2015" d="M102 154v1175l123 150h1698v-465h-326v137h-360v-238h279v11h327v-349h-327v11h-279v-258h360v137h326v-465h-1698zM459 328h422v823h-422v-823z" />
<glyph unicode="&#x153;" horiz-adv-x="2015" d="M102 154v1175l123 150h1698v-465h-326v137h-360v-238h279v11h327v-349h-327v11h-279v-258h360v137h326v-465h-1698zM459 328h422v823h-422v-823z" />
<glyph unicode="&#x178;" horiz-adv-x="1339" d="M20 1151v328h541v-328h-92l201 -291l200 291h-92v328h541v-328h-92l-379 -594v-229h92v-328h-541v328h93v235l-379 588h-93zM375 1565v221h233v-221h-233zM731 1565v221h234v-221h-234z" />
<glyph unicode="&#x2c6;" horiz-adv-x="737" d="M102 1550l134 295h266l133 -295h-189l-77 144l-78 -144h-189z" />
<glyph unicode="&#x2dc;" horiz-adv-x="884" d="M102 1544v172l76 70h238l182 -105v105h184v-176l-63 -66h-215l-197 105v-105h-205z" />
<glyph unicode="&#x2000;" horiz-adv-x="1011" />
<glyph unicode="&#x2001;" horiz-adv-x="2023" />
<glyph unicode="&#x2002;" horiz-adv-x="1011" />
<glyph unicode="&#x2003;" horiz-adv-x="2023" />
<glyph unicode="&#x2004;" horiz-adv-x="674" />
<glyph unicode="&#x2005;" horiz-adv-x="505" />
<glyph unicode="&#x2006;" horiz-adv-x="337" />
<glyph unicode="&#x2007;" horiz-adv-x="337" />
<glyph unicode="&#x2008;" horiz-adv-x="252" />
<glyph unicode="&#x2009;" horiz-adv-x="404" />
<glyph unicode="&#x200a;" horiz-adv-x="112" />
<glyph unicode="&#x2010;" horiz-adv-x="714" d="M41 569v328h633v-328h-633z" />
<glyph unicode="&#x2011;" horiz-adv-x="714" d="M41 569v328h633v-328h-633z" />
<glyph unicode="&#x2012;" horiz-adv-x="714" d="M41 569v328h633v-328h-633z" />
<glyph unicode="&#x2013;" horiz-adv-x="1001" d="M41 569v328h920v-328h-920z" />
<glyph unicode="&#x2014;" horiz-adv-x="1288" d="M41 569v328h1206v-328h-1206z" />
<glyph unicode="&#x2018;" horiz-adv-x="438" d="M41 911v328l180 238h8v-238h168v-328h-356z" />
<glyph unicode="&#x2019;" horiz-adv-x="438" d="M41 1149v328h356v-328l-180 -238h-8v238h-168z" />
<glyph unicode="&#x201a;" horiz-adv-x="438" d="M41 0v328h356v-328l-180 -238h-8v238h-168z" />
<glyph unicode="&#x201c;" horiz-adv-x="897" d="M41 911v328l180 238h8v-238h168v-328h-356zM500 911v328l180 238h8v-238h168v-328h-356z" />
<glyph unicode="&#x201d;" horiz-adv-x="897" d="M41 1149v328h356v-328l-180 -238h-8v238h-168zM500 1149v328h356v-328l-180 -238h-8v238h-168z" />
<glyph unicode="&#x201e;" horiz-adv-x="897" d="M41 0v328h356v-328l-180 -238h-8v238h-168zM500 0v328h356v-328l-180 -238h-8v238h-168z" />
<glyph unicode="&#x2022;" horiz-adv-x="638" d="M72 752q0 51 18.5 97t52 80t77.5 53t97 19q51 0 97.5 -19t80 -53t53 -80t19.5 -97q0 -53 -19.5 -98.5t-53 -78t-79.5 -51t-98 -18.5q-53 0 -97 18.5t-77.5 51t-52 78t-18.5 98.5z" />
<glyph unicode="&#x2026;" horiz-adv-x="1398" d="M41 0v328h356v-328h-356zM520 0v328h357v-328h-357zM1001 0v328h357v-328h-357z" />
<glyph unicode="&#x202f;" horiz-adv-x="404" />
<glyph unicode="&#x2039;" horiz-adv-x="614" d="M41 502v282l532 334v-362l-235 -111l235 -115v-366z" />
<glyph unicode="&#x203a;" horiz-adv-x="614" d="M41 164v366l235 115l-235 111v362l532 -334v-282z" />
<glyph unicode="&#x205f;" horiz-adv-x="505" />
<glyph unicode="&#x20ac;" horiz-adv-x="1269" d="M20 565v113h82v123h-82v112h82v416l123 150h850l123 -148v-317h-326v137h-413v-238h727v-112h-727v-123h727v-113h-727v-237h413v135h326v-311l-123 -152h-850l-123 154v411h-82z" />
<glyph unicode="&#x2122;" horiz-adv-x="1837" d="M41 1186v293h725v-293h-195v96h-61v-307h41v-195h-291v195h41v307h-65v-96h-195zM838 780v195h41v307h-41v197h391l67 -248l70 248h389v-197h-41v-307h41v-195h-291v195h41v362l-164 -508h-92l-162 508v-362h41v-195h-290z" />
<glyph unicode="&#xe000;" horiz-adv-x="1474" d="M0 0v1475h1475v-1475h-1475z" />
</font>
</defs>
</svg>
