<?xml version="1.0" standalone="no"?>
<!DOCTYPE svg PUBLIC "-//W3C//DTD SVG 1.1//EN" "http://www.w3.org/Graphics/SVG/1.1/DTD/svg11.dtd" >
<svg xmlns="http://www.w3.org/2000/svg">
<metadata></metadata>
<defs>
<font id="ArchitectsDaughterRegular" horiz-adv-x="310" >
<font-face units-per-em="2048" ascent="1638" descent="-410" />
<missing-glyph horiz-adv-x="820" />
<glyph horiz-adv-x="0" />
<glyph horiz-adv-x="2048" />
<glyph unicode=" "  horiz-adv-x="820" />
<glyph unicode="&#x09;" horiz-adv-x="820" />
<glyph unicode="&#xa0;" horiz-adv-x="820" />
<glyph unicode="!" horiz-adv-x="276" d="M44 466q0 206 16 516q28 602 28 812l132 8q-12 -52 -12 -649t-30 -687h-134zM60 22q-22 50 66 112q84 0 103 -16t19 -34q-22 -80 -96 -96q-12 -2 -26 -2t-35 8t-31 28z" />
<glyph unicode="&#x22;" horiz-adv-x="484" d="M108 1170l2 58l-2 84q0 166 72 200l32 -32v-398l34 -68q-8 -8 -32 -21t-34 -13q-72 0 -72 190zM292 1188l2 56l-2 82q0 166 72 200l34 -32v-398l32 -68q-6 -6 -31 -19t-35 -13q-72 0 -72 192z" />
<glyph unicode="#" horiz-adv-x="1306" d="M112 963q0 17 28 33q14 2 47 8t69 12q98 12 116 12v232q0 28 26 33t42 5t41 -5t25 -33v-218l200 20v266h100l66 -266h352q0 -108 -146 -108q-58 0 -125 11t-81 11v-204q120 0 233 16t233 16v-40q0 -62 -322 -86q-52 -4 -92 -7t-52 -7q-4 -64 -7 -110t-17 -76 q-30 -58 -142 -58v198q-44 4 -85 4t-76 -10t-44 -34t3 -54t19 -57t-7 -47t-76 -24h-16q-14 0 -18 2q-10 196 -122 238q-44 16 -78 18t-34 24q0 58 84 58q36 0 73 -9t43 -9v178q-28 0 -90 10t-95 15t-47 9q-28 16 -28 33zM506 718q122 0 158 14q76 30 76 132q0 68 -9 81 t-21 16t-30 3t-47 -3t-57 -7q-70 -10 -70 -24v-212z" />
<glyph unicode="$" horiz-adv-x="1140" d="M18 990q0 38 40 95t112 103q132 84 286 108v464h98l66 -398h400v-84l-364 -50l-2 -382h454q2 -18 2 -58t-21 -94t-61 -95t-92 -68t-101 -48t-89 -40t-60 -45l36 -330v-22q0 -30 -78 -46q-42 -8 -106 -8l-28 396q14 -40 -142 -40l-56 2q-8 4 -12 32q-10 48 -16 60 q18 36 190 50q36 4 48 6v266h-48q-310 0 -418 92q-34 30 -34 76q-4 20 -4 58zM182 944q0 -84 136 -84l86 2h52t41 1t25 1l-34 298q0 2 -15 5t-39 3t-70 -20t-88 -52q-94 -74 -94 -154zM674 738l12 -174q270 78 270 182q-20 32 -92 32q-50 0 -107 -14t-83 -26z" />
<glyph unicode="%" horiz-adv-x="1062" d="M62 1015q0 53 24 93q40 66 120 66q52 0 98 -24q94 -50 102 -142q0 -100 -42 -133t-122 -33q-62 0 -103 30t-59 60t-18 83zM124 60v18q0 66 338 598q202 318 281 421t87 103q10 6 17 6t7 -21t-31 -91t-80 -161t-108 -195t-126 -213t-131 -207q-146 -222 -224 -312 q-30 0 -30 54zM140 1003q0 -19 24 -57q36 -30 71 -34t57 12q32 24 32 57t-12 61q-44 46 -98 46q-62 0 -74 -60v-25zM606 257q0 53 24 93q40 66 120 66q52 0 98 -24q94 -50 102 -142q0 -100 -42 -133t-122 -33q-62 0 -103 30t-59 60t-18 83zM684 245q0 -19 24 -57 q36 -30 72 -34q72 -8 88 58v27t-12 45q-44 46 -98 46q-62 0 -74 -58v-27z" />
<glyph unicode="&#x26;" horiz-adv-x="1372" d="M10 97q0 13 4 21l364 580q-88 152 -110 214q-32 98 -32 230q16 204 136 338q94 102 188 102q72 0 110 -70q26 -44 26 -124q0 -234 -220 -656q6 -80 188 -232q88 -74 150 -110t78 -36q114 64 156 106t62 68t44 56q60 78 144 156q20 0 44 -19t22 -24t-18 -35t-58 -82 q-108 -132 -314 -282q270 -134 270 -146q0 -56 -88 -56q-58 0 -150 54q-34 20 -69 37t-77 17q-62 -32 -136 -72q-256 -136 -450 -136l-64 4h-11t-43 8q-88 22 -132 62q-14 14 -14 27zM160 124q0 -36 34 -36q6 0 53 1t118 12t137 33q114 38 272 132l-332 332 q-48 -48 -112 -144q-170 -248 -170 -330zM332 1092q0 -144 78 -262q92 52 144 238q40 142 40 286l2 52q0 36 -17 46t-60 10t-81 -37t-62 -91q-44 -98 -44 -242z" />
<glyph unicode="'" horiz-adv-x="332" d="M54 876l112 352q24 10 42 10q48 0 48 -70q0 -82 -68 -216q-20 -40 -38 -68z" />
<glyph unicode="(" horiz-adv-x="610" d="M30 707q0 71 16 166t46 207t73 227t95 209q118 212 238 212q22 0 39 -4t27 -30q-188 -266 -249 -396t-90 -247t-29 -236t32 -212t69 -181t69 -176t32 -178q0 -40 -61 -40t-105 43t-78 110t-57 148t-37 159q-30 148 -30 219z" />
<glyph unicode=")" horiz-adv-x="720" d="M52 1558q0 46 24 59t64 13q166 0 296 -186q156 -230 210 -600q14 -98 14 -153t-13 -122t-38 -142t-60 -151t-81 -138q-100 -138 -212 -138q-8 0 -21 12t-13 20q34 84 86 157t100 146t82 152t34 208t-37 249t-101 218t-149 184t-181 180z" />
<glyph unicode="*" horiz-adv-x="1040" d="M78 1012q0 20 6 44q74 -2 120 -28t84 -52q78 -56 122 -56q20 0 40 4l164 432q16 42 112 42q0 -74 -21 -181t-31 -165t-10 -120q62 0 152 23t137 34t99 11q0 -64 -30 -99t-76 -56t-98 -34t-98 -33q-106 -46 -106 -150q0 -60 24 -130q48 -132 48 -179t-29 -61t-73 -32 q-40 20 -56 61t-26 88t-26 88t-56 61q-36 -30 -67 -75t-66 -87t-75 -72t-92 -30q-8 0 -21 12t-13 20q18 36 48 88q142 258 154 362q0 44 -72 90q-30 18 -62 36q-106 62 -106 144z" />
<glyph unicode="+" horiz-adv-x="1074" d="M20 516q0 54 200 64q120 8 160 20t40 32v332q0 38 70 38q34 0 44 -13t16 -43t12 -68t11 -80t10 -80t5 -52h440q0 -78 -188 -90q-52 -2 -100 -4q-130 -2 -152 -8q-4 -28 -4 -55t4 -69t14 -104q20 -126 20 -169t-2 -67q-40 -32 -88 -32q-38 0 -44 32q-4 42 -8 97t-12 115 q-20 150 -48 220q-54 0 -128 -22q-150 -44 -211 -45t-61 51z" />
<glyph unicode="," horiz-adv-x="364" d="M-44 -166l140 338q12 26 28 30t34 4t34 -4q28 -8 40 -34v-11t-8 -26t-25 -50t-37 -64t-40 -63t-29 -46t-23 -30q-48 -48 -90 -48q-12 0 -24 4z" />
<glyph unicode="-" horiz-adv-x="636" d="M60 484q0 26 23 36t80 18t144 24t183 26q40 0 68 -14q40 -20 40 -48q0 -10 -9 -26t-45 -28l-384 -40q-100 0 -100 52z" />
<glyph unicode="." horiz-adv-x="288" d="M46 38q0 44 50 82q20 14 31 14t17 -2q42 0 57 -17t15 -45t-12 -42t-30 -20q-30 -10 -82 -10q-46 4 -46 40z" />
<glyph unicode="/" horiz-adv-x="932" d="M42 64v20q30 88 790 1228q38 58 44 66q10 -6 10 -28t-24 -92t-87 -202t-152 -289t-185 -307q-222 -344 -360 -460q-36 0 -36 64z" />
<glyph unicode="0" horiz-adv-x="1292" d="M76 352q0 80 24 190t61 204t90 182t121 156q150 146 340 146q256 0 392 -188q126 -170 126 -422q0 -298 -190 -464q-186 -160 -494 -160q-178 0 -314 92q-72 46 -114 115t-42 149zM194 366q0 -270 384 -270q276 0 415 142t139 404v16q0 230 -114 352t-312 122h-39h-31 q-106 0 -210 -144q-98 -132 -168 -338q-64 -188 -64 -284z" />
<glyph unicode="1" horiz-adv-x="262" d="M56 32q0 38 3 119t6 183t7 214t7 214t5 182t4 120q-4 44 16 56t45 12t44 -4t27 -32l-32 -1028q-4 -36 -56 -51t-76 15z" />
<glyph unicode="2" horiz-adv-x="1172" d="M32 836q2 66 54 128q104 128 294 184q68 22 108 22t60 -2q78 -8 134 -56t66 -148q0 -282 -264 -626q-72 -94 -142 -174q22 -2 69 -2t129 23t174 56t182 63t180 30q66 0 66 -50t-44 -73t-99 -33t-103 -11t-61 -4t-58 -16t-107 -30t-134 -37q-226 -60 -360 -60 q-68 0 -91 21t-9 59q150 132 312 340q242 310 242 484q0 34 -10 64q-22 62 -114 80q-88 0 -144 -36t-105 -80t-100 -80t-125 -36z" />
<glyph unicode="3" horiz-adv-x="1042" d="M20 886q0 94 46 110q84 20 178 44q308 78 493 78t227 -104q0 -120 -192 -282q-48 -38 -82 -68q246 -4 294 -116q10 -26 10 -54t-15 -75t-63 -111t-116 -124q-142 -124 -300 -172q-54 -16 -87 -16t-53 1t-42 13t-22 40q150 38 264 108t180 146q78 94 78 156t-38 84t-98 22 q-152 0 -414 -124l-70 90q606 280 606 402q0 52 -114 68q-118 0 -269 -40t-233 -58t-168 -18z" />
<glyph unicode="4" horiz-adv-x="1394" d="M146 442q106 136 206 274q318 434 436 434q132 0 132 -464q0 -60 -2 -128l442 6q0 -52 -13 -76t-23 -26l-370 -30q-28 -78 -34 -176q-10 -160 -10 -268l-116 -18q-42 0 -48 24l8 396h-146l-240 2h-144q-26 0 -52 8t-26 42zM356 498h62t138 11t198 23v432 q-44 -60 -107 -117t-123 -114t-108 -115t-60 -120z" />
<glyph unicode="5" horiz-adv-x="1450" d="M54 578l14 138q14 116 32 280l24 200q8 26 25 30t47 4t44 -15t15 -37t-5 -50t-6 -54q140 0 279 30t277 66t276 66t278 30q20 0 37 -5t27 -33q-8 -24 -28 -40t-67 -32t-127 -33t-206 -44t-307 -65t-427 -94v-256q64 6 146 20q152 26 232 26t133 -2t121 -28 q146 -56 164 -230q0 -126 -69 -213t-173 -139q-196 -98 -456 -98q-56 0 -80 12t-24 52t32 76t72 36v-36q236 0 340 33t165 92t61 147t-36 128t-88 60q-80 32 -182 32t-154 -16t-102 -36q-134 -50 -204 -50h-32q-68 0 -68 48z" />
<glyph unicode="6" horiz-adv-x="1284" d="M44 564v55t26 131t73 169t110 157t137 132q160 122 320 122q28 0 46 -10t18 -31v-29q-240 -44 -402 -248q-162 -202 -162 -448q0 -80 39 -166t72 -127t73 -41q32 26 73 68t92 91t111 98t126 89q148 88 298 92q68 0 108 -60q38 -58 38 -128q-30 -242 -228 -376 q-162 -112 -372 -112q-130 0 -240 44q-224 88 -314 300q-42 100 -42 228zM524 152q36 -6 79 -6t117 10t164 50t154 105t70 155q0 68 -64 68t-141 -48t-151 -112q-96 -80 -228 -222z" />
<glyph unicode="7" horiz-adv-x="1260" d="M20 980q0 18 7 28t29 20q38 -2 108 -2t190 14t257 35t273 39t272 18q32 0 48 -16t16 -31v-21q-348 -386 -428 -750q-16 -78 -16 -148t12 -134l-168 -32l-6 116v22q0 184 126 442q54 106 104 202t68 174q-108 0 -214 -6q-388 -22 -479 -22t-163 4q-22 10 -29 20t-7 28z " />
<glyph unicode="8" horiz-adv-x="1328" d="M44 298q0 50 32 99t69 93t69 83t32 68t-11 48t-25 37q-36 46 -36 102t32 112t85 99t121 74t138 51q136 36 260 36q170 0 231 -20t98 -59t35 -127t-100 -198q116 -46 148 -84t43 -79t11 -101q0 -136 -71 -237t-179 -167t-237 -98t-223 -32t-181 13t-163 47 q-178 80 -178 240zM206 320q0 -134 136 -188q94 -36 226 -36t232 28t176 84q170 122 170 328q-48 162 -302 162q-176 0 -350 -78q-166 -76 -242 -182q-40 -56 -46 -118zM340 852q0 -60 38 -91t98 -31q10 -2 31 -2t69 9t112 27t129 43t119 53q120 64 140 118q0 34 -16 62 t-50 28q-86 38 -214 38q-278 0 -404 -138q-44 -48 -52 -116z" />
<glyph unicode="9" horiz-adv-x="1166" d="M60 784q0 148 202 292q164 118 326 150q40 8 75 8t67 -10q234 -72 300 -274q24 -74 24 -126t-4 -114t-38 -167t-91 -201t-127 -170q-152 -164 -300 -172q-26 4 -45 30t-19 62q192 114 275 201t127 173t52 196q-20 2 -54 2t-95 -9t-131 -21q-160 -26 -206 -26t-91 3 t-106 27t-113 78q-28 38 -28 68zM248 772q92 -40 228 -40q198 0 400 82q8 34 8 60t-4 59t-28 71q-56 86 -168 94q-294 0 -398 -170q-38 -64 -38 -156z" />
<glyph unicode=":" horiz-adv-x="342" d="M62 666q0 30 30 50t48 22q62 -8 79 -31t17 -37q0 -42 -52 -54q-8 -4 -29 -4t-65 24q-28 8 -28 30zM154 252q0 30 27 58t61 28t52 -22t18 -47t-19 -46t-35 -21h-29t-44 10t-31 40z" />
<glyph unicode=";" horiz-adv-x="254" d="M-44 -332q166 566 180 566q56 0 56 -64t-7 -137t-31 -145q-56 -162 -198 -220zM54 655q2 27 24 45t47 18t45 -18t22 -44q2 -60 -36 -60q-62 0 -92 24q-12 8 -10 35z" />
<glyph unicode="&#x3c;" horiz-adv-x="974" d="M168 458q64 50 150 118t174 136q216 170 310 222q26 0 38 -44q6 -18 6 -36t-8 -30l-470 -358q30 -16 86 -41t124 -59q162 -80 284 -160q-2 -2 -8 -16t-14 -30q-18 -42 -22 -42q-60 38 -172 77t-180 66t-126 55q-136 68 -172 142z" />
<glyph unicode="=" horiz-adv-x="1008" d="M128 574l40 72q6 6 164 24q328 34 393 46t77 12t27 -9t15 -29q0 -50 -34 -72l-582 -78l-36 -2q-60 0 -64 36zM140 348q0 6 13 19t21 13q154 26 284 40q250 30 392 58q68 0 68 -72q0 -14 -2 -28q-114 0 -201 -16t-167 -34q-210 -50 -360 -50q-48 0 -48 70z" />
<glyph unicode="&#x3e;" horiz-adv-x="966" d="M100 792l100 98q98 -70 181 -98t160 -45t153 -40t158 -85q-52 -62 -131 -125t-166 -129t-172 -134t-147 -138q-90 34 -100 72v14q0 62 142 146q210 122 274 171t76 95z" />
<glyph unicode="?" horiz-adv-x="1036" d="M20 1318q252 82 482 82q166 0 276 -40q218 -76 218 -222q0 -134 -224 -298q-120 -88 -316 -176l230 -66v-46q-48 -6 -126 -6q-314 0 -314 100q0 16 8 36q268 148 350 200q260 164 260 270q0 94 -210 144q-86 0 -216 -23t-198 -34t-136 -11q-22 0 -49 30t-35 60zM484 66 q0 70 72 70q14 4 31 4t35 -21t18 -53t-18 -53t-35 -21t-31 4q-72 0 -72 70z" />
<glyph unicode="@" horiz-adv-x="2136" d="M54 414q0 194 81 367t216 303t310 205t365 75q272 0 466 -116q100 -62 164 -159t64 -213t-60 -172q-92 -88 -238 -88t-238 68q-214 -182 -368 -182q-72 0 -112 42q-46 46 -46 103t28 115q60 134 254 202q96 32 228 32q8 0 20 1t37 1t50 -13t41 -39t23 -58t21 -60 q30 -66 98 -66q162 0 162 116q-18 160 -198 274q-162 104 -354 118q-168 0 -322 -61t-271 -170t-187 -259t-70 -328q64 -190 294 -280q130 -50 352 -76q168 14 321 33t291 61q298 90 506 308q14 6 29 6t42 -11t31 -43q-4 -162 -300 -286q-236 -100 -576 -148 q-176 -26 -269 -26t-117 8q-276 0 -482 74q-172 60 -248 186q-38 66 -38 156zM756 669q0 -17 8 -33q12 -16 34 -16t56 4t98 32q156 72 196 184q-8 40 -68 40q-68 0 -140 -34q-134 -64 -172 -138q-12 -22 -12 -39z" />
<glyph unicode="A" horiz-adv-x="1312" d="M52 64q0 4 42 116t85 227t90 241t89 240t76 205t48 132t19 72t15 53q20 46 100 46q86 -48 133 -125t80 -165t65 -178t86 -164q18 -28 54 -30t64 -2h56q34 0 65 -6t31 -44q2 -9 2 -17q0 -61 -91 -61h-5q-30 2 -55 4t-41 1t-14 -11q20 -58 43 -130t51 -144 q72 -178 136 -256q-34 -42 -79 -70t-48 -28t-5 2l-282 594l-546 -134l-20 -84q-58 -230 -130 -320q-12 -20 -50 -4q-64 24 -64 40zM378 584q136 0 334 80q50 22 96 40q-94 402 -210 460q-16 -122 -72 -250t-90 -199t-58 -131z" />
<glyph unicode="B" horiz-adv-x="1456" d="M60 1280q0 48 70 48q148 32 280 32t235 -10t207 -38q220 -62 272 -168q14 -22 14 -52q0 -88 -154 -190q-102 -68 -292 -138q466 -26 632 -136q92 -58 92 -136q0 -108 -152 -224q-166 -124 -424 -206q-238 -76 -442 -76q-156 0 -268 46q-4 128 -10 264q-16 302 -16 509 t14 431q-22 0 -40 5t-18 39zM242 794q180 0 438 86q168 58 246 128q40 36 40 74t-29 63t-74 41t-100 25t-107 13q-80 6 -160 6h-50q-164 0 -184 -34zM262 598l48 -466q322 18 528 77t297 128t91 133q0 84 -120 134q-130 52 -345 52t-499 -58z" />
<glyph unicode="C" horiz-adv-x="1450" d="M44 500q0 164 59 314t162 265t244 183t303 68q138 0 180 -38q52 -46 52 -182q-130 128 -288 128q-150 0 -288 -114q-174 -144 -240 -372q-24 -82 -24 -136t4 -84q0 -198 134 -304q126 -98 322 -98q268 22 514 206q68 52 144 100q28 0 57 -8t29 -46q-198 -172 -334 -248 q-252 -136 -456 -136h-26q-222 0 -380 138q-168 146 -168 364z" />
<glyph unicode="D" horiz-adv-x="1328" d="M76 28v1248h28q46 0 74 -15t32 -33q148 52 392 52q446 0 610 -220q64 -84 64 -214q2 -18 2 -36q0 -200 -234 -406q-214 -194 -528 -312q-208 -80 -344 -80q-56 0 -96 16zM244 142q140 0 350 102q364 180 500 418q48 84 48 168q-18 178 -198 264q-134 64 -336 64l-36 -2 q-190 -4 -328 -60v-954z" />
<glyph unicode="E" horiz-adv-x="1212" d="M60 0l8 1276q52 -16 192 -16l446 10q200 0 266 -26v-98q-54 -8 -148 -9t-200 -3q-296 -6 -404 -30q-32 -151 -32 -211v-7q2 -58 4 -90q8 -78 8 -184q136 0 311 24t271 35t198 11v-110l-766 -96l12 -328q198 0 405 19t314 28t227 9q0 -40 -24 -76q-34 -46 -63 -46 q-12 0 -23 8q-352 -38 -629 -60t-373 -30z" />
<glyph unicode="F" horiz-adv-x="1418" d="M76 384q0 26 38 60t76 70q0 120 -36 269t-52 231t-16 150t21 86t61 18t52 -11t16 -27t5 -34t7 -34q10 -38 62 -38q134 2 268 23t266 43q264 44 371 44t169 -6q2 -38 8 -66t6 -46q0 -26 -39 -26q-12 0 -27 2q-1046 -38 -1046 -156q0 -130 18 -223t27 -117t21 -24 q114 0 231 20t234 43t235 43t232 20q2 0 2 -15t-2 -33q-6 -48 0 -48q-86 -48 -312 -78q-98 -14 -200 -26t-188 -26q-198 -28 -230 -74l-22 -392q-22 -22 -50 -22l-74 6h-20v342q-112 16 -112 52z" />
<glyph unicode="G" horiz-adv-x="1418" d="M44 386q10 160 68 324q120 348 398 510q138 82 318 82h8l54 2q85 0 85 -61q0 -5 -1 -11q-160 -8 -300 -74t-243 -177t-162 -259t-59 -302t80 -222t206 -68q108 0 300 94q122 60 182 136q30 36 30 76v296q-60 0 -279 -46t-253 -52q-10 6 -24 13q-16 8 -16 24q0 30 88 89 q22 12 264 47t308 45t110 16q20 -4 50 1t56 3q60 -2 60 -62v-8l-166 -68q-38 -122 -38 -460l4 -298v-74q-60 -30 -116 -30t-64 30v366q-190 -130 -264 -172q-172 -94 -302 -94q-156 0 -268 114q-114 118 -114 270z" />
<glyph unicode="H" horiz-adv-x="1240" d="M42 580q0 28 33 66t49 63t19 56t9 111t11 170t10 170t5 112q44 44 64 54q18 9 32 9q25 0 36 -29l-12 -630q494 0 594 64v632q12 34 112 34q22 0 36 -2q0 -38 3 -115t6 -175t7 -207t8 -207q6 -204 10 -300q14 -240 98 -388q-90 -36 -198 -36q-92 228 -98 598 q-132 4 -180 4t-108 -6q-124 -8 -278 -64q-6 -68 -6 -193t38 -303l-158 -80l-72 544q-70 10 -70 48z" />
<glyph unicode="I" d="M52 290q0 204 4 337t8 245q12 244 12 258q58 34 96 34t38 -34v-1098q0 -34 -48 -34q-36 0 -86 34q-24 54 -24 258z" />
<glyph unicode="J" horiz-adv-x="1084" d="M18 364q0 46 30 80q54 64 98 64q2 -114 62 -188q140 -168 450 -168q52 0 102 6q98 52 98 496l-6 378q0 90 5 159t29 69h134q0 -32 6 -124t8 -185t2 -159t-2 -171t-20 -231q-42 -290 -160 -358q-59 -33 -164 -33q-55 0 -122 9q-198 28 -348 116q-176 102 -202 240z" />
<glyph unicode="K" horiz-adv-x="1240" d="M86 30q0 8 5 24t10 82t8 159t6 204t6 227t7 227t12 203q18 200 48 238q16 46 108 46h28q0 -76 -17 -320t-19 -290q130 66 251 143t226 142t191 108t128 43q70 0 70 -54q0 -42 -64 -93t-160 -106t-209 -111t-209 -109t-160 -99t-64 -80q36 -22 119 -59t186 -84t214 -100 t203 -107q208 -118 208 -196q0 -26 -34 -36q-14 -4 -28 -4h-20q-96 0 -180 46t-179 110t-215 133t-290 115v-400q-4 -8 -36 -18q-46 -14 -98 -14t-52 30z" />
<glyph unicode="L" horiz-adv-x="1418" d="M110 42q50 186 50 832l-4 498l160 -6l-18 -1172l1054 -30q32 -10 32 -34t-30 -50q-58 -52 -132 -52q-18 0 -38 4z" />
<glyph unicode="M" horiz-adv-x="1694" d="M56 122q0 48 44 387t56 437t21 165t13 99t12 64t24 52q30 38 116 38q144 -72 296 -408q108 -240 144 -304t70 -88l400 696q42 30 64 30q64 0 98 -58t57 -141t40 -183t30 -209t25 -213q28 -250 43 -314t15 -91t-18 -52t-50 -25t-64 25t-39 62t-14 97t-17 135t-20 158 t-20 159t-18 135t-12 89q0 40 -2 74t-16 42t-43 -19t-81 -109q-112 -174 -324 -586q-18 -32 -43 -32q-14 0 -31 10q-54 30 -92 154l-368 782q-48 -96 -88 -636q-6 -66 -8 -112q-10 -50 -10 -98l8 -146q0 -12 -1 -44t-24 -57t-56 -25t-51 2q-66 0 -66 58z" />
<glyph unicode="N" horiz-adv-x="1284" d="M50 23q0 21 5 66t12 151t13 224q16 308 16 531t-4 367q44 40 68 58t54 -1t77 -82t133 -187q294 -418 578 -784l38 996q22 40 44 55t58 15q70 0 70 -128l-2 -74l6 -524q0 -608 -50 -712l-146 12q-110 190 -370 534q-102 136 -203 270t-185 266q-40 -178 -40 -712 q0 -204 -8 -344q-38 -36 -83 -36t-63 9t-18 30z" />
<glyph unicode="O" horiz-adv-x="1372" d="M44 590q0 146 47 259t129 195q174 170 436 170q274 0 452 -126q200 -144 200 -412q0 -332 -153 -490t-477 -158q-450 0 -586 308q-48 108 -48 254zM208 630q0 -472 476 -472q234 0 380 140q146 138 146 362q0 210 -174 320q-148 96 -374 96q-180 0 -318 -130 q-136 -130 -136 -316z" />
<glyph unicode="P" horiz-adv-x="1306" d="M76 0v466q10 150 16 266t22 200t52 141t108 91q130 64 478 64q150 0 254 -29t154 -55q114 -56 114 -156t-57 -181t-148 -140t-205 -97t-228 -62q-204 -40 -392 -40l-8 -448q0 -24 -70 -24zM242 694q0 -100 86 -100q12 0 42 1t105 6t159 20t169 39t153 60q154 84 154 214 q-30 130 -238 166q-62 12 -111 12t-116 -5t-155 -31t-148 -70t-66 -102q-2 -24 -10 -56q-24 -102 -24 -154z" />
<glyph unicode="Q" horiz-adv-x="1460" d="M54 488q0 128 44 273t130 257t212 180t290 68q24 2 48 2q260 0 408 -156q134 -142 134 -374q0 -228 -136 -422q-2 -10 -2 -31t29 -43t72 -40t73 -38t30 -37t-2 -27q-22 -16 -60 -25t-51 -6t-35 18t-42 33q-54 42 -94 48q-76 -72 -234 -124q-149 -47 -278 -47 q-216 0 -374 133q-162 138 -162 358zM218 516q0 -208 118 -297t330 -89q120 0 170 10q108 22 150 92l-366 332q-2 2 -2 6v10q0 36 28 45t69 9t90 -32t95 -75t91 -89t93 -74q102 156 104 340q2 56 2 126q-10 72 -34 130q-48 122 -242 160q-94 20 -178 20h-100 q-124 0 -228 -116q-82 -94 -140 -260q-50 -134 -50 -248z" />
<glyph unicode="R" horiz-adv-x="1460" d="M92 1228q23 40 51 40q30 0 67 -46q16 -20 26 -34q110 106 398 106q180 0 302 -36t183 -76t61 -88q0 -110 -256 -218q-38 -18 -199 -73t-217 -75q-122 -46 -162 -72q0 -10 8 -17t38 -24t90 -48t166 -89q316 -172 650 -368q16 -12 42 -33t26 -46t-16 -35t-38 -15t-46 -5 h-40q-40 0 -167 86t-220 150t-189 124q-226 146 -358 190v-458q0 -40 -68 -40h-22q-42 0 -62 42q-28 64 -28 236l6 402q0 296 -26 520zM242 991q0 -43 4 -75q10 -82 46 -118q6 -2 21 -2t56 8t110 29t147 51t150 62q226 102 226 166q0 36 -90 52l-130 2q-452 0 -520 -104 q-20 -28 -20 -71z" />
<glyph unicode="S" horiz-adv-x="1316" d="M30 175q0 37 31 66t48 40t23 17q10 -182 246 -182q186 0 434 116q176 80 236 164q20 26 20 43t-6 27l-830 186q-36 8 -70 34q-62 44 -62 80q0 138 196 250q216 122 578 184q82 14 122 16q12 -4 37 -7t51 -9q53 -12 53 -42q0 -5 -1 -10q0 -68 -260 -108q-336 -50 -419 -84 t-120 -70t-39 -86q0 -10 46 -22t110 -29t166 -45q248 -68 608 -172q20 -44 20 -82q0 -106 -124 -204q-140 -110 -388 -186q-206 -62 -328 -62q-102 0 -194 36t-138 70t-46 71z" />
<glyph unicode="T" horiz-adv-x="1276" d="M0 1086q0 22 18 48t42 26q146 -6 294 -20q274 -24 466 -24l124 4q146 4 290 32q32 -6 40 -100q2 -20 2 -32q-132 -38 -296 -38l-178 4q-70 0 -162 -14q-4 -78 -16 -202q-42 -440 -42 -571t4 -185l-188 -14l62 988l-426 24q-16 0 -25 26t-9 48z" />
<glyph unicode="U" horiz-adv-x="1150" d="M40 388q0 156 80 530q26 116 34 212q6 2 26 2h24q10 2 18 2q64 0 64 -96q0 -66 -26 -164q-80 -322 -80 -446q0 -130 68 -204q44 -48 138 -58h24q326 0 428 314q60 184 70 444q6 120 10 238q22 60 60 60t84 -34q6 -116 6 -228l-20 -764q0 -82 4 -164q0 -36 -62 -36 q-30 0 -55 9t-31 15l20 256q-184 -158 -268 -198q-132 -66 -270 -66q-26 0 -54 2q-292 32 -292 374z" />
<glyph unicode="V" horiz-adv-x="1284" d="M22 1096q0 26 102 66q70 -130 131 -259t121 -243q142 -278 232 -384q32 32 144 272l164 346q132 280 170 366q70 84 118 84t48 -84l-568 -1246q-34 -22 -87 -22t-75 40q-54 144 -200 429t-194 379q-106 218 -106 256z" />
<glyph unicode="W" horiz-adv-x="1926" d="M28 1182q0 10 7 20t25 18q34 12 68 12t49 -13t24 -33t15 -44t23 -62t50 -112t71 -156t76 -163t72 -149q72 -150 90 -168q232 572 286 679t68 131q22 34 34 34q86 0 290 -384q56 -102 104 -196q118 -228 146 -264q100 324 232 1184q126 0 132 -78l3 -37q0 -14 -7 -66 q-8 -59 -23 -165t-37 -246t-50 -292q-68 -358 -140 -604q-43 -30 -74 -30q-21 0 -38 14q-18 18 -32 49t-32 71q-26 34 -96 180t-113 232t-83 160q-92 166 -154 194q-72 -112 -256 -614q-32 -88 -58 -163t-44 -121l-124 6l-500 1156q-4 10 -4 20z" />
<glyph unicode="X" horiz-adv-x="1228" d="M54 1110q0 40 54 56q20 6 38 6q23 0 42 -10l384 -464l478 564l116 -94l-480 -570q68 -92 155 -157t163 -122t127 -115t51 -136q-6 -46 -42 -62q-8 -4 -28 -4t-60 30l-456 418q-52 -42 -97 -114t-92 -140t-99 -118t-113 -50t-85 17t-24 44t2 43l380 450q-104 128 -175 218 t-117 148t-71 91t-36 48t-15 23z" />
<glyph unicode="Y" horiz-adv-x="1094" d="M56 1172q0 14 16 22q26 12 63 12t76 -12t97 -60q114 -96 374 -406q118 344 170 443t83 128t56 31q8 1 16 1q15 0 27 -3q18 -4 26 -28q-62 -132 -119 -299t-117 -345q-158 -472 -268 -692q-32 0 -68 20q-58 35 -58 63q0 6 2 11q24 42 62 168l54 180q28 86 56 190l-534 544 q-14 18 -14 32z" />
<glyph unicode="Z" horiz-adv-x="1606" d="M56 68q0 16 20 32l864 964q-80 4 -131 4t-115 -1t-164 -9q-294 -24 -406 -30q-30 0 -37 18t-11 84q446 48 1018 68q28 0 54 -8t26 -42q-56 -156 -386 -508q-388 -412 -450 -494q110 -22 258 -22t300 9t316 23t312 24l16 -148q-494 -38 -908 -38q-576 0 -576 74z" />
<glyph unicode="[" horiz-adv-x="870" d="M62 1558q66 10 145 28t161 36q206 46 300 46q0 -26 5 -54t-17 -40q-36 -10 -104 -23t-140 -31q-176 -40 -226 -76q-2 -64 -2 -156t12 -238t32 -322t38 -352t18 -362l510 70q0 -10 5 -32t9 -47t4 -45t-10 -22l-672 -106z" />
<glyph unicode="\" horiz-adv-x="1028" d="M0 1174q0 2 20 -28q0 38 29 46t59 8q116 -114 218 -262t205 -302t214 -299t243 -253q0 -40 -34 -64t-70 -24q-484 544 -828 1084q-56 90 -56 94z" />
<glyph unicode="]" horiz-adv-x="1108" d="M0 1478q0 32 18 54q0 4 252 40t323 45t123 17l60 4q60 -2 70 -38q-8 -132 -8 -284q0 -620 80 -1454q-18 -2 -76 -7t-135 -12t-165 -13t-166 -12q-154 -12 -210 -12q-6 0 -6 110q100 6 192 6l40 -2q218 0 300 96q48 54 48 189t-7 302t-21 337q-26 346 -70 654q-22 2 -60 2 t-99 -12t-131 -30q-194 -50 -290 -50q-6 0 -22 10q-40 28 -40 60z" />
<glyph unicode="^" horiz-adv-x="628" d="M36 1078q0 38 21 74t59 76q84 88 208 146q102 -66 136 -94q56 -50 128 -162q12 -24 12 -45t-8 -33q-22 -32 -72 -2q-74 54 -87 66t-37 38t-86 86q-122 -84 -166 -156q-14 -24 -26 -52q-36 0 -59 10t-23 48z" />
<glyph unicode="_" horiz-adv-x="1406" d="M64 36v40q178 72 566 94q438 24 620 64q28 0 53 -8t25 -38q0 -42 -34 -88q-682 -18 -1228 -100z" />
<glyph unicode="`" horiz-adv-x="352" d="M94 1176q0 56 30 56q18 0 44 -28l134 -130l-34 -86q-132 90 -156 130q-8 16 -13 32t-5 26z" />
<glyph unicode="a" horiz-adv-x="1042" d="M36 263q0 45 20 119t73 160t129 158q158 152 342 196q54 12 99 12t81 -6q116 0 156 -158q26 -100 31 -279t10 -276t25 -177h-118q-8 54 -12 96t-8 78q-10 84 -24 146q-150 -236 -400 -292q-58 -12 -105 -12t-78 1t-69 9t-70 26q-74 42 -74 118q-8 36 -8 81zM172 272 q0 -118 136 -140q180 4 344 164q70 70 116 152q64 110 64 194q0 116 -114 116q-14 2 -28 2q-146 0 -308 -140q-76 -64 -130 -144q-80 -114 -80 -204z" />
<glyph unicode="b" horiz-adv-x="1150" d="M60 1418q0 32 22 50t54 18t58 -17t20 -47l14 -864q126 168 340 282q178 96 312 96q118 0 182 -76q48 -60 48 -159t-37 -172t-97 -140t-138 -125t-158 -104q-152 -88 -300 -146q-12 4 -40 2t-68 -2q-108 0 -190 26q-20 190 -20 578l4 542zM234 178q0 -22 41 -22t101 16 t145 55t171 101q200 142 302 334q-26 114 -156 114q-118 0 -266 -88q-210 -126 -300 -312q-38 -74 -38 -150v-32v-16z" />
<glyph unicode="c" horiz-adv-x="1296" d="M44 316v48t30 103t90 134t140 123q168 120 352 156q64 14 107 14t71 -1t58 -4t52 -15q52 -26 52 -102q0 -48 -68 -94q-18 -12 -32 -22q-10 46 -26 78t-70 32q-236 -50 -406 -150q-192 -114 -192 -240q0 -14 2 -30q0 -128 98 -182q74 -40 191 -40t203 27t167 60t159 61 t149 28t71 -44q0 -10 -5 -31t-54 -50t-120 -55t-155 -48t-164 -38q-166 -34 -236 -34t-151 16t-151 52q-162 84 -162 248z" />
<glyph unicode="d" horiz-adv-x="1050" d="M18 298q0 50 19 121t78 147t143 134q184 124 398 124q92 0 176 -28q0 36 5 126t11 190q12 260 16 307t11 80t21 57q30 50 104 50q0 -192 -11 -375t-20 -358t-9 -372t28 -417q0 -46 -17 -66t-57 -20q-94 0 -94 156v66q-284 -212 -480 -212q-78 0 -159 38t-153 154 q-10 48 -10 98zM164 314q0 -158 114 -158q18 0 40 4q82 0 202 48q228 90 278 156v266q0 70 -114 70q-14 2 -37 2t-71 -10t-108 -36t-118 -64q-122 -82 -168 -192q-18 -42 -18 -86z" />
<glyph unicode="e" horiz-adv-x="1108" d="M40 364q0 64 33 169t113 199t188 148t230 54q116 0 260 -80q68 -38 108 -86t40 -98q0 -14 -2 -28q-4 -122 -118 -154q-50 -14 -116 -14l-288 12q-144 0 -220 -62q-44 -34 -62 -102q50 -182 256 -182q176 0 530 160q22 0 36 -15t14 -35q-80 -136 -306 -212 q-136 -46 -262 -46q-83 0 -160 20q-222 58 -270 250q-4 38 -4 102zM276 616q160 -14 240 -14q222 0 300 38q48 20 48 50q0 36 -45 68t-93 46t-80 14t-104 -21t-128 -47q-138 -64 -138 -134z" />
<glyph unicode="f" horiz-adv-x="1216" d="M28 456l304 108q-40 344 -40 559t36 335t105 161t147 41t159 -34t155 -86t126 -117t52 -127q0 -48 -10 -68q-80 112 -194 200q-136 104 -256 104q-114 0 -152 -162q-18 -84 -18 -237t8 -280t48 -255q124 0 278 22q296 46 426 48q10 0 10 -54t4 -74l-686 -84l36 -444 l-162 8q0 180 -40 412l-260 -100q-26 0 -44 30q-32 52 -32 94z" />
<glyph unicode="g" horiz-adv-x="1056" d="M46 134q4 92 54 203t129 214t179 185q154 126 298 126q168 0 276 -178q32 -476 32 -676t-6 -328t-27 -234t-55 -168t-80 -90q-76 -44 -214 -44l-28 2q-60 0 -128 -8h-76q-120 0 -188 46q-36 24 -36 72l460 22q212 6 212 228v27v83l10 644q0 34 -2 56q-324 -302 -624 -302 q-26 0 -52 2q-134 0 -134 118zM196 194q0 -32 18 -48q14 -8 35 -8t61 7t109 36t143 75t134 102q140 128 140 250q0 74 -84 108q-24 8 -67 8t-111 -36t-130 -93t-116 -127q-132 -172 -132 -274z" />
<glyph unicode="h" horiz-adv-x="1014" d="M46 1065q0 127 16 233q20 38 58 38q46 0 72 -33t28 -59l-10 -330q0 -186 18 -278q180 120 372 120q62 0 132 -10q150 -78 196 -166q22 -46 28 -98t8 -118q12 -228 30 -336q-18 -34 -93 -34t-75 54q0 236 -10 324q-18 194 -76 208q-144 28 -235 28t-150 -55t-90 -182 t-45 -357h-154q4 114 4 212t-4 233t-10 295q-10 184 -10 311z" />
<glyph unicode="i" d="M48 1212q0 70 82 70q54 0 88 -24q6 -22 6 -43t-16 -41t-48 -20t-64 15t-48 43zM108 46v894h126q26 -374 44 -866q-12 -62 -96 -62q-22 0 -45 9t-29 25z" />
<glyph unicode="j" horiz-adv-x="364" d="M-228 -572q0 6 10 28q18 40 18 46q66 -50 142 -94t162 -44q58 0 92 84q32 72 32 144q0 194 -28 504q-40 466 -40 593t4 207q-1 5 -1 10q0 41 45 62q38 18 84 18q-18 -124 -18 -196t1 -149t12 -225t25 -296q34 -322 34 -520q0 -334 -176 -334q-18 0 -45 1t-80 8t-107 25 q-130 44 -166 128zM158 1312q0 64 30 92q12 10 32 10q32 -22 32 -70t-36 -58h-15t-43 26z" />
<glyph unicode="k" horiz-adv-x="1258" d="M60 1398q0 64 68 64h16q14 0 18 -2q30 -124 40 -300q22 -390 40 -524q34 18 152 102t190 135t136 95q150 98 188 98q32 0 50 -38q-100 -126 -322 -280q-90 -62 -179 -123t-163 -127q134 -36 254 -75t232 -71q258 -76 444 -86q0 -54 -10 -70q-18 -28 -74 -32h-16 q-122 34 -324 76q-398 82 -548 124l10 -174q0 -160 -76 -194q-16 -6 -38 -6t-52 10l2 748q0 162 -19 325t-19 325z" />
<glyph unicode="l" horiz-adv-x="322" d="M44 1296q18 24 35 46t49 22q70 0 108 -590q20 -342 20 -684q0 -92 -128 -92l-16 2q0 104 -6 266t-9 282t-7 228t-8 193t-5 126t-33 201z" />
<glyph unicode="m" horiz-adv-x="1594" d="M52 32q0 66 5 166t9 214t4 230t-12 212q0 64 86 64q20 0 31 -72t16 -112t9 -58q52 94 206 148q82 26 154 26t127 -17t94 -62t39 -119q52 98 234 176q166 74 298 74q186 0 186 -138v-6l42 -744q0 -10 -58 -14q-25 -2 -44 -2q-68 0 -68 22q-2 40 -2 80l10 322 q0 226 -44 358q-132 -10 -203 -43t-125 -82t-96 -131q-94 -184 -94 -488q-12 -42 -78 -42q-44 0 -72 15t-22 27q38 212 38 330q0 94 -19 179t-47 195q-288 0 -388 -230q-44 -102 -49 -191t-5 -152t6 -135q-82 -34 -109 -34t-37 6t-22 28z" />
<glyph unicode="n" horiz-adv-x="1024" d="M68 402q0 280 11 412t17 150q52 34 84 34q50 0 50 -118q0 -46 -5 -89t-5 -59q324 238 502 238q202 0 230 -326q12 -114 12 -316l-2 -158q0 -88 4 -170q-20 -12 -32 -12q-6 2 -26 6t-52 6q-20 80 -22 163t-2 153l2 122q0 238 -26 350q3 6 3 11q0 19 -51 19q-68 0 -176 -34 t-176 -68q-162 -78 -180 -152v-544h-134q-26 68 -26 382z" />
<glyph unicode="o" horiz-adv-x="1152" d="M104 380q0 236 204 380q162 114 390 138h56t118 -26q164 -56 224 -198q24 -56 24 -95t-2 -55q0 -250 -190 -394q-176 -132 -440 -132q-190 0 -287 88t-97 294zM242 332q0 -124 66 -168q50 -32 168 -32t208 18t160 62q150 96 150 298q0 120 -64 196q-70 82 -184 82 q-78 -14 -157 -30t-149 -62q-152 -98 -198 -364z" />
<glyph unicode="p" horiz-adv-x="1140" d="M124 844q18 26 48 24t48 -16t26 -50q272 94 470 94q252 0 336 -132q38 -62 38 -134q0 -100 -63 -206t-167 -192q-242 -198 -588 -246q0 -22 1 -71t2 -109t2 -128t3 -130q6 -154 9 -176t3 -36q0 -50 -32 -75t-84 -25h-20zM256 120q412 92 584 256q100 94 100 194 q0 106 -110 162q-66 34 -141 34t-149 -14q-168 -32 -248 -142q-36 -52 -36 -128v-16v-346z" />
<glyph unicode="q" horiz-adv-x="1052" d="M72 196q0 116 56 226t160 198t229 134t243 46h28q58 0 106 -42t80 -94q0 -348 2 -686t24 -686h-30l-54 -2h-46l-30 874q-78 -74 -236 -124q-144 -46 -258 -46q-92 0 -153 26t-90 57t-30 65t-1 54zM224 224q0 -96 108 -100h79t119 13t126 47q132 74 132 224l12 164 q0 94 -40 94q-202 0 -364 -118q-172 -130 -172 -324z" />
<glyph unicode="r" horiz-adv-x="1130" d="M54 916q0 48 70 48q42 0 66 -35t38 -80t19 -89t9 -62q264 236 656 236q44 0 92 -2q12 2 30 2t36 -24q22 -28 22 -68q0 -100 -56 -112q-84 60 -216 60q-124 0 -230 -46q-200 -84 -274 -216q-32 -60 -32 -128v-67t20 -148t20 -189q-42 -2 -68 -10t-44 -8t-31 16t-29 62 q-2 12 -8 68t-15 136t-20 175t-21 187q-22 200 -34 294z" />
<glyph unicode="s" horiz-adv-x="1028" d="M44 523q0 63 36 116t96 99t140 84q196 94 406 94q62 0 120 -12q48 0 56 -42t8 -138q-118 54 -266 54q-184 0 -304 -74q-124 -72 -128 -188q0 -56 82 -56l146 16q188 40 302 40q220 0 220 -112q0 -84 -122 -196q-182 -166 -490 -266q-14 0 -31 28t-26 43t-13 19 q230 76 378 184q100 72 100 118t-118 46t-346 -56q-104 4 -180 74q-66 62 -66 125z" />
<glyph unicode="t" horiz-adv-x="828" d="M32 780h300v516q6 18 24 36q28 28 47 28t33 -4t30 -28q32 -132 32 -398q0 -66 6 -130q64 8 128 8h104q38 0 70 4l-6 -144l-292 8l10 -690q-36 -16 -62 -16q-100 0 -100 222l4 320q0 76 -14 130h-310z" />
<glyph unicode="u" horiz-adv-x="1040" d="M26 618q0 70 12 128q26 130 108 130q56 -16 75 -40t19 -59t-18 -87q-66 -174 -66 -314q0 -46 6 -98q32 -134 220 -134q98 0 186 34q168 62 228 146q18 92 18 161t-5 123t-12 119t-9 143q26 12 51 12t52 -26t46 -98t25 -169t7 -201t1 -201t8 -167q-24 -22 -46 -22 q-80 0 -118 160q-26 -22 -88 -54q-132 -72 -312 -96q-34 -4 -76 -4t-105 16t-119 74t-70 172q0 32 -5 89t-9 125t-4 138z" />
<glyph unicode="v" horiz-adv-x="1062" d="M68 797q0 13 10 35t29 38t42 15t37 -29l336 -624q16 24 51 89t80 147t94 171t91 163q96 170 114 170q42 0 61 -31t19 -47v-22q-112 -244 -207 -450t-126 -267t-55 -97q-42 -62 -82 -62t-92 63t-118 169q-116 192 -280 546q-4 10 -4 23z" />
<glyph unicode="w" horiz-adv-x="1656" d="M92 830q0 36 22 45t50 1q68 -20 96 -62q14 -20 34 -70l50 -124q84 -210 166 -384q44 68 84 176l62 172q80 226 144 230q4 2 9 2q60 0 291 -356q106 -164 132 -196q18 0 43 120t44 203t47 155q66 168 152 168q28 0 39 -19t11 -31v-18q-24 -68 -50 -155t-55 -178t-58 -180 t-57 -161q-66 -156 -110 -168q-5 -2 -11 -2q-34 0 -99 80q-34 44 -72 104t-80 124q-102 160 -162 246q-44 -146 -73 -270t-57 -206q-44 -118 -100 -118q-30 0 -68 28q-92 98 -260 434q-164 328 -164 410z" />
<glyph unicode="x" horiz-adv-x="964" d="M36 824l116 124q90 -110 133 -167t69 -91q44 -56 128 -138q28 40 100 144q120 178 192 264q46 0 74 -32t28 -60q-52 -112 -150 -236q-36 -44 -66 -85t-48 -89q122 -86 292 -292q38 -46 54 -70q0 -14 -22 -42q-34 -48 -60 -60q-38 18 -79 65t-87 103t-95 112t-103 92 q-46 -52 -128 -150q-150 -180 -200 -216q-6 -1 -12 -1q-36 0 -96 37q-18 10 -24 24q98 98 198 224t122 168l-168 184q-32 34 -62 68t-54 60t-38 44z" />
<glyph unicode="y" horiz-adv-x="1124" d="M44 734q0 2 2 4l76 76q158 -146 412 -496q64 -88 102 -148q42 84 66 145t39 98t41 99q68 166 188 422q18 8 38 8q50 0 72 -26q8 -10 8 -23t-4 -25l-608 -1622q-42 -94 -100 -94q-28 0 -41 25t-1 59q44 186 127 424t111 320q-70 70 -220 280q-308 432 -308 474z" />
<glyph unicode="z" horiz-adv-x="1014" d="M38 712q0 34 39 62t56 28t26 2t31 5t63 8t111 11q138 14 432 38q96 -12 96 -70q0 -74 -140 -216q-124 -124 -265 -250t-197 -186q78 -6 136 -6l328 14q76 0 138 -7t76 -13q32 -18 32 -68q0 -20 -8 -44q-50 6 -104 6t-142 -6t-212 -16q-170 -12 -258 -12q-200 0 -200 88 q0 56 88 146t154 147t126 111q142 130 232 240h-54t-105 -5t-145 -13q-206 -22 -270 -22t-64 28z" />
<glyph unicode="{" horiz-adv-x="722" d="M104 808q10 74 42 115t69 68t73 52t56 71q-4 76 -12 172q-12 120 -12 216t11 185t49 165q84 168 296 168v-108q-82 6 -116 -25t-57 -83t-35 -145t-12 -239t20 -372q0 -42 -31 -69t-69 -50t-69 -47t-31 -62q-4 -10 -4 -27t22 -53q52 -78 152 -142q42 -26 51 -26h11 q-12 -118 -12 -195t9 -166t42 -165t80 -111t94 -48t88 -13t61 -6l-8 -144q-336 22 -422 272q-44 126 -54 278t-20 244q-12 24 -50 52t-80 62q-114 92 -132 176z" />
<glyph unicode="|" horiz-adv-x="298" d="M104 1960h118v-2092q0 -4 -16 -4h-52q-36 0 -44 -4z" />
<glyph unicode="}" horiz-adv-x="980" d="M48 -292q20 6 63 6t91 13t98 49q138 98 138 418q0 92 -12 210h12t52 26q106 62 160 146q18 30 18 46t-4 26q0 38 -33 62t-72 46t-71 49t-31 81t1 144t-13 206t-44 207t-73 141t-84 77t-80 35t-60 16v108q220 0 346 -164q96 -124 130 -356q18 -106 18 -209t-2 -153 q20 -46 60 -79t82 -64t74 -65t38 -80q-4 -100 -130 -198q-48 -38 -92 -63t-56 -39q-10 -90 -16 -181t-20 -176t-41 -159t-81 -130q-114 -122 -358 -140z" />
<glyph unicode="~" horiz-adv-x="910" d="M52 1014q30 96 90 170t126 100q16 6 36 6t49 -21t65 -59t74 -72t81 -34t68 14t46 40t46 64t71 86q12 0 35 -15t24 -30t1 -37t-16 -59t-52 -75q-102 -100 -230 -100q-92 0 -146 60q-40 36 -68 59t-56 23q-64 0 -172 -162q-12 0 -39 8t-33 34z" />
<glyph unicode="&#xa1;" horiz-adv-x="276" d="M48 610q0 -148 15 -371q28 -434 28 -586l131 -5q-12 37 -12 467t-30 495h-132zM63 930q-21 -36 66 -81q83 0 102 12t18 24q-22 58 -95 70q-12 1 -25 1q-14 0 -35 -6t-31 -20z" />
<glyph unicode="&#xa2;" horiz-adv-x="1296" d="M42 342q0 148 162 300q162 154 388 222v276h118l-2 -250q70 8 110 8q178 0 178 -126q0 -48 -68 -94q-18 -12 -32 -22q-18 90 -62 104q-26 8 -126 -16v-588q62 18 122 43t118 49q136 52 215 52t79 -44q0 -50 -59 -83t-137 -61q-152 -52 -338 -84v-160q0 -4 -16 -4h-54 q-38 0 -42 -4l-2 148q-56 -8 -106 -8t-131 16t-151 52q-162 84 -162 248q-2 12 -2 26zM202 389q0 -29 2 -43q0 -128 98 -182q74 -40 206 -40q50 0 86 6l-2 578q-288 -112 -368 -252q-22 -38 -22 -67z" />
<glyph unicode="&#xa3;" horiz-adv-x="1104" d="M-44 542q0 28 24 38t52 14t74 9t80 11q6 126 13 218t26 155t53 101t94 58q158 52 276 52q144 0 239 -46t140 -106t45 -98t-35 -38t-105 70q-50 52 -136 80q-112 36 -172 36t-111 -15t-101 -62t-78 -135l-30 -248l166 -2q82 0 106 -46q8 -18 -4 -38t-48 -32l-222 -2 l-54 -384q80 14 140 25t111 17t98 6t99 -8q84 -14 256 -68q12 -4 18 -17t0 -27q-16 -32 -59 -38t-74 1t-69 17q-110 28 -183 28t-101 -5t-51 -13t-45 -18q-86 -32 -232 -32h-42q30 134 40 500l-96 -8q-102 0 -102 50z" />
<glyph unicode="&#xa4;" horiz-adv-x="1152" d="M-2 58l174 150q-80 88 -80 274t128 314l-160 158l144 134q104 -112 164 -180q138 74 318 92h59t115 -26q20 26 61 74t62 73t35 39q58 0 91 -35t33 -65q-14 -24 -46 -74l-50 -74q-16 -24 -26 -38q90 -100 90 -218q0 -14 -2 -28q0 -154 -82 -280q94 -88 174 -184 q0 -18 -26 -46q-44 -52 -74 -66q-46 18 -95 65t-103 105q-170 -122 -426 -122q-90 0 -158 18q-16 -16 -61 -52t-65 -54q-30 -22 -40 -22t-31 4t-47 14q-62 20 -76 50zM214 414q0 -124 66 -166q52 -34 169 -34t207 19t160 63q150 96 150 298q0 118 -64 194q-70 82 -184 82 q-78 -12 -157 -28t-147 -62q-154 -102 -200 -366z" />
<glyph unicode="&#xa5;" horiz-adv-x="1094" d="M-20 1268q0 10 8 23t32 25q50 30 76 30q32 -24 57 -41t50 -37t55 -49t76 -79q66 -70 268 -310q164 480 260 562q32 26 57 28t49 -27t34 -53q-32 -68 -72 -144t-82 -160q-106 -214 -158 -358l-4 -50q46 6 86 11t76 11q32 10 49 0t20 -29t-6 -41t-27 -34l-202 -28l-6 -90 q116 14 240 40q46 0 58 -24t12 -42t-4 -34q-164 -4 -310 -38l-16 -324q-6 -14 -28 -30q-52 -38 -96 -12q-24 12 -28 56q16 30 20 278q-150 -30 -268 -30q-48 0 -48 70q0 8 13 21t21 13q186 28 280 38v86l-222 -28q-10 0 -25 -1t-31 1q-38 6 -42 34l40 72q4 4 280 34l2 90 l-534 546q-10 14 -10 24z" />
<glyph unicode="&#xa6;" horiz-adv-x="262" d="M56 32l16 548h132l-16 -512q-4 -36 -56 -52q-52 -14 -76 16zM74 628q6 234 14 436q-4 44 16 56t45 12t44 -4t27 -32l-16 -468h-130z" />
<glyph unicode="&#xa7;" horiz-adv-x="1028" d="M20 588q0 134 196 250q-66 30 -103 82t-37 104q0 102 132 204q200 152 490 176q28 2 73 2t103 -12q48 0 56 -42t8 -138q-118 54 -266 54q-280 0 -396 -156q-34 -46 -36 -108q0 -34 25 -44t57 -10l146 16q178 40 294 40q226 0 226 -110q0 -88 -130 -204q-70 -62 -166 -120 q126 -12 175 -51t49 -85q0 -58 -64 -123t-160 -119q-222 -124 -494 -146q-18 0 -56 72q-8 14 -12 18q260 44 446 134q144 70 144 109t-119 39t-335 -38q-104 4 -180 74q-66 62 -66 132zM184 572q0 -52 80 -52q22 0 46 2q186 60 324 150q148 94 148 154q0 56 -94 56 q-76 0 -167 -32t-161 -74q-158 -96 -176 -204z" />
<glyph unicode="&#xa8;" horiz-adv-x="760" d="M132 1262q0 24 100 66q42 0 57 -18t15 -46t-12 -41t-30 -19q-24 -10 -82 -10q-48 0 -48 68zM420 1262q0 26 102 66q72 0 72 -68q0 -62 -84 -64q-22 -2 -42 -2q-48 0 -48 68z" />
<glyph unicode="&#xa9;" horiz-adv-x="1292" d="M76 352q0 80 24 190t61 204t90 182t121 156q150 146 340 146q256 0 392 -188q126 -170 126 -422q0 -298 -190 -464q-186 -160 -494 -160q-178 0 -314 92q-72 46 -114 115t-42 149zM194 366q0 -270 384 -270q276 0 415 142t139 404v16q0 230 -114 352t-312 122h-39h-31 q-106 0 -210 -144q-98 -132 -168 -338q-64 -188 -64 -284zM328 492v24q0 84 40 173t108 162t141 111t133 38q14 0 40 -1t55 -18t29 -71t-21 -78t-37 -42q-4 40 -14 68t-42 28q-130 -38 -232 -130q-110 -100 -110 -210q0 -12 1 -50t16 -75t41 -57q40 -36 108 -36t117 23 t95 52t91 52t75 23t41 -7t11 -22t-3 -35t-31 -45t-69 -47t-89 -41t-94 -33q-96 -30 -135 -30t-85 14t-86 44q-94 74 -94 216z" />
<glyph unicode="&#xaa;" horiz-adv-x="510" d="M22 391q0 24 9 64t32 87t57 85q70 82 150 107q24 7 44 6q20 0 35 -3q51 0 69 -86q11 -54 14 -151q2 -97 4 -150t11 -95h-52q-4 29 -5 52q-2 23 -4 42q-4 45 -10 79q-66 -128 -176 -158q-26 -7 -47 -7t-34 1q-14 1 -30 5q-17 4 -31 14q-33 23 -33 64q-4 20 -3 44zM82 395 q0 -64 60 -75q79 2 151 88q31 38 51 83q28 59 28 105q0 63 -50 63q-6 1 -12 1q-64 0 -136 -76q-33 -35 -57 -78q-35 -62 -35 -111z" />
<glyph unicode="&#xab;" horiz-adv-x="1436" d="M168 458q64 50 150 118t174 136q216 170 310 222q26 0 38 -44q6 -18 6 -36t-8 -30l-470 -358q30 -16 86 -41t124 -59q162 -80 284 -160q-2 -2 -8 -16t-14 -30q-18 -42 -22 -42q-60 38 -172 77t-180 66t-126 55q-136 68 -172 142zM636 502q64 50 149 119t175 139 q210 162 308 220q26 -4 40 -46q12 -38 -2 -66l-470 -358q30 -16 85 -41t123 -59q184 -92 286 -158q-2 -4 -8 -18t-14 -30q-18 -40 -24 -40q-60 38 -172 77t-179 65t-127 56q-136 68 -170 140z" />
<glyph unicode="&#xac;" horiz-adv-x="1228" d="M146 532l6 130q32 -2 93 -2t181 10l254 22q164 12 283 12t211 -22q-10 -110 -10 -156v-66q0 -70 -18 -218q-28 -2 -50 -2t-40 4q-34 10 -34 94l6 208z" />
<glyph unicode="&#xad;" horiz-adv-x="636" d="M60 484q0 26 23 36t80 18t144 24t183 26q40 0 68 -14q40 -20 40 -48q0 -10 -9 -26t-45 -28l-384 -40q-100 0 -100 52z" />
<glyph unicode="&#xae;" horiz-adv-x="1292" d="M76 352q0 80 24 190t61 204t90 182t121 156q150 146 340 146q256 0 392 -188q126 -170 126 -422q0 -298 -190 -464q-186 -160 -494 -160q-178 0 -314 92q-72 46 -114 115t-42 149zM194 366q0 -270 384 -270q316 0 456 190q-12 -2 -26 -2h-20q-18 0 -73 34t-127 78 q-188 120 -282 152v-220q0 -16 -20 -17t-26 -1q-34 0 -41 41t-7 105l4 226q0 94 -12 198q26 50 72 -20q58 52 206 52q90 0 164 -20q118 -28 118 -78q0 -60 -192 -122q-214 -70 -240 -84q0 -6 11 -12t61 -30q178 -88 303 -155t135 -74t14 -15q76 128 76 320v16 q0 230 -114 352t-312 122h-39h-31q-106 0 -210 -144q-98 -132 -168 -338q-64 -188 -64 -284zM480 768q0 -20 2 -36q6 -38 24 -56q4 -2 14 -2t45 8t87 26q122 40 172 70t50 47t-48 25h-78q-220 0 -258 -48q-10 -14 -10 -34z" />
<glyph unicode="&#xaf;" horiz-adv-x="636" d="M60 1118q0 28 23 38t80 18t144 23t183 25q84 0 106 -46q2 -8 2 -17t-9 -24t-45 -27l-384 -40q-100 0 -100 50z" />
<glyph unicode="&#xb0;" horiz-adv-x="450" d="M50 714q0 54 24 94q42 66 120 66q104 0 166 -84q28 -36 34 -82q0 -102 -41 -135t-125 -33q-60 0 -101 30t-59 60t-18 84zM128 703q0 -19 24 -59q36 -30 56 -32t37 -2t37 16q30 20 30 53t-12 61q-46 48 -98 48q-62 0 -74 -60v-25z" />
<glyph unicode="&#xb1;" horiz-adv-x="1074" d="M36 552l384 80v332q0 38 70 38q34 0 44 -13t16 -43t12 -68t11 -80t10 -80t5 -52l374 42q0 -46 -4 -68t-38 -34t-111 -22t-223 -36q-6 -28 -6 -51t3 -54t13 -81q24 -136 26 -198q162 28 302 48q82 0 104 -46q6 -8 6 -17t-9 -25t-45 -28l-736 -106q-102 0 -102 52 q0 26 23 36t53 15t104 17t162 28q-4 42 -8 94t-12 104q-18 118 -44 196q-54 0 -128 -22q-150 -44 -206 -46q-24 0 -37 29t-13 59z" />
<glyph unicode="&#xb2;" horiz-adv-x="768" d="M20 779q1 35 34 68q65 67 183 96q42 12 68 12q25 0 37 -1q49 -4 84 -30q35 -25 41 -77q0 -148 -165 -329q-45 -49 -88 -92q14 -1 43 -1t80 12t109 30q57 17 114 33q56 16 112 16q41 0 41 -27q0 -26 -27 -38t-62 -17q-34 -5 -64 -6t-38 -2q-8 -2 -37 -9q-28 -7 -66 -16 q-39 -9 -84 -19q-141 -32 -225 -31q-42 0 -57 11q-14 11 -6 31q94 69 195 178q151 163 152 255q0 18 -7 33q-14 33 -71 42q-55 0 -90 -19t-65 -42q-31 -23 -63 -42t-78 -19z" />
<glyph unicode="&#xb3;" horiz-adv-x="672" d="M24 853q0 54 27 63q50 11 107 26q184 45 295 44q110 1 135 -59q0 -69 -114 -162q-29 -22 -49 -40q147 -2 175 -66q6 -15 6 -31t-9 -43t-37 -64q-29 -37 -70 -71q-85 -71 -179 -99q-32 -9 -52 -9h-32q-12 1 -25 8t-13 23q90 22 158 62t107 84q47 54 47 89q0 36 -23 49 t-58 12q-91 0 -248 -71l-42 52q362 161 363 231q0 30 -68 39q-71 0 -161 -23t-140 -34q-49 -10 -100 -10z" />
<glyph unicode="&#xb4;" horiz-adv-x="352" d="M50 1052l138 158q28 38 60 38q20 0 30 -19t8 -37t-10 -34t-26 -38q-34 -38 -138 -124z" />
<glyph unicode="&#xb5;" horiz-adv-x="1004" d="M66 452q0 440 86 440q30 0 74 -40q-2 -76 -10 -138q-14 -126 -14 -182t1 -95t17 -117q50 -80 180 -134q94 -40 182 -40t136 37t62 93q16 92 16 148q0 96 -15 203t-15 134t2 43q6 44 60 56q46 -46 72 -226q16 -118 16 -221t-2 -157q-2 -294 -54 -308q-6 -2 -20 -2t-46 18 q-6 4 -6 42q0 74 -4 70q-88 -70 -214 -70q-120 0 -234 52q-102 46 -134 100q-2 -22 -2 -42l8 -176q0 -126 -48 -152q-12 -8 -32 -8t-44 8q2 10 2 33t-2 69l-6 138q-12 280 -12 424z" />
<glyph unicode="&#xb6;" horiz-adv-x="776" d="M36 748q0 110 140 172q98 44 240 44t314 -54l-30 -912l-80 6q-4 0 -4 64l12 716q0 64 -2 64l-22 4q-12 0 -16 -361t-4 -423l-2 -64q-12 0 -32 -1t-38 5q-44 14 -40 72q4 52 6 146q4 192 6 214q-186 36 -292 100q-156 98 -156 208z" />
<glyph unicode="&#xb7;" horiz-adv-x="288" d="M30 480q10 48 34 65t38 17t32 -3t42 -26t28 -55q0 -48 -20 -63t-46 -15t-42 5t-32 15q-34 24 -34 60z" />
<glyph unicode="&#xb8;" horiz-adv-x="546" d="M86 -368q22 -2 54 -2t84 9t100 28t72 41q52 48 -60 64q-24 4 -66 4t-106 -6q-68 0 -68 216q-2 18 -2 30q0 40 24 40t42 -27t10 -33q0 -54 2 -96t38 -42q44 4 95 4t105 -20q80 -32 80 -106q0 -80 -94 -144q-82 -58 -188 -58q-54 0 -116 20q-6 0 -6 10t1 24t2 27t-3 17z " />
<glyph unicode="&#xb9;" horiz-adv-x="230" d="M53 301q0 20 3 62q2 42 4 95t6 111q3 58 5 111t4 95l3 63q-3 23 13 29t35 6t34 -2t21 -17l-25 -535q-3 -19 -43 -26q-41 -8 -60 8z" />
<glyph unicode="&#xba;" horiz-adv-x="556" d="M47 497q0 125 93 202q74 60 178 73h26q20 0 54 -14q75 -30 102 -105q11 -30 11 -50q0 -21 -1 -29q0 -132 -87 -209q-80 -70 -201 -70q-87 0 -130 47q-45 46 -45 155zM110 472q0 -66 30 -89q23 -17 77 -17t95 9q41 10 73 33q68 51 68 158q0 64 -29 104q-32 43 -84 43 q-36 -7 -71 -15q-36 -8 -68 -33q-70 -52 -91 -193z" />
<glyph unicode="&#xbb;" horiz-adv-x="1340" d="M100 792l100 98q98 -70 181 -98t160 -45t153 -40t158 -85q-52 -62 -131 -125t-166 -129t-172 -134t-147 -138q-90 34 -100 72v14q0 62 142 146q210 122 274 171t76 95zM554 848l100 98q98 -70 181 -98t161 -45t153 -40t159 -85q-52 -62 -131 -125t-166 -129t-172 -134 t-149 -138q-176 68 -46 170q66 52 161 106t145 88q118 76 134 134z" />
<glyph unicode="&#xbc;" horiz-adv-x="1270" d="M26 48v20q30 88 790 1228q38 58 44 66q10 -6 10 -28t-24 -92t-87 -202t-152 -289t-185 -307q-222 -344 -360 -460q-36 0 -36 64zM126 313q0 18 2 56t4 86t5 100q3 53 5 101t4 86q1 38 2 56q-3 21 12 26q14 6 32 6t31 -2t19 -15l-23 -483q-3 -17 -39 -24q-37 -7 -54 7z M333 296q64 77 125 156q193 246 265 246q80 0 80 -263q0 -34 -1 -73l268 4q0 -29 -8 -43t-14 -15l-225 -17q-17 -44 -20 -100q-6 -91 -6 -152l-71 -10q-26 0 -29 14l5 224h-89l-145 1h-88q-16 0 -32 5t-15 23zM460 328h38t84 6t120 13v245q-27 -34 -65 -66t-75 -65 q-36 -32 -65 -65t-37 -68z" />
<glyph unicode="&#xbd;" horiz-adv-x="1328" d="M46 64v20q30 88 790 1228q38 58 44 66q10 -6 10 -28t-24 -92t-87 -202t-152 -289t-185 -307q-222 -344 -360 -460q-36 0 -36 64zM53 297q0 18 2 56t5 87q2 48 5 101t6 101q2 48 3 86l3 57q-3 21 13 26q15 6 34 6t34 -2t21 -15l-25 -486q-3 -17 -43 -24t-58 7zM386 513 q1 39 34 76q66 76 185 109q43 13 69 13q25 0 37 -2q49 -5 85 -33q35 -28 41 -87q0 -167 -166 -371q-45 -56 -89 -103q14 -1 43 -1q30 0 81 14q52 14 110 33q58 20 115 37q56 18 113 18q42 0 42 -30t-28 -43q-28 -14 -62 -20q-35 -6 -65 -6q-30 -1 -39 -3l-36 -9 q-28 -8 -68 -18q-39 -10 -84 -22q-142 -36 -227 -35q-43 0 -57 12t-6 35q95 78 197 201q153 183 152 287q0 20 -6 38q-14 37 -72 47q-55 0 -91 -21q-35 -21 -66 -47t-63 -48q-32 -21 -79 -21z" />
<glyph unicode="&#xbe;" horiz-adv-x="1766" d="M18 834q0 58 32 68q59 12 126 27q217 48 347 48t160 -64q0 -74 -136 -174q-34 -23 -57 -42q173 -2 207 -71q7 -16 7 -34q0 -17 -11 -46t-44 -68q-34 -39 -82 -77q-100 -76 -211 -106q-38 -10 -61 -9h-38q-14 1 -29 8t-16 25q106 23 186 66t127 90q55 58 55 96t-27 52 t-69 14q-107 0 -291 -77l-50 56q427 173 427 247q0 32 -80 42q-83 0 -190 -24q-106 -25 -164 -36t-118 -11zM404 24v20q30 88 790 1228q38 58 44 66q10 -6 10 -28t-24 -92t-87 -202t-152 -289t-185 -307q-222 -344 -360 -460q-36 0 -36 64zM630 332q70 87 136 176 q209 279 287 279q87 0 87 -298q0 -39 -1 -83l291 4q0 -33 -9 -49q-9 -15 -15 -16l-244 -20q-18 -50 -22 -113q-7 -103 -7 -172l-76 -11q-28 0 -32 15l6 255h-97l-158 1h-94q-17 0 -35 5q-17 5 -17 27zM768 368h41t91 7t131 15v277q-29 -39 -71 -75q-41 -37 -81 -73 q-40 -37 -71 -74q-32 -37 -40 -77z" />
<glyph unicode="&#xbf;" horiz-adv-x="992" d="M-59 294q0 136 188 303q101 89 266 179l-193 67v46q40 6 106 6q264 0 263 -101q0 -16 -6 -37q-225 -150 -294 -203q-218 -167 -219 -274q0 -95 177 -146q72 0 181 23t166 34t115 12q18 0 41 -31q23 -30 29 -61q-212 -83 -405 -83q-139 0 -232 40q-183 77 -183 226z M240 1383q0 33 15 54t30 21q14 0 26 -4q60 0 60 -71t-60 -71q-12 -4 -26 -4t-30 21q-15 21 -15 54z" />
<glyph unicode="&#xc0;" horiz-adv-x="1312" d="M42 54q0 4 42 116t85 227t90 241t89 240t76 205t48 132t19 72t15 53q20 46 100 46q86 -48 133 -125t80 -165t65 -178t86 -164q18 -28 54 -30t64 -2h56q34 0 65 -6t31 -44q14 -80 -94 -78q-30 2 -55 4t-41 1t-14 -11q20 -58 43 -130t51 -144q72 -178 136 -256 q-34 -42 -79 -70t-48 -28t-5 2l-282 594l-546 -134l-20 -84q-58 -230 -130 -320q-12 -20 -50 -4q-64 24 -64 40zM368 574q136 0 334 80q50 22 96 40q-94 402 -210 460q-16 -122 -72 -250t-90 -199t-58 -131zM506 1678q0 56 30 56q18 0 44 -28l134 -130l-34 -86 q-132 90 -156 130q-8 16 -13 32t-5 26z" />
<glyph unicode="&#xc1;" horiz-adv-x="1312" d="M52 64q0 4 42 116t85 227t90 241t89 240t76 205t48 132t19 72t15 53q20 46 100 46q86 -48 133 -125t80 -165t65 -178t86 -164q18 -28 54 -30t64 -2h56q34 0 65 -6t31 -44q14 -80 -94 -78q-30 2 -55 4t-41 1t-14 -11q20 -58 43 -130t51 -144q72 -178 136 -256 q-34 -42 -79 -70t-48 -28t-5 2l-282 594l-546 -134l-20 -84q-58 -230 -130 -320q-12 -20 -50 -4q-64 24 -64 40zM378 584q136 0 334 80q50 22 96 40q-94 402 -210 460q-16 -122 -72 -250t-90 -199t-58 -131zM412 1562l138 158q28 38 60 38q20 0 30 -19t8 -37t-10 -34 t-26 -38q-34 -38 -138 -124z" />
<glyph unicode="&#xc2;" horiz-adv-x="1312" d="M52 64q0 4 42 116t85 227t90 241t89 240t76 205t48 132t19 72t15 53q20 46 100 46q86 -48 133 -125t80 -165t65 -178t86 -164q18 -28 54 -30t64 -2h56q34 0 65 -6t31 -44q14 -80 -94 -78q-30 2 -55 4t-41 1t-14 -11q20 -58 43 -130t51 -144q72 -178 136 -256 q-34 -42 -79 -70t-48 -28t-5 2l-282 594l-546 -134l-20 -84q-58 -230 -130 -320q-12 -20 -50 -4q-64 24 -64 40zM316 1410q0 38 21 74t59 76q84 88 208 146q102 -66 136 -94q56 -50 128 -162q12 -24 12 -45t-8 -33q-22 -32 -72 -2q-74 54 -87 66t-37 38t-86 86 q-122 -84 -166 -156q-14 -24 -26 -52q-36 0 -59 10t-23 48zM378 584q136 0 334 80q50 22 96 40q-94 402 -210 460q-16 -122 -72 -250t-90 -199t-58 -131z" />
<glyph unicode="&#xc3;" horiz-adv-x="1312" d="M52 64q0 4 42 116t85 227t90 241t89 240t76 205t48 132t19 72t15 53q20 46 100 46q86 -48 133 -125t80 -165t65 -178t86 -164q18 -28 54 -30t64 -2h56q34 0 65 -6t31 -44q14 -80 -94 -78q-30 2 -55 4t-41 1t-14 -11q20 -58 43 -130t51 -144q72 -178 136 -256 q-34 -42 -79 -70t-48 -28t-5 2l-282 594l-546 -134l-20 -84q-58 -230 -130 -320q-12 -20 -50 -4q-64 24 -64 40zM264 1476q30 96 90 170t126 100q16 6 36 6t49 -21t65 -59t74 -72t81 -34t68 14t46 40t46 64t71 86q12 0 25 -21t14 -36t1 -37t-15 -58t-49 -72 q-88 -94 -212 -94q-92 0 -148 62q-40 36 -68 59t-56 23q-64 0 -172 -162q-12 0 -39 8t-33 34zM378 584q136 0 334 80q50 22 96 40q-94 402 -210 460q-16 -122 -72 -250t-90 -199t-58 -131z" />
<glyph unicode="&#xc4;" horiz-adv-x="1312" d="M52 64q0 4 42 116t85 227t90 241t89 240t76 205t48 132t19 72t15 53q20 46 100 46q86 -48 133 -125t80 -165t65 -178t86 -164q18 -28 54 -30t64 -2h56q34 0 65 -6t31 -44q14 -80 -94 -78q-30 2 -55 4t-41 1t-14 -11q20 -58 43 -130t51 -144q72 -178 136 -256 q-34 -42 -79 -70t-48 -28t-5 2l-282 594l-546 -134l-20 -84q-58 -230 -130 -320q-12 -20 -50 -4q-64 24 -64 40zM378 584q136 0 334 80q50 22 96 40q-94 402 -210 460q-16 -122 -72 -250t-90 -199t-58 -131zM412 1564q0 24 100 66q42 0 57 -18t15 -46t-12 -41t-30 -19 q-24 -10 -82 -10q-48 0 -48 68zM700 1564q0 26 102 66q72 0 72 -68q0 -62 -84 -64q-22 -2 -42 -2q-48 0 -48 68z" />
<glyph unicode="&#xc5;" horiz-adv-x="1312" d="M52 64q0 4 42 116t85 227t90 241t89 240t76 205t48 132t19 72t15 53q20 46 100 46q86 -48 133 -125t80 -165t65 -178t86 -164q18 -28 54 -30t64 -2h56q34 0 65 -6t31 -44q14 -80 -94 -78q-30 2 -55 4t-41 1t-14 -11q20 -58 43 -130t51 -144q72 -178 136 -256 q-34 -42 -79 -70t-48 -28t-5 2l-282 594l-546 -134l-20 -84q-58 -230 -130 -320q-12 -20 -50 -4q-64 24 -64 40zM378 584q136 0 334 80q50 22 96 40q-94 402 -210 460q-16 -122 -72 -250t-90 -199t-58 -131zM406 1511q0 53 24 93q40 66 120 66q52 0 98 -24q94 -50 102 -142 q0 -100 -42 -133t-122 -33q-62 0 -103 30t-59 60t-18 83zM484 1499q0 -19 24 -57q42 -34 76 -34q70 0 84 60v26t-12 44q-44 46 -98 46q-62 0 -74 -60v-25z" />
<glyph unicode="&#xc6;" horiz-adv-x="1796" d="M60 104q0 26 20 103t56 180t81 218t91 223q108 254 162 338q42 92 90 138q58 56 104 56q92 0 138 -84q64 -16 168 -18t216 -2q290 0 374 -32v-100q-44 -6 -98 -6l-278 6q-138 0 -230 -20q-38 -176 -34 -226t6 -82q6 -100 6 -184q144 0 266 16q240 32 368 32v-108 l-618 -76l10 -328q230 0 372 12q258 22 430 22q8 -4 8 -18t-14 -32q-38 -50 -104 -64q-222 -24 -442 -38t-414 -30v6q-64 10 -68 14l-50 484l-352 -52q-8 -30 -21 -83t-31 -111q-44 -142 -98 -210q-12 -16 -48 -3t-51 23t-15 36zM386 604q88 0 144 12q106 24 168 26 q-6 28 -6 68l8 254q0 112 -16 208q-250 -366 -298 -568z" />
<glyph unicode="&#xc7;" horiz-adv-x="1450" d="M44 500q0 164 59 314t162 265t244 183t303 68q138 0 180 -38q52 -46 52 -182q-130 128 -288 128q-150 0 -288 -114q-174 -144 -240 -372q-24 -82 -24 -136t4 -84q0 -198 134 -304q126 -98 322 -98q268 22 514 206q68 52 144 100q28 0 57 -8t29 -46q-198 -172 -334 -248 q-252 -136 -456 -136h-26q-222 0 -380 138q-168 146 -168 364zM528 -354q22 -2 54 -2t84 9t100 28t72 41q52 48 -60 64q-24 4 -66 4t-106 -6q-68 0 -68 216q-2 18 -2 30q0 40 24 40t42 -27t10 -33q0 -54 2 -96t38 -42q44 4 95 4t105 -20q80 -32 80 -106q0 -80 -94 -144 q-82 -58 -188 -58q-54 0 -116 20q-6 0 -6 10t1 24t2 27t-3 17z" />
<glyph unicode="&#xc8;" horiz-adv-x="1212" d="M60 0l8 1276q52 -16 192 -16l446 10q200 0 266 -26v-98q-54 -8 -148 -9t-200 -3q-296 -6 -404 -30q-34 -160 -32 -218t4 -90q8 -78 8 -184q136 0 311 24t271 35t198 11v-110l-766 -96l12 -328q198 0 405 19t314 28t227 9q0 -40 -24 -76q-48 -64 -86 -38 q-352 -38 -629 -60t-373 -30zM374 1536q0 56 30 56q18 0 44 -28l134 -130l-34 -86q-132 90 -156 130q-8 16 -13 32t-5 26z" />
<glyph unicode="&#xc9;" horiz-adv-x="1212" d="M60 0l8 1276q52 -16 192 -16l446 10q200 0 266 -26v-98q-54 -8 -148 -9t-200 -3q-296 -6 -404 -30q-34 -160 -32 -218t4 -90q8 -78 8 -184q136 0 311 24t271 35t198 11v-110l-766 -96l12 -328q198 0 405 19t314 28t227 9q0 -40 -24 -76q-48 -64 -86 -38 q-352 -38 -629 -60t-373 -30zM424 1418l138 158q28 38 60 38q20 0 30 -19t8 -37t-10 -34t-26 -38q-34 -38 -138 -124z" />
<glyph unicode="&#xca;" horiz-adv-x="1212" d="M60 0l8 1276q52 -16 192 -16l446 10q200 0 266 -26v-98q-54 -8 -148 -9t-200 -3q-296 -6 -404 -30q-34 -160 -32 -218t4 -90q8 -78 8 -184q136 0 311 24t271 35t198 11v-110l-766 -96l12 -328q198 0 405 19t314 28t227 9q0 -40 -24 -76q-48 -64 -86 -38 q-352 -38 -629 -60t-373 -30zM286 1410q0 38 21 74t59 76q84 88 208 146q102 -66 136 -94q56 -50 128 -162q12 -24 12 -45t-8 -33q-22 -32 -72 -2q-74 54 -87 66t-37 38t-86 86q-122 -84 -166 -156q-14 -24 -26 -52q-36 0 -59 10t-23 48z" />
<glyph unicode="&#xcb;" horiz-adv-x="1212" d="M60 0l8 1276q52 -16 192 -16l446 10q200 0 266 -26v-98q-54 -8 -148 -9t-200 -3q-296 -6 -404 -30q-34 -160 -32 -218t4 -90q8 -78 8 -184q136 0 311 24t271 35t198 11v-110l-766 -96l12 -328q198 0 405 19t314 28t227 9q0 -40 -24 -76q-48 -64 -86 -38 q-352 -38 -629 -60t-373 -30zM332 1414q0 24 100 66q42 0 57 -18t15 -46t-12 -41t-30 -19q-24 -10 -82 -10q-48 0 -48 68zM620 1414q0 26 102 66q72 0 72 -68q0 -62 -84 -64q-22 -2 -42 -2q-48 0 -48 68z" />
<glyph unicode="&#xcc;" d="M16 1466q0 56 30 56q18 0 44 -28l134 -130l-34 -86q-132 90 -156 130q-8 16 -13 32t-5 26zM52 290q0 204 4 337t8 245q12 244 12 258q58 34 96 34t38 -34v-1098q0 -34 -48 -34q-36 0 -86 34q-24 54 -24 258z" />
<glyph unicode="&#xcd;" d="M24 1264l138 158q28 38 60 38q20 0 30 -19t8 -37t-10 -34t-26 -38q-34 -38 -138 -124zM52 290q0 204 4 337t8 245q12 244 12 258q58 34 96 34t38 -34v-1098q0 -34 -48 -34q-36 0 -86 34q-24 54 -24 258z" />
<glyph unicode="&#xce;" d="M-114 1278q0 38 21 74t59 76q84 88 208 146q102 -66 136 -94q56 -50 128 -162q12 -24 12 -45t-8 -33q-22 -32 -72 -2q-74 54 -87 66t-37 38t-86 86q-122 -84 -166 -156q-14 -24 -26 -52q-36 0 -59 10t-23 48zM52 290q0 204 4 337t8 245q12 244 12 258q58 34 96 34t38 -34 v-1098q0 -34 -48 -34q-36 0 -86 34q-24 54 -24 258z" />
<glyph unicode="&#xcf;" d="M-94 1324q0 24 100 66q42 0 57 -18t15 -46t-12 -41t-30 -19q-24 -10 -82 -10q-48 0 -48 68zM52 290q0 204 4 337t8 245q12 244 12 258q58 34 96 34t38 -34v-1098q0 -34 -48 -34q-36 0 -86 34q-24 54 -24 258zM194 1324q0 26 102 66q72 0 72 -68q0 -62 -84 -64 q-22 -2 -42 -2q-48 0 -48 68z" />
<glyph unicode="&#xd0;" horiz-adv-x="1396" d="M20 438q0 28 23 38t42 13t32 4t29 5v778h26q48 0 75 -15t31 -33q148 52 392 52q448 0 614 -220q62 -84 62 -214q2 -16 2 -60t-33 -122t-100 -158t-159 -151t-194 -131t-206 -104q-244 -106 -418 -106q-54 0 -92 14v360h-26q-100 0 -100 50zM314 142q140 0 350 102 q364 180 500 418q48 84 48 168q-22 180 -200 264q-134 64 -342 64t-356 -62v-572q66 12 136 18q84 0 106 -46q8 -18 -4 -37t-48 -31l-190 -22v-264z" />
<glyph unicode="&#xd1;" horiz-adv-x="1284" d="M50 23q0 21 5 66t12 151t13 224q16 308 16 531t-4 367q44 40 68 58t54 -1t77 -82t133 -187q294 -418 578 -784l38 996q22 40 44 55t58 15q70 0 70 -128l-2 -74l6 -524q0 -608 -50 -712l-146 12q-110 190 -370 534q-102 136 -203 270t-185 266q-40 -178 -40 -712 q0 -204 -8 -344q-38 -36 -83 -36t-63 9t-18 30zM244 1518q30 96 90 170t126 100q16 6 36 6t49 -21t65 -59t74 -72t81 -34t68 14t46 40t46 64t71 86q12 0 25 -21t14 -36t1 -37t-15 -58t-49 -72q-88 -94 -212 -94q-92 0 -148 62q-40 36 -68 59t-56 23q-64 0 -172 -162 q-12 0 -39 8t-33 34z" />
<glyph unicode="&#xd2;" horiz-adv-x="1372" d="M44 590q0 146 47 259t129 195q174 170 436 170q274 0 452 -126q200 -144 200 -412q0 -332 -153 -490t-477 -158q-450 0 -586 308q-48 108 -48 254zM208 630q0 -472 476 -472q234 0 380 140q146 138 146 362q0 210 -174 320q-148 96 -374 96q-180 0 -318 -130 q-136 -130 -136 -316zM564 1492q0 56 30 56q18 0 44 -28l134 -130l-34 -86q-132 90 -156 130q-8 16 -13 32t-5 26z" />
<glyph unicode="&#xd3;" horiz-adv-x="1372" d="M44 590q0 146 47 259t129 195q174 170 436 170q274 0 452 -126q200 -144 200 -412q0 -332 -153 -490t-477 -158q-450 0 -586 308q-48 108 -48 254zM208 630q0 -472 476 -472q234 0 380 140q146 138 146 362q0 210 -174 320q-148 96 -374 96q-180 0 -318 -130 q-136 -130 -136 -316zM580 1350l138 158q28 38 60 38q20 0 30 -19t8 -37t-10 -34t-26 -38q-34 -38 -138 -124z" />
<glyph unicode="&#xd4;" horiz-adv-x="1372" d="M44 590q0 146 47 259t129 195q174 170 436 170q274 0 452 -126q200 -144 200 -412q0 -332 -153 -490t-477 -158q-450 0 -586 308q-48 108 -48 254zM208 630q0 -472 476 -472q234 0 380 140q146 138 146 362q0 210 -174 320q-148 96 -374 96q-180 0 -318 -130 q-136 -130 -136 -316zM408 1290q0 38 21 74t59 76q84 88 208 146q102 -66 136 -94q56 -50 128 -162q12 -24 12 -45t-8 -33q-22 -32 -72 -2q-74 54 -87 66t-37 38t-86 86q-122 -84 -166 -156q-14 -24 -26 -52q-36 0 -59 10t-23 48z" />
<glyph unicode="&#xd5;" horiz-adv-x="1372" d="M44 590q0 146 47 259t129 195q174 170 436 170q274 0 452 -126q200 -144 200 -412q0 -332 -153 -490t-477 -158q-450 0 -586 308q-48 108 -48 254zM208 630q0 -472 476 -472q234 0 380 140q146 138 146 362q0 210 -174 320q-148 96 -374 96q-180 0 -318 -130 q-136 -130 -136 -316zM344 1304q30 96 90 170t126 100q16 6 36 6t49 -21t65 -59t74 -72t81 -34t68 14t46 40t46 64t71 86q12 0 25 -21t14 -36t1 -37t-15 -58t-49 -72q-88 -94 -212 -94q-92 0 -148 62q-40 36 -68 59t-56 23q-64 0 -172 -162q-12 0 -39 8t-33 34z" />
<glyph unicode="&#xd6;" horiz-adv-x="1372" d="M44 590q0 146 47 259t129 195q174 170 436 170q274 0 452 -126q200 -144 200 -412q0 -332 -153 -490t-477 -158q-450 0 -586 308q-48 108 -48 254zM208 630q0 -472 476 -472q234 0 380 140q146 138 146 362q0 210 -174 320q-148 96 -374 96q-180 0 -318 -130 q-136 -130 -136 -316zM456 1360q0 24 100 66q42 0 57 -18t15 -46t-12 -41t-30 -19q-24 -10 -82 -10q-48 0 -48 68zM744 1360q0 26 102 66q72 0 72 -68q0 -62 -84 -64q-22 -2 -42 -2q-48 0 -48 68z" />
<glyph unicode="&#xd7;" horiz-adv-x="964" d="M152 750l84 92q66 -80 97 -122t51 -68q34 -46 92 -100q20 26 44 63t52 77q62 92 116 158q34 0 53 -23t19 -45q-38 -82 -86 -143t-69 -90t-33 -65q92 -66 208 -212q28 -34 40 -52q0 -20 -25 -45t-33 -29q-28 14 -58 48t-64 74q-86 108 -142 150q-192 -230 -238 -268 q-42 0 -66 18t-30 28q86 86 151 169t81 113q-70 76 -119 132t-87 97t-38 43z" />
<glyph unicode="&#xd8;" horiz-adv-x="1372" d="M44 590q0 146 47 259t129 195q174 170 436 170q274 0 452 -126q200 -144 200 -412q0 -332 -153 -490t-477 -158q-450 0 -586 308q-48 108 -48 254zM208 630q0 -472 476 -472q234 0 380 140q146 138 146 362q0 210 -174 320q-148 96 -374 96q-180 0 -318 -130 q-136 -130 -136 -316zM222 -2v20q30 88 790 1228q38 58 44 66q10 -6 10 -28t-24 -92t-87 -202t-152 -289t-185 -307q-222 -344 -360 -460q-36 0 -36 64z" />
<glyph unicode="&#xd9;" horiz-adv-x="1150" d="M40 388q0 156 80 530q26 116 34 212q6 2 26 2h24q10 2 18 2q64 0 64 -96q0 -66 -26 -164q-80 -322 -80 -446q0 -130 68 -204q44 -48 138 -58h24q326 0 428 314q60 184 70 444q6 120 10 238q22 60 60 60t84 -34q6 -116 6 -228l-20 -764q0 -82 4 -164q0 -36 -62 -36 q-30 0 -55 9t-31 15l20 256q-184 -158 -268 -198q-132 -66 -270 -66q-26 0 -54 2q-292 32 -292 374zM454 1390q0 56 30 56q18 0 44 -28l134 -130l-34 -86q-132 90 -156 130q-8 16 -13 32t-5 26z" />
<glyph unicode="&#xda;" horiz-adv-x="1150" d="M40 388q0 156 80 530q26 116 34 212q6 2 26 2h24q10 2 18 2q64 0 64 -96q0 -66 -26 -164q-80 -322 -80 -446q0 -130 68 -204q44 -48 138 -58h24q326 0 428 314q60 184 70 444q6 120 10 238q22 60 60 60t84 -34q6 -116 6 -228l-20 -764q0 -82 4 -164q0 -36 -62 -36 q-30 0 -55 9t-31 15l20 256q-184 -158 -268 -198q-132 -66 -270 -66q-26 0 -54 2q-292 32 -292 374zM496 1336l138 158q28 38 60 38q20 0 30 -19t8 -37t-10 -34t-26 -38q-34 -38 -138 -124z" />
<glyph unicode="&#xdb;" horiz-adv-x="1150" d="M40 388q0 156 80 530q26 116 34 212q6 2 26 2h24q10 2 18 2q64 0 64 -96q0 -66 -26 -164q-80 -322 -80 -446q0 -130 68 -204q44 -48 138 -58h24q326 0 428 314q60 184 70 444q6 120 10 238q22 60 60 60t84 -34q6 -116 6 -228l-20 -764q0 -82 4 -164q0 -36 -62 -36 q-30 0 -55 9t-31 15l20 256q-184 -158 -268 -198q-132 -66 -270 -66q-26 0 -54 2q-292 32 -292 374zM324 1332q0 38 21 74t59 76q84 88 208 146q102 -66 136 -94q56 -50 128 -162q12 -24 12 -45t-8 -33q-22 -32 -72 -2q-74 54 -87 66t-37 38t-86 86q-122 -84 -166 -156 q-14 -24 -26 -52q-36 0 -59 10t-23 48z" />
<glyph unicode="&#xdc;" horiz-adv-x="1150" d="M40 388q0 156 80 530q26 116 34 212q6 2 26 2h24q10 2 18 2q64 0 64 -96q0 -66 -26 -164q-80 -322 -80 -446q0 -130 68 -204q44 -48 138 -58h24q326 0 428 314q60 184 70 444q6 120 10 238q22 60 60 60t84 -34q6 -116 6 -228l-20 -764q0 -82 4 -164q0 -36 -62 -36 q-30 0 -55 9t-31 15l20 256q-184 -158 -268 -198q-132 -66 -270 -66q-26 0 -54 2q-292 32 -292 374zM364 1372q0 24 100 66q42 0 57 -18t15 -46t-12 -41t-30 -19q-24 -10 -82 -10q-48 0 -48 68zM652 1372q0 26 102 66q72 0 72 -68q0 -62 -84 -64q-22 -2 -42 -2q-48 0 -48 68 z" />
<glyph unicode="&#xdd;" horiz-adv-x="1094" d="M56 1172q0 14 16 22q26 12 63 12t76 -12t97 -60q114 -96 374 -406q118 344 170 443t83 128t56 31t43 -2t26 -28q-62 -132 -119 -299t-117 -345q-158 -472 -268 -692q-32 0 -68 20q-70 42 -56 74q24 42 62 168l54 180q28 86 56 190l-534 544q-14 18 -14 32zM504 1376 l138 158q28 38 60 38q20 0 30 -19t8 -37t-10 -34t-26 -38q-34 -38 -138 -124z" />
<glyph unicode="&#xde;" horiz-adv-x="1036" d="M66 1382q0 20 23 38t54 18t57 -17t20 -47l10 -498q126 166 314 264q132 70 238 70q124 0 186 -98q40 -64 40 -163t-38 -176t-101 -147t-145 -128q-168 -118 -344 -158q-56 -12 -95 -12t-65 4l-8 -282q0 -48 -58 -48l-34 8q-20 10 -30 32l-22 1312q-2 8 -2 28zM236 492 q0 -30 58 -30q68 0 158 39t164 93q176 126 276 316q-28 126 -162 126q-94 0 -192 -58q-194 -114 -272 -290q-30 -70 -30 -117v-61v-18z" />
<glyph unicode="&#xdf;" horiz-adv-x="1456" d="M146 1096v102q0 56 64 98q36 24 123 39t161 15t169 -7t209 -45t173 -94t59 -114q0 -88 -119 -177t-357 -171q462 -26 632 -134q92 -58 92 -138q0 -108 -148 -218q-166 -124 -420 -208q-124 -42 -250 -62l-14 156q230 32 375 88t206 114t61 110q0 74 -96 120 q-136 66 -372 66q-118 0 -266 -18l-8 210q482 100 482 234q0 94 -170 138q-114 30 -244 30h-42q-164 0 -184 -34l30 -1486h-136q22 140 22 335t-7 384t-16 387t-9 280z" />
<glyph unicode="&#xe0;" horiz-adv-x="1042" d="M36 263q0 45 20 119t73 160t129 158q158 152 342 196q54 12 99 12t81 -6q116 0 156 -158q26 -100 31 -279t10 -276t25 -177h-118q-8 54 -12 96t-8 78q-10 84 -24 146q-150 -236 -400 -292q-58 -12 -105 -12t-78 1t-69 9t-70 26q-74 42 -74 118q-8 36 -8 81zM172 272 q0 -118 136 -140q180 4 344 164q70 70 116 152q64 110 64 194q0 116 -114 116q-14 2 -28 2q-146 0 -308 -140q-76 -64 -130 -144q-80 -114 -80 -204zM420 1176q0 56 30 56q18 0 44 -28l134 -130l-34 -86q-132 90 -156 130q-8 16 -13 32t-5 26z" />
<glyph unicode="&#xe1;" horiz-adv-x="1042" d="M36 263q0 45 20 119t73 160t129 158q158 152 342 196q54 12 99 12t81 -6q116 0 156 -158q26 -100 31 -279t10 -276t25 -177h-118q-8 54 -12 96t-8 78q-10 84 -24 146q-150 -236 -400 -292q-58 -12 -105 -12t-78 1t-69 9t-70 26q-74 42 -74 118q-8 36 -8 81zM172 272 q0 -118 136 -140q180 4 344 164q70 70 116 152q64 110 64 194q0 116 -114 116q-14 2 -28 2q-146 0 -308 -140q-76 -64 -130 -144q-80 -114 -80 -204zM402 1052l138 158q28 38 60 38q20 0 30 -19t8 -37t-10 -34t-26 -38q-34 -38 -138 -124z" />
<glyph unicode="&#xe2;" horiz-adv-x="1042" d="M36 263q0 45 20 119t73 160t129 158q158 152 342 196q54 12 99 12t81 -6q116 0 156 -158q26 -100 31 -279t10 -276t25 -177h-118q-8 54 -12 96t-8 78q-10 84 -24 146q-150 -236 -400 -292q-58 -12 -105 -12t-78 1t-69 9t-70 26q-74 42 -74 118q-8 36 -8 81zM172 272 q0 -118 136 -140q180 4 344 164q70 70 116 152q64 110 64 194q0 116 -114 116q-14 2 -28 2q-146 0 -308 -140q-76 -64 -130 -144q-80 -114 -80 -204zM228 1078q0 38 21 74t59 76q84 88 208 146q102 -66 136 -94q56 -50 128 -162q12 -24 12 -45t-8 -33q-22 -32 -72 -2 q-74 54 -87 66t-37 38t-86 86q-122 -84 -166 -156q-14 -24 -26 -52q-36 0 -59 10t-23 48z" />
<glyph unicode="&#xe3;" horiz-adv-x="1042" d="M36 263q0 45 20 119t73 160t129 158q158 152 342 196q54 12 99 12t81 -6q116 0 156 -158q26 -100 31 -279t10 -276t25 -177h-118q-8 54 -12 96t-8 78q-10 84 -24 146q-150 -236 -400 -292q-58 -12 -105 -12t-78 1t-69 9t-70 26q-74 42 -74 118q-8 36 -8 81zM110 1014 q30 96 90 170t126 100q16 6 36 6t49 -21t65 -59t74 -72t81 -34t68 14t46 40t46 64t71 86q12 0 25 -21t14 -36t1 -37t-15 -58t-49 -72q-88 -94 -212 -94q-92 0 -148 62q-40 36 -68 59t-56 23q-64 0 -172 -162q-12 0 -39 8t-33 34zM172 272q0 -118 136 -140q180 4 344 164 q70 70 116 152q64 110 64 194q0 116 -114 116q-14 2 -28 2q-146 0 -308 -140q-76 -64 -130 -144q-80 -114 -80 -204z" />
<glyph unicode="&#xe4;" horiz-adv-x="1042" d="M36 263q0 45 20 119t73 160t129 158q158 152 342 196q54 12 99 12t81 -6q116 0 156 -158q26 -100 31 -279t10 -276t25 -177h-118q-8 54 -12 96t-8 78q-10 84 -24 146q-150 -236 -400 -292q-58 -12 -105 -12t-78 1t-69 9t-70 26q-74 42 -74 118q-8 36 -8 81zM172 272 q0 -118 136 -140q180 4 344 164q70 70 116 152q64 110 64 194q0 116 -114 116q-14 2 -28 2q-146 0 -308 -140q-76 -64 -130 -144q-80 -114 -80 -204zM288 1262q0 24 100 66q42 0 57 -18t15 -46t-12 -41t-30 -19q-24 -10 -82 -10q-48 0 -48 68zM576 1262q0 26 102 66 q72 0 72 -68q0 -62 -84 -64q-22 -2 -42 -2q-48 0 -48 68z" />
<glyph unicode="&#xe5;" horiz-adv-x="1042" d="M36 263q0 45 20 119t73 160t129 158q158 152 342 196q54 12 99 12t81 -6q116 0 156 -158q26 -100 31 -279t10 -276t25 -177h-118q-8 54 -12 96t-8 78q-10 84 -24 146q-150 -236 -400 -292q-58 -12 -105 -12t-78 1t-69 9t-70 26q-74 42 -74 118q-8 36 -8 81zM172 272 q0 -118 136 -140q180 4 344 164q70 70 116 152q64 110 64 194q0 116 -114 116q-14 2 -28 2q-146 0 -308 -140q-76 -64 -130 -144q-80 -114 -80 -204zM370 933q0 53 24 93q40 66 120 66q52 0 98 -24q94 -50 102 -142q0 -100 -42 -133t-122 -33q-62 0 -103 30t-59 60t-18 83z M448 921q0 -19 24 -57q42 -34 76 -34q70 0 84 60v26t-12 44q-44 46 -98 46q-62 0 -74 -60v-25z" />
<glyph unicode="&#xe6;" horiz-adv-x="1892" d="M36 263q0 45 20 119t73 160t129 158q158 152 342 196q54 12 99 12t81 -6q116 0 156 -158q26 -100 31 -279t10 -276t25 -177h-118q-8 54 -12 96t-8 78q-10 84 -24 146q-150 -236 -400 -292q-58 -12 -105 -12t-78 1t-69 9t-70 26q-74 42 -74 118q-8 36 -8 81zM172 272 q0 -118 136 -140q180 4 344 164q70 70 116 152q64 110 64 194q0 116 -114 116q-14 2 -28 2q-146 0 -308 -140q-76 -64 -130 -144q-80 -114 -80 -204zM876 332q0 64 33 169t113 199t188 148t230 54q116 0 260 -80q68 -38 108 -86t40 -98q0 -14 -2 -28q-4 -122 -118 -154 q-50 -14 -116 -14l-288 12q-144 0 -220 -62q-44 -34 -62 -102q50 -182 256 -182q176 0 530 160q22 0 36 -15t14 -35q-80 -136 -306 -212t-422 -26q-222 58 -270 250q-4 38 -4 102zM1112 584q160 -14 240 -14q222 0 300 38q48 20 48 50q0 36 -45 68t-93 46t-80 14t-104 -21 t-128 -47q-138 -64 -138 -134z" />
<glyph unicode="&#xe7;" horiz-adv-x="1296" d="M44 316v48t30 103t90 134t140 123q168 120 352 156q64 14 107 14t71 -1t58 -4t52 -15q52 -26 52 -102q0 -48 -68 -94q-18 -12 -32 -22q-10 46 -26 78t-70 32q-236 -50 -406 -150q-192 -114 -192 -240q0 -14 2 -30q0 -128 98 -182q74 -40 191 -40t203 27t167 60t159 61 t149 28t71 -44q0 -10 -5 -31t-54 -50t-120 -55t-155 -48t-164 -38q-166 -34 -236 -34t-151 16t-151 52q-162 84 -162 248zM340 -368q22 -2 54 -2t84 9t100 28t72 41q52 48 -60 64q-24 4 -66 4t-106 -6q-68 0 -68 216q-2 18 -2 30q0 40 24 40t42 -27t10 -33q0 -54 2 -96 t38 -42q44 4 95 4t105 -20q80 -32 80 -106q0 -80 -94 -144q-82 -58 -188 -58q-54 0 -116 20q-6 0 -6 10t1 24t2 27t-3 17z" />
<glyph unicode="&#xe8;" horiz-adv-x="1108" d="M40 364q0 64 33 169t113 199t188 148t230 54q116 0 260 -80q68 -38 108 -86t40 -98q0 -14 -2 -28q-4 -122 -118 -154q-50 -14 -116 -14l-288 12q-144 0 -220 -62q-44 -34 -62 -102q50 -182 256 -182q176 0 530 160q22 0 36 -15t14 -35q-80 -136 -306 -212t-422 -26 q-222 58 -270 250q-4 38 -4 102zM276 616q160 -14 240 -14q222 0 300 38q48 20 48 50q0 36 -45 68t-93 46t-80 14t-104 -21t-128 -47q-138 -64 -138 -134zM452 1176q0 56 30 56q18 0 44 -28l134 -130l-34 -86q-132 90 -156 130q-8 16 -13 32t-5 26z" />
<glyph unicode="&#xe9;" horiz-adv-x="1108" d="M40 364q0 64 33 169t113 199t188 148t230 54q116 0 260 -80q68 -38 108 -86t40 -98q0 -14 -2 -28q-4 -122 -118 -154q-50 -14 -116 -14l-288 12q-144 0 -220 -62q-44 -34 -62 -102q50 -182 256 -182q176 0 530 160q22 0 36 -15t14 -35q-80 -136 -306 -212t-422 -26 q-222 58 -270 250q-4 38 -4 102zM276 616q160 -14 240 -14q222 0 300 38q48 20 48 50q0 36 -45 68t-93 46t-80 14t-104 -21t-128 -47q-138 -64 -138 -134zM434 1052l138 158q28 38 60 38q20 0 30 -19t8 -37t-10 -34t-26 -38q-34 -38 -138 -124z" />
<glyph unicode="&#xea;" horiz-adv-x="1108" d="M40 364q0 64 33 169t113 199t188 148t230 54q116 0 260 -80q68 -38 108 -86t40 -98q0 -14 -2 -28q-4 -122 -118 -154q-50 -14 -116 -14l-288 12q-144 0 -220 -62q-44 -34 -62 -102q50 -182 256 -182q176 0 530 160q22 0 36 -15t14 -35q-80 -136 -306 -212t-422 -26 q-222 58 -270 250q-4 38 -4 102zM262 1078q0 38 21 74t59 76q84 88 208 146q102 -66 136 -94q56 -50 128 -162q12 -24 12 -45t-8 -33q-22 -32 -72 -2q-74 54 -87 66t-37 38t-86 86q-122 -84 -166 -156q-14 -24 -26 -52q-36 0 -59 10t-23 48zM276 616q160 -14 240 -14 q222 0 300 38q48 20 48 50q0 36 -45 68t-93 46t-80 14t-104 -21t-128 -47q-138 -64 -138 -134z" />
<glyph unicode="&#xeb;" horiz-adv-x="1108" d="M40 364q0 64 33 169t113 199t188 148t230 54q116 0 260 -80q68 -38 108 -86t40 -98q0 -14 -2 -28q-4 -122 -118 -154q-50 -14 -116 -14l-288 12q-144 0 -220 -62q-44 -34 -62 -102q50 -182 256 -182q176 0 530 160q22 0 36 -15t14 -35q-80 -136 -306 -212t-422 -26 q-222 58 -270 250q-4 38 -4 102zM276 616q160 -14 240 -14q222 0 300 38q48 20 48 50q0 36 -45 68t-93 46t-80 14t-104 -21t-128 -47q-138 -64 -138 -134zM322 1262q0 24 100 66q42 0 57 -18t15 -46t-12 -41t-30 -19q-24 -10 -82 -10q-48 0 -48 68zM610 1262q0 26 102 66 q72 0 72 -68q0 -62 -84 -64q-22 -2 -42 -2q-48 0 -48 68z" />
<glyph unicode="&#xec;" d="M56 1280q0 56 30 56q18 0 44 -28l134 -130l-34 -86q-132 90 -154 130q-10 16 -15 32t-5 26zM108 46v894h126q26 -374 44 -866q-6 -32 -32 -46t-42 -15t-30 -1t-37 9t-29 25z" />
<glyph unicode="&#xed;" d="M66 1120l138 158q28 38 60 38q20 0 30 -19t8 -37t-10 -34t-26 -38q-34 -38 -138 -124zM108 46v894h126q26 -374 44 -866q-12 -62 -96 -62q-22 0 -45 9t-29 25z" />
<glyph unicode="&#xee;" d="M-136 1078q0 38 21 74t59 76q84 88 208 146q102 -66 136 -94q56 -50 128 -162q12 -24 12 -45t-8 -33q-22 -32 -72 -2q-74 54 -87 66t-37 38t-86 86q-122 -84 -166 -156q-14 -24 -26 -52q-36 0 -59 10t-23 48zM108 46v894h126q26 -374 44 -866q-12 -62 -96 -62 q-22 0 -45 9t-29 25z" />
<glyph unicode="&#xef;" d="M-76 1262q0 24 100 66q42 0 57 -18t15 -46t-12 -41t-30 -19q-24 -10 -82 -10q-48 0 -48 68zM108 46v894h126q26 -374 44 -866q-12 -62 -96 -62q-22 0 -45 9t-29 25zM212 1262q0 26 102 66q72 0 72 -68q0 -62 -84 -64q-22 -2 -42 -2q-48 0 -48 68z" />
<glyph unicode="&#xf0;" horiz-adv-x="1188" d="M102 451q0 29 28 67q78 80 162 106t134 26t106 -2t167 -27t233 -49q-16 146 -112 284l-158 -90l-82 132l136 68q-86 136 -240 194q0 36 29 57t55 27q124 -64 162 -90q78 -50 154 -126l146 104l84 -98l-140 -102q116 -230 116 -456q0 -238 -142 -368q-64 -58 -162 -86 q-32 -10 -68 -10t-96 12t-145 50t-163 94q-168 118 -200 236q-4 18 -4 47zM292 464q0 -168 138 -252q112 -66 302 -66q116 8 168 90q34 52 34 103t-8 85q-204 80 -372 80t-262 -40z" />
<glyph unicode="&#xf1;" horiz-adv-x="1024" d="M68 402q0 280 11 412t17 150q52 34 84 34q50 0 50 -118q0 -46 -5 -89t-5 -59q324 238 502 238q202 0 230 -326q12 -114 12 -316l-2 -158q0 -88 4 -170q-20 -12 -32 -12q-6 2 -26 6t-52 6q-20 80 -22 163t-2 153l2 122q0 238 -26 350q16 30 -48 30q-68 0 -176 -34 t-176 -68q-162 -78 -180 -152v-544h-134q-26 68 -26 382zM120 1130q30 96 90 170t126 100q16 6 36 6t49 -21t65 -59t74 -72t81 -34t68 14t46 40t46 64t71 86q12 0 25 -21t14 -36t1 -37t-15 -58t-49 -72q-88 -94 -212 -94q-92 0 -148 62q-40 36 -68 59t-56 23 q-64 0 -172 -162q-12 0 -39 8t-33 34z" />
<glyph unicode="&#xf2;" horiz-adv-x="1152" d="M104 380q0 236 204 380q162 114 390 138h56t118 -26q164 -56 224 -198q24 -56 24 -95t-2 -55q0 -250 -190 -394q-176 -132 -440 -132q-190 0 -287 88t-97 294zM242 332q0 -124 66 -168q50 -32 168 -32t208 18t160 62q150 96 150 298q0 120 -64 196q-70 82 -184 82 q-78 -14 -157 -30t-149 -62q-152 -98 -198 -364zM474 1176q0 56 30 56q18 0 44 -28l134 -130l-34 -86q-132 90 -156 130q-8 16 -13 32t-5 26z" />
<glyph unicode="&#xf3;" horiz-adv-x="1152" d="M104 380q0 236 204 380q162 114 390 138h56t118 -26q164 -56 224 -198q24 -56 24 -95t-2 -55q0 -250 -190 -394q-176 -132 -440 -132q-190 0 -287 88t-97 294zM242 332q0 -124 66 -168q50 -32 168 -32t208 18t160 62q150 96 150 298q0 120 -64 196q-70 82 -184 82 q-78 -14 -157 -30t-149 -62q-152 -98 -198 -364zM456 1052l138 158q28 38 60 38q20 0 30 -19t8 -37t-10 -34t-26 -38q-34 -38 -138 -124z" />
<glyph unicode="&#xf4;" horiz-adv-x="1152" d="M104 380q0 236 204 380q162 114 390 138h56t118 -26q164 -56 224 -198q24 -56 24 -95t-2 -55q0 -250 -190 -394q-176 -132 -440 -132q-190 0 -287 88t-97 294zM242 332q0 -124 66 -168q50 -32 168 -32t208 18t160 62q150 96 150 298q0 120 -64 196q-70 82 -184 82 q-78 -14 -157 -30t-149 -62q-152 -98 -198 -364zM284 1078q0 38 21 74t59 76q84 88 208 146q102 -66 136 -94q56 -50 128 -162q12 -24 12 -45t-8 -33q-22 -32 -72 -2q-74 54 -87 66t-37 38t-86 86q-122 -84 -166 -156q-14 -24 -26 -52q-36 0 -59 10t-23 48z" />
<glyph unicode="&#xf5;" horiz-adv-x="1152" d="M104 380q0 236 204 380q162 114 390 138h56t118 -26q164 -56 224 -198q24 -56 24 -95t-2 -55q0 -250 -190 -394q-176 -132 -440 -132q-190 0 -287 88t-97 294zM164 1014q30 96 90 170t126 100q16 6 36 6t49 -21t65 -59t74 -72t81 -34t68 14t46 40t46 64t71 86 q12 0 25 -21t14 -36t1 -37t-15 -58t-49 -72q-88 -94 -212 -94q-92 0 -148 62q-40 36 -68 59t-56 23q-64 0 -172 -162q-12 0 -39 8t-33 34zM242 332q0 -124 66 -168q50 -32 168 -32t208 18t160 62q150 96 150 298q0 120 -64 196q-70 82 -184 82q-78 -14 -157 -30t-149 -62 q-152 -98 -198 -364z" />
<glyph unicode="&#xf6;" horiz-adv-x="1152" d="M104 380q0 236 204 380q162 114 390 138h56t118 -26q164 -56 224 -198q24 -56 24 -95t-2 -55q0 -250 -190 -394q-176 -132 -440 -132q-190 0 -287 88t-97 294zM242 332q0 -124 66 -168q50 -32 168 -32t208 18t160 62q150 96 150 298q0 120 -64 196q-70 82 -184 82 q-78 -14 -157 -30t-149 -62q-152 -98 -198 -364zM344 1262q0 24 100 66q42 0 57 -18t15 -46t-12 -41t-30 -19q-24 -10 -82 -10q-48 0 -48 68zM632 1262q0 26 102 66q72 0 72 -68q0 -62 -84 -64q-22 -2 -42 -2q-48 0 -48 68z" />
<glyph unicode="&#xf7;" horiz-adv-x="704" d="M116 484q0 26 23 36t80 18t144 24t183 26q40 0 68 -14q40 -20 40 -48q0 -10 -9 -26t-45 -28l-384 -40q-100 0 -100 52zM250 686q0 30 30 50t48 22q62 -8 79 -31t17 -37q0 -42 -52 -54q-8 -4 -29 -4t-65 24q-28 8 -28 30zM342 272q0 30 27 58t61 28t52 -22t18 -47t-19 -46 t-35 -21h-29t-44 10t-31 40z" />
<glyph unicode="&#xf8;" horiz-adv-x="1152" d="M104 380q0 236 204 380q162 114 390 138h56t118 -26q164 -56 224 -198q24 -56 24 -95t-2 -55q0 -250 -190 -394q-176 -132 -440 -132q-190 0 -287 88t-97 294zM221 -8q26 71 693 989q33 47 38 54q9 -5 9 -23t-21 -74t-76 -163q-55 -106 -134 -233q-78 -127 -162 -247 q-195 -278 -316 -371q-32 0 -31 52v16zM242 332q0 -124 66 -168q50 -32 168 -32t208 18t160 62q150 96 150 298q0 120 -64 196q-70 82 -184 82q-78 -14 -157 -30t-149 -62q-152 -98 -198 -364z" />
<glyph unicode="&#xf9;" horiz-adv-x="1040" d="M26 618q0 70 12 128q26 130 108 130q56 -16 75 -40t19 -59t-18 -87q-66 -174 -66 -314q0 -46 6 -98q32 -134 220 -134q98 0 186 34q168 62 228 146q18 92 18 161t-5 123t-12 119t-9 143q26 12 51 12t52 -26t46 -98t25 -169t7 -201t1 -201t8 -167q-24 -22 -46 -22 q-80 0 -118 160q-26 -22 -88 -54q-132 -72 -312 -96q-34 -4 -76 -4t-105 16t-119 74t-70 172q0 32 -5 89t-9 125t-4 138zM418 1176q0 56 30 56q18 0 44 -28l134 -130l-34 -86q-132 90 -156 130q-8 16 -13 32t-5 26z" />
<glyph unicode="&#xfa;" horiz-adv-x="1040" d="M26 618q0 70 12 128q26 130 108 130q56 -16 75 -40t19 -59t-18 -87q-66 -174 -66 -314q0 -46 6 -98q32 -134 220 -134q98 0 186 34q168 62 228 146q18 92 18 161t-5 123t-12 119t-9 143q26 12 51 12t52 -26t46 -98t25 -169t7 -201t1 -201t8 -167q-24 -22 -46 -22 q-80 0 -118 160q-26 -22 -88 -54q-132 -72 -312 -96q-34 -4 -76 -4t-105 16t-119 74t-70 172q0 32 -5 89t-9 125t-4 138zM400 1052l138 158q28 38 60 38q20 0 30 -19t8 -37t-10 -34t-26 -38q-34 -38 -138 -124z" />
<glyph unicode="&#xfb;" horiz-adv-x="1040" d="M26 618q0 70 12 128q26 130 108 130q56 -16 75 -40t19 -59t-18 -87q-66 -174 -66 -314q0 -46 6 -98q32 -134 220 -134q98 0 186 34q168 62 228 146q18 92 18 161t-5 123t-12 119t-9 143q26 12 51 12t52 -26t46 -98t25 -169t7 -201t1 -201t8 -167q-24 -22 -46 -22 q-80 0 -118 160q-26 -22 -88 -54q-132 -72 -312 -96q-34 -4 -76 -4t-105 16t-119 74t-70 172q0 32 -5 89t-9 125t-4 138zM228 1078q0 38 21 74t59 76q84 88 208 146q102 -66 136 -94q56 -50 128 -162q12 -24 12 -45t-8 -33q-22 -32 -72 -2q-74 54 -87 66t-37 38t-86 86 q-122 -84 -166 -156q-14 -24 -26 -52q-36 0 -59 10t-23 48z" />
<glyph unicode="&#xfc;" horiz-adv-x="1040" d="M26 618q0 70 12 128q26 130 108 130q56 -16 75 -40t19 -59t-18 -87q-66 -174 -66 -314q0 -46 6 -98q32 -134 220 -134q98 0 186 34q168 62 228 146q18 92 18 161t-5 123t-12 119t-9 143q26 12 51 12t52 -26t46 -98t25 -169t7 -201t1 -201t8 -167q-24 -22 -46 -22 q-80 0 -118 160q-26 -22 -88 -54q-132 -72 -312 -96q-34 -4 -76 -4t-105 16t-119 74t-70 172q0 32 -5 89t-9 125t-4 138zM288 1262q0 24 100 66q42 0 57 -18t15 -46t-12 -41t-30 -19q-24 -10 -82 -10q-48 0 -48 68zM576 1262q0 26 102 66q72 0 72 -68q0 -62 -84 -64 q-22 -2 -42 -2q-48 0 -48 68z" />
<glyph unicode="&#xfd;" horiz-adv-x="1124" d="M44 734q0 2 2 4l76 76q158 -146 412 -496q64 -88 102 -148q42 84 66 145t39 98t41 99q68 166 188 422q18 8 38 8q50 0 72 -26q8 -10 8 -23t-4 -25l-608 -1622q-42 -94 -100 -94q-28 0 -41 25t-1 59q44 186 127 424t111 320q-70 70 -220 280q-308 432 -308 474zM442 1052 l138 158q28 38 60 38q20 0 30 -19t8 -37t-10 -34t-26 -38q-34 -38 -138 -124z" />
<glyph unicode="&#xfe;" horiz-adv-x="1062" d="M48 1164q46 18 69 18t37 -30q28 -52 36 -312q264 80 456 80q252 0 336 -120q38 -54 38 -120q0 -90 -60 -181t-162 -167q-234 -170 -572 -204q2 -36 2 -70l-2 -94q0 -58 8 -120q2 -16 2 -28q0 -52 -31 -77t-61 -25t-44 2zM200 504l10 -242q408 92 582 230q96 78 96 156 q0 86 -112 130q-68 26 -143 26t-149 -14q-168 -32 -248 -142q-36 -52 -36 -128v-16z" />
<glyph unicode="&#xff;" horiz-adv-x="1124" d="M44 734q0 2 2 4l76 76q158 -146 412 -496q64 -88 102 -148q42 84 66 145t39 98t41 99q68 166 188 422q18 8 38 8q50 0 72 -26q8 -10 8 -23t-4 -25l-608 -1622q-42 -94 -100 -94q-28 0 -41 25t-1 59q44 186 127 424t111 320q-70 70 -220 280q-308 432 -308 474zM330 1262 q0 24 100 66q42 0 57 -18t15 -46t-12 -41t-30 -19q-24 -10 -82 -10q-48 0 -48 68zM618 1262q0 26 102 66q72 0 72 -68q0 -62 -84 -64q-22 -2 -42 -2q-48 0 -48 68z" />
<glyph unicode="&#x152;" horiz-adv-x="2168" d="M44 598q0 138 49 260t134 213t198 145t243 54q232 0 378 -218l2 198q54 -16 218 -16l444 10q170 0 242 -26v-100q-56 -8 -256 -10q-370 -4 -496 -32q-34 -156 -32 -216t4 -92q8 -78 8 -182q122 0 304 23t278 34t196 11v-108l-764 -96l10 -328q234 0 424 18q350 36 524 36 q0 -40 -26 -74t-45 -44t-39 4q-252 -28 -1002 -90v176q-90 -114 -244 -152q-58 -16 -161 -16t-217 39t-198 117q-176 166 -176 462zM208 617q0 -105 29 -201t87 -164q120 -144 350 -144t326 188q28 56 42 116l2 392q-54 234 -228 304q-62 24 -146 24t-168 -44t-150 -114 t-105 -161t-39 -196z" />
<glyph unicode="&#x153;" horiz-adv-x="1870" d="M48 338q0 236 204 380q162 114 390 138h26q100 0 166 -46t94 -128q120 196 338 256q66 18 104 18h59t85 -16q152 -34 226 -124q30 -38 30 -68t-4 -48q-66 -48 -151 -65t-174 -24t-173 -13q-186 -14 -246 -106q-26 -38 -26 -81t4 -69q50 -182 256 -182q114 0 232 40 q144 52 298 122q20 0 35 -15t15 -37q-72 -124 -268 -198q-152 -58 -304 -58q-142 0 -238 47t-144 119q-120 -224 -450 -224q-190 0 -287 88t-97 294zM186 290q0 -124 66 -166q50 -34 165 -34t184 9t118 37t78 82t32 108t7 78v130q0 126 -56 182q-30 30 -90 30 q-78 -14 -157 -30t-149 -60q-152 -100 -198 -366zM1156 700l398 64q-46 72 -152 72q-76 0 -132 -22q-114 -44 -114 -114z" />
<glyph unicode="&#x178;" horiz-adv-x="1094" d="M56 1172q0 14 16 22q26 12 63 12t76 -12t97 -60q114 -96 374 -406q118 344 170 443t83 128t56 31t43 -2t26 -28q-62 -132 -119 -299t-117 -345q-158 -472 -268 -692q-32 0 -68 20q-70 42 -56 74q24 42 62 168l54 180q28 86 56 190l-534 544q-14 18 -14 32zM308 1338 q0 24 100 66q42 0 57 -18t15 -46t-12 -41t-30 -19q-24 -10 -82 -10q-48 0 -48 68zM596 1338q0 26 102 66q72 0 72 -68q0 -62 -84 -64q-22 -2 -42 -2q-48 0 -48 68z" />
<glyph unicode="&#x2c6;" horiz-adv-x="628" d="M36 1078q0 38 21 74t59 76q84 88 208 146q102 -66 136 -94q56 -50 128 -162q12 -24 12 -45t-8 -33q-22 -32 -72 -2q-74 54 -87 66t-37 38t-86 86q-122 -84 -166 -156q-14 -24 -26 -52q-36 0 -59 10t-23 48z" />
<glyph unicode="&#x2dc;" horiz-adv-x="910" d="M52 1014q30 96 90 170t126 100q16 6 36 6t49 -21t65 -59t74 -72t81 -34t68 14t46 40t46 64t71 86q12 0 25 -21t14 -36t1 -37t-15 -58t-49 -72q-88 -94 -212 -94q-92 0 -148 62q-40 36 -68 59t-56 23q-64 0 -172 -162q-12 0 -39 8t-33 34z" />
<glyph unicode="&#x2000;" horiz-adv-x="1010" />
<glyph unicode="&#x2001;" horiz-adv-x="2020" />
<glyph unicode="&#x2002;" horiz-adv-x="1010" />
<glyph unicode="&#x2003;" horiz-adv-x="2020" />
<glyph unicode="&#x2004;" horiz-adv-x="673" />
<glyph unicode="&#x2005;" horiz-adv-x="505" />
<glyph unicode="&#x2006;" horiz-adv-x="336" />
<glyph unicode="&#x2007;" horiz-adv-x="336" />
<glyph unicode="&#x2008;" horiz-adv-x="252" />
<glyph unicode="&#x2009;" horiz-adv-x="404" />
<glyph unicode="&#x200a;" horiz-adv-x="112" />
<glyph unicode="&#x2010;" horiz-adv-x="636" d="M60 484q0 26 23 36t80 18t144 24t183 26q40 0 68 -14q40 -20 40 -48q0 -10 -9 -26t-45 -28l-384 -40q-100 0 -100 52z" />
<glyph unicode="&#x2011;" horiz-adv-x="636" d="M60 484q0 26 23 36t80 18t144 24t183 26q40 0 68 -14q40 -20 40 -48q0 -10 -9 -26t-45 -28l-384 -40q-100 0 -100 52z" />
<glyph unicode="&#x2012;" horiz-adv-x="636" d="M60 484q0 26 23 36t80 18t144 24t183 26q40 0 68 -14q40 -20 40 -48q0 -10 -9 -26t-45 -28l-384 -40q-100 0 -100 52z" />
<glyph unicode="&#x2013;" horiz-adv-x="636" d="M60 484q0 26 23 36t80 18t144 24t183 26q40 0 68 -14q40 -20 40 -48q0 -10 -9 -26t-45 -28l-384 -40q-100 0 -100 52z" />
<glyph unicode="&#x2014;" horiz-adv-x="842" d="M60 484q0 26 23 36t57 15t106 12t149 14t150 13t119 12q40 0 68 -14q40 -20 40 -48q0 -10 -9 -26t-45 -28l-558 -38q-100 0 -100 52z" />
<glyph unicode="&#x2018;" horiz-adv-x="332" d="M54 876l112 352q24 10 42 10q48 0 48 -70q0 -82 -68 -216q-20 -40 -38 -68z" />
<glyph unicode="&#x2019;" horiz-adv-x="332" d="M54 876l112 352q24 10 42 10q48 0 48 -70q0 -82 -68 -216q-20 -40 -38 -68z" />
<glyph unicode="&#x201a;" horiz-adv-x="332" d="M70 20l112 352q24 10 42 10q48 0 48 -70q0 -82 -68 -216q-20 -40 -38 -68z" />
<glyph unicode="&#x201c;" horiz-adv-x="484" d="M108 1170l2 58l-2 84q0 166 72 200l32 -32v-398l34 -68q-8 -8 -32 -21t-34 -13q-72 0 -72 190zM292 1188l2 56l-2 82q0 166 72 200l34 -32v-398l32 -68q-6 -6 -31 -19t-35 -13q-72 0 -72 192z" />
<glyph unicode="&#x201d;" horiz-adv-x="484" d="M108 1170l2 58l-2 84q0 166 72 200l32 -32v-398l34 -68q-8 -8 -32 -21t-34 -13q-72 0 -72 190zM292 1188l2 56l-2 82q0 166 72 200l34 -32v-398l32 -68q-6 -6 -31 -19t-35 -13q-72 0 -72 192z" />
<glyph unicode="&#x201e;" horiz-adv-x="574" d="M170 262l2 56l-2 84q0 162 72 200l34 -34v-398l32 -66q-6 -10 -31 -22t-35 -12q-72 0 -72 192zM370 254l2 56l-2 80q0 164 72 204l34 -34v-398l32 -68q-6 -8 -31 -20t-35 -12q-72 0 -72 192z" />
<glyph unicode="&#x2022;" horiz-adv-x="394" d="M66 514q16 74 53 101t59 27q66 0 106 -40t46 -92q0 -74 -30 -98t-70 -24t-65 8t-47 24q-52 42 -52 94z" />
<glyph unicode="&#x2026;" horiz-adv-x="866" d="M44 68q0 16 36 33t64 31q42 0 57 -17t15 -45t-12 -42t-30 -20q-30 -10 -80 -10t-50 70zM332 68q0 16 36 33t64 31q42 0 57 -17t15 -45t-12 -42t-30 -20q-30 -10 -80 -10t-50 70zM620 68q0 16 50 40l52 24q72 0 72 -66q0 -68 -126 -68q-48 0 -48 70z" />
<glyph unicode="&#x202f;" horiz-adv-x="404" />
<glyph unicode="&#x2039;" horiz-adv-x="974" d="M168 458q64 50 150 118t174 136q216 170 310 222q26 0 38 -44q6 -18 6 -36t-8 -30l-470 -358q30 -16 86 -41t124 -59q162 -80 284 -160q-2 -2 -8 -16t-14 -30q-18 -42 -22 -42q-60 38 -172 77t-180 66t-126 55q-136 68 -172 142z" />
<glyph unicode="&#x203a;" horiz-adv-x="966" d="M100 792l100 98q98 -70 181 -98t160 -45t153 -40t158 -85q-52 -62 -131 -125t-166 -129t-172 -134t-147 -138q-90 34 -100 72v14q0 62 142 146q210 122 274 171t76 95z" />
<glyph unicode="&#x205f;" horiz-adv-x="505" />
<glyph unicode="&#x20ac;" horiz-adv-x="1628" d="M58 646l40 72q4 4 48 9t110 13q74 256 272 420q204 170 462 170q138 0 182 -38q50 -46 50 -182q-138 78 -271 78t-243 -56t-189 -155t-109 -221q76 10 153 19t141 19q32 10 49 0t20 -29t-6 -41t-27 -34l-352 -48q-4 -28 -4 -56t4 -54v-40q44 6 86 10t88 10q100 14 218 38 q68 0 68 -68q0 -16 -4 -32q-160 0 -336 -44q-48 -12 -96 -22q46 -130 163 -192t269 -62q276 24 350 42q132 32 274 122q28 0 57 -7t29 -45q-160 -142 -340 -194t-382 -52q-30 0 -89 1t-143 26t-156 73q-148 98 -200 260q-60 -6 -126 -6q-48 0 -48 70q0 6 13 19t21 13 q82 14 118 20v28q0 60 8 120l-74 -8q-10 0 -25 -1t-31 1q-38 6 -42 34z" />
<glyph unicode="&#x2122;" horiz-adv-x="2478" d="M0 1086q0 22 18 48t42 26q120 -6 240 -16q386 -28 511 -28t217 8q12 54 42 78t100 24t126 -49t102 -126t84 -171t72 -183t64 -162t62 -109l400 696q48 44 86 44q118 0 176 -368q18 -118 42 -330q42 -382 55 -440t13 -85t-18 -53t-50 -26t-64 25t-39 62t-14 97t-16 136 t-20 159t-21 157l-18 136q-8 60 -12 88q0 42 -2 75t-16 41t-42 -19t-80 -107q-106 -162 -324 -588q-28 -50 -76 -22q-56 32 -92 156l-350 742q-24 -6 -34 -6q-32 -116 -68 -546q-8 -96 -12 -158q-8 -48 -8 -94l8 -142q0 -16 -2 -50t-25 -59t-56 -25t-59 1t-44 19t-13 61 t15 123t21 172t23 191t24 191t22 171t18 131l-190 4q-82 0 -178 -14q-4 -78 -16 -202q-42 -440 -42 -571t4 -185l-188 -14l62 988l-426 24q-16 0 -25 26t-9 48z" />
<glyph unicode="&#xe000;" horiz-adv-x="960" d="M0 0v960h960v-960h-960z" />
<glyph unicode="&#xfb01;" horiz-adv-x="1402" d="M28 456l304 108q-40 344 -40 559t36 335t105 161t147 41t159 -34t155 -86t126 -117t52 -127q0 -48 -10 -68q-80 112 -194 200q-136 104 -256 104q-114 0 -152 -162q-18 -84 -18 -237t8 -280t48 -255q124 0 278 22q296 46 426 48q10 0 10 -54t4 -74l-686 -84l36 -444 l-162 8q0 180 -40 412l-260 -100q-26 0 -44 30q-32 52 -32 94zM1092 1154q0 70 82 70q54 0 88 -24q6 -22 6 -43t-16 -41t-48 -20t-64 15t-48 43zM1152 -12v894h126q26 -374 44 -866q-12 -62 -96 -62q-22 0 -45 9t-29 25z" />
<glyph unicode="&#xfb02;" horiz-adv-x="1436" d="M28 456l304 108q-40 344 -40 559t36 335t105 161t147 41t159 -34t155 -86t126 -117t52 -127q0 -48 -10 -68q-80 112 -194 200q-136 104 -256 104q-114 0 -152 -162q-18 -84 -18 -237t8 -280t48 -255q124 0 278 22q296 46 426 48q10 0 10 -54t4 -74l-686 -84l36 -444 l-162 8q0 180 -40 412l-260 -100q-26 0 -44 30q-32 52 -32 94zM1128 1324q18 24 35 46t49 22q70 0 108 -590q20 -342 20 -684q0 -92 -128 -92l-16 2q0 104 -6 266t-9 282t-7 228t-8 193t-5 126t-33 201z" />
</font>
</defs>
</svg>
