<?xml version="1.0" standalone="no"?>
<!DOCTYPE svg PUBLIC "-//W3C//DTD SVG 1.1//EN" "http://www.w3.org/Graphics/SVG/1.1/DTD/svg11.dtd" >
<svg xmlns="http://www.w3.org/2000/svg">
<metadata>
This is a custom SVG webfont generated by Font Squirrel.
Copyright   : Original Typeface drawn by Daniel Drnemann at loyalkaspar and Digitized by Alan Greene with FontShop
Foundry     : Daniel Drnemann loyalkaspar
</metadata>
<defs>
<font id="XDRAMediumItalicRegular" horiz-adv-x="989" >
<font-face units-per-em="2048" ascent="1536" descent="-512" />
<missing-glyph horiz-adv-x="495" />
<glyph unicode=" "  horiz-adv-x="495" />
<glyph unicode="&#x09;" horiz-adv-x="495" />
<glyph unicode="&#xa0;" horiz-adv-x="495" />
<glyph unicode="!" horiz-adv-x="548" d="M111 25l26 149q4 23 25 23h147q20 0 19 -21l-27 -151q-6 -25 -27 -25h-143q-26 0 -20 25zM172 373l174 987q6 27 27 26h147q20 0 17 -26l-175 -987q-4 -27 -26 -27h-143q-25 0 -21 27z" />
<glyph unicode="&#x22;" horiz-adv-x="829" d="M213 885l84 473q4 29 29 28h139q27 0 22 -28l-84 -473q-6 -25 -30 -25h-140q-24 0 -20 25zM594 885l84 473q4 29 29 28h139q27 0 22 -28l-84 -473q-6 -25 -30 -25h-140q-24 0 -20 25z" />
<glyph unicode="#" horiz-adv-x="1239" d="M119 416l22 123q2 27 29 26h190l109 256h-174q-23 0 -21 27l23 123q6 27 29 26h217l157 371q8 18 25 18h117q18 0 10 -18l-158 -371h207l158 371q8 18 22 18h117q18 0 10 -18l-157 -371h145q27 0 23 -24l-23 -127q-4 -25 -29 -25h-190l-109 -256h174q10 0 16.5 -7 t4.5 -17l-23 -127q-4 -25 -26 -25h-221l-154 -364q-12 -25 -25 -25h-112q-23 0 -13 25l154 364h-207l-153 -364q-12 -25 -27 -25h-111q-25 0 -14 25l154 364h-146q-22 0 -20 27zM512 565h207l108 256h-206z" />
<glyph unicode="$" horiz-adv-x="1126" d="M129 350q-10 27 16 37l123 64q23 12 31 -11q37 -92 97.5 -137t158.5 -45q102 0 164.5 45t77.5 125q10 59 -12.5 108.5t-77.5 69.5l-467 170l12 70q18 109 56 189.5t89.5 137t110.5 91t121 49.5l37 211q4 27 28 26h140q27 0 22 -26l-41 -234l223 -82q23 -6 13 -32 l-50 -138q-8 -14 -16 -17t-20 1l-283 106q-66 -10 -125 -66t-86 -161l340 -123q111 -39 157 -138t21 -237q-14 -82 -48 -140t-83 -98t-110.5 -63.5t-131.5 -33.5l-34 -207q-6 -25 -33 -25h-139q-23 0 -19 25l39 217q-115 25 -191.5 97.5t-109.5 174.5z" />
<glyph unicode="%" horiz-adv-x="1601" d="M201 25l1114 1335q20 27 37 26h143q14 0 14 -8t-10 -18l-1116 -1335q-18 -25 -41 -25h-133q-33 0 -8 25zM238 967l34 194q20 117 105.5 179.5t204.5 62.5q59 0 107 -20.5t80 -57.5t45 -87t3 -108l-35 -194q-20 -117 -105 -179.5t-204 -62.5q-59 0 -107.5 20.5t-80 57.5 t-44.5 86.5t-3 108.5zM377 958q-10 -53 19.5 -91t92.5 -38q66 0 107 39t51 93l31 178q10 53 -19.5 91t-93.5 38q-66 0 -106.5 -39t-50.5 -92zM883 256l35 195q20 117 105 179t204 62q59 0 107 -20.5t80 -57t45.5 -87t2.5 -107.5l-35 -195q-20 -117 -105 -179t-204 -62 q-59 0 -107 20.5t-80 57t-45 86t-3 108.5zM1022 248q-10 -53 19.5 -91t93.5 -38q66 0 106.5 39t50.5 92l31 178q10 53 -19.5 91t-93.5 38q-66 0 -106.5 -39t-50.5 -92z" />
<glyph unicode="&#x26;" horiz-adv-x="1280" d="M125 418q23 123 99.5 211t185.5 145l-113 131q-12 14 -12 27q-4 106 31.5 194t100 150.5t148.5 96.5t174 34h27l326 -104q20 -6 10 -33l-43 -142q-8 -14 -16.5 -17t-20.5 1l-295 98q-106 0 -168.5 -63.5t-79.5 -151.5l731 -835q10 -12 7 -35l-17 -100q-6 -25 -29 -25h-65 q-18 0 -31 14l-160 183q-66 -104 -167 -160.5t-242 -56.5q-100 0 -178 32.5t-129.5 91t-70.5 138.5t-3 176zM319 397q-18 -104 36.5 -162.5t164.5 -58.5q96 0 165 45t97 127l-260 297q-68 -33 -127.5 -95.5t-75.5 -152.5z" />
<glyph unicode="'" horiz-adv-x="448" d="M213 885l84 473q4 29 29 28h139q27 0 22 -28l-84 -473q-6 -25 -30 -25h-140q-24 0 -20 25z" />
<glyph unicode="(" horiz-adv-x="663" d="M115.5 313q-11.5 129 13.5 277q27 147 84 275t135 245l328 477q18 25 35 15l112 -84q18 -14 4 -37l-317 -467q-74 -106 -121 -212t-70 -233t-12.5 -233.5t45.5 -212.5l154 -467q6 -23 -19 -37l-133 -43q-20 -8 -30 14l-160 478q-37 116 -48.5 245z" />
<glyph unicode=")" horiz-adv-x="663" d="M-98 -303l315 467q72 106 119 212.5t70 233.5t13.5 232.5t-44.5 212.5l-154 467q-8 23 17 37l133 43q20 8 30 -15l160 -477q39 -117 49.5 -245t-16.5 -275q-25 -147 -81 -276.5t-136 -245.5l-328 -478q-18 -25 -35 -14l-110 84q-18 14 -2 37z" />
<glyph unicode="*" horiz-adv-x="913" d="M178 848q-6 25 15 37l215 114l-168 113q-16 12 -2 35l61 92q12 18 35 8l174 -117l41 230q4 27 29 26h102q25 0 20 -24l-41 -225l207 110q10 4 19.5 3t13.5 -11l43 -92q10 -20 -14 -35l-217 -117l170 -110q18 -14 -2 -37l-56 -88q-16 -25 -35 -10l-176 114l-41 -229 q-4 -25 -30 -25h-99q-27 0 -22 25l39 225l-207 -110q-20 -12 -29 10z" />
<glyph unicode="+" horiz-adv-x="1306" d="M233 606l25 144q6 27 29 26h338l61 350q2 20 27 21h143q23 0 21 -19l-62 -352h332q10 0 16 -7t4 -17l-24 -148q-6 -25 -29 -24h-334l-61 -347q-6 -25 -33 -24h-139q-25 0 -19 24l62 347h-338q-25 -1 -19 26z" />
<glyph unicode="," horiz-adv-x="489" d="M-50 -277.5q-3 9.5 3 21.5l123 246l39 221q4 29 28 29h140q27 0 22 -29l-35 -199q-4 -25 -12 -43l-117 -231q-12 -25 -32 -25h-142q-14 0 -17 9.5z" />
<glyph unicode="-" horiz-adv-x="563" d="M90 590l14 78q4 18 21 24l141 60q20 8 29 8h248q20 0 18 -25l-26 -145q-2 -27 -27 -27h-399q-23 0 -19 27z" />
<glyph unicode="." horiz-adv-x="489" d="M82 25l33 186q4 29 28 29h140q27 0 22 -29l-33 -186q-6 -25 -30 -25h-140q-24 0 -20 25z" />
<glyph unicode="/" horiz-adv-x="774" d="M-160 -221l953 1581q14 27 30 26h121q23 0 10 -26l-956 -1581q-8 -14 -14.5 -19.5t-20.5 -5.5h-110q-27 0 -13 25z" />
<glyph unicode="0" horiz-adv-x="1224" d="M176.5 284.5q-20.5 96.5 -0.5 215.5l80 454q20 111 68.5 195t118 141.5t154.5 87t177 29.5t170 -37t130 -104.5t72.5 -163.5t0.5 -215l-80 -455q-20 -111 -68.5 -194.5t-118 -141t-154.5 -87t-177 -29.5t-170 36.5t-130 104t-72.5 164zM362 477q-23 -135 35 -218t174 -83 q119 0 204 82t110 221l76 430q23 135 -35 218t-174 83q-119 0 -204 -81.5t-110 -221.5z" />
<glyph unicode="1" horiz-adv-x="954" d="M70 27l24 143q6 27 29 27h270l178 1009l-274 -86q-16 -6 -23 15l-30 129q-6 25 16 30l365 113q8 0 24 -8l117 -70q14 -10 12 -24l-194 -1108h245q27 0 21 -25l-25 -147q-6 -25 -26 -25h-709q-26 0 -20 27z" />
<glyph unicode="2" horiz-adv-x="1118" d="M55 106q-10 16 4 35l680 607q61 55 100.5 114.5t51.5 126.5q8 43 1 83t-29.5 71t-60.5 49t-93 18q-98 0 -171 -48t-132 -136q-14 -25 -35 -10l-105 65q-25 10 -4 37q74 123 191.5 206t271.5 83q84 0 154.5 -30.5t120 -87t72 -135.5t7.5 -177q-16 -100 -73.5 -192.5 t-153.5 -178.5l-467 -409h530q23 0 17 -23l-27 -151q-4 -23 -26 -23h-729q-6 0 -14.5 2t-12.5 6z" />
<glyph unicode="3" horiz-adv-x="1118" d="M100 125l43 141q4 10 13.5 15.5t23.5 1.5l322 -107q121 0 196.5 62.5t92.5 162.5q14 84 -33 152t-160 84l-180 -57q-25 -6 -25 18l-35 127q-6 25 19 31l434 139q12 4 31.5 40t23.5 73q6 92 -34.5 147t-137.5 55q-78 0 -150.5 -37.5t-127.5 -109.5q-18 -20 -35 -10 l-111 71q-20 8 -4 37q78 121 196 183.5t259 62.5q86 0 155.5 -32t114.5 -88t62.5 -136t1.5 -176q-8 -45 -24.5 -85t-34 -72t-34 -51t-24.5 -22l-98 -30q86 -39 123.5 -128t21.5 -204q-14 -98 -57 -174t-108.5 -126t-149.5 -76.5t-181 -26.5h-28l-348 114q-23 6 -13 31z" />
<glyph unicode="4" horiz-adv-x="1085" d="M119 512l352 850q10 25 33 24h147q12 0 15.5 -8t-0.5 -18l-318 -758h404l133 760q2 12 10 18t18 6h142q25 0 20 -24l-235 -1337q-6 -25 -29 -25h-141q-10 0 -16.5 7t-4.5 18l68 381h-445q-12 0 -28 8l-121 69q-14 9 -4 29z" />
<glyph unicode="5" horiz-adv-x="1114" d="M109 113l43 141q4 10 13 15t23 1l285 -94q274 0 322 254q10 57 4 110.5t-28.5 93.5t-62.5 64.5t-98 24.5l-293 -102l-98 30q-20 6 -14 27l196 680q10 29 39 28h637q25 0 21 -24l-27 -148q-4 -25 -31 -24h-473q-18 0 -24 -19l-94 -313l172 62h24q98 0 170 -39t117 -106.5 t59.5 -161t-2.5 -201.5q-31 -197 -164 -314.5t-364 -117.5h-27l-313 102q-22 6 -12 31z" />
<glyph unicode="6" horiz-adv-x="1144" d="M176.5 284.5q-20.5 96.5 -0.5 215.5l80 454q20 111 68.5 195t118 141.5t154.5 87t177 29.5h23l313 -102q20 -6 10 -31l-53 -141q-4 -10 -13.5 -15.5t-21.5 -1.5l-280 94q-119 0 -204 -81.5t-110 -221.5l-18 -106l223 78h23q90 0 161.5 -33t118.5 -92.5t66.5 -143.5 t5.5 -188q-12 -100 -50 -181t-97.5 -139.5t-140.5 -90t-181 -31.5q-92 0 -170 36.5t-130 104t-72.5 164zM362 477q-23 -135 35 -218t174 -83q111 0 172.5 70.5t77.5 175.5q16 111 -28.5 185.5t-161.5 74.5l-248 -84z" />
<glyph unicode="7" horiz-adv-x="894" d="M163 8q-3 8 1 19l573 1163h-495q-27 0 -23 24l27 146q4 27 30 26h562q10 0 22 -8l121 -69q16 -8 6 -29l-610 -1255q-14 -25 -31 -25h-168q-12 0 -15 8z" />
<glyph unicode="8" horiz-adv-x="1132" d="M150 418q18 104 73.5 174t141.5 123l-64 26q-8 2 -14 19q-12 39 -15.5 115.5t11.5 150.5q16 96 59 168t103.5 119t135 70.5t158.5 23.5q92 0 165 -29.5t121 -85t66.5 -133.5t2.5 -174q-16 -86 -68.5 -153.5t-124.5 -110.5l74 -29q10 -4 16 -16q12 -23 19.5 -57.5 t10.5 -74.5t1 -84t-8 -83q-35 -193 -160 -295t-326 -102q-104 0 -183 32.5t-128 91t-66 138.5t-1 176zM344 406q-16 -104 36 -167t163 -63t184.5 54.5t91.5 158.5q10 63 3 106.5t-19 47.5l-281 110q-61 -35 -111.5 -97t-66.5 -150zM462 931q1 -36 7 -40l266 -105 q66 35 112 85.5t60 127.5q14 88 -29.5 149.5t-152.5 61.5q-111 0 -174.5 -53t-79.5 -141q-10 -49 -9 -85z" />
<glyph unicode="9" horiz-adv-x="1144" d="M125 113l53 141q4 10 13.5 15t21.5 1l281 -94q119 0 203.5 82t109.5 221l10 66l-223 -78h-23q-90 0 -160.5 36t-116.5 99.5t-65.5 150.5t-5.5 191q12 100 51 185t99.5 146.5t141.5 96.5t181 35q92 0 170 -37t130.5 -104.5t73 -163.5t-0.5 -215l-80 -455 q-20 -111 -68.5 -194.5t-118 -141t-154.5 -87t-177 -29.5h-22l-314 102q-20 6 -10 31zM418 837.5q6 -51.5 28.5 -89t61.5 -61t98 -23.5l248 84l29 161q23 135 -34.5 218t-174.5 83q-55 0 -99.5 -22.5t-76 -59t-51 -85t-27.5 -99.5q-8 -55 -2 -106.5z" />
<glyph unicode=":" horiz-adv-x="489" d="M82 25l33 186q4 29 28 29h140q27 0 22 -29l-33 -186q-6 -25 -30 -25h-140q-24 0 -20 25zM213 766l33 186q4 29 28 29h140q27 0 22 -29l-33 -186q-6 -25 -30 -25h-140q-24 0 -20 25z" />
<glyph unicode=";" horiz-adv-x="489" d="M-50 -277.5q-3 9.5 3 21.5l123 246l39 221q4 29 28 29h140q27 0 22 -29l-35 -199q-4 -25 -12 -43l-117 -231q-12 -25 -32 -25h-142q-14 0 -17 9.5zM213 766l33 186q4 29 28 29h140q27 0 22 -29l-33 -186q-6 -25 -30 -25h-140q-24 0 -20 25z" />
<glyph unicode="&#x3c;" horiz-adv-x="1146" d="M137 608q-6 10 4 21l471 409q6 4 13.5 8.5t17.5 4.5h115q12 0 12 -13l-18 -104q-2 -10 -4.5 -16.5t-12.5 -14.5l-239 -203h559q12 0 12 -14l-31 -168q-4 -14 -16 -14h-559l170 -201q6 -8 6 -15t-2 -16l-19 -104q-4 -14 -16 -14h-78q-20 0 -28 10z" />
<glyph unicode="=" horiz-adv-x="1306" d="M197 401l24 144q6 27 31 26h860q10 0 16.5 -7t4.5 -17l-27 -148q-4 -25 -27 -24h-862q-26 -1 -20 26zM268 811l27 143q2 27 29 27h860q10 0 16 -7t4 -18l-26 -147q-4 -25 -27 -25h-862q-23 0 -21 27z" />
<glyph unicode="&#x3e;" horiz-adv-x="1146" d="M147 518l31 168q4 14 17 14h559l-170 201q-6 8 -6 15.5t2 15.5l18 104q4 14 16 15h78q20 0 29 -11l356 -444q6 -10 -4 -21l-471 -409q-6 -4 -13 -8t-18 -4h-114q-12 0 -13 12l19 104q2 10 4 16.5t12 14.5l240 203h-559q-13 0 -13 14z" />
<glyph unicode="?" horiz-adv-x="974" d="M190 1149q0 8 7 16q86 109 200.5 175.5t257.5 66.5q100 0 175 -35t121 -93t62.5 -134t2.5 -158q-16 -98 -82 -171t-176 -134l-185 -104l-36 -205q-4 -27 -29 -27h-143q-23 0 -19 27l55 315l308 172q43 25 77.5 60.5t40.5 87.5q10 92 -37 147t-149 55q-90 0 -167 -41 t-138 -112q-8 -10 -18.5 -11.5t-16.5 5.5l-106 86q-5 4 -5 12zM285 25l26 149q4 23 25 23h147q20 0 19 -21l-27 -151q-4 -25 -26 -25h-144q-24 0 -20 25z" />
<glyph unicode="@" horiz-adv-x="1845" d="M186 608q25 184 92.5 333t175 252t252 158.5t320.5 55.5q193 0 331 -63.5t222 -174t114.5 -263t6.5 -331.5q-27 -190 -123 -319t-256 -170l-217 98l-246 -98h-18q-68 0 -123 26.5t-93 71.5t-54.5 105.5t-4.5 126.5l51 289q12 76 48 136t88.5 100t118 61.5t139.5 21.5 t134 -25.5t100 -71.5t56.5 -110.5t2.5 -142.5l-64 -359l100 -47q84 35 136.5 122t68.5 204q20 150 -2 271.5t-87.5 206.5t-173 131t-255.5 46q-147 0 -265 -46t-205 -132t-141.5 -209t-72.5 -274q-20 -154 3.5 -286t94 -228.5t191.5 -150.5t293 -54l229 82q16 6 25 -12 l39 -111q6 -20 -13 -27l-256 -90h-24q-199 0 -348.5 62.5t-244.5 178.5t-133.5 281.5t-11.5 374.5zM745 438q-16 -84 17 -127t94 -43l213 82l57 326q6 35 1 66.5t-21 56t-45 39t-72 14.5t-76.5 -15.5t-60.5 -41t-43 -59.5t-23 -68z" />
<glyph unicode="A" horiz-adv-x="1150" d="M-29 19q0 7 2 14l680 1335q8 18 25 18h145q16 0 21 -18l196 -1335l2 -10q0 -9 -6 -15q-8 -8 -20 -8h-148q-16 0 -22 8t-8 21l-45 342h-261l-208 -62l-136 -280q-16 -29 -38 -29h-160q-19 0 -19 19zM438 537l64 18q20 6 44.5 9t47.5 3h174l-66 518z" />
<glyph unicode="B" horiz-adv-x="1222" d="M111 25l235 1335q4 14 12.5 20t18.5 6h477q76 0 135.5 -31.5t99 -86t57.5 -124.5q12 -48 12 -100q0 -24 -3 -49q-10 -98 -69.5 -174t-141.5 -116l164 -213q8 -12 12 -25.5t0 -30.5q-16 -84 -57 -162.5t-102.5 -139t-138.5 -97.5t-160 -37h-529q-26 0 -22 25zM332 197h342 q39 0 79 22.5t72.5 57t56 76.5t31.5 83l-155 201h-348zM444 834h347q53 0 105 43t65 118q3 20 3 39q0 56 -28 99q-37 57 -102 57h-328z" />
<glyph unicode="C" horiz-adv-x="1191" d="M156 500l80 454q16 94 69 177t126 144.5t157 96.5t162 35h16l401 -133q13 -4 13 -17q0 -6 -2 -14l-50 -137q-10 -25 -36 -16l-361 120q-57 -8 -109.5 -34.5t-94.5 -66.5t-70.5 -92t-38.5 -110l-76 -430q-6 -31 -6 -60q0 -23 4 -45q8 -50 29.5 -89t57.5 -62.5t81 -23.5 h170q45 0 83 15t65.5 41t45 57.5t23.5 66.5q2 25 29 24h143q20 0 18 -24q-14 -90 -54 -161t-97 -119t-128 -72.5t-147 -24.5h-178q-78 0 -145.5 38t-113.5 104.5t-65 157.5q-10 47 -10 98q0 49 9 102z" />
<glyph unicode="D" horiz-adv-x="1282" d="M111 27l221 1253q4 20 20 29l146 69q18 8 34 8h369q78 0 145.5 -37.5t113.5 -104t66 -158.5q10 -47 10 -98q0 -49 -9 -101l-80 -455q-16 -96 -62.5 -175t-111 -136.5t-141 -89t-154.5 -31.5h-549q-22 0 -18 27zM332 197h366q45 0 89 23.5t80 63.5t61.5 91t36.5 104 l75 430q4 29 5 58q0 25 -4 48q-7 50 -29.5 89t-57 62.5t-80.5 23.5h-368z" />
<glyph unicode="E" horiz-adv-x="1075" d="M111 25l235 1335q6 27 29 26h690q23 0 18 -26l-26 -146q-4 -25 -27 -24h-524l-68 -393l78 24q43 12 92 13h281q25 0 18 -25l-24 -145q-6 -27 -29 -27h-297l-156 -45l-69 -395h561q23 0 20 -25l-24 -147q-4 -25 -29 -25h-729q-24 0 -20 25z" />
<glyph unicode="F" horiz-adv-x="985" d="M111 25l235 1335q4 27 31 26h680q20 0 16 -26l-26 -146q-4 -25 -25 -24h-516l-68 -393l78 24q43 12 92 13h281q25 0 18 -25l-24 -145q-6 -27 -29 -27h-297l-156 -45l-100 -567q-6 -25 -29 -25h-139q-24 0 -23 17q0 4 1 8z" />
<glyph unicode="G" horiz-adv-x="1230" d="M156 500l80 454q16 94 69 177t126 144.5t157 96.5t162 35h16l401 -133q13 -4 13 -17q0 -6 -2 -14l-50 -137q-10 -25 -36 -16l-361 120q-57 -8 -109.5 -34.5t-94.5 -66.5t-70.5 -92t-38.5 -110l-76 -430q-6 -31 -6 -60q0 -23 4 -45q8 -50 29.5 -89t57.5 -62.5t81 -23.5 h170q45 0 83 15t65.5 41t45 57.5t23.5 66.5l29 166h-193q-25 0 -20 24l26 146q6 27 29 26h358q25 0 21 -26l-62 -346q-16 -90 -56 -159t-96.5 -115t-126 -69.5t-145.5 -23.5h-178q-78 0 -145.5 38t-113.5 104.5t-65 157.5q-10 47 -10 98q0 49 9 102z" />
<glyph unicode="H" horiz-adv-x="1343" d="M111 27l235 1333q2 12 10.5 19t18.5 7h143q12 0 16.5 -8t2.5 -18l-99 -559l66 20q23 6 46 9.5t46 3.5h453l92 526q2 10 10 18t18 8h142q12 0 17 -8t3 -18l-235 -1333q-4 -27 -29 -27h-141q-25 0 -21 27l109 610h-469l-144 -41l-100 -569q-4 -27 -27 -27h-143 q-24 0 -20 27z" />
<glyph unicode="I" horiz-adv-x="548" d="M111 25l235 1335q4 27 31 26h141q23 0 19 -26l-236 -1335q-6 -25 -27 -25h-143q-10 0 -16 7.5t-4 17.5z" />
<glyph unicode="J" horiz-adv-x="915" d="M16 98l43 138q12 25 33 18l250 -78q72 0 125 41t63 100l185 1043q6 27 26 26h146q23 0 18 -26l-186 -1057q-12 -68 -45 -126t-83 -102t-114.5 -69.5t-136.5 -25.5h-16l-295 88q-15 4 -16 17q0 5 3 13z" />
<glyph unicode="K" horiz-adv-x="1179" d="M111 25l235 1335q6 27 31 26h139q25 0 21 -26l-99 -557l678 594q8 8 17 8t18 -8l98 -101q5 -7 6 -16q0 -13 -12 -23l-457 -395l269 -700q4 -10 7 -21.5t1 -21.5l-19 -96q-4 -23 -24 -23h-92q-20 0 -29 20l-270 711l-240 -207l-88 -499q-6 -25 -29 -25h-139q-26 0 -22 25z " />
<glyph unicode="L" horiz-adv-x="978" d="M111 27l235 1333q6 27 31 26h139q12 0 17.5 -8t3.5 -18l-205 -1163h522q25 0 23 -25l-25 -145q-4 -27 -31 -27h-688q-26 0 -22 27z" />
<glyph unicode="M" horiz-adv-x="1462" d="M111 25l227 1290q4 16 20 22l148 66q9 4 15 4q13 0 16 -16l231 -764l496 743q12 16 26 16h142q25 0 20 -26l-235 -1333q-4 -27 -29 -27h-144q-25 0 -20 27l164 931l-457 -682q-12 -16 -29 -16q-16 0 -22 16l-215 682l-164 -933q-6 -25 -29 -25h-139q-26 0 -22 25z" />
<glyph unicode="N" horiz-adv-x="1329" d="M111 25l225 1278q2 18 16 24l137 74q10 5 18 4q12 0 17 -12l437 -985l167 952q6 27 27 26h141q25 0 23 -26l-236 -1335q-6 -25 -30 -25h-88q-41 0 -56 37l-434 981l-174 -993q-2 -10 -8 -17.5t-19 -7.5h-141q-14 0 -19 7.5t-3 17.5z" />
<glyph unicode="O" horiz-adv-x="1284" d="M156 500l80 454q16 94 62 174t110.5 137.5t141.5 89t155 31.5h264q29 0 51 -24l219 -279q16 -20 16 -44q0 -7 -2 -15l-104 -592q-16 -96 -62.5 -175t-111 -136.5t-141 -89t-154.5 -31.5h-199q-78 0 -145.5 38t-113.5 104.5t-65 157.5q-10 47 -10 98q0 49 9 102zM340 372 q8 -50 29.5 -89t57.5 -62.5t81 -23.5h192q45 0 89.5 23.5t80 63.5t61 91t36.5 104l92 522l-148 189h-227q-45 0 -89 -23.5t-80 -63.5t-62.5 -91t-34.5 -105l-76 -430q-6 -31 -6 -60q0 -23 4 -45z" />
<glyph unicode="P" horiz-adv-x="1122" d="M111 27l221 1253q4 20 20 29l146 69q18 8 34 8h320q76 0 136.5 -35.5t100 -94t57.5 -136.5q12 -53 12 -107q0 -26 -3 -52q-10 -86 -46 -157t-93.5 -123t-131 -81t-155.5 -29h-332l-96 -546q-6 -25 -29 -25h-143q-22 0 -18 27zM432 768h330q78 0 133 59.5t68 151.5 q3 18 2 34q0 23 -4 45q-8 38 -27 67.5t-47.5 47t-67.5 17.5h-313z" />
<glyph unicode="Q" horiz-adv-x="1294" d="M156 500l80 454q16 94 62 174t110.5 137.5t141.5 89t155 31.5h198q78 0 145.5 -37.5t113.5 -104t66 -158.5q10 -47 10 -98q0 -49 -9 -101l-96 -547q-4 -18 -10.5 -34.5t-22.5 -29.5l-72 -61l115 -137q14 -18 -6 -35l-99 -82q-10 -8 -18.5 -8t-15.5 8l-113 135l-86 -76 q-23 -20 -55 -20h-269q-78 0 -145.5 38t-113.5 104.5t-65 157.5q-10 47 -10 98q0 49 9 102zM340 372q8 -50 30.5 -89t57.5 -62.5t80 -23.5h219l45 41l-102 127q-14 18 6 34l94 84q23 18 33 0l106 -127l43 39l90 514q4 29 5 58q0 25 -4 48q-7 50 -29.5 89t-57 62.5 t-79.5 23.5h-193q-45 0 -89 -23.5t-80 -63.5t-62.5 -91t-34.5 -105l-76 -430q-6 -31 -6 -60q0 -23 4 -45z" />
<glyph unicode="R" horiz-adv-x="1200" d="M111 25l235 1335q6 27 29 26h477q76 0 136.5 -35.5t100 -94t57.5 -136.5q12 -53 12 -107q0 -26 -3 -52q-14 -127 -85 -219.5t-177 -133.5l162 -446q10 -23 8 -43l-19 -96q-4 -23 -24 -23h-94q-20 0 -29 20l-203 555l-284 64l-109 -614q-6 -25 -25 -25h-147q-12 0 -16 7.5 t-2 17.5zM444 838l328 -76q78 10 128 69.5t63 147.5q3 18 2 34q0 23 -4 45q-8 38 -27 67.5t-47.5 47t-67.5 17.5h-313z" />
<glyph unicode="S" horiz-adv-x="1105" d="M84 264q-3 8 -3 14q0 13 13 23l117 80q25 16 35 -6q43 -106 116.5 -152.5t174.5 -46.5q117 0 190.5 53.5t89.5 149.5q4 20 4 39q0 36 -13 66q-19 46 -69 71l-532 266l10 58q25 131 79 229t122.5 164.5t143.5 100.5t140 34h15l348 -113q16 -4 16 -17q0 -7 -4 -15l-43 -142 q-8 -14 -15 -17t-18 1l-321 106q-37 -6 -75 -29.5t-71.5 -59.5t-60.5 -84t-39 -103l416 -209q98 -49 140 -148q29 -69 29 -142q0 -32 -5 -64q-18 -102 -62.5 -176t-109 -121t-145.5 -70.5t-173 -23.5q-166 0 -276.5 80.5t-163.5 203.5z" />
<glyph unicode="T" horiz-adv-x="925" d="M180 1214l27 146q4 27 31 26h794q27 0 23 -26l-27 -146q-4 -25 -31 -24h-301l-207 -1165q-4 -25 -28 -25h-142q-25 0 -20 25l207 1165h-305q-25 -1 -21 24z" />
<glyph unicode="U" horiz-adv-x="1271" d="M176 500l152 860q6 27 24 26h146q25 0 20 -26l-156 -883q-6 -31 -5 -60q0 -23 3 -45q8 -50 30 -89t57.5 -62.5t80.5 -23.5h140q45 0 89 23.5t79.5 63.5t61.5 91t36 104l156 881q4 27 26 26h146q23 0 18 -26l-164 -928q-16 -96 -62 -175t-110.5 -136.5t-141.5 -89 t-155 -31.5h-145q-78 0 -145.5 38t-113.5 104.5t-66 157.5q-10 47 -10 98q0 49 9 102z" />
<glyph unicode="V" horiz-adv-x="1132" d="M207 1354q-4 33 29 32h143q23 0 27 -28l129 -1057l507 1057q16 29 43 28h154q21 0 21 -15q0 -7 -5 -17l-659 -1336q-10 -18 -27 -18h-159q-20 0 -23 18z" />
<glyph unicode="W" horiz-adv-x="1447" d="M227 1356q0 31 27 30h137q27 0 27 -28l24 -1010l267 570q8 18 26 18h144q20 0 20 -18l55 -584l396 1024q12 29 39 28h149q18 0 18 -14q0 -8 -4 -16l-516 -1329q-14 -27 -28 -27h-164q-29 0 -31 27l-61 583l-269 -581q-16 -29 -41 -29h-153q-20 0 -21 18z" />
<glyph unicode="X" horiz-adv-x="1054" d="M-9 12q0 8 5 17l467 731l-203 598q-4 10 3 19t18 9h159q12 0 16 -6l7 -14l151 -469l318 494q11 17 25 17q8 0 16 -5l121 -62q10 -7 10 -17q0 -8 -6 -19l-398 -607l224 -667q4 -8 -1 -19.5t-20 -11.5h-158q-23 0 -26 14l-172 543l-338 -541q-10 -16 -27 -16h-176 q-15 0 -15 12z" />
<glyph unicode="Y" horiz-adv-x="997" d="M186 1303q-2 6 -2 10q0 15 19 26l129 64q7 2 12 2q15 0 21 -16l188 -629l410 629q11 18 24 18q6 0 12 -4l125 -64q9 -8 9 -17t-7 -19l-508 -756l-92 -520q-4 -27 -30 -27h-138q-27 0 -22 27l92 520z" />
<glyph unicode="Z" horiz-adv-x="983" d="M12 106l748 1084h-477q-25 0 -21 27l27 143q2 27 30 26h609q10 0 22 -8l99 -61q9 -8 8 -18q0 -9 -6 -19l-746 -1083h526q25 0 21 -27l-25 -143q-6 -27 -28 -27h-662q-10 0 -26 8l-97 62q-11 6 -10 16q-1 8 8 20z" />
<glyph unicode="[" horiz-adv-x="641" d="M20 -379l342 1935q4 27 29 27h373q10 0 16 -8t4 -19l-26 -145q-4 -25 -29 -25h-207l-280 -1595h207q25 0 18 -24l-25 -146q-2 -10 -10 -18.5t-18 -8.5h-373q-27 0 -21 27z" />
<glyph unicode="\" horiz-adv-x="774" d="M156 1360q-6 27 18 26h100q14 0 23 -26l395 -1581q6 -25 -22 -25h-92q-12 0 -17.5 5t-9.5 20z" />
<glyph unicode="]" horiz-adv-x="641" d="M-78 -379l23 146q6 25 32 24h207l281 1595h-207q-27 0 -22 25l26 145q4 27 31 27h371q27 0 22 -27l-342 -1935q-6 -27 -31 -27h-370q-25 0 -21 27z" />
<glyph unicode="^" horiz-adv-x="1157" d="M193 586l446 782q8 18 29 18h166q16 0 20 -18l172 -782q4 -33 -29 -33h-143q-16 0 -21.5 7t-7.5 22l-112 565l-310 -565q-12 -29 -38 -29h-158q-30 0 -14 33z" />
<glyph unicode="_" d="M-72 -231l23 143q6 27 29 27h860q27 0 22 -25l-26 -147q-4 -25 -29 -25h-862q-23 0 -17 27z" />
<glyph unicode="`" horiz-adv-x="864" d="M358 1272l62 117q14 25 35 14l333 -170q18 -8 5 -33l-25 -53q-10 -16 -25 -17h-147q-18 0 -31 7l-200 102q-19 10 -7 33z" />
<glyph unicode="a" horiz-adv-x="1021" d="M111 340l55 311q14 84 53 148.5t95.5 108.5t127 66.5t150.5 22.5t144.5 -27.5t107.5 -77.5t60 -120q10 -38 10 -81q0 -35 -7 -73l-76 -430l37 -114q6 -23 -20 -33l-139 -53q-14 -4 -20.5 -2t-10.5 18l-23 70l-227 -90h-20q-72 0 -132.5 28.5t-101.5 77.5t-58 114 q-10 38 -10 78q0 28 5 58zM305 365q-5 -28 -5 -53q0 -53 25 -85q36 -47 101 -47l229 90l62 351q3 21 3 40q0 16 -2 32q-5 34 -22.5 60.5t-49.5 42t-77 15.5q-92 0 -148 -58.5t-71 -136.5z" />
<glyph unicode="b" horiz-adv-x="1028" d="M57 74l64 114l207 1174q6 25 30 24h140q25 0 20 -24l-74 -420l166 55h21q76 0 140.5 -28.5t108.5 -77.5t62 -114q11 -39 11 -80q0 -28 -5 -56l-55 -311q-14 -84 -53 -148.5t-95.5 -108.5t-127 -66.5t-150.5 -22.5q-125 0 -201 79l-37 -61q-14 -23 -32 -14l-127 53 q-16 5 -17 18q0 7 4 15zM342 360q-4 -22 -4 -42q0 -51 26 -92q36 -56 125 -56q92 0 148.5 58.5t71.5 136.5l45 251q5 25 4 47q0 57 -31 91q-43 47 -115 47l-204 -70z" />
<glyph unicode="c" horiz-adv-x="917" d="M113 373l49 278q14 84 53 148.5t95.5 108.5t127 66.5t150.5 22.5q51 0 115.5 -14t160.5 -51q12 -4 12 -16q0 -4 -2 -9l-45 -147q-4 -10 -12 -14.5t-16 -0.5q-84 33 -142.5 47.5t-93.5 14.5q-92 0 -148.5 -56.5t-70.5 -134.5l-45 -256q-4 -22 -4 -41q0 -51 27 -91 q37 -54 129 -54l264 74q18 6 26 -19l35 -131q6 -23 -14 -28l-320 -86h-14q-80 0 -145.5 29.5t-108.5 81.5t-60 123q-10 39 -10 82q1 35 7 73z" />
<glyph unicode="d" horiz-adv-x="1028" d="M111 340l55 311q14 84 53 148.5t95.5 108.5t127 66.5t150.5 22.5q121 0 180 -63l76 430q4 23 24 22h148q23 0 18 -22l-207 -1176l37 -114q6 -23 -20 -33l-139 -53q-14 -4 -20.5 -2t-10.5 18l-16 51l-213 -71h-21q-78 0 -141.5 28.5t-107.5 77.5t-62 114q-11 39 -11 80 q0 27 5 56zM305 365q-5 -25 -4 -47q0 -57 31 -91q43 -47 114 -47l205 70l66 371q3 21 3 40q0 16 -2 32q-5 34 -22.5 60.5t-49.5 42t-77 15.5q-92 0 -148 -58.5t-71 -136.5z" />
<glyph unicode="e" horiz-adv-x="968" d="M113 373l49 278q14 84 52 148.5t93 108.5t126 66.5t151 22.5t143.5 -27.5t106.5 -76.5t63 -117q15 -48 15 -102q0 -21 -3 -43l-75 -168q-10 -18 -29 -19l-502 -67l-10 -60q2 -63 38 -103t122 -40l264 74q18 6 26 -19l35 -131q6 -23 -14 -28l-320 -86h-14 q-80 0 -145.5 29.5t-108.5 81.5t-60 123q-10 39 -10 82q1 35 7 73zM336 563l379 51q5 26 5 50q0 54 -27 92q-38 55 -128 55q-92 0 -148.5 -55.5t-70.5 -132.5z" />
<glyph unicode="f" horiz-adv-x="653" d="M45 -381l205 1165h-109q-27 0 -22 25l26 145q4 27 31 27h109l16 94q12 76 50 137.5t93.5 103.5t124 64.5t144.5 22.5h12l158 -53q11 -4 11 -14q0 -5 -3 -11l-45 -147q-8 -20 -27 -15l-135 43q-66 0 -117 -35.5t-75 -97.5l-17 -92h205q25 0 20 -23l-26 -151 q-4 -23 -27 -23h-207l-204 -1165q-4 -25 -23 -25h-147q-25 0 -21 25z" />
<glyph unicode="g" horiz-adv-x="1028" d="M57 -295l41 137q4 12 14.5 17.5t20.5 1.5l260 -88q59 0 115.5 35.5t83.5 103.5l24 143l-165 -55h-21q-78 0 -141.5 28.5t-107.5 78t-62 113.5q-11 39 -11 80q0 28 5 56l53 295q14 84 53 148.5t95.5 108.5t127 66.5t150.5 22.5h16l185 -79l36 61q14 23 33 14l127 -53 q16 -5 17 -18q0 -6 -5 -15l-63 -114l-154 -871q-16 -86 -54 -150.5t-92 -107.5t-123 -64.5t-142 -21.5h-23l-284 94q-12 5 -12 18q-1 6 3 15zM307 381q-5 -25 -4 -47q0 -57 31 -90q43 -47 115 -47l204 69l84 473l-168 72q-92 0 -148 -58.5t-71 -136.5z" />
<glyph unicode="h" horiz-adv-x="1058" d="M92 25l236 1337q6 25 28 24h140q25 0 22 -24l-74 -420l166 55h21q76 0 140.5 -28.5t107.5 -77.5t62 -114q12 -40 12 -82q0 -27 -5 -54l-108 -616q-4 -25 -21 -25h-147q-27 0 -23 25l105 591q5 25 4 47q0 57 -31 91q-43 47 -115 47l-204 -70l-125 -706q-6 -25 -25 -25 h-147q-12 0 -16.5 7.5t-2.5 17.5z" />
<glyph unicode="i" horiz-adv-x="507" d="M92 25l164 929q6 27 27 27h143q25 0 20 -27l-163 -929q-6 -25 -31 -25h-139q-25 0 -21 25zM295 1176l33 186q6 25 28 24h140q25 0 22 -24l-33 -186q-6 -29 -30 -29h-140q-24 0 -20 29z" />
<glyph unicode="j" horiz-adv-x="548" d="M-281 -338l37 137q4 12 14.5 17.5t20.5 1.5l129 -45q53 0 108.5 35.5t82.5 103.5l184 1042q6 27 27 27h143q25 0 20 -27l-180 -1024q-31 -174 -142.5 -263t-266.5 -89h-13l-155 51q-12 5 -12 18q-1 6 3 15zM334 1176l33 186q6 25 28 24h140q25 0 22 -24l-33 -186 q-6 -29 -30 -29h-140q-24 0 -20 29z" />
<glyph unicode="k" horiz-adv-x="1050" d="M92 25l236 1337q2 25 28 24h140q29 0 22 -24l-131 -746l487 377q20 14 37 2l113 -92q7 -5 7 -11q0 -11 -19 -26l-340 -258l225 -446q10 -18 6 -43l-18 -96q-4 -23 -23 -23h-90q-18 0 -27 20l-231 467l-174 -131l-57 -331q-4 -16 -10.5 -20.5t-20.5 -4.5h-139 q-22 0 -22 16q0 4 1 9z" />
<glyph unicode="l" horiz-adv-x="507" d="M92 25l236 1337q6 25 28 24h140q25 0 22 -24l-235 -1337q-6 -25 -31 -25h-139q-25 0 -21 25z" />
<glyph unicode="m" horiz-adv-x="1599" d="M92 25l135 768l-37 114q-6 23 21 33l139 53q14 4 20.5 2t10.5 -18l16 -51l203 71h21q74 0 136 -26.5t105 -73.5l285 100h20q76 0 140.5 -28.5t107.5 -77.5t63 -114q12 -40 12 -82q0 -27 -5 -54l-109 -616q-4 -25 -20 -25h-148q-27 0 -22 25l104 591q5 25 5 47 q0 57 -31 91q-43 47 -115 47l-209 -76q4 -20 3 -40.5t-5 -43.5l-109 -616q-4 -25 -20 -25h-147q-27 0 -23 25l104 591q5 25 5 47q0 57 -31 91q-43 47 -115 47l-194 -70l-125 -706q-6 -25 -25 -25h-147q-12 0 -16.5 7.5t-2.5 17.5z" />
<glyph unicode="n" horiz-adv-x="1058" d="M92 25l135 768l-37 114q-6 23 21 33l139 53q14 4 20.5 2t10.5 -18l16 -51l213 71h21q76 0 140.5 -28.5t107.5 -77.5t62 -114q12 -40 12 -82q0 -27 -5 -54l-108 -616q-4 -25 -21 -25h-147q-27 0 -23 25l105 591q5 25 4 47q0 57 -31 91q-43 47 -115 47l-204 -70l-125 -706 q-6 -25 -25 -25h-147q-12 0 -16.5 7.5t-2.5 17.5z" />
<glyph unicode="o" d="M113 373l49 278q14 84 53 148.5t95.5 108.5t127 66.5t150.5 22.5t145.5 -29.5t108.5 -81.5t60 -123q10 -39 10 -82q0 -35 -7 -73l-49 -278q-14 -84 -53 -148.5t-95.5 -108.5t-127 -66.5t-150.5 -22.5t-145.5 29.5t-108.5 81.5t-60 123q-10 39 -10 82q1 35 7 73zM301 360 q-4 -21 -4 -41q0 -52 28 -93q38 -56 128 -56q92 0 148 58.5t71 136.5l45 256q3 21 3 40q0 16 -2 32q-5 34 -24.5 60.5t-51.5 42t-77 15.5q-92 0 -148.5 -58.5t-70.5 -136.5z" />
<glyph unicode="p" horiz-adv-x="1028" d="M20 -383l207 1176l-37 114q-6 23 21 33l139 53q14 4 20.5 2t10.5 -18l16 -51l213 71h21q76 0 140.5 -28.5t108.5 -77.5t62 -114q11 -39 11 -80q0 -28 -5 -56l-55 -311q-14 -84 -53 -148.5t-95.5 -108.5t-127 -66.5t-150.5 -22.5q-121 0 -180 63l-76 -430q-4 -23 -25 -23 h-147q-23 0 -19 23zM342 360q-4 -22 -4 -42q0 -51 26 -92q36 -56 125 -56q92 0 148.5 58.5t71.5 136.5l45 251q5 25 4 47q0 57 -31 91q-43 47 -115 47l-204 -70z" />
<glyph unicode="q" horiz-adv-x="1028" d="M111 340l55 311q14 84 53 148.5t95.5 108.5t127 66.5t150.5 22.5q125 0 201 -79l36 61q14 23 33 14l127 -53q16 -5 17 -18q0 -6 -5 -15l-63 -114l-207 -1174q-6 -25 -31 -25h-139q-25 0 -20 25l73 420l-165 -55h-21q-78 0 -141.5 28.5t-107.5 77.5t-62 114q-11 39 -11 80 q0 27 5 56zM305 365q-5 -25 -4 -47q0 -57 31 -91q43 -47 114 -47l205 70l66 371q3 21 3 40q0 16 -2 32q-5 34 -22.5 60.5t-49.5 42t-77 15.5q-92 0 -148 -58.5t-71 -136.5z" />
<glyph unicode="r" horiz-adv-x="765" d="M92 25l135 768l-37 114q-6 23 21 33l139 53q14 4 20.5 2t10.5 -18l20 -64q59 37 116.5 58.5t117.5 25.5h14l164 -55q13 -4 13 -18q0 -6 -3 -15l-47 -141q-6 -20 -28 -14l-138 47q-47 -10 -106.5 -35t-100.5 -57l-120 -684q-6 -25 -25 -25h-147q-12 0 -16.5 7.5t-2.5 17.5 z" />
<glyph unicode="s" horiz-adv-x="905" d="M86 203q-1 4 -1 7q0 9 7 13l121 86q10 8 20 -4q35 -66 83.5 -100.5t119.5 -34.5q63 0 104.5 26.5t51.5 75.5q6 35 -5.5 58.5t-33.5 34.5l-391 184l10 65q14 88 52 159t90.5 121t111.5 76.5t119 26.5h14l283 -92q10 -3 10 -10q0 -3 -2 -6l-49 -154q-8 -12 -23 -10l-254 80 q-27 -4 -49 -19.5t-40.5 -36t-31 -44t-18.5 -48.5l260 -118q78 -35 115 -105q27 -50 26 -114q0 -25 -4 -52q-20 -133 -114.5 -208.5t-247.5 -75.5q-106 0 -193.5 54t-140.5 165z" />
<glyph unicode="t" horiz-adv-x="702" d="M119 809l26 145q4 27 31 27h123l41 236q6 27 33 26h139q25 0 18 -26l-41 -236h175q27 0 22 -27l-27 -145q-4 -25 -30 -25h-174l-97 -542q-4 -31 10.5 -46.5t39.5 -15.5l102 31q23 6 27 -16l36 -148q0 -20 -24 -27l-146 -36q-68 0 -115.5 21.5t-77.5 55t-41 74.5 q-7 27 -7 53q0 14 2 29l100 567h-123q-26 0 -22 25z" />
<glyph unicode="u" horiz-adv-x="1058" d="M137 340l109 616q2 12 8 18.5t12 6.5h148q25 0 22 -25l-104 -591q-5 -25 -5 -47q0 -57 31 -91q43 -47 115 -47l205 70l125 706q6 25 24 25h148q12 0 16 -7t2 -18l-135 -768l37 -114q6 -23 -21 -33l-139 -53q-14 -4 -20 -2t-10 18l-17 51l-213 -71h-20q-78 0 -141.5 28.5 t-106.5 77.5t-63 114q-12 40 -12 82q0 26 5 54z" />
<glyph unicode="v" horiz-adv-x="907" d="M117 948q-4 33 26 33h140q27 0 26 -29l103 -665l338 665q16 29 43 29h149q16 0 21 -9q1 -3 1 -7q0 -7 -6 -17l-483 -930q-10 -18 -26 -18h-162q-18 0 -21 18z" />
<glyph unicode="w" horiz-adv-x="1284" d="M135 950q0 31 27 31h133q27 0 27 -29l24 -639l268 564q8 18 27 18h143q16 0 21 -18l59 -576l254 651q12 29 39 29h146q17 0 16 -15q0 -8 -4 -16l-367 -923q-14 -27 -30 -27h-160q-29 0 -31 27l-65 585l-277 -583q-16 -29 -39 -29h-147q-20 0 -21 18z" />
<glyph unicode="x" horiz-adv-x="892" d="M-31 13q0 8 6 16l367 491l-182 432q-4 10 3 19.5t19 9.5h162q16 0 25 -20l118 -314l258 342q10 17 25 18q6 0 12 -3l121 -64q12 -7 13 -17q0 -9 -9 -20l-329 -418l204 -454q4 -10 -1 -20.5t-19 -10.5h-160q-20 0 -27 14l-139 338l-248 -336q-12 -16 -24 -16h-178 q-17 0 -17 13z" />
<glyph unicode="y" horiz-adv-x="923" d="M-16 -266q-2 6 -2 11q0 18 22 22q72 10 135.5 44.5t96.5 96.5l63 123l-184 903q-6 27 22 33l135 39q5 1 9 1q17 0 18 -22l143 -670l322 637q12 29 43 29h151q16 0 21 -9q1 -3 1 -7q0 -7 -5 -17l-572 -1108q-59 -117 -151 -179t-205 -83q-3 -1 -6 -1q-17 0 -23 20z" />
<glyph unicode="z" horiz-adv-x="874" d="M35 127l530 657h-360q-25 0 -21 27l27 143q2 27 31 27h489q14 0 23 -8l98 -82q11 -9 11 -20q0 -8 -7 -17l-528 -657h379q25 0 20 -27l-25 -143q-6 -27 -28 -27h-514q-12 0 -23 8l-98 82q-11 9 -11 20q0 8 7 17z" />
<glyph unicode="{" horiz-adv-x="776" d="M82 535l12 77q4 18 21 25l141 59q20 8 29 9h61l86 491q16 94 58 167t101.5 122t132.5 73.5t150 24.5h25q23 0 21 -24l-27 -146q-2 -10 -10.5 -18.5t-18.5 -8.5h-10q-92 0 -156.5 -68.5t-83.5 -174.5l-196 -1108q-18 -106 22.5 -175t132.5 -69h11q25 0 18 -24l-24 -146 q-2 -10 -10.5 -18.5t-18.5 -8.5h-25q-78 0 -140 33t-102 93.5t-54.5 145.5t3.5 189l80 453h-213q-24 0 -16 27z" />
<glyph unicode="|" horiz-adv-x="835" d="M182 -381l342 1937q4 27 31 27h141q23 0 19 -27l-342 -1937q-6 -25 -27 -25h-143q-10 0 -16.5 7.5t-4.5 17.5z" />
<glyph unicode="}" horiz-adv-x="776" d="M-80 -381l27 145q2 10 10 18.5t18 8.5h11q92 0 156.5 68.5t82.5 175.5l197 1108q18 106 -23 174.5t-133 68.5h-10q-25 0 -18 25l24 145q2 10 10.5 18.5t18.5 8.5h24q78 0 140.5 -32.5t102.5 -93t54.5 -145.5t-4.5 -190l-73 -417h210q23 0 19 -27l-14 -78q-4 -18 -21 -25 l-141 -59q-12 -8 -29 -8h-59l-92 -526q-16 -96 -58.5 -168t-102 -121t-132 -74t-150.5 -25h-24q-25 0 -21 25z" />
<glyph unicode="~" horiz-adv-x="1226" d="M225 561l25 146q6 23 33 38q61 39 132.5 55.5t129.5 16.5l268 -82q63 0 131 17.5t131 54.5q25 14 21 -12l-27 -146q-2 -23 -29 -39q-63 -39 -134.5 -55t-127.5 -16l-268 82q-66 0 -133.5 -17.5t-128.5 -54.5q-12 -8 -18.5 -3t-4.5 15z" />
<glyph unicode="&#xa1;" horiz-adv-x="548" d="M39 -379l174 987q4 27 27 27h143q25 0 20 -27l-174 -987q-6 -27 -26 -27h-148q-20 0 -16 27zM248 805l26 151q6 25 27 25h143q27 0 21 -25l-27 -149q-4 -23 -24 -23h-148q-20 1 -18 21z" />
<glyph unicode="&#xa2;" horiz-adv-x="958" d="M168 575l49 279q25 143 115 229t219 109l41 229q4 27 29 27h141q25 0 20 -27l-41 -231q70 -16 179 -55q16 -6 10 -25l-45 -147q-4 -10 -12.5 -14.5t-16.5 -0.5q-84 33 -142.5 47.5t-92.5 14.5q-92 0 -148.5 -56.5t-71.5 -134.5l-45 -256q-14 -78 23 -132t129 -54l264 74 q18 6 27 -19l35 -131q6 -23 -15 -29l-241 -65l-43 -244q-4 -25 -29 -24h-144q-10 0 -15 7t-3 17l41 236q-117 33 -179.5 134t-37.5 242z" />
<glyph unicode="&#xa3;" horiz-adv-x="1191" d="M137 631l23 135q6 27 30 27h156l29 159q18 98 68.5 182.5t121 144.5t152.5 94t164 34h20l295 -98q23 -6 12 -31l-51 -141q-4 -10 -12 -15.5t-21 -1.5l-268 90q-47 -4 -95 -27.5t-90 -63.5t-73 -94t-43 -120l-20 -112h337q25 0 21 -25l-25 -139q-6 -25 -26 -25h-340 l-56 -321l273 -103q66 0 106.5 37t51.5 100q2 23 28 23h148q18 0 16 -23q-6 -70 -32.5 -130t-72.5 -105t-107.5 -71.5t-135.5 -26.5h-39l-299 116l-55 -98q-10 -16 -17.5 -18t-19.5 2l-121 53q-23 10 -8 33l84 149l67 383h-155q-27 0 -21 27z" />
<glyph unicode="&#xa4;" horiz-adv-x="1261" d="M164 649v88q0 100 38 186.5t101.5 148t148.5 96t179 34.5t179 -34.5t148.5 -96t101.5 -147.5t38 -187v-88q0 -102 -38 -187t-101.5 -146.5t-148.5 -96.5t-179 -35t-179 35t-148.5 96.5t-101.5 146.5t-38 187zM360 666q0 -61 20.5 -113.5t56.5 -90.5t85 -59.5t109 -21.5 q59 0 108 21.5t85 59.5t56.5 90t20.5 114v55q0 61 -20.5 113.5t-56.5 90.5t-85 59.5t-108 21.5t-108.5 -21.5t-85.5 -59.5t-56.5 -90.5t-20.5 -113.5v-55z" />
<glyph unicode="&#xa5;" horiz-adv-x="997" d="M18 279l27 143q2 27 29 27h336l18 98l-37 115h-280q-25 0 -19 26l25 143q6 27 28 27h183l-142 445q-8 23 17 36l129 64q25 8 33 -14l188 -629l410 629q16 27 36 14l125 -64q16 -14 2 -36l-299 -445h179q27 0 22 -24l-24 -148q-6 -25 -31 -24h-279l-76 -115l-18 -98h334 q27 0 22 -25l-26 -148q-4 -25 -29 -24h-336l-39 -225q-4 -27 -30 -27h-138q-27 0 -22 27l39 225h-336q-23 0 -21 27z" />
<glyph unicode="&#xa6;" horiz-adv-x="835" d="M182 -381l113 643q4 27 31 27h141q23 0 18 -27l-112 -643q-6 -25 -27 -25h-143q-10 0 -16.5 7.5t-4.5 17.5zM375 717l114 643q4 27 31 26h142q23 0 18 -26l-115 -643q-4 -25 -26 -25h-144q-10 0 -16 7.5t-4 17.5z" />
<glyph unicode="&#xa7;" horiz-adv-x="905" d="M86 203q-4 14 6 20l121 86q10 8 20 -4q35 -66 83.5 -100.5t119.5 -34.5q63 0 105.5 28.5t52.5 77.5q4 27 -7.5 47.5t-31.5 30.5l-395 191l12 69q16 92 55 165t92 124l-88 43l13 70q14 88 52 158.5t87 122t106.5 79t112.5 27.5h14l283 -92q14 -4 8 -17l-49 -153 q-8 -12 -22 -11l-254 80q-47 -14 -81 -53t-50 -84l288 -139q78 -37 102.5 -111.5t10.5 -152.5q-10 -59 -40 -108.5t-75 -84.5q35 -41 44.5 -97t0.5 -112q-23 -127 -118 -205.5t-248 -78.5q-106 0 -191.5 54t-138.5 165zM379 672l203 -99q35 16 55 45t27 64q4 27 -6.5 45 t-30.5 29l-133 63q-41 -23 -70 -62.5t-45 -84.5z" />
<glyph unicode="&#xa8;" horiz-adv-x="968" d="M330 1155l32 188q6 27 31 27h139q27 0 21 -27l-33 -188q-4 -25 -28 -25h-140q-26 0 -22 25zM711 1155l32 188q6 27 31 27h139q27 0 21 -27l-33 -188q-4 -25 -29 -25h-139q-26 0 -22 25z" />
<glyph unicode="&#xa9;" horiz-adv-x="1703" d="M213 713q27 156 100.5 283.5t179 219t239.5 141.5t284 50t269.5 -56.5t196.5 -155.5t106.5 -233.5t2.5 -289.5q-27 -154 -99.5 -282t-178 -219t-240.5 -141t-285 -50t-268.5 56t-195 155.5t-107.5 233.5t-4 288zM338 692q-23 -127 0.5 -232.5t86 -183t159 -120.5 t221.5 -43q123 0 232.5 43t197.5 120.5t148.5 183t82.5 232.5q23 125 -0.5 232.5t-86 184.5t-160 121t-222.5 44q-123 0 -232.5 -44t-197.5 -121t-147 -184.5t-82 -232.5zM559 627l23 127q12 74 52 140.5t95 116.5t122 78.5t132 28.5h10l240 -80q18 -6 8 -24l-37 -105 q-4 -8 -10 -12t-14 0l-219 74q-37 -4 -76 -23.5t-72 -50.5t-57.5 -71t-32.5 -85l-16 -102q-8 -41 -2 -79t22 -67.5t42 -48t60 -18.5h54q68 0 110.5 42t53.5 93q2 18 18 19h109q16 0 14 -19q-12 -66 -41 -118t-69 -89t-89 -56t-102 -19h-72q-59 0 -111.5 27.5t-88 74.5 t-52 110.5t-4.5 135.5z" />
<glyph unicode="&#xaa;" horiz-adv-x="919" d="M186 844l45 264q12 72 45 127t83.5 92t115 56.5t135.5 19.5q72 0 131.5 -23.5t98.5 -66.5t55 -102.5t4 -129.5l-63 -366l36 -97q2 -20 -18 -28l-125 -45q-12 -4 -17 -2t-10 16l-22 59l-203 -77h-18q-66 0 -120 24.5t-92 66.5t-54.5 96.5t-6.5 115.5zM360 864 q-12 -76 20 -115.5t91 -39.5l203 73l53 301q12 66 -20.5 114t-114.5 48t-132 -50t-63 -116z" />
<glyph unicode="&#xab;" horiz-adv-x="1335" d="M123 537q-6 10 4 20l473 412q14 12 31 12h114q12 0 13 -12l-19 -105q-4 -20 -16 -30l-352 -302l247 -299q8 -10 5 -30l-19 -105q-4 -14 -16 -14h-86q-16 0 -27 14zM639 537q-6 10 4 20l473 412q14 12 31 12h115q12 0 12 -12l-19 -105q-4 -20 -16 -30l-352 -302l248 -299 q8 -10 4 -30l-19 -105q-4 -14 -16 -14h-86q-16 0 -27 14z" />
<glyph unicode="&#xac;" horiz-adv-x="1306" d="M268 809l27 145q4 27 29 27h710q12 0 25 -8l119 -70q14 -10 12 -24l-84 -478q-4 -27 -27 -26h-143q-10 0 -16.5 8t-4.5 18l68 383h-694q-25 0 -21 25z" />
<glyph unicode="&#xad;" horiz-adv-x="563" d="M90 590l14 78q4 18 21 24l141 60q20 8 29 8h248q20 0 18 -25l-26 -145q-2 -27 -27 -27h-399q-23 0 -19 27z" />
<glyph unicode="&#xae;" horiz-adv-x="1419" d="M283 1102q20 117 79.5 217t145.5 174t191.5 115t220.5 41q123 0 216 -48.5t153.5 -129t83 -187t1.5 -223.5q-20 -117 -80.5 -217.5t-146.5 -174t-192.5 -114.5t-221.5 -41q-121 0 -214 48t-152.5 129t-81.5 187.5t-2 223.5zM377 1081q-16 -96 2 -181t66.5 -147.5 t125 -99.5t174.5 -37t187.5 37t160 99.5t120 147.5t65.5 181t-1 181.5t-66.5 148t-125 99t-176.5 36.5q-98 0 -187 -36.5t-159.5 -99t-120 -148t-65.5 -181.5zM549 795l100 573q4 16 19 16h268q47 0 83 -19t57.5 -51t28.5 -75t-1 -90q-10 -59 -49 -99t-90 -63l82 -117 q6 -8 2 -26l-9 -51q-4 -14 -14 -15h-53q-12 0 -15 13l-120 174l-142 16l-32 -186q-4 -16 -15 -17h-88q-16 1 -12 17zM717 1094l188 -23q31 10 53.5 33.5t28.5 64.5q8 41 -12.5 69t-67.5 28h-159z" />
<glyph unicode="&#xaf;" horiz-adv-x="968" d="M330 1155l24 145q6 27 33 27h520q25 0 19 -27l-25 -145q-4 -25 -29 -25h-520q-26 0 -22 25z" />
<glyph unicode="&#xb0;" horiz-adv-x="890" d="M248 1092q0 66 24.5 123t67.5 100t100.5 67.5t122.5 24.5q66 0 123 -24.5t100 -67.5t68 -100.5t25 -122.5q0 -66 -25 -123.5t-68 -100.5t-100 -67.5t-123 -24.5t-123 24.5t-100 67.5t-67.5 100.5t-24.5 123.5zM410 1092q0 -63 45 -108.5t108 -45.5t108.5 45t45.5 109 q0 63 -45 108t-109 45q-63 0 -108 -45t-45 -108z" />
<glyph unicode="&#xb1;" horiz-adv-x="1306" d="M131 27l25 143q6 27 28 27h860q10 0 17.5 -7.5t3.5 -17.5l-25 -147q-6 -25 -26 -25h-862q-27 0 -21 27zM248 688l24 143q6 27 29 27h336l47 262q4 27 27 27h143q25 0 20 -25l-47 -264h334q10 0 16.5 -7t4.5 -17l-25 -148q-6 -25 -29 -24h-335l-45 -265q-6 -25 -31 -24 h-139q-27 0 -21 24l45 265h-336q-24 -1 -18 26z" />
<glyph unicode="&#xb2;" horiz-adv-x="1118" d="M55 106q-10 16 4 35l680 607q61 55 100.5 114.5t51.5 126.5q8 43 1 83t-29.5 71t-60.5 49t-93 18q-98 0 -171 -48t-132 -136q-14 -25 -35 -10l-105 65q-25 10 -4 37q74 123 191.5 206t271.5 83q84 0 154.5 -30.5t120 -87t72 -135.5t7.5 -177q-16 -100 -73.5 -192.5 t-153.5 -178.5l-467 -409h530q23 0 17 -23l-27 -151q-4 -23 -26 -23h-729q-6 0 -14.5 2t-12.5 6z" />
<glyph unicode="&#xb3;" horiz-adv-x="1118" d="M100 125l43 141q4 10 13.5 15.5t23.5 1.5l322 -107q121 0 196.5 62.5t92.5 162.5q14 84 -33 152t-160 84l-180 -57q-25 -6 -25 18l-35 127q-6 25 19 31l434 139q12 4 31.5 40t23.5 73q6 92 -34.5 147t-137.5 55q-78 0 -150.5 -37.5t-127.5 -109.5q-18 -20 -35 -10 l-111 71q-20 8 -4 37q78 121 196 183.5t259 62.5q86 0 155.5 -32t114.5 -88t62.5 -136t1.5 -176q-8 -45 -24.5 -85t-34 -72t-34 -51t-24.5 -22l-98 -30q86 -39 123.5 -128t21.5 -204q-14 -98 -57 -174t-108.5 -126t-149.5 -76.5t-181 -26.5h-28l-348 114q-23 6 -13 31z" />
<glyph unicode="&#xb4;" horiz-adv-x="864" d="M338 1202q-10 23 16 33l391 168q23 8 31 -14l41 -117q6 -23 -18 -33l-238 -102q-12 -6 -31 -7h-147q-14 0 -21 17z" />
<glyph unicode="&#xb5;" horiz-adv-x="1069" d="M20 -383l236 1339q2 12 8 18.5t12 6.5h148q25 0 22 -25l-104 -591q-16 -90 27 -137.5t114 -47.5l205 70l125 706q6 25 25 25h147q12 0 16.5 -7t2.5 -18l-136 -768l37 -114q6 -23 -20 -33l-140 -53q-14 -4 -20 -2t-10 18l-17 51l-213 -71h-20q-111 0 -178 63l-76 -430 q-4 -23 -25 -23h-147q-23 0 -19 23z" />
<glyph unicode="&#x3bc;" horiz-adv-x="1069" d="M20 -383l236 1339q2 12 8 18.5t12 6.5h148q25 0 22 -25l-104 -591q-16 -90 27 -137.5t114 -47.5l205 70l125 706q6 25 25 25h147q12 0 16.5 -7t2.5 -18l-136 -768l37 -114q6 -23 -20 -33l-140 -53q-14 -4 -20 -2t-10 18l-17 51l-213 -71h-20q-111 0 -178 63l-76 -430 q-4 -23 -25 -23h-147q-23 0 -19 23z" />
<glyph unicode="&#xb6;" horiz-adv-x="1349" d="M189.5 868.5q-15.5 75.5 0.5 165.5q14 88 56.5 154.5t103 110.5t133 65.5t152.5 21.5h180q51 0 88 -12l334 -112q23 -8 16 -31l-282 -1610q-4 -27 -27 -27h-143q-10 0 -16.5 8.5t-4.5 18.5l262 1489l-251 80l-277 -1569q-4 -27 -29 -27h-139q-27 0 -22 27l172 981 q-82 6 -145.5 42t-104.5 92.5t-56.5 132z" />
<glyph unicode="&#xb7;" horiz-adv-x="489" d="M190 639l33 186q4 29 29 29h139q27 0 23 -29l-33 -186q-6 -25 -31 -25h-139q-25 0 -21 25z" />
<glyph unicode="&#xb8;" horiz-adv-x="636" d="M55 -387l25 139q2 18 12 31l58 92q12 20 36 21h146q10 0 12 -9.5t-4 -19.5l-154 -254q-10 -18 -26 -19h-90q-19 1 -15 19z" />
<glyph unicode="&#xb9;" horiz-adv-x="954" d="M70 27l24 143q6 27 29 27h270l178 1009l-274 -86q-16 -6 -23 15l-30 129q-6 25 16 30l365 113q8 0 24 -8l117 -70q14 -10 12 -24l-194 -1108h245q27 0 21 -25l-25 -147q-6 -25 -26 -25h-709q-26 0 -20 27z" />
<glyph unicode="&#xba;" horiz-adv-x="890" d="M186 872l41 236q12 72 46 127t84.5 92t114 56.5t134.5 19.5q72 0 131.5 -24.5t99.5 -69.5t56 -105.5t4 -132.5l-41 -235q-12 -72 -45 -127.5t-83 -92t-113.5 -56t-135.5 -19.5t-131 24.5t-99 69.5t-57.5 105t-5.5 132zM356 862q-10 -66 25 -114t117 -48t132 49.5 t60 114.5l37 219q12 66 -22.5 114t-116.5 48t-132 -50t-63 -116z" />
<glyph unicode="&#xbb;" horiz-adv-x="1335" d="M102 96l19 105q4 20 16 30l352 301l-247 299q-8 10 -4 31l18 105q4 14 16 14h86q16 0 27 -14l352 -439q6 -10 -4 -20l-473 -412q-8 -6 -14 -9t-17 -3h-114q-13 0 -13 12zM618 96l19 105q4 20 16 30l353 301l-248 299q-8 10 -4 31l18 105q4 14 16 14h86q16 0 27 -14 l352 -439q6 -10 -4 -20l-473 -412q-8 -6 -14 -9t-17 -3h-114q-13 0 -13 12z" />
<glyph unicode="&#xbc;" horiz-adv-x="520" d="M-338 25l1118 1335q18 27 35 26h139q14 0 14.5 -8t-10.5 -18l-1116 -1335q-23 -25 -45 -25h-129q-31 0 -6 25z" />
<glyph unicode="&#xbd;" horiz-adv-x="520" d="M-338 25l1118 1335q18 27 35 26h139q14 0 14.5 -8t-10.5 -18l-1116 -1335q-23 -25 -45 -25h-129q-31 0 -6 25z" />
<glyph unicode="&#xbe;" horiz-adv-x="520" d="M-338 25l1118 1335q18 27 35 26h139q14 0 14.5 -8t-10.5 -18l-1116 -1335q-23 -25 -45 -25h-129q-31 0 -6 25z" />
<glyph unicode="&#xbf;" horiz-adv-x="974" d="M-14 -6q16 98 81.5 171t176.5 134l184 104l37 205q4 27 29 27h143q23 0 18 -27l-55 -315l-307 -172q-43 -25 -78 -60.5t-41 -87.5q-10 -92 37 -147t149 -55q90 0 167 41t139 112q8 10 18 11.5t16 -5.5l107 -86q4 -4 4 -12t-6 -16q-86 -109 -201 -175.5t-258 -66.5 q-100 0 -175 35t-121 93t-62 134t-2 158zM500 805l26 151q4 25 27 25h143q25 0 21 -25l-27 -149q-4 -23 -24 -23h-148q-20 1 -18 21z" />
<glyph unicode="&#xc0;" horiz-adv-x="1150" d="M-29 11.5q-2 11.5 2 21.5l680 1335q8 18 25 18h145q16 0 21 -18l196 -1335q4 -16 -4 -24.5t-20 -8.5h-148q-16 0 -22 8t-8 21l-45 342h-261l-208 -62l-136 -280q-16 -29 -38 -29h-160q-17 0 -19 11.5zM438 537l64 18q20 6 44.5 9t47.5 3h174l-66 518zM471 1677l61 117 q14 25 35 14l334 -170q18 -8 4 -32l-24 -54q-10 -16 -25 -16h-147q-18 0 -31 6l-201 103q-18 9 -6 32z" />
<glyph unicode="&#xc1;" horiz-adv-x="1150" d="M-29 11.5q-2 11.5 2 21.5l680 1335q8 18 25 18h145q16 0 21 -18l196 -1335q4 -16 -4 -24.5t-20 -8.5h-148q-16 0 -22 8t-8 21l-45 342h-261l-208 -62l-136 -280q-16 -29 -38 -29h-160q-17 0 -19 11.5zM438 537l64 18q20 6 44.5 9t47.5 3h174l-66 518zM629 1608 q-10 23 16 32l391 168q23 8 31 -14l41 -117q6 -23 -18 -32l-238 -103q-12 -6 -31 -6h-147q-14 0 -21 16z" />
<glyph unicode="&#xc2;" horiz-adv-x="1150" d="M-29 11.5q-2 11.5 2 21.5l680 1335q8 18 25 18h145q16 0 21 -18l196 -1335q4 -16 -4 -24.5t-20 -8.5h-148q-16 0 -22 8t-8 21l-45 342h-261l-208 -62l-136 -280q-16 -29 -38 -29h-160q-17 0 -19 11.5zM438 537l64 18q20 6 44.5 9t47.5 3h174l-66 518zM471 1544q-2 8 8 19 l307 241q20 16 35 0l221 -241q8 -10 3 -18.5t-15 -8.5h-153q-14 0 -21 10l-76 82l-106 -82q-14 -10 -25 -10h-166q-10 0 -12 8z" />
<glyph unicode="&#xc3;" horiz-adv-x="1150" d="M-29 11.5q-2 11.5 2 21.5l680 1335q8 18 25 18h145q16 0 21 -18l196 -1335q4 -16 -4 -24.5t-20 -8.5h-148q-16 0 -22 8t-8 21l-45 342h-261l-208 -62l-136 -280q-16 -29 -38 -29h-160q-17 0 -19 11.5zM438 537l64 18q20 6 44.5 9t47.5 3h174l-66 518zM463 1561l22 131 q6 20 31 37q41 23 86 37t84 14l213 -62q39 0 82 14.5t86 36.5q10 4 17.5 0t5.5 -14l-25 -131q-2 -20 -31 -37q-41 -23 -85 -37t-83 -14l-213 61q-39 0 -83 -14t-85 -37q-26 -10 -22 15z" />
<glyph unicode="&#xc4;" horiz-adv-x="1150" d="M-29 11.5q-2 11.5 2 21.5l680 1335q8 18 25 18h145q16 0 21 -18l196 -1335q4 -16 -4 -24.5t-20 -8.5h-148q-16 0 -22 8t-8 21l-45 342h-261l-208 -62l-136 -280q-16 -29 -38 -29h-160q-17 0 -19 11.5zM438 537l64 18q20 6 44.5 9t47.5 3h174l-66 518zM473 1561l33 188 q6 27 31 27h139q27 0 20 -27l-32 -188q-4 -25 -29 -25h-139q-27 0 -23 25zM854 1561l33 188q6 27 31 27h139q27 0 20 -27l-33 -188q-4 -25 -28 -25h-139q-27 0 -23 25z" />
<glyph unicode="&#xc5;" horiz-adv-x="1150" d="M-29 11.5q-2 11.5 2 21.5l680 1335q8 18 25 18h145q16 0 21 -18l196 -1335q4 -16 -4 -24.5t-20 -8.5h-148q-16 0 -22 8t-8 21l-45 342h-261l-208 -62l-136 -280q-16 -29 -38 -29h-160q-17 0 -19 11.5zM438 537l64 18q20 6 44.5 9t47.5 3h174l-66 518zM616 1661 q0 70 47.5 118t112.5 48q68 0 115 -48t47 -118t-47 -118t-115 -48q-66 0 -113 48t-47 118zM696 1661q0 -35 23.5 -58.5t56.5 -23.5q35 0 58.5 23.5t23.5 58.5t-23.5 58.5t-58.5 23.5q-33 0 -56.5 -23.5t-23.5 -58.5z" />
<glyph unicode="&#xc6;" horiz-adv-x="1673" d="M-66.5 10q-3.5 10 3.5 23l790 1335q8 18 25 18h911q23 0 18 -26l-26 -146q-4 -25 -27 -24h-524l-68 -393l78 24q43 12 92 13h281q25 0 18 -25l-24 -145q-6 -27 -29 -27h-297l-156 -45l-69 -395h561q23 0 20 -25l-24 -147q-4 -25 -29 -25h-729q-25 0 -20 25l88 505 l-123 -34q-20 -6 -44 -9.5t-46 -3.5h-166l-266 -454q-18 -29 -41 -29h-158q-16 0 -19.5 10zM532 680h101l201 57l79 453h-82z" />
<glyph unicode="&#xc7;" horiz-adv-x="1191" d="M156 500l80 454q16 94 69 177t126 144.5t157 96.5t162 35h16l401 -133q18 -6 11 -31l-50 -137q-10 -25 -36 -16l-361 120q-57 -8 -109.5 -34.5t-94.5 -66.5t-70.5 -92t-38.5 -110l-76 -430q-10 -55 -2 -105t29.5 -89t57.5 -62.5t81 -23.5h170q45 0 83 15t65.5 41t45 57.5 t23.5 66.5q2 25 29 24h143q20 0 18 -24q-14 -90 -54 -161t-97 -119t-128 -72.5t-147 -24.5h-178q-78 0 -145.5 38t-113.5 104.5t-65 157.5t-1 200zM352 -387l25 139q2 18 12 31l57 92q12 20 37 21h146q10 0 12 -9.5t-4 -19.5l-154 -254q-10 -18 -26 -19h-90q-19 1 -15 19z " />
<glyph unicode="&#xc8;" horiz-adv-x="1075" d="M111 25l235 1335q6 27 29 26h690q23 0 18 -26l-26 -146q-4 -25 -27 -24h-524l-68 -393l78 24q43 12 92 13h281q25 0 18 -25l-24 -145q-6 -27 -29 -27h-297l-156 -45l-69 -395h561q23 0 20 -25l-24 -147q-4 -25 -29 -25h-729q-24 0 -20 25zM453 1677l61 117q14 25 35 14 l334 -170q18 -8 4 -32l-25 -54q-10 -16 -24 -16h-148q-18 0 -31 6l-200 103q-18 9 -6 32z" />
<glyph unicode="&#xc9;" horiz-adv-x="1075" d="M111 25l235 1335q6 27 29 26h690q23 0 18 -26l-26 -146q-4 -25 -27 -24h-524l-68 -393l78 24q43 12 92 13h281q25 0 18 -25l-24 -145q-6 -27 -29 -27h-297l-156 -45l-69 -395h561q23 0 20 -25l-24 -147q-4 -25 -29 -25h-729q-24 0 -20 25zM592 1608q-10 23 16 32l391 168 q23 8 31 -14l41 -117q6 -23 -18 -32l-238 -103q-12 -6 -31 -6h-147q-14 0 -21 16z" />
<glyph unicode="&#xca;" horiz-adv-x="1075" d="M111 25l235 1335q6 27 29 26h690q23 0 18 -26l-26 -146q-4 -25 -27 -24h-524l-68 -393l78 24q43 12 92 13h281q25 0 18 -25l-24 -145q-6 -27 -29 -27h-297l-156 -45l-69 -395h561q23 0 20 -25l-24 -147q-4 -25 -29 -25h-729q-24 0 -20 25zM444 1544q-2 8 9 19l307 241 q20 16 35 0l221 -241q8 -10 3 -18.5t-15 -8.5h-154q-14 0 -21 10l-75 82l-107 -82q-14 -10 -24 -10h-166q-11 0 -13 8z" />
<glyph unicode="&#xcb;" horiz-adv-x="1075" d="M111 25l235 1335q6 27 29 26h690q23 0 18 -26l-26 -146q-4 -25 -27 -24h-524l-68 -393l78 24q43 12 92 13h281q25 0 18 -25l-24 -145q-6 -27 -29 -27h-297l-156 -45l-69 -395h561q23 0 20 -25l-24 -147q-4 -25 -29 -25h-729q-24 0 -20 25zM451 1561l32 188q6 27 31 27 h139q27 0 21 -27l-33 -188q-4 -25 -29 -25h-139q-26 0 -22 25zM831 1561l33 188q6 27 31 27h139q27 0 21 -27l-33 -188q-4 -25 -29 -25h-139q-27 0 -23 25z" />
<glyph unicode="&#xcc;" horiz-adv-x="548" d="M111 25l235 1335q4 27 31 26h141q23 0 19 -26l-236 -1335q-6 -25 -27 -25h-143q-10 0 -16 7.5t-4 17.5zM158 1677l61 117q14 25 35 14l334 -170q18 -8 4 -32l-25 -54q-10 -16 -24 -16h-148q-18 0 -30 6l-201 103q-18 9 -6 32z" />
<glyph unicode="&#xcd;" horiz-adv-x="548" d="M111 25l235 1335q4 27 31 26h141q23 0 19 -26l-236 -1335q-6 -25 -27 -25h-143q-10 0 -16 7.5t-4 17.5zM334 1608q-10 23 16 32l391 168q23 8 31 -14l41 -117q6 -23 -18 -32l-238 -103q-12 -6 -31 -6h-147q-14 0 -21 16z" />
<glyph unicode="&#xce;" horiz-adv-x="548" d="M111 25l235 1335q4 27 31 26h141q23 0 19 -26l-236 -1335q-6 -25 -27 -25h-143q-10 0 -16 7.5t-4 17.5zM170 1544q-2 8 8 19l307 241q20 16 35 0l221 -241q8 -10 3 -18.5t-15 -8.5h-154q-14 0 -20 10l-76 82l-106 -82q-14 -10 -25 -10h-166q-10 0 -12 8z" />
<glyph unicode="&#xcf;" horiz-adv-x="548" d="M111 25l235 1335q4 27 31 26h141q23 0 19 -26l-236 -1335q-6 -25 -27 -25h-143q-10 0 -16 7.5t-4 17.5zM180 1561l33 188q6 27 31 27h139q27 0 20 -27l-32 -188q-4 -25 -29 -25h-139q-27 0 -23 25zM561 1561l33 188q6 27 31 27h139q27 0 20 -27l-32 -188q-4 -25 -29 -25 h-139q-27 0 -23 25z" />
<glyph unicode="&#xd0;" horiz-adv-x="1320" d="M63 662l27 147q2 10 10.5 17.5t18.5 7.5h174l80 446q4 20 20 29l146 69q18 8 34 8h369q78 0 145.5 -37.5t113.5 -104t65.5 -158t1.5 -199.5l-80 -455q-16 -96 -62.5 -175t-111 -136.5t-141 -89t-154.5 -31.5h-549q-23 0 -18 27l106 610h-176q-23 0 -19 25zM373 197h366 q45 0 89 23.5t80 63.5t61.5 91t36.5 104l75 430q8 55 1 105.5t-29.5 89.5t-57 62.5t-80.5 23.5h-368l-64 -356h97q6 0 17 -2.5t21 -6.5l158 -59q16 -6 12 -25l-12 -77q-6 -27 -31 -27h-296z" />
<glyph unicode="&#xd1;" horiz-adv-x="1329" d="M111 25l225 1278q2 18 16 24l137 74q27 12 35 -8l437 -985l167 952q6 27 27 26h141q25 0 23 -26l-236 -1335q-6 -25 -30 -25h-88q-41 0 -56 37l-434 981l-174 -993q-2 -10 -8 -17.5t-19 -7.5h-141q-14 0 -19 7.5t-3 17.5zM547 1561l22 131q6 20 31 37q41 23 86 37t84 14 l213 -62q39 0 82 14.5t86 36.5q10 4 17.5 0t5.5 -14l-25 -131q-2 -20 -31 -37q-41 -23 -85 -37t-83 -14l-213 61q-39 0 -83 -14t-85 -37q-26 -10 -22 15z" />
<glyph unicode="&#xd2;" horiz-adv-x="1284" d="M156 500l80 454q16 94 62 174t110.5 137.5t141.5 89t155 31.5h264q29 0 51 -24l219 -279q20 -27 14 -59l-104 -592q-16 -96 -62.5 -175t-111 -136.5t-141 -89t-154.5 -31.5h-199q-78 0 -145.5 38t-113.5 104.5t-65 157.5t-1 200zM340 372q8 -50 29.5 -89t57.5 -62.5 t81 -23.5h192q45 0 89.5 23.5t80 63.5t61 91t36.5 104l92 522l-148 189h-227q-45 0 -89 -23.5t-80 -63.5t-62.5 -91t-34.5 -105l-76 -430q-10 -55 -2 -105zM537 1677l61 117q14 25 35 14l334 -170q18 -8 4 -32l-25 -54q-10 -16 -24 -16h-148q-18 0 -31 6l-200 103 q-18 9 -6 32z" />
<glyph unicode="&#xd3;" horiz-adv-x="1284" d="M156 500l80 454q16 94 62 174t110.5 137.5t141.5 89t155 31.5h264q29 0 51 -24l219 -279q20 -27 14 -59l-104 -592q-16 -96 -62.5 -175t-111 -136.5t-141 -89t-154.5 -31.5h-199q-78 0 -145.5 38t-113.5 104.5t-65 157.5t-1 200zM340 372q8 -50 29.5 -89t57.5 -62.5 t81 -23.5h192q45 0 89.5 23.5t80 63.5t61 91t36.5 104l92 522l-148 189h-227q-45 0 -89 -23.5t-80 -63.5t-62.5 -91t-34.5 -105l-76 -430q-10 -55 -2 -105zM676 1608q-10 23 16 32l391 168q23 8 31 -14l41 -117q6 -23 -18 -32l-238 -103q-12 -6 -31 -6h-147q-14 0 -21 16z " />
<glyph unicode="&#xd4;" horiz-adv-x="1284" d="M156 500l80 454q16 94 62 174t110.5 137.5t141.5 89t155 31.5h264q29 0 51 -24l219 -279q20 -27 14 -59l-104 -592q-16 -96 -62.5 -175t-111 -136.5t-141 -89t-154.5 -31.5h-199q-78 0 -145.5 38t-113.5 104.5t-65 157.5t-1 200zM340 372q8 -50 29.5 -89t57.5 -62.5 t81 -23.5h192q45 0 89.5 23.5t80 63.5t61 91t36.5 104l92 522l-148 189h-227q-45 0 -89 -23.5t-80 -63.5t-62.5 -91t-34.5 -105l-76 -430q-10 -55 -2 -105zM532.5 1544q-2.5 8 8.5 19l307 241q20 16 35 0l221 -241q8 -10 3 -18.5t-15 -8.5h-154q-14 0 -20 10l-76 82 l-107 -82q-14 -10 -24 -10h-166q-10 0 -12.5 8z" />
<glyph unicode="&#xd5;" horiz-adv-x="1284" d="M156 500l80 454q16 94 62 174t110.5 137.5t141.5 89t155 31.5h264q29 0 51 -24l219 -279q20 -27 14 -59l-104 -592q-16 -96 -62.5 -175t-111 -136.5t-141 -89t-154.5 -31.5h-199q-78 0 -145.5 38t-113.5 104.5t-65 157.5t-1 200zM340 372q8 -50 29.5 -89t57.5 -62.5 t81 -23.5h192q45 0 89.5 23.5t80 63.5t61 91t36.5 104l92 522l-148 189h-227q-45 0 -89 -23.5t-80 -63.5t-62.5 -91t-34.5 -105l-76 -430q-10 -55 -2 -105zM526 1561l23 131q6 20 31 37q41 23 86 37t84 14l213 -62q39 0 81.5 14.5t85.5 36.5q10 4 17.5 0t5.5 -14l-25 -131 q-2 -20 -30 -37q-41 -23 -85 -37t-83 -14l-213 61q-39 0 -83 -14t-85 -37q-27 -10 -23 15z" />
<glyph unicode="&#xd6;" horiz-adv-x="1284" d="M156 500l80 454q16 94 62 174t110.5 137.5t141.5 89t155 31.5h264q29 0 51 -24l219 -279q20 -27 14 -59l-104 -592q-16 -96 -62.5 -175t-111 -136.5t-141 -89t-154.5 -31.5h-199q-78 0 -145.5 38t-113.5 104.5t-65 157.5t-1 200zM340 372q8 -50 29.5 -89t57.5 -62.5 t81 -23.5h192q45 0 89.5 23.5t80 63.5t61 91t36.5 104l92 522l-148 189h-227q-45 0 -89 -23.5t-80 -63.5t-62.5 -91t-34.5 -105l-76 -430q-10 -55 -2 -105zM537 1561l32 188q6 27 31 27h139q27 0 21 -27l-33 -188q-4 -25 -29 -25h-139q-26 0 -22 25zM918 1561l32 188 q6 27 31 27h139q27 0 21 -27l-33 -188q-4 -25 -29 -25h-139q-26 0 -22 25z" />
<glyph unicode="&#xd7;" horiz-adv-x="1306" d="M229 360q-14 18 4 37l332 289l-221 283q-14 14 8 35l107 94q23 20 37 2l221 -283l330 289q23 18 36 2l93 -113q12 -16 -7 -34l-333 -291l221 -281q18 -16 -4 -35l-113 -96q-18 -18 -33 0l-223 281l-332 -289q-18 -16 -33 2z" />
<glyph unicode="&#xd8;" horiz-adv-x="1284" d="M156 500l80 454q16 94 62 174t110.5 137.5t141.5 89t155 31.5h264l51 97q16 27 31 26h123q27 0 10 -26l-105 -199l160 -201q20 -27 14 -59l-104 -592q-16 -96 -62.5 -175t-111 -136.5t-141 -89t-154.5 -31.5h-199q-35 0 -65 6l-56 -104q-12 -25 -34 -25h-115 q-25 0 -12 25l88 168q-78 66 -118 177.5t-13 252.5zM342 356.5q12 -57.5 43 -98.5l483 932h-184q-45 0 -89 -23.5t-80 -63.5t-62.5 -91t-34.5 -105l-76 -430q-12 -63 0 -120.5zM514 197h186q45 0 89.5 23.5t80 63.5t61 91t36.5 104l92 522l-76 97z" />
<glyph unicode="&#xd9;" horiz-adv-x="1271" d="M176 500l152 860q6 27 24 26h146q25 0 20 -26l-156 -883q-10 -55 -1.5 -105t30 -89t57 -62.5t80.5 -23.5h140q45 0 89 23.5t79.5 63.5t61.5 91t36 104l156 881q4 27 26 26h146q23 0 18 -26l-164 -928q-16 -96 -62 -175t-110.5 -136.5t-141.5 -89t-155 -31.5h-145 q-78 0 -145.5 38t-113.5 104.5t-65.5 157.5t-1.5 200zM530 1677l62 117q14 25 35 14l334 -170q18 -8 4 -32l-25 -54q-10 -16 -25 -16h-147q-18 0 -31 6l-200 103q-19 9 -7 32z" />
<glyph unicode="&#xda;" horiz-adv-x="1271" d="M176 500l152 860q6 27 24 26h146q25 0 20 -26l-156 -883q-10 -55 -1.5 -105t30 -89t57 -62.5t80.5 -23.5h140q45 0 89 23.5t79.5 63.5t61.5 91t36 104l156 881q4 27 26 26h146q23 0 18 -26l-164 -928q-16 -96 -62 -175t-110.5 -136.5t-141.5 -89t-155 -31.5h-145 q-78 0 -145.5 38t-113.5 104.5t-65.5 157.5t-1.5 200zM670 1608q-10 23 16 32l391 168q23 8 31 -14l41 -117q6 -23 -19 -32l-237 -103q-12 -6 -31 -6h-147q-14 0 -21 16z" />
<glyph unicode="&#xdb;" horiz-adv-x="1271" d="M176 500l152 860q6 27 24 26h146q25 0 20 -26l-156 -883q-10 -55 -1.5 -105t30 -89t57 -62.5t80.5 -23.5h140q45 0 89 23.5t79.5 63.5t61.5 91t36 104l156 881q4 27 26 26h146q23 0 18 -26l-164 -928q-16 -96 -62 -175t-110.5 -136.5t-141.5 -89t-155 -31.5h-145 q-78 0 -145.5 38t-113.5 104.5t-65.5 157.5t-1.5 200zM526 1544q-2 8 9 19l307 241q20 16 35 0l221 -241q8 -10 3 -18.5t-16 -8.5h-153q-14 0 -21 10l-75 82l-107 -82q-14 -10 -24 -10h-166q-11 0 -13 8z" />
<glyph unicode="&#xdc;" horiz-adv-x="1271" d="M176 500l152 860q6 27 24 26h146q25 0 20 -26l-156 -883q-10 -55 -1.5 -105t30 -89t57 -62.5t80.5 -23.5h140q45 0 89 23.5t79.5 63.5t61.5 91t36 104l156 881q4 27 26 26h146q23 0 18 -26l-164 -928q-16 -96 -62 -175t-110.5 -136.5t-141.5 -89t-155 -31.5h-145 q-78 0 -145.5 38t-113.5 104.5t-65.5 157.5t-1.5 200zM530 1561l33 188q6 27 31 27h139q27 0 21 -27l-33 -188q-4 -25 -29 -25h-139q-27 0 -23 25zM911 1561l33 188q6 27 31 27h139q27 0 21 -27l-33 -188q-4 -25 -29 -25h-139q-27 0 -23 25z" />
<glyph unicode="&#xdd;" horiz-adv-x="997" d="M186 1303q-8 23 17 36l129 64q25 8 33 -14l188 -629l410 629q16 27 36 14l125 -64q16 -14 2 -36l-508 -756l-92 -520q-4 -27 -30 -27h-138q-27 0 -22 27l92 520zM553 1608q-10 23 16 32l392 168q23 8 30 -14l41 -117q6 -23 -18 -32l-238 -103q-12 -6 -31 -6h-147 q-14 0 -20 16z" />
<glyph unicode="&#xde;" horiz-adv-x="1132" d="M111 25l235 1335q4 27 31 26h141q23 0 19 -26l-50 -277l78 25q43 12 92 12h148q76 0 136 -35.5t100 -94t57.5 -136.5t9.5 -160q-10 -86 -46 -156.5t-93.5 -123t-131 -81t-155.5 -28.5h-332l-49 -280q-6 -25 -27 -25h-143q-10 0 -16 7.5t-4 17.5zM385 502h330 q78 0 133 59.5t67 151.5q6 41 -2 78.5t-26.5 67.5t-47 47.5t-67.5 17.5h-313z" />
<glyph unicode="&#xdf;" horiz-adv-x="1157" d="M20 -381l252 1434q14 84 52 149.5t93.5 109.5t124 67.5t144.5 23.5q84 0 150.5 -32t108.5 -87t58.5 -130t2.5 -161l-21 -121q-4 -20 -18 -22q-86 -12 -142.5 -63.5t-79.5 -122.5l195 -127q72 -47 96.5 -119t12.5 -150q-20 -133 -114.5 -208.5t-248.5 -75.5 q-68 0 -130 24.5t-110 69.5q-10 10 0 20l82 127q12 12 23 4q63 -59 151 -59q63 0 104.5 26.5t51.5 75.5q6 35 -5 64t-42 49l-281 184l11 58q12 68 39.5 126t65.5 104t83 80t94 52q16 98 -23.5 157.5t-142.5 59.5q-66 0 -117 -36.5t-73 -98.5l-256 -1452q-4 -25 -23 -25h-147 q-25 0 -21 25z" />
<glyph unicode="&#xe0;" horiz-adv-x="1021" d="M111 340l55 311q14 84 53 148.5t95.5 108.5t127 66.5t150.5 22.5t144.5 -27.5t107.5 -77.5t60.5 -120t2.5 -154l-76 -430l37 -114q6 -23 -20 -33l-139 -53q-14 -4 -20.5 -2t-10.5 18l-23 70l-227 -90h-20q-72 0 -132.5 28.5t-101.5 77.5t-58 113.5t-5 136.5zM305 365 q-16 -90 19.5 -137.5t101.5 -47.5l229 90l62 351q6 39 1 72.5t-22.5 60t-49.5 42t-77 15.5q-92 0 -148 -58.5t-71 -136.5zM356 1272l62 117q14 25 35 14l333 -170q18 -8 5 -33l-25 -53q-10 -16 -25 -17h-147q-18 0 -31 7l-201 102q-18 10 -6 33z" />
<glyph unicode="&#xe1;" horiz-adv-x="1021" d="M111 340l55 311q14 84 53 148.5t95.5 108.5t127 66.5t150.5 22.5t144.5 -27.5t107.5 -77.5t60.5 -120t2.5 -154l-76 -430l37 -114q6 -23 -20 -33l-139 -53q-14 -4 -20.5 -2t-10.5 18l-23 70l-227 -90h-20q-72 0 -132.5 28.5t-101.5 77.5t-58 113.5t-5 136.5zM305 365 q-16 -90 19.5 -137.5t101.5 -47.5l229 90l62 351q6 39 1 72.5t-22.5 60t-49.5 42t-77 15.5q-92 0 -148 -58.5t-71 -136.5zM457 1202q-10 23 16 33l391 168q23 8 31 -14l41 -117q6 -23 -18 -33l-238 -102q-12 -6 -31 -7h-147q-14 0 -21 17z" />
<glyph unicode="&#xe2;" horiz-adv-x="1021" d="M111 340l55 311q14 84 53 148.5t95.5 108.5t127 66.5t150.5 22.5t144.5 -27.5t107.5 -77.5t60.5 -120t2.5 -154l-76 -430l37 -114q6 -23 -20 -33l-139 -53q-14 -4 -20.5 -2t-10.5 18l-23 70l-227 -90h-20q-72 0 -132.5 28.5t-101.5 77.5t-58 113.5t-5 136.5zM305 365 q-16 -90 19.5 -137.5t101.5 -47.5l229 90l62 351q6 39 1 72.5t-22.5 60t-49.5 42t-77 15.5q-92 0 -148 -58.5t-71 -136.5zM332 1138.5q-2 8.5 8 18.5l307 242q20 16 35 0l221 -242q8 -10 3 -18.5t-15 -8.5h-154q-14 0 -20 11l-76 82l-106 -82q-14 -10 -25 -11h-166 q-10 0 -12 8.5z" />
<glyph unicode="&#xe3;" horiz-adv-x="1021" d="M111 340l55 311q14 84 53 148.5t95.5 108.5t127 66.5t150.5 22.5t144.5 -27.5t107.5 -77.5t60.5 -120t2.5 -154l-76 -430l37 -114q6 -23 -20 -33l-139 -53q-14 -4 -20.5 -2t-10.5 18l-23 70l-227 -90h-20q-72 0 -132.5 28.5t-101.5 77.5t-58 113.5t-5 136.5zM305 365 q-16 -90 19.5 -137.5t101.5 -47.5l229 90l62 351q6 39 1 72.5t-22.5 60t-49.5 42t-77 15.5q-92 0 -148 -58.5t-71 -136.5zM326 1155l22 131q6 20 31 37q41 23 86 37t84 14l213 -61q39 0 82 14t86 37q10 4 17 0t5 -14l-24 -131q-2 -20 -31 -37q-41 -23 -85 -37.5t-83 -14.5 l-213 62q-39 0 -83 -14.5t-85 -36.5q-26 -11 -22 14z" />
<glyph unicode="&#xe4;" horiz-adv-x="1021" d="M111 340l55 311q14 84 53 148.5t95.5 108.5t127 66.5t150.5 22.5t144.5 -27.5t107.5 -77.5t60.5 -120t2.5 -154l-76 -430l37 -114q6 -23 -20 -33l-139 -53q-14 -4 -20.5 -2t-10.5 18l-23 70l-227 -90h-20q-72 0 -132.5 28.5t-101.5 77.5t-58 113.5t-5 136.5zM305 365 q-16 -90 19.5 -137.5t101.5 -47.5l229 90l62 351q6 39 1 72.5t-22.5 60t-49.5 42t-77 15.5q-92 0 -148 -58.5t-71 -136.5zM336 1155l33 188q6 27 30 27h140q27 0 20 -27l-33 -188q-4 -25 -28 -25h-140q-26 0 -22 25zM717 1155l33 188q6 27 30 27h140q27 0 20 -27l-33 -188 q-4 -25 -28 -25h-140q-26 0 -22 25z" />
<glyph unicode="&#xe5;" horiz-adv-x="1021" d="M111 340l55 311q14 84 53 148.5t95.5 108.5t127 66.5t150.5 22.5t144.5 -27.5t107.5 -77.5t60.5 -120t2.5 -154l-76 -430l37 -114q6 -23 -20 -33l-139 -53q-14 -4 -20.5 -2t-10.5 18l-23 70l-227 -90h-20q-72 0 -132.5 28.5t-101.5 77.5t-58 113.5t-5 136.5zM305 365 q-16 -90 19.5 -137.5t101.5 -47.5l229 90l62 351q6 39 1 72.5t-22.5 60t-49.5 42t-77 15.5q-92 0 -148 -58.5t-71 -136.5zM477 1255q0 70 47 118t113 48q68 0 115 -48t47 -118t-47 -117.5t-115 -47.5q-66 0 -113 47.5t-47 117.5zM557 1255q0 -35 23.5 -58t56.5 -23 q35 0 58.5 23.5t23.5 57.5q0 35 -23.5 58.5t-58.5 23.5q-33 0 -56.5 -23.5t-23.5 -58.5z" />
<glyph unicode="&#xe6;" horiz-adv-x="1529" d="M111 340l55 311q14 84 53 148.5t95.5 108.5t127 66.5t150.5 22.5q84 0 146.5 -30.5t101.5 -83.5q119 115 305 114q80 0 143.5 -27.5t106.5 -76.5t63.5 -116.5t11.5 -145.5l-75 -168q-10 -18 -29 -19l-502 -67l-10 -60q2 -63 38 -103t122 -40l264 74q18 6 27 -19l34 -131 q6 -23 -14 -28l-319 -86h-15q-84 0 -150.5 31.5t-109.5 86.5l-303 -118h-20q-72 0 -132.5 28.5t-101.5 77.5t-58 113.5t-5 136.5zM305 365q-16 -90 19.5 -137.5t101.5 -47.5l242 94q-4 45 6 99l43 248q6 39 1 72.5t-22.5 60t-49.5 42t-77 15.5q-92 0 -148 -58.5t-71 -136.5z M897 563l379 51q16 86 -21.5 141.5t-128.5 55.5q-92 0 -148 -55.5t-71 -132.5z" />
<glyph unicode="&#xe7;" horiz-adv-x="917" d="M113 373l49 278q14 84 53 148.5t95.5 108.5t127 66.5t150.5 22.5q51 0 115.5 -14t160.5 -51q16 -6 10 -25l-45 -147q-4 -10 -12 -14.5t-16 -0.5q-84 33 -142.5 47.5t-93.5 14.5q-92 0 -148.5 -56.5t-70.5 -134.5l-45 -256q-14 -78 22.5 -132t129.5 -54l264 74 q18 6 26 -19l35 -131q6 -23 -14 -28l-320 -86h-14q-80 0 -145.5 29.5t-108.5 81.5t-60 123t-3 155zM215 -387l25 139q2 18 12 31l57 92q12 20 37 21h146q10 0 12 -9.5t-4 -19.5l-154 -254q-10 -18 -27 -19h-90q-18 1 -14 19z" />
<glyph unicode="&#xe8;" horiz-adv-x="968" d="M113 373l49 278q14 84 52 148.5t93 108.5t126 66.5t151 22.5t143.5 -27.5t106.5 -76.5t63.5 -116.5t11.5 -145.5l-75 -168q-10 -18 -29 -19l-502 -67l-10 -60q2 -63 38 -103t122 -40l264 74q18 6 26 -19l35 -131q6 -23 -14 -28l-320 -86h-14q-80 0 -145.5 29.5 t-108.5 81.5t-60 123t-3 155zM336 563l379 51q16 86 -22 141.5t-128 55.5q-92 0 -148.5 -55.5t-70.5 -132.5zM336 1272l61 117q14 25 35 14l334 -170q18 -8 4 -33l-25 -53q-10 -16 -24 -17h-148q-18 0 -30 7l-201 102q-18 10 -6 33z" />
<glyph unicode="&#xe9;" horiz-adv-x="968" d="M113 373l49 278q14 84 52 148.5t93 108.5t126 66.5t151 22.5t143.5 -27.5t106.5 -76.5t63.5 -116.5t11.5 -145.5l-75 -168q-10 -18 -29 -19l-502 -67l-10 -60q2 -63 38 -103t122 -40l264 74q18 6 26 -19l35 -131q6 -23 -14 -28l-320 -86h-14q-80 0 -145.5 29.5 t-108.5 81.5t-60 123t-3 155zM336 563l379 51q16 86 -22 141.5t-128 55.5q-92 0 -148.5 -55.5t-70.5 -132.5zM434 1202q-10 23 17 33l391 168q23 8 30 -14l41 -117q6 -23 -18 -33l-238 -102q-12 -6 -30 -7h-148q-14 0 -20 17z" />
<glyph unicode="&#xea;" horiz-adv-x="968" d="M113 373l49 278q14 84 52 148.5t93 108.5t126 66.5t151 22.5t143.5 -27.5t106.5 -76.5t63.5 -116.5t11.5 -145.5l-75 -168q-10 -18 -29 -19l-502 -67l-10 -60q2 -63 38 -103t122 -40l264 74q18 6 26 -19l35 -131q6 -23 -14 -28l-320 -86h-14q-80 0 -145.5 29.5 t-108.5 81.5t-60 123t-3 155zM317 1138.5q-2 8.5 9 18.5l307 242q20 16 35 0l221 -242q8 -10 3 -18.5t-15 -8.5h-154q-14 0 -21 11l-75 82l-107 -82q-14 -10 -24 -11h-166q-11 0 -13 8.5zM336 563l379 51q16 86 -22 141.5t-128 55.5q-92 0 -148.5 -55.5t-70.5 -132.5z" />
<glyph unicode="&#xeb;" horiz-adv-x="968" d="M113 373l49 278q14 84 52 148.5t93 108.5t126 66.5t151 22.5t143.5 -27.5t106.5 -76.5t63.5 -116.5t11.5 -145.5l-75 -168q-10 -18 -29 -19l-502 -67l-10 -60q2 -63 38 -103t122 -40l264 74q18 6 26 -19l35 -131q6 -23 -14 -28l-320 -86h-14q-80 0 -145.5 29.5 t-108.5 81.5t-60 123t-3 155zM322 1155l32 188q6 27 31 27h139q27 0 21 -27l-33 -188q-4 -25 -29 -25h-139q-26 0 -22 25zM336 563l379 51q16 86 -22 141.5t-128 55.5q-92 0 -148.5 -55.5t-70.5 -132.5zM702 1155l33 188q6 27 31 27h139q27 0 21 -27l-33 -188 q-4 -25 -29 -25h-139q-27 0 -23 25z" />
<glyph unicode="&#xec;" horiz-adv-x="507" d="M82 1272l61 117q14 25 35 14l334 -170q18 -8 4 -33l-24 -53q-10 -16 -25 -17h-148q-18 0 -30 7l-201 102q-18 10 -6 33zM92 25l164 929q6 27 27 27h143q25 0 20 -27l-163 -929q-6 -25 -31 -25h-139q-25 0 -21 25z" />
<glyph unicode="&#xed;" horiz-adv-x="507" d="M92 25l164 929q6 27 27 27h143q25 0 20 -27l-163 -929q-6 -25 -31 -25h-139q-25 0 -21 25zM260 1202q-10 23 16 33l392 168q23 8 30 -14l41 -117q6 -23 -18 -33l-238 -102q-12 -6 -30 -7h-148q-14 0 -20 17z" />
<glyph unicode="&#xee;" horiz-adv-x="507" d="M80 1138.5q-2 8.5 8 18.5l307 242q20 16 35 0l221 -242q8 -10 3 -18.5t-15 -8.5h-154q-14 0 -20 11l-76 82l-106 -82q-14 -10 -25 -11h-166q-10 0 -12 8.5zM92 25l164 929q6 27 27 27h143q25 0 20 -27l-163 -929q-6 -25 -31 -25h-139q-25 0 -21 25z" />
<glyph unicode="&#xef;" horiz-adv-x="507" d="M92 25l164 929q6 27 27 27h143q25 0 20 -27l-163 -929q-6 -25 -31 -25h-139q-25 0 -21 25zM92 1155l33 188q6 27 31 27h139q27 0 20 -27l-32 -188q-4 -25 -29 -25h-139q-27 0 -23 25zM473 1155l33 188q6 27 31 27h139q27 0 20 -27l-32 -188q-4 -25 -29 -25h-139 q-27 0 -23 25z" />
<glyph unicode="&#xf0;" d="M113 373l49 278q29 166 141.5 246t267.5 84l-75 94q-12 -4 -29 -4h-193q-20 0 -22 19l-10 43q-4 14 -2 21t16 11l131 43l-57 70q-14 18 10 39l106 82q20 18 35 0l99 -127l204 67q23 8 31 -16l29 -109q6 -23 -19 -32l-141 -45l147 -191q59 -76 74 -166t0 -172l-49 -278 q-14 -84 -53 -148.5t-95.5 -108.5t-127 -66.5t-150.5 -22.5t-145.5 29.5t-108.5 81.5t-60 123t-3 155zM301 360q-14 -78 23.5 -134t128.5 -56q92 0 148 58.5t71 136.5l45 256q6 39 1 72.5t-24.5 60t-51.5 42t-77 15.5q-92 0 -148.5 -58.5t-70.5 -136.5z" />
<glyph unicode="&#xf1;" horiz-adv-x="1058" d="M92 25l135 768l-37 114q-6 23 21 33l139 53q14 4 20.5 2t10.5 -18l16 -51l213 71h21q76 0 140.5 -28.5t107.5 -77.5t62.5 -113.5t6.5 -136.5l-108 -616q-4 -25 -21 -25h-147q-27 0 -23 25l105 591q16 90 -27 137.5t-115 47.5l-204 -70l-125 -706q-6 -25 -25 -25h-147 q-12 0 -16.5 7.5t-2.5 17.5zM342 1155l23 131q6 20 30 37q41 23 86 37t84 14l213 -61q39 0 82 14t86 37q10 4 17.5 0t5.5 -14l-25 -131q-2 -20 -31 -37q-41 -23 -85 -37.5t-83 -14.5l-213 62q-39 0 -82.5 -14.5t-84.5 -36.5q-27 -11 -23 14z" />
<glyph unicode="&#xf2;" d="M113 373l49 278q14 84 53 148.5t95.5 108.5t127 66.5t150.5 22.5t145.5 -29.5t108.5 -81.5t60.5 -123t2.5 -155l-49 -278q-14 -84 -53 -148.5t-95.5 -108.5t-127 -66.5t-150.5 -22.5t-145.5 29.5t-108.5 81.5t-60 123t-3 155zM301 360q-14 -78 23.5 -134t128.5 -56 q92 0 148 58.5t71 136.5l45 256q6 39 1 72.5t-24.5 60t-51.5 42t-77 15.5q-92 0 -148.5 -58.5t-70.5 -136.5zM344 1272l62 117q14 25 34 14l334 -170q18 -8 4 -33l-24 -53q-10 -16 -25 -17h-147q-18 0 -31 7l-201 102q-18 10 -6 33z" />
<glyph unicode="&#xf3;" d="M113 373l49 278q14 84 53 148.5t95.5 108.5t127 66.5t150.5 22.5t145.5 -29.5t108.5 -81.5t60.5 -123t2.5 -155l-49 -278q-14 -84 -53 -148.5t-95.5 -108.5t-127 -66.5t-150.5 -22.5t-145.5 29.5t-108.5 81.5t-60 123t-3 155zM301 360q-14 -78 23.5 -134t128.5 -56 q92 0 148 58.5t71 136.5l45 256q6 39 1 72.5t-24.5 60t-51.5 42t-77 15.5q-92 0 -148.5 -58.5t-70.5 -136.5zM442 1202q-10 23 17 33l391 168q23 8 31 -14l41 -117q6 -23 -19 -33l-237 -102q-12 -6 -31 -7h-148q-14 0 -20 17z" />
<glyph unicode="&#xf4;" d="M113 373l49 278q14 84 53 148.5t95.5 108.5t127 66.5t150.5 22.5t145.5 -29.5t108.5 -81.5t60.5 -123t2.5 -155l-49 -278q-14 -84 -53 -148.5t-95.5 -108.5t-127 -66.5t-150.5 -22.5t-145.5 29.5t-108.5 81.5t-60 123t-3 155zM301 360q-14 -78 23.5 -134t128.5 -56 q92 0 148 58.5t71 136.5l45 256q6 39 1 72.5t-24.5 60t-51.5 42t-77 15.5q-92 0 -148.5 -58.5t-70.5 -136.5zM319.5 1138.5q-2.5 8.5 8.5 18.5l307 242q20 16 35 0l221 -242q8 -10 3 -18.5t-15 -8.5h-154q-14 0 -20 11l-76 82l-107 -82q-14 -10 -24 -11h-166 q-10 0 -12.5 8.5z" />
<glyph unicode="&#xf5;" d="M113 373l49 278q14 84 53 148.5t95.5 108.5t127 66.5t150.5 22.5t145.5 -29.5t108.5 -81.5t60.5 -123t2.5 -155l-49 -278q-14 -84 -53 -148.5t-95.5 -108.5t-127 -66.5t-150.5 -22.5t-145.5 29.5t-108.5 81.5t-60 123t-3 155zM301 360q-14 -78 23.5 -134t128.5 -56 q92 0 148 58.5t71 136.5l45 256q6 39 1 72.5t-24.5 60t-51.5 42t-77 15.5q-92 0 -148.5 -58.5t-70.5 -136.5zM313 1155l23 131q6 20 31 37q41 23 86 37t84 14l213 -61q39 0 81.5 14t86.5 37q10 4 17 0t5 -14l-25 -131q-2 -20 -30 -37q-41 -23 -85 -37.5t-83 -14.5l-213 62 q-39 0 -83 -14.5t-85 -36.5q-27 -11 -23 14z" />
<glyph unicode="&#xf6;" d="M113 373l49 278q14 84 53 148.5t95.5 108.5t127 66.5t150.5 22.5t145.5 -29.5t108.5 -81.5t60.5 -123t2.5 -155l-49 -278q-14 -84 -53 -148.5t-95.5 -108.5t-127 -66.5t-150.5 -22.5t-145.5 29.5t-108.5 81.5t-60 123t-3 155zM301 360q-14 -78 23.5 -134t128.5 -56 q92 0 148 58.5t71 136.5l45 256q6 39 1 72.5t-24.5 60t-51.5 42t-77 15.5q-92 0 -148.5 -58.5t-70.5 -136.5zM324 1155l32 188q6 27 31 27h139q27 0 21 -27l-33 -188q-4 -25 -29 -25h-139q-26 0 -22 25zM705 1155l32 188q6 27 31 27h139q27 0 21 -27l-33 -188 q-4 -25 -29 -25h-139q-26 0 -22 25z" />
<glyph unicode="&#xf7;" horiz-adv-x="1306" d="M233 606l25 144q6 27 29 26h860q10 0 16 -7t4 -17l-24 -148q-6 -25 -29 -24h-862q-25 -1 -19 26zM516 172l35 188q4 27 29 27h139q27 0 22 -27l-34 -188q-4 -25 -31 -25h-139q-25 0 -21 25zM662 993l32 189q6 27 31 26h139q27 0 21 -26l-33 -189q-4 -25 -31 -24h-139 q-24 -1 -20 24z" />
<glyph unicode="&#xf8;" d="M76 -98l108 182q-47 53 -67.5 127t-3.5 162l49 278q14 84 53 148.5t95.5 108.5t127 66.5t150.5 22.5q68 0 125 -22l61 102q18 27 31 27h125q25 0 8 -27l-107 -180q47 -53 69 -127t5 -162l-49 -278q-14 -84 -53 -148.5t-95.5 -108.5t-127 -66.5t-150.5 -22.5 q-68 0 -129 22l-61 -104q-10 -14 -16.5 -19.5t-18.5 -5.5h-115q-24 0 -14 25zM297 320.5q0 -21.5 4 -39.5l311 524q-23 6 -47 6q-92 0 -148.5 -58.5t-70.5 -136.5l-45 -256q-4 -18 -4 -39.5zM401 176q25 -6 52 -6q92 0 148 58.5t71 136.5l45 256q6 47 -2 81z" />
<glyph unicode="&#xf9;" horiz-adv-x="1058" d="M137 340l109 616q2 12 8 18.5t12 6.5h148q25 0 22 -25l-104 -591q-16 -90 26.5 -137.5t114.5 -47.5l205 70l125 706q6 25 24 25h148q12 0 16 -7t2 -18l-135 -768l37 -114q6 -23 -21 -33l-139 -53q-14 -4 -20 -2t-10 18l-17 51l-213 -71h-20q-78 0 -141.5 28.5 t-106.5 77.5t-62.5 113.5t-7.5 136.5zM356 1272l62 117q14 25 35 14l333 -170q18 -8 5 -33l-25 -53q-10 -16 -25 -17h-147q-18 0 -31 7l-201 102q-18 10 -6 33z" />
<glyph unicode="&#xfa;" horiz-adv-x="1058" d="M137 340l109 616q2 12 8 18.5t12 6.5h148q25 0 22 -25l-104 -591q-16 -90 26.5 -137.5t114.5 -47.5l205 70l125 706q6 25 24 25h148q12 0 16 -7t2 -18l-135 -768l37 -114q6 -23 -21 -33l-139 -53q-14 -4 -20 -2t-10 18l-17 51l-213 -71h-20q-78 0 -141.5 28.5 t-106.5 77.5t-62.5 113.5t-7.5 136.5zM494 1202q-10 23 16 33l391 168q23 8 31 -14l41 -117q6 -23 -19 -33l-237 -102q-12 -6 -31 -7h-147q-14 0 -21 17z" />
<glyph unicode="&#xfb;" horiz-adv-x="1058" d="M137 340l109 616q2 12 8 18.5t12 6.5h148q25 0 22 -25l-104 -591q-16 -90 26.5 -137.5t114.5 -47.5l205 70l125 706q6 25 24 25h148q12 0 16 -7t2 -18l-135 -768l37 -114q6 -23 -21 -33l-139 -53q-14 -4 -20 -2t-10 18l-17 51l-213 -71h-20q-78 0 -141.5 28.5 t-106.5 77.5t-62.5 113.5t-7.5 136.5zM348 1138.5q-2 8.5 8 18.5l308 242q20 16 34 0l222 -242q8 -10 3 -18.5t-16 -8.5h-153q-14 0 -21 11l-76 82l-106 -82q-14 -10 -25 -11h-166q-10 0 -12 8.5z" />
<glyph unicode="&#xfc;" horiz-adv-x="1058" d="M137 340l109 616q2 12 8 18.5t12 6.5h148q25 0 22 -25l-104 -591q-16 -90 26.5 -137.5t114.5 -47.5l205 70l125 706q6 25 24 25h148q12 0 16 -7t2 -18l-135 -768l37 -114q6 -23 -21 -33l-139 -53q-14 -4 -20 -2t-10 18l-17 51l-213 -71h-20q-78 0 -141.5 28.5 t-106.5 77.5t-62.5 113.5t-7.5 136.5zM352 1155l33 188q6 27 31 27h139q27 0 20 -27l-32 -188q-4 -25 -29 -25h-139q-27 0 -23 25zM733 1155l33 188q6 27 31 27h139q27 0 20 -27l-32 -188q-4 -25 -29 -25h-139q-27 0 -23 25z" />
<glyph unicode="&#xfd;" horiz-adv-x="923" d="M-16 -266q-8 29 20 33q72 10 135.5 44.5t96.5 96.5l63 123l-184 903q-6 27 22 33l135 39q25 6 27 -21l143 -670l322 637q12 29 43 29h151q16 0 20.5 -9t-3.5 -24l-572 -1108q-59 -117 -151 -179t-205 -83q-23 -4 -29 19zM436 1202q-10 23 17 33l391 168q23 8 30 -14 l41 -117q6 -23 -18 -33l-238 -102q-12 -6 -30 -7h-148q-14 0 -20 17z" />
<glyph unicode="&#xfe;" horiz-adv-x="1028" d="M20 -383l308 1745q6 25 28 24h140q25 0 22 -24l-74 -420l166 55h21q76 0 140.5 -28.5t108.5 -77.5t62.5 -113.5t5.5 -136.5l-55 -311q-14 -84 -53 -148.5t-95.5 -108.5t-127 -66.5t-150.5 -22.5q-121 0 -180 63l-76 -430q-4 -23 -25 -23h-147q-23 0 -19 23zM342 360 q-14 -78 21.5 -134t125.5 -56q92 0 148.5 58.5t71.5 136.5l45 251q16 90 -27 137.5t-115 47.5l-204 -70z" />
<glyph unicode="&#xff;" horiz-adv-x="923" d="M-16 -266q-8 29 20 33q72 10 135.5 44.5t96.5 96.5l63 123l-184 903q-6 27 22 33l135 39q25 6 27 -21l143 -670l322 637q12 29 43 29h151q16 0 20.5 -9t-3.5 -24l-572 -1108q-59 -117 -151 -179t-205 -83q-23 -4 -29 19zM276 1155l33 188q6 27 31 27h139q27 0 21 -27 l-33 -188q-4 -25 -29 -25h-139q-27 0 -23 25zM657 1155l33 188q6 27 31 27h139q27 0 21 -27l-33 -188q-4 -25 -29 -25h-139q-27 0 -23 25z" />
<glyph unicode="&#x152;" horiz-adv-x="1851" d="M156 500l80 454q16 94 62 174t110.5 137.5t141.5 89t155 31.5h264q29 0 51 -24l84 -109l18 107q6 27 29 26h690q23 0 19 -26l-27 -146q-4 -25 -27 -24h-524l-68 -393l78 24q43 12 92 13h281q25 0 18 -25l-24 -145q-6 -27 -29 -27h-297l-155 -45l-70 -395h561q23 0 21 -25 l-25 -147q-4 -25 -29 -25h-729q-25 0 -20 25l8 45q-98 -70 -215 -70h-199q-78 0 -145.5 38t-113.5 104.5t-65 157.5t-1 200zM340 372q8 -50 29.5 -89t57.5 -62.5t81 -23.5h192q45 0 89.5 23.5t80 63.5t61 91t36.5 104l92 522l-148 189h-227q-45 0 -89 -23.5t-80 -63.5 t-62.5 -91t-34.5 -105l-76 -430q-10 -55 -2 -105z" />
<glyph unicode="&#x153;" horiz-adv-x="1529" d="M113 373l49 278q14 84 53 148.5t95.5 108.5t127 66.5t150.5 22.5q86 0 150.5 -33.5t103.5 -93.5q111 127 303 127q80 0 143.5 -27.5t106.5 -76.5t63.5 -116.5t11.5 -145.5l-75 -168q-10 -18 -29 -19l-502 -67l-10 -60q2 -63 38 -103t122 -40l264 74q18 6 27 -19l34 -131 q6 -23 -14 -28l-319 -86h-15q-86 0 -151.5 33.5t-104.5 93.5q-53 -63 -131 -95t-174 -32q-80 0 -145.5 29.5t-108.5 81.5t-60 123t-3 155zM301 360q-14 -78 23.5 -134t128.5 -56q92 0 148 58.5t71 136.5l45 256q6 39 1 72.5t-24.5 60t-51.5 42t-77 15.5q-92 0 -148.5 -58.5 t-70.5 -136.5zM897 563l379 51q16 86 -21.5 141.5t-128.5 55.5q-92 0 -148 -55.5t-71 -132.5z" />
<glyph unicode="&#x178;" horiz-adv-x="997" d="M186 1303q-8 23 17 36l129 64q25 8 33 -14l188 -629l410 629q16 27 36 14l125 -64q16 -14 2 -36l-508 -756l-92 -520q-4 -27 -30 -27h-138q-27 0 -22 27l92 520zM393 1561l33 188q6 27 31 27h139q27 0 20 -27l-32 -188q-4 -25 -29 -25h-139q-27 0 -23 25zM774 1561 l33 188q6 27 31 27h139q27 0 20 -27l-32 -188q-4 -25 -29 -25h-139q-27 0 -23 25z" />
<glyph unicode="&#x2c6;" horiz-adv-x="976" d="M330 1138.5q-2 8.5 8 18.5l307 242q20 16 35 0l221 -242q8 -10 3 -18.5t-15 -8.5h-154q-14 0 -20 11l-76 82l-107 -82q-14 -10 -24 -11h-166q-10 0 -12 8.5z" />
<glyph unicode="&#x2dc;" d="M330 1155l22 131q6 20 31 37q41 23 86 37t84 14l213 -61q39 0 82 14t86 37q10 4 17 0t5 -14l-24 -131q-2 -20 -31 -37q-41 -23 -85 -37.5t-83 -14.5l-213 62q-39 0 -83 -14.5t-85 -36.5q-26 -11 -22 14z" />
<glyph unicode="&#x2000;" horiz-adv-x="913" />
<glyph unicode="&#x2001;" horiz-adv-x="1826" />
<glyph unicode="&#x2002;" horiz-adv-x="913" />
<glyph unicode="&#x2003;" horiz-adv-x="1826" />
<glyph unicode="&#x2004;" horiz-adv-x="608" />
<glyph unicode="&#x2005;" horiz-adv-x="456" />
<glyph unicode="&#x2006;" horiz-adv-x="303" />
<glyph unicode="&#x2007;" horiz-adv-x="303" />
<glyph unicode="&#x2008;" horiz-adv-x="227" />
<glyph unicode="&#x2009;" horiz-adv-x="364" />
<glyph unicode="&#x200a;" horiz-adv-x="100" />
<glyph unicode="&#x2010;" horiz-adv-x="563" d="M90 590l14 78q4 18 21 24l141 60q20 8 29 8h248q20 0 18 -25l-26 -145q-2 -27 -27 -27h-399q-23 0 -19 27z" />
<glyph unicode="&#x2011;" horiz-adv-x="563" d="M90 590l14 78q4 18 21 24l141 60q20 8 29 8h248q20 0 18 -25l-26 -145q-2 -27 -27 -27h-399q-23 0 -19 27z" />
<glyph unicode="&#x2012;" horiz-adv-x="563" d="M90 590l14 78q4 18 21 24l141 60q20 8 29 8h248q20 0 18 -25l-26 -145q-2 -27 -27 -27h-399q-23 0 -19 27z" />
<glyph unicode="&#x2013;" horiz-adv-x="1089" d="M121 590l14 78q4 16 19 24l182 60q10 4 21.5 6t17.5 2h659q27 0 23 -25l-27 -147q-4 -25 -29 -25h-862q-20 0 -18 27z" />
<glyph unicode="&#x2014;" horiz-adv-x="1505" d="M121 590l14 78q4 16 19 24l182 60q10 4 21.5 6t17.5 2h1077q27 0 23 -25l-27 -147q-4 -25 -29 -25h-1280q-20 0 -18 27z" />
<glyph unicode="&#x2018;" horiz-adv-x="481" d="M203 889l35 198q2 25 12 43l117 232q12 25 32 24h142q14 0 17 -9t-3 -21l-123 -246l-39 -221q-4 -29 -28 -29h-140q-26 0 -22 29z" />
<glyph unicode="&#x2019;" horiz-adv-x="481" d="M173 869.5q-3 9.5 3 21.5l123 246l39 221q4 29 29 28h139q27 0 22 -28l-34 -199q-4 -25 -13 -43l-116 -231q-12 -25 -33 -25h-142q-14 0 -17 9.5z" />
<glyph unicode="&#x201a;" horiz-adv-x="481" d="M-30 -277.5q-3 9.5 3 21.5l123 246l39 221q4 29 29 29h139q27 0 23 -29l-35 -199q-4 -25 -12 -43l-117 -231q-12 -25 -33 -25h-141q-15 0 -18 9.5z" />
<glyph unicode="&#x201c;" horiz-adv-x="862" d="M203 889l35 198q2 25 12 43l117 232q12 25 32 24h142q14 0 17 -9t-3 -21l-123 -246l-39 -221q-4 -29 -28 -29h-140q-26 0 -22 29zM584 889l34 198q2 25 13 43l117 232q12 25 32 24h142q14 0 17 -9t-3 -21l-123 -246l-39 -221q-4 -29 -29 -29h-139q-26 0 -22 29z" />
<glyph unicode="&#x201d;" horiz-adv-x="862" d="M173 869.5q-3 9.5 3 21.5l123 246l39 221q4 29 29 28h139q27 0 22 -28l-34 -199q-4 -25 -13 -43l-116 -231q-12 -25 -33 -25h-142q-14 0 -17 9.5zM554 869.5q-3 9.5 3 21.5l123 246l39 221q4 29 29 28h139q27 0 22 -28l-35 -199q-4 -25 -12 -43l-117 -231 q-12 -25 -32 -25h-142q-14 0 -17 9.5z" />
<glyph unicode="&#x201e;" horiz-adv-x="862" d="M-30 -277.5q-3 9.5 3 21.5l123 246l39 221q4 29 29 29h139q27 0 23 -29l-35 -199q-4 -25 -12 -43l-117 -231q-12 -25 -33 -25h-141q-15 0 -18 9.5zM351 -277.5q-3 9.5 3 21.5l123 246l39 221q4 29 29 29h139q27 0 23 -29l-35 -199q-4 -25 -13 -43l-116 -231 q-12 -25 -33 -25h-141q-15 0 -18 9.5z" />
<glyph unicode="&#x2022;" horiz-adv-x="917" d="M143 733q0 66 25 123t68 100t100 68t123 25t123 -25t100 -68t67.5 -100t24.5 -123t-24.5 -123t-67.5 -100t-100.5 -67.5t-122.5 -24.5q-66 0 -123 24.5t-100 67.5t-68 100t-25 123z" />
<glyph unicode="&#x2026;" horiz-adv-x="1466" d="M82 25l33 186q4 29 28 29h140q27 0 22 -29l-33 -186q-6 -25 -30 -25h-140q-24 0 -20 25zM569 25l33 186q4 29 29 29h139q27 0 23 -29l-33 -186q-6 -25 -31 -25h-139q-25 0 -21 25zM1057 25l33 186q4 29 28 29h139q27 0 23 -29l-33 -186q-6 -25 -30 -25h-140q-24 0 -20 25 z" />
<glyph unicode="&#x202f;" horiz-adv-x="364" />
<glyph unicode="&#x2039;" horiz-adv-x="819" d="M123 537q-6 10 4 20l473 412q14 12 31 12h114q12 0 13 -12l-19 -105q-4 -20 -16 -30l-352 -302l247 -299q8 -10 5 -30l-19 -105q-4 -14 -16 -14h-86q-16 0 -27 14z" />
<glyph unicode="&#x203a;" horiz-adv-x="819" d="M102 96l19 105q4 20 16 30l352 301l-247 299q-8 10 -4 31l18 105q4 14 16 14h86q16 0 27 -14l352 -439q6 -10 -4 -20l-473 -412q-8 -6 -14 -9t-17 -3h-114q-13 0 -13 12z" />
<glyph unicode="&#x205f;" horiz-adv-x="456" />
<glyph unicode="&#x20ac;" horiz-adv-x="1191" d="M100 426l25 135q2 27 29 27h155l33 180h-156q-27 0 -20 27l24 135q2 27 29 26h156q16 94 69.5 176t126 143.5t156.5 96.5t162 35h16l297 -98q18 -6 10 -31l-49 -137q-10 -25 -37 -17l-256 86q-104 -14 -186 -84.5t-115 -169.5h332q25 0 21 -24l-25 -139q-4 -25 -27 -25 h-338l-32 -180h336q25 0 20 -25l-25 -139q-4 -25 -26 -25h-328q6 -90 58.5 -151.5t138.5 -71.5l299 90q16 4 21 -1t7 -15l31 -141q4 -25 -22 -31l-330 -98h-12q-74 0 -143.5 31.5t-123 87t-85 132t-31.5 168.5h-164q-23 0 -21 27z" />
<glyph unicode="&#x2122;" horiz-adv-x="1611" d="M272 1284l15 86q4 16 20 16h484q14 0 10 -16l-15 -86q-4 -16 -16 -16h-186l-84 -471q-4 -16 -15 -17h-88q-16 0 -12 17l84 471h-184q-17 0 -13 16zM850 797l96 542q0 10 12 15l86 43q16 6 17 -8l160 -365l274 352q10 10 16 10h97q16 0 12 -16l-100 -573q-4 -16 -19 -17 h-82q-18 0 -14 17l65 366l-266 -340q-6 -10 -16 -10q-8 0 -14 10l-144 340l-65 -366q-4 -16 -17 -17h-84q-6 0 -11 5.5t-3 11.5z" />
<glyph unicode="&#xe000;" horiz-adv-x="1004" d="M0 1005h1005v-1005h-1005v1005z" />
<glyph unicode="&#xfb01;" horiz-adv-x="1161" d="M45 -381l205 1165h-109q-27 0 -22 25l26 145q4 27 31 27h109l16 94q12 76 50 137.5t93.5 103.5t124 64.5t144.5 22.5h12l117 -39q16 -6 14 -27l-27 -155q-4 -23 -22 -17l-123 41q-66 0 -117 -35.5t-75 -97.5l-17 -92h205q25 0 20 -23l-26 -151q-4 -23 -27 -23h-207 l-204 -1165q-4 -25 -23 -25h-147q-25 0 -21 25zM745 25l164 929q6 27 27 27h143q25 0 21 -27l-164 -929q-6 -25 -31 -25h-139q-25 0 -21 25zM948 1176l33 186q6 25 29 24h139q25 0 22 -24l-32 -186q-6 -29 -31 -29h-139q-25 0 -21 29z" />
<glyph unicode="&#xfb02;" horiz-adv-x="1161" d="M45 -381l205 1165h-109q-27 0 -22 25l26 145q4 27 31 27h109l16 94q12 76 50 137.5t93.5 103.5t124 64.5t144.5 22.5h12l117 -39q16 -6 14 -27l-27 -155q-4 -23 -22 -17l-123 41q-66 0 -117 -35.5t-75 -97.5l-17 -92h205q25 0 20 -23l-26 -151q-4 -23 -27 -23h-207 l-204 -1165q-4 -25 -23 -25h-147q-25 0 -21 25zM745 25l236 1337q6 25 29 24h139q25 0 22 -24l-235 -1337q-6 -25 -31 -25h-139q-25 0 -21 25z" />
<glyph unicode="&#xfb03;" horiz-adv-x="1814" d="M1399 25l164 929q6 27 27 27h143q25 0 20 -27l-163 -929q-6 -25 -31 -25h-139q-25 0 -21 25zM1602 1176l33 186q6 25 28 24h140q25 0 22 -24l-33 -186q-6 -29 -30 -29h-140q-24 0 -20 29zM698 -381l205 1165h-109q-27 0 -22 25l26 145q4 27 31 27h109l16 94 q12 76 50 137.5t93.5 103.5t124 64.5t144.5 22.5h12l158 -53q11 -4 11 -14q0 -5 -3 -11l-45 -147q-8 -20 -27 -15l-135 43q-66 0 -117 -35.5t-75 -97.5l-17 -92h205q25 0 20 -23l-26 -151q-4 -23 -27 -23h-207l-204 -1165q-4 -25 -23 -25h-147q-25 0 -21 25zM45 -381 l205 1165h-109q-27 0 -22 25l26 145q4 27 31 27h109l16 94q12 76 50 137.5t93.5 103.5t124 64.5t144.5 22.5h12l158 -53q11 -4 11 -14q0 -5 -3 -11l-45 -147q-8 -20 -27 -15l-135 43q-66 0 -117 -35.5t-75 -97.5l-17 -92h205q25 0 20 -23l-26 -151q-4 -23 -27 -23h-207 l-204 -1165q-4 -25 -23 -25h-147q-25 0 -21 25z" />
<glyph unicode="&#xfb04;" horiz-adv-x="1814" d="M1399 25l236 1337q6 25 28 24h140q25 0 22 -24l-235 -1337q-6 -25 -31 -25h-139q-25 0 -21 25zM698 -381l205 1165h-109q-27 0 -22 25l26 145q4 27 31 27h109l16 94q12 76 50 137.5t93.5 103.5t124 64.5t144.5 22.5h12l158 -53q11 -4 11 -14q0 -5 -3 -11l-45 -147 q-8 -20 -27 -15l-135 43q-66 0 -117 -35.5t-75 -97.5l-17 -92h205q25 0 20 -23l-26 -151q-4 -23 -27 -23h-207l-204 -1165q-4 -25 -23 -25h-147q-25 0 -21 25zM45 -381l205 1165h-109q-27 0 -22 25l26 145q4 27 31 27h109l16 94q12 76 50 137.5t93.5 103.5t124 64.5 t144.5 22.5h12l158 -53q11 -4 11 -14q0 -5 -3 -11l-45 -147q-8 -20 -27 -15l-135 43q-66 0 -117 -35.5t-75 -97.5l-17 -92h205q25 0 20 -23l-26 -151q-4 -23 -27 -23h-207l-204 -1165q-4 -25 -23 -25h-147q-25 0 -21 25z" />
</font>
</defs>
</svg>
