<?xml version="1.0" standalone="no"?>
<!DOCTYPE svg PUBLIC "-//W3C//DTD SVG 1.1//EN" "http://www.w3.org/Graphics/SVG/1.1/DTD/svg11.dtd" >
<svg xmlns="http://www.w3.org/2000/svg">
<metadata>
This is a custom SVG webfont generated by Font Squirrel.
Copyright   : Original Typeface drawn by Daniel Drnemann at loyalkaspar and Digitized by Alan Greene with FontShop
Foundry     : Daniel Drnemann loyalkaspar
</metadata>
<defs>
<font id="XDRAMediumRegular" horiz-adv-x="1019" >
<font-face units-per-em="2048" ascent="1536" descent="-512" />
<missing-glyph horiz-adv-x="512" />
<glyph unicode=" "  horiz-adv-x="512" />
<glyph unicode="&#x09;" horiz-adv-x="512" />
<glyph unicode="&#xa0;" horiz-adv-x="512" />
<glyph unicode="!" horiz-adv-x="565" d="M184 25v147q0 25 25 25h147q25 0 25 -25v-147q0 -25 -25 -25h-147q-25 0 -25 25zM184 371v989q0 27 25 26h147q25 0 25 -26v-989q0 -25 -25 -25h-147q-25 0 -25 25z" />
<glyph unicode="&#x22;" horiz-adv-x="856" d="M133 885v475q0 27 27 26h143q27 0 27 -26v-475q0 -25 -27 -25h-143q-27 0 -27 25zM526 885v475q0 27 27 26h143q27 0 27 -26v-475q0 -25 -27 -25h-143q-27 0 -27 25z" />
<glyph unicode="#" horiz-adv-x="1277" d="M123 416v123q0 27 24 26h195l66 256h-179q-25 0 -24 27v123q0 27 24 26h224l96 371q6 18 20 18h121q20 0 15 -18l-97 -371h213l97 371q6 18 20 18h121q20 0 14 -18l-96 -371h151q27 0 27 -24v-127q0 -25 -25 -25h-198l-66 -256h181q27 0 26 -24v-127q0 -25 -24 -25h-228 l-92 -364q-6 -25 -22 -25h-115q-25 0 -19 25l93 364h-213l-93 -364q-6 -25 -22 -25h-115q-25 0 -18 25l92 364h-150q-24 0 -24 27zM498 565h213l65 256h-213z" />
<glyph unicode="$" horiz-adv-x="1161" d="M143 350q-14 27 11 37l127 70q25 14 34 -11q88 -188 285 -188q104 0 161.5 50t57.5 130q0 59 -32.5 97t-92.5 59l-504 172v68q0 109 27 191.5t69 142t96 95t110 50.5v211q0 27 26 26h144q27 0 26 -26v-234l238 -78q25 -6 18 -32l-43 -142q-8 -23 -33 -16l-309 106 q-63 -10 -110.5 -64t-55.5 -159l391 -133q123 -41 177.5 -131t54.5 -201q0 -82 -25.5 -146.5t-69.5 -110.5t-103.5 -75.5t-129.5 -39.5v-207q0 -25 -26 -25h-144q-27 0 -26 25v211q-121 25 -211.5 97t-137.5 181z" />
<glyph unicode="%" horiz-adv-x="1650" d="M143 965v168q0 61 21.5 111t60.5 85t90.5 54.5t112.5 19.5t112.5 -19.5t90.5 -54.5t60.5 -85t21.5 -111v-168q0 -61 -21.5 -111.5t-60.5 -85.5t-90.5 -54.5t-112.5 -19.5t-112.5 19.5t-90.5 54.5t-60.5 85.5t-21.5 111.5zM276 25l922 1335q18 27 33 26h133q14 0 15 -8 t-7 -18l-921 -1335q-16 -25 -39 -25h-123q-31 0 -13 25zM287 971q0 -57 35.5 -98.5t105.5 -41.5q68 0 104.5 41t36.5 99v155q0 57 -36.5 98.5t-104.5 41.5q-70 0 -105.5 -41t-35.5 -99v-155zM938 254v168q0 61 21.5 111.5t60.5 85t90 54t113 19.5q61 0 112 -19.5t90 -54 t60.5 -85t21.5 -111.5v-168q0 -61 -21.5 -111.5t-60.5 -85t-90 -54t-112 -19.5t-112.5 19.5t-90.5 54t-60.5 85t-21.5 111.5zM1081 260q0 -57 36 -98t106 -41q68 0 104.5 41t36.5 98v156q0 57 -37 98t-104 41q-70 0 -106 -41t-36 -98v-156z" />
<glyph unicode="&#x26;" horiz-adv-x="1318" d="M113 397q0 123 64.5 220.5t164.5 154.5l-139 131q-10 8 -13 19q-10 37 -10 84q0 96 34 170.5t91 126t134 78t163 26.5h27l354 -104q25 -6 18 -33l-43 -142q-8 -23 -32 -16l-324 98q-113 0 -169 -57t-56 -145l917 -848q12 -12 13 -35v-100q0 -25 -25 -25h-84q-20 0 -35 14 l-196 183q-51 -104 -155.5 -160.5t-250.5 -56.5q-102 0 -185 29.5t-141.5 83.5t-90 131t-31.5 173zM315 397q0 -104 65.5 -162.5t180.5 -58.5q98 0 161.5 45t80.5 127l-326 301q-66 -33 -114 -97.5t-48 -154.5z" />
<glyph unicode="'" horiz-adv-x="462" d="M133 885v475q0 27 27 26h143q27 0 27 -26v-475q0 -25 -27 -25h-143q-27 0 -27 25z" />
<glyph unicode="(" horiz-adv-x="684" d="M102 590q0 147 35 275t94 245l252 477q14 23 35 15l127 -64q25 -14 12 -37l-243 -467q-55 -106 -85 -211.5t-30 -232.5t29.5 -233.5t85.5 -213.5l243 -467q12 -23 -12 -36l-127 -64q-20 -8 -35 14l-252 478q-59 117 -94 246t-35 276z" />
<glyph unicode=")" horiz-adv-x="684" d="M27 -324l243 467q55 106 85 213t30 234t-29.5 232.5t-85.5 211.5l-243 467q-12 23 12 37l127 64q20 8 35 -15l252 -477q59 -117 94 -245t35 -275t-35 -276.5t-94 -245.5l-252 -478q-14 -23 -35 -14l-127 64q-24 13 -12 36z" />
<glyph unicode="*" horiz-adv-x="942" d="M109 1147l53 92q4 10 14 11t21 -3l196 -114v227q0 27 25 26h106q25 0 25 -24v-229l196 114q10 4 20.5 3t14.5 -11l54 -92q14 -20 -9 -35l-198 -115l198 -112q20 -14 6 -37l-51 -88q-12 -25 -32 -10l-199 112v-227q0 -25 -27 -25h-102q-27 0 -27 25v227l-198 -112 q-20 -14 -33 10l-51 88q-14 23 6 37l196 112l-196 115q-22 15 -8 35z" />
<glyph unicode="+" horiz-adv-x="1347" d="M205 606v144q0 27 24 26h346v344q0 27 25 27h148q25 0 24 -25v-346h344q27 0 27 -24v-148q0 -25 -25 -24h-346v-347q0 -25 -27 -24h-143q-27 0 -27 24v347h-346q-24 -1 -24 26z" />
<glyph unicode="," horiz-adv-x="503" d="M74 -256l80 242v227q0 27 26 27h144q27 0 26 -27v-203q0 -25 -6 -43l-76 -229q-4 -12 -10 -18.5t-20 -6.5h-146q-14 0 -18 9.5t0 21.5z" />
<glyph unicode="-" horiz-adv-x="581" d="M61 590v78q0 18 17 24l135 60q16 8 29 8h254q25 0 24 -25v-145q0 -27 -24 -27h-412q-23 0 -23 27z" />
<glyph unicode="." horiz-adv-x="503" d="M154 25v188q0 27 26 27h144q27 0 26 -27v-188q0 -25 -26 -25h-144q-26 0 -26 25z" />
<glyph unicode="/" horiz-adv-x="798" d="M-41 -221l696 1581q12 27 27 26h115q25 0 14 -26l-696 -1581q-10 -25 -33 -25h-105q-28 0 -18 25z" />
<glyph unicode="0" horiz-adv-x="1261" d="M164 444v498q0 100 38 186t101.5 147.5t148.5 96.5t179 35t179 -35t148.5 -96.5t101.5 -147.5t38 -186v-498q0 -102 -38 -187t-101.5 -146.5t-148.5 -96t-179 -34.5t-179 34.5t-148.5 96t-101.5 146.5t-38 187zM360 461q0 -61 20.5 -113.5t56.5 -90.5t85 -59.5t109 -21.5 q59 0 108 21.5t85 59.5t56.5 90t20.5 114v465q0 61 -20.5 113.5t-56.5 90t-85 59t-108 21.5t-108.5 -21.5t-85.5 -59t-56.5 -90t-20.5 -113.5v-465z" />
<glyph unicode="1" horiz-adv-x="983" d="M106 1266q-8 27 17 32l340 109q10 0 26 -8l138 -70q16 -8 16 -24v-1108h252q27 0 27 -25v-147q0 -25 -25 -25h-731q-25 0 -25 27v143q0 27 25 27h280v999l-268 -86q-20 -6 -26 14z" />
<glyph unicode="2" horiz-adv-x="1153" d="M111 141l589 607q53 55 83 114.5t30 126.5q0 43 -14.5 83t-43 71t-71.5 49t-98 18q-100 0 -168 -48t-111 -136q-12 -23 -35 -10l-120 65q-25 10 -11 37q27 61 71 114.5t100.5 91.5t126 60.5t149.5 22.5q86 0 162.5 -29.5t134 -84t91.5 -132.5t34 -174q0 -100 -46 -196.5 t-124 -174.5l-418 -419h561q23 0 23 -23v-151q0 -23 -27 -23h-752q-6 0 -14 2t-12 6l-88 98q-16 19 -2 35z" />
<glyph unicode="3" horiz-adv-x="1153" d="M135 125l41 141q4 10 11.5 15.5t21.5 1.5l350 -107q125 0 191.5 70.5t66.5 171.5q0 86 -59.5 146.5t-182.5 72.5l-174 -57q-23 -6 -30 18l-45 137q-8 25 14 31l422 139q10 4 17 35t7 68q0 88 -52 145t-165 57q-84 0 -149.5 -36.5t-108.5 -110.5q-14 -23 -35 -10l-120 65 q-25 10 -11 37q53 111 167 181.5t259 70.5q86 0 161 -26.5t131.5 -78t88 -126t31.5 -170.5q0 -45 -9 -90.5t-21.5 -82t-26 -61t-21.5 -27.5l-80 -26q92 -31 143.5 -113t51.5 -188q0 -98 -34 -179t-95.5 -138.5t-145 -89t-184.5 -31.5h-29l-380 114q-23 6 -17 31z" />
<glyph unicode="4" horiz-adv-x="1120" d="M104 512l209 850q6 25 29 24h154q27 0 18 -26l-188 -758h413v758q0 27 27 26h145q25 0 25 -26v-1335q0 -25 -25 -25h-147q-10 0 -17.5 7t-7.5 18v381h-456q-14 0 -31 8l-137 69q-17 9 -11 29z" />
<glyph unicode="5" horiz-adv-x="1148" d="M145 113l41 141q4 10 11.5 15t21.5 1l311 -94q139 0 211 70.5t72 195.5q0 57 -15.5 108.5t-46 89.5t-75.5 60.5t-105 22.5l-282 -102l-103 30q-23 6 -20 27l82 680q4 29 33 28h659q25 0 25 -24v-148q0 -25 -27 -24h-500q-18 0 -20 -19l-39 -315l168 64h24 q100 0 182.5 -35t140.5 -97.5t90 -150.5t32 -195q0 -98 -31 -182t-92.5 -146.5t-151.5 -98t-209 -35.5h-28l-342 102q-23 6 -17 31z" />
<glyph unicode="6" horiz-adv-x="1179" d="M164 442v527q0 98 33.5 179t95 138t145.5 89t185 32h28l342 -102q23 -6 17 -31l-41 -141q-4 -10 -11.5 -15.5t-21.5 -1.5l-311 94q-125 0 -195 -70.5t-70 -170.5v-168l218 78h24q100 0 182 -33t140.5 -92.5t90.5 -143.5t32 -188q0 -96 -31 -177t-88.5 -140.5t-140 -92 t-185.5 -32.5q-96 0 -176 33.5t-138.5 94t-91 145.5t-32.5 189zM360 442q0 -51 14.5 -99t44.5 -85t75 -59.5t108 -22.5q115 0 178.5 70.5t63.5 175.5q0 111 -60.5 185.5t-181.5 74.5l-242 -84v-156z" />
<glyph unicode="7" horiz-adv-x="923" d="M82 1214v146q0 27 27 26h577q10 0 27 -8l137 -69q16 -8 10 -29l-414 -1255q-6 -25 -28 -25h-160q-12 0 -17 8t-1 19l393 1163h-524q-27 -1 -27 24z" />
<glyph unicode="8" horiz-adv-x="1204" d="M154 397q0 104 44 182t121 134l-86 32q-8 2 -14 17q-16 39 -27.5 104.5t-11.5 139.5q0 96 34 170.5t91 126t134 78t163 26.5t163 -26.5t134 -78t91 -126t34 -170.5q0 -86 -45 -161t-111 -122l111 -39q8 -2 16 -14q27 -47 41.5 -120t14.5 -153q0 -96 -32 -173t-90.5 -131 t-141 -83.5t-185.5 -29.5q-102 0 -185 29.5t-141.5 83.5t-90 131t-31.5 173zM356 397q0 -104 65.5 -162.5t180.5 -58.5t180.5 58.5t65.5 162.5q0 63 -15.5 101.5t-27.5 42.5l-311 110q-57 -35 -97.5 -100.5t-40.5 -153.5zM377 1008q0 -49 6 -80t14 -35l293 -107 q61 35 99 89.5t38 132.5q0 88 -56 145t-169 57t-169 -57t-56 -145z" />
<glyph unicode="9" horiz-adv-x="1179" d="M133 944q0 100 31 185t88 146.5t140 96.5t186 35q94 0 175 -34t139 -94t91 -145t33 -190v-526q0 -98 -34 -179t-95.5 -138.5t-145.5 -89t-184 -31.5h-29l-342 102q-23 6 -16 31l41 141q4 10 11 15t22 1l311 -94q125 0 194.5 70.5t69.5 171.5v127l-217 -78h-24 q-100 0 -182.5 34t-140.5 96t-90 150t-32 197zM336 944q0 -123 60.5 -201.5t181.5 -78.5l241 84v196q0 51 -14 99.5t-44 85t-75 59t-108 22.5q-115 0 -178.5 -75.5t-63.5 -190.5z" />
<glyph unicode=":" horiz-adv-x="503" d="M154 25v188q0 27 26 27h144q27 0 26 -27v-188q0 -25 -26 -25h-144q-26 0 -26 25zM154 766v188q0 27 26 27h144q27 0 26 -27v-188q0 -25 -26 -25h-144q-26 0 -26 25z" />
<glyph unicode=";" horiz-adv-x="503" d="M74 -256l80 242v227q0 27 26 27h144q27 0 26 -27v-203q0 -25 -6 -43l-76 -229q-4 -12 -10 -18.5t-20 -6.5h-146q-14 0 -18 9.5t0 21.5zM154 766v188q0 27 26 27h144q27 0 26 -27v-188q0 -25 -26 -25h-144q-26 0 -26 25z" />
<glyph unicode="&#x3c;" horiz-adv-x="1181" d="M109 592q-10 10 0 20l426 426l12 9q6 4 16 4h103q14 0 14 -13v-104q0 -10 -1 -16.5t-9 -14.5l-211 -203h575q14 0 15 -14v-168q0 -14 -15 -14h-575l211 -201q8 -8 9 -15t1 -16v-104q0 -14 -14 -14h-103q-10 0 -16 4t-12 10z" />
<glyph unicode="=" horiz-adv-x="1347" d="M205 401v144q0 27 24 26h887q27 0 27 -24v-148q0 -25 -25 -24h-889q-24 -1 -24 26zM205 811v143q0 27 24 27h887q27 0 27 -25v-147q0 -25 -25 -25h-889q-24 0 -24 27z" />
<glyph unicode="&#x3e;" horiz-adv-x="1181" d="M133 518v168q0 14 14 14h576l-211 203q-8 8 -9 14.5t-1 16.5v104q0 12 14 13h102q10 0 17 -4l12 -9l426 -426q10 -10 0 -20l-426 -424q-6 -6 -12 -10t-17 -4h-102q-14 0 -14 14v104q0 8 1 15.5t9 15.5l211 201h-576q-14 0 -14 14z" />
<glyph unicode="?" horiz-adv-x="1005" d="M63.5 1149q-2.5 8 2.5 16q70 109 186.5 175.5t263.5 66.5q102 0 182 -32t134.5 -86t83 -126.5t28.5 -154.5q0 -201 -211 -326l-172 -104v-207q0 -25 -24 -25h-148q-25 0 -24 25v317l284 172q41 25 68.5 60.5t27.5 87.5q0 92 -56 147t-173 55q-92 0 -164.5 -41 t-122.5 -112q-6 -10 -16 -11.5t-18 5.5l-125 86q-4 4 -6.5 12zM365 25v147q0 25 24 25h148q25 0 24 -25v-147q0 -25 -24 -25h-148q-24 0 -24 25z" />
<glyph unicode="@" horiz-adv-x="1845" d="M176 608q25 184 92.5 333t175 252t252 158.5t320.5 55.5q193 0 331 -63.5t222 -174t114.5 -263t6.5 -331.5q-27 -190 -123.5 -319t-255.5 -170l-217 98l-246 -98h-19q-68 0 -123 26.5t-93 71.5t-54 105.5t-4 126.5l51 289q12 76 48 136t88.5 100t118 61.5t138.5 21.5 q74 0 134.5 -25.5t100.5 -71.5t56.5 -110.5t1.5 -142.5l-63 -359l100 -47q84 35 136.5 122t68.5 204q20 150 -2.5 271.5t-88 206.5t-173 131t-254.5 46t-265 -46t-205 -132t-141.5 -209t-72.5 -274q-20 -154 3 -286t94 -228.5t191.5 -150.5t292.5 -54l230 82q16 6 24 -12 l39 -111q6 -20 -12 -27l-256 -90h-25q-199 0 -348 62.5t-244.5 178.5t-133.5 281.5t-11 374.5zM735 438q-16 -84 16.5 -127t94.5 -43l213 82l57 326q6 35 1 66.5t-21.5 56t-45 39t-71.5 14.5t-77 -15.5t-60.5 -41t-43 -59.5t-22.5 -68z" />
<glyph unicode="A" horiz-adv-x="1185" d="M43 11q-2 6 -2 11.5t2 10.5l457 1335q6 18 22 18h150q18 0 24 -18l447 -1335q2 -8 2 -14q0 -19 -25 -19h-157q-29 0 -35 29l-109 342h-268l-205 -62l-88 -280q-10 -29 -37 -29h-158q-16 0 -20 11zM422 537l63 18q20 6 45 9t48 3h180l-162 518z" />
<glyph unicode="B" horiz-adv-x="1259" d="M184 27v1333q0 10 8.5 18t18.5 8h545q74 0 135 -30.5t105 -82.5t69 -121t25 -142q0 -96 -49.5 -177t-118.5 -128l192 -195q23 -27 23 -55q0 -84 -30 -165t-84 -145.5t-128 -104.5t-160 -40h-524q-27 0 -27 27zM381 197h354q39 0 74 21.5t61.5 55t43 71.5t20.5 73 l-217 219h-336v-440zM381 834h358q27 0 54.5 14t48 38.5t34 56.5t13.5 67q0 76 -42 128t-108 52h-358v-356z" />
<glyph unicode="C" horiz-adv-x="1228" d="M143 465v457q0 98 40 187t105.5 154.5t148.5 104.5t171 39h13l432 -131q23 -6 16 -31l-41 -141q-4 -10 -11 -15.5t-22 -1.5l-401 123q-47 -4 -93 -31.5t-82 -68.5t-57.5 -94t-21.5 -111v-424q0 -53 17.5 -104t47 -91t70.5 -64.5t88 -24.5h176q94 0 142.5 56t48.5 124 q0 25 24 24h148q25 0 24 -24q0 -88 -30.5 -157.5t-82.5 -119t-119 -75t-140 -25.5h-205q-80 0 -153.5 37t-129 100.5t-89.5 147.5t-34 180z" />
<glyph unicode="D" horiz-adv-x="1320" d="M184 27v1257q0 14 17 25l137 69q16 8 27 8h407q80 0 153.5 -36.5t129 -100t89.5 -148.5t34 -179v-457q0 -96 -34 -180t-89.5 -147.5t-129 -100.5t-153.5 -37h-565q-23 0 -23 27zM381 197h377q47 0 88 24.5t70.5 64.5t47 91t17.5 104v424q0 53 -17.5 104.5t-47 91.5 t-70.5 64.5t-88 24.5h-377v-993z" />
<glyph unicode="E" horiz-adv-x="1107" d="M184 25v1335q0 12 7.5 19t17.5 7h711q25 0 24 -26v-146q0 -25 -24 -24h-539v-393l78 24q20 6 44.5 9.5t47.5 3.5h289q25 0 24 -25v-145q0 -27 -24 -27h-305l-154 -45v-395h580q25 0 24 -25v-147q0 -25 -24 -25h-752q-25 0 -25 25z" />
<glyph unicode="F" horiz-adv-x="1015" d="M184 25v1335q0 27 27 26h700q23 0 23 -26v-146q0 -25 -23 -24h-530v-393l78 24q43 12 92 13h289q25 0 24 -25v-145q0 -27 -24 -27h-305l-154 -45v-567q0 -25 -27 -25h-143q-27 0 -27 25z" />
<glyph unicode="G" horiz-adv-x="1269" d="M143 465v457q0 98 40 187t105.5 154.5t148.5 104.5t171 39h13l432 -131q23 -6 16 -31l-41 -141q-4 -10 -11 -15.5t-22 -1.5l-401 123q-47 -4 -93 -31.5t-82 -68.5t-57.5 -94t-21.5 -111v-424q0 -53 17.5 -104t47 -91t70.5 -64.5t88 -24.5h176q94 0 142.5 56t48.5 124v166 h-199q-27 0 -26 24v146q0 27 26 26h369q27 0 26 -26v-336q0 -88 -30.5 -157.5t-82.5 -119t-119 -75t-140 -25.5h-205q-80 0 -153.5 37t-129 100.5t-89.5 147.5t-34 180z" />
<glyph unicode="H" horiz-adv-x="1384" d="M184 27v1333q0 12 7.5 19t17.5 7h147q12 0 18.5 -8t6.5 -18v-559l65 20q20 6 45 9.5t48 3.5h465v526q0 10 7 18t17 8h146q12 0 19 -8t7 -18v-1333q0 -27 -26 -27h-146q-25 0 -24 27v610h-482l-141 -41v-569q0 -10 -7 -18.5t-18 -8.5h-147q-25 0 -25 27z" />
<glyph unicode="I" horiz-adv-x="565" d="M184 25v1335q0 27 27 26h145q25 0 25 -26v-1335q0 -25 -25 -25h-147q-10 0 -17.5 7.5t-7.5 17.5z" />
<glyph unicode="J" horiz-adv-x="944" d="M63 98l41 138q8 25 31 18l271 -78q74 0 115.5 44t41.5 104v1036q0 12 7.5 19t17.5 7h149q23 0 23 -26v-1053q0 -68 -25.5 -127t-71 -103t-108.5 -70.5t-137 -26.5h-17l-319 88q-20 5 -20 21q0 4 1 9z" />
<glyph unicode="K" horiz-adv-x="1216" d="M184 27v1333q0 27 27 26h143q27 0 27 -26v-574l608 611q8 8 17.5 8t19.5 -8l102 -101q8 -8 8.5 -19t-8.5 -20l-393 -389l406 -706q14 -23 14 -43v-96q0 -23 -22 -23h-111q-18 0 -31 20l-405 709l-205 -205v-493q0 -31 -27 -31h-143q-27 0 -27 27z" />
<glyph unicode="L" horiz-adv-x="1009" d="M184 27v1333q0 27 27 26h143q12 0 19.5 -8t7.5 -18v-1163h541q27 0 26 -25v-145q0 -27 -26 -27h-711q-27 0 -27 27z" />
<glyph unicode="M" horiz-adv-x="1507" d="M184 27v1284q0 16 17 22l141 70q8 4 15 4q13 0 20 -16l377 -764l376 743q8 16 23 16h145q25 0 25 -26v-1333q0 -27 -25 -27h-147q-25 0 -25 27v931l-348 -682q-10 -16 -26 -16t-25 16l-346 682v-931q0 -27 -27 -27h-143q-27 0 -27 27z" />
<glyph unicode="N" horiz-adv-x="1370" d="M184 25v1263q0 18 11 25l141 88q10 6 17 5q12 0 20 -13l616 -981v948q0 27 25 26h145q27 0 27 -26v-1335q0 -25 -27 -25h-102q-41 0 -66 37l-610 971v-983q0 -25 -25 -25h-145q-27 0 -27 25z" />
<glyph unicode="O" horiz-adv-x="1323" d="M143 465v457q0 94 34 179t89.5 148.5t129 100t153.5 36.5h272q33 0 58 -24l278 -277q23 -23 23 -55v-565q0 -96 -34 -180t-89.5 -147.5t-129 -100.5t-153.5 -37h-225q-80 0 -153.5 37t-129 100.5t-89.5 147.5t-34 180zM340 481q0 -53 17.5 -104t47 -91t70.5 -64.5 t88 -24.5h197q47 0 88 24.5t70.5 64.5t47 91t17.5 104v502l-207 207h-213q-47 0 -88 -24.5t-70.5 -64.5t-47 -91.5t-17.5 -104.5v-424z" />
<glyph unicode="P" horiz-adv-x="1157" d="M184 25v1259q0 14 17 25l137 69q16 8 27 8h362q78 0 145.5 -31.5t116.5 -87t78 -130t29 -158.5t-29 -159t-78 -130t-116.5 -87t-145.5 -32h-346v-546q0 -25 -27 -25h-143q-27 0 -27 25zM381 768h330q39 0 72.5 17.5t56 46t36 67.5t13.5 80t-13.5 79t-36 67.5t-56 47 t-72.5 17.5h-330v-422z" />
<glyph unicode="Q" horiz-adv-x="1333" d="M143 465v457q0 94 34 179t89.5 148.5t129 100t153.5 36.5h225q80 0 153.5 -36.5t129 -100t89.5 -148.5t34 -179v-588q0 -16 -4.5 -30.5t-16.5 -27.5l-57 -57l137 -141q8 -9 8 -18t-8 -17l-86 -82q-10 -8 -19.5 -8t-17.5 8l-135 139l-80 -80q-20 -20 -55 -20h-297 q-80 0 -153.5 37t-129 100.5t-89.5 147.5t-34 180zM340 481q0 -53 17.5 -104t47 -91t70.5 -64.5t88 -24.5h234l37 34l-136 134q-18 16 0 34l82 84q16 16 35 0l137 -133l31 31v524q0 53 -17.5 104.5t-47 91.5t-70.5 64.5t-88 24.5h-197q-47 0 -88 -24.5t-70.5 -64.5 t-47 -91.5t-17.5 -104.5v-424z" />
<glyph unicode="R" horiz-adv-x="1236" d="M184 25v1335q0 12 7.5 19t17.5 7h518q78 0 145.5 -31.5t116.5 -87t78 -130t29 -158.5q0 -125 -59.5 -224.5t-151.5 -146.5l256 -446q14 -23 14 -43v-96q0 -23 -22 -23h-111q-18 0 -31 20l-317 558l-293 61v-614q0 -25 -23 -25h-151q-12 0 -17.5 7.5t-5.5 17.5zM381 838 l362 -78q68 23 107 84t39 135q0 41 -13.5 79t-36 67.5t-56 47t-72.5 17.5h-330v-352z" />
<glyph unicode="S" horiz-adv-x="1140" d="M98 260q-6 10 -6 18q0 11 12 19l119 84q25 16 37 -6q63 -106 141 -152.5t189 -46.5q121 0 191.5 62.5t70.5 158.5q0 43 -24.5 84t-73.5 64l-615 274v64q0 129 41 227t103.5 164.5t136.5 99.5t141 33h14l381 -113q25 -6 19 -32l-43 -142q-8 -23 -33 -16l-350 106 q-33 -6 -66.5 -26.5t-62.5 -54t-50.5 -81t-27.5 -104.5l496 -219q104 -47 157.5 -136t53.5 -190q0 -102 -36 -180t-98.5 -131t-145.5 -80.5t-177 -27.5q-174 0 -297 75.5t-197 204.5z" />
<glyph unicode="T" horiz-adv-x="954" d="M41 1214v146q0 27 27 26h819q27 0 26 -26v-146q0 -25 -26 -24h-312v-1163q0 -27 -26 -27h-146q-25 0 -24 27v1163h-313q-25 -1 -25 24z" />
<glyph unicode="U" horiz-adv-x="1310" d="M164 465v895q0 27 22 26h150q25 0 24 -26v-879q0 -53 17.5 -104t47.5 -91t71 -64.5t88 -24.5h143q47 0 88 24.5t70.5 64.5t47 91t17.5 104v879q0 27 23 26h149q25 0 25 -26v-895q0 -96 -34 -180t-89 -147.5t-129 -100.5t-154 -37h-172q-80 0 -153.5 37t-129 100.5 t-89 147.5t-33.5 180z" />
<glyph unicode="V" horiz-adv-x="1167" d="M43 1354q-2 8 -2 13q0 19 25 19h155q16 0 23.5 -7t11.5 -21l326 -1057l329 1057q10 29 39 28h150q25 0 25 -19q0 -6 -3 -13l-436 -1336q-6 -18 -24 -18h-166q-18 0 -25 18z" />
<glyph unicode="W" horiz-adv-x="1492" d="M63 1356q-1 6 -1 10q0 20 22 20h149q29 0 35 -28l209 -1010l170 570q6 18 25 18h147q18 0 25 -18l164 -584l221 1024q6 29 33 28h147q16 0 21 -10q2 -5 2 -10t-2 -10l-291 -1329q-6 -27 -27 -27h-168q-29 0 -37 27l-168 583l-172 -581q-10 -29 -37 -29h-159q-20 0 -23 18 z" />
<glyph unicode="X" horiz-adv-x="1087" d="M59 15q0 6 2 14l345 719l-310 610q-4 10 0 19t17 9h170q20 0 28 -20l240 -483l258 508q8 16 23 16q7 0 16 -4l123 -62q23 -12 10 -36l-305 -592l346 -682q2 -5 2 -11q0 -4 -1 -9q-3 -11 -17 -11h-168q-23 0 -29 14l-279 559l-260 -557q-6 -16 -24 -16h-170q-17 0 -17 15z " />
<glyph unicode="Y" horiz-adv-x="1028" d="M29 1303q-4 8 -4 14q0 13 16 22l131 64q7 3 12 3q14 0 23 -17l309 -629l307 629q8 18 23 18q7 0 14 -4l129 -64q15 -8 15 -21q0 -7 -5 -15l-387 -756v-520q0 -27 -26 -27h-144q-27 0 -26 27v520z" />
<glyph unicode="Z" horiz-adv-x="1013" d="M68 106l581 1084h-499q-25 0 -25 27v143q0 27 27 26h626q10 0 27 -8l110 -61q15 -8 15 -21q0 -7 -4 -16l-578 -1083h549q27 0 27 -27v-143q0 -27 -27 -27h-682q-10 0 -27 8l-110 62q-15 8 -15 21q1 6 5 15z" />
<glyph unicode="[" horiz-adv-x="661" d="M164 -379v1935q0 27 26 27h383q27 0 27 -27v-145q0 -25 -27 -25h-213v-1595h213q27 0 27 -24v-146q0 -27 -27 -27h-383q-26 0 -26 27z" />
<glyph unicode="\" horiz-adv-x="798" d="M-12 1360q-10 27 14 26h115q14 0 26 -26l697 -1581q10 -25 -19 -25h-104q-23 0 -33 25z" />
<glyph unicode="]" horiz-adv-x="661" d="M61 -233q0 25 27 24h213v1595h-213q-27 0 -27 25v145q0 27 27 27h383q27 0 27 -27v-1935q0 -27 -27 -27h-383q-27 0 -27 27v146z" />
<glyph unicode="^" horiz-adv-x="1191" d="M166 586l319 782q6 18 25 18h172q18 0 25 -18l319 -782q10 -33 -22 -33h-156q-16 0 -23.5 7t-11.5 22l-217 565l-217 -565q-4 -14 -11.5 -21.5t-23.5 -7.5h-156q-32 0 -22 33z" />
<glyph unicode="_" d="M41 -88q0 27 25 27h886q27 0 27 -25v-147q0 -25 -25 -25h-888q-25 0 -25 27v143z" />
<glyph unicode="`" horiz-adv-x="890" d="M209 1272l53 117q12 23 33 14l377 -166q20 -8 10 -33l-27 -57q-6 -16 -24 -17h-152q-18 0 -30 7l-228 102q-22 10 -12 33z" />
<glyph unicode="a" horiz-adv-x="974" d="M102 287q0 78 35 144.5t105 90.5l383 127q-8 70 -60.5 111t-115.5 41l-193 -60q-23 -6 -31 19l-41 137q-8 27 15 33l221 67h16q82 0 152.5 -25.5t122 -72.5t81 -112.5t29.5 -145.5v-451l45 -116q1 -6 2 -11q0 -16 -16 -22l-139 -55q-6 -2 -11 -2q-14 0 -20 18l-25 66 l-208 -84h-13q-78 0 -139 23.5t-104 65.5t-67 97.5t-24 116.5zM303 283q4 -31 20.5 -55.5t48 -40t79.5 -15.5l174 70v211l-320 -107q-4 -20 -4 -38q0 -13 2 -25z" />
<glyph unicode="b" horiz-adv-x="1060" d="M119 74l45 114v1176q0 23 24 22h152q20 0 20 -22v-430l177 63h41q80 0 146.5 -26.5t113.5 -73.5t73.5 -111.5t26.5 -138.5v-297q0 -84 -29.5 -151.5t-82 -115.5t-123 -73.5t-152.5 -25.5q-72 0 -127 21.5t-96 57.5l-25 -59q-6 -16 -13 -18t-20 2l-135 53q-18 8 -18 22 q0 5 2 11zM360 356q0 -78 49.5 -132t141.5 -54t141 54.5t49 131.5v260q0 90 -55 137.5t-125 47.5l-201 -70v-375z" />
<glyph unicode="c" horiz-adv-x="946" d="M123 350v281q0 84 29.5 151.5t82 115.5t123 73.5t152.5 25.5q53 0 126 -14t177 -51q18 -6 12 -25l-45 -147q-6 -20 -26 -15q-92 33 -150.5 47.5t-93.5 14.5q-92 0 -141.5 -54.5t-49.5 -131.5v-261q0 -47 15.5 -81.5t41 -58t57.5 -35t63 -11.5l295 84q23 6 30 -18l41 -134 q2 -7 2 -12q0 -16 -18 -20l-322 -90h-14q-82 0 -152.5 25.5t-123 73.5t-82 115.5t-29.5 151.5z" />
<glyph unicode="d" horiz-adv-x="1060" d="M123 334v297q0 84 29.5 151.5t82 115.5t123 73.5t152.5 25.5q61 0 108.5 -14t81.5 -43v424q0 23 21 22h151q25 0 25 -22v-1176l45 -114q2 -6 2 -11q0 -15 -18 -22l-135 -53q-12 -4 -19.5 -2t-13.5 18l-23 55l-211 -75h-41q-80 0 -146.5 26.5t-113.5 73.5t-73.5 111.5 t-26.5 138.5zM319 365q0 -90 55.5 -137.5t125.5 -47.5l200 70v375q0 78 -49 132t-141 54t-141.5 -54.5t-49.5 -131.5v-260z" />
<glyph unicode="e" horiz-adv-x="999" d="M123 350v281q0 84 29.5 151.5t82 115.5t123 73.5t152.5 25.5t152.5 -25.5t123 -73.5t82 -115.5t29.5 -151.5v-43l-53 -180q-6 -18 -25 -19h-500v-78q16 -53 57.5 -95t119.5 -42l295 84q23 6 30 -18l41 -134q8 -27 -16 -32l-322 -90h-14q-82 0 -152.5 25.5t-123 73.5 t-82 115.5t-29.5 151.5zM319 575h381v50q0 78 -49 132t-141 54t-141.5 -54.5t-49.5 -131.5v-50z" />
<glyph unicode="f" horiz-adv-x="673" d="M51 809v145q0 27 27 27h115v72q0 84 30.5 149.5t82.5 109.5t123 67.5t149 23.5h14l170 -53q14 -5 14 -16q0 -4 -2 -9l-45 -147q-6 -20 -27 -15l-145 43q-68 0 -111 -36.5t-57 -98.5v-90h209q25 0 25 -23v-151q0 -23 -23 -23h-211v-761q0 -23 -22 -23h-152q-23 0 -22 23 v761h-115q-27 0 -27 25z" />
<glyph unicode="g" horiz-adv-x="1060" d="M123 350v297q0 74 26.5 138.5t73.5 111.5t113.5 73.5t146.5 26.5h41l213 -77l25 57q10 25 33 16l135 -53q17 -6 16 -21q0 -5 -2 -12l-47 -121v-858q0 -86 -31.5 -151.5t-85 -109.5t-123 -66.5t-147.5 -22.5h-14l-310 94q-23 8 -16 33l41 137q6 27 33 19l284 -88 q59 0 108.5 35.5t63.5 103.5v151l-176 -63h-41q-80 0 -146.5 26.5t-113.5 73.5t-73.5 111.5t-26.5 138.5zM319 381q0 -90 55.5 -137t125.5 -47l200 69v465l-200 70q-70 0 -125.5 -47t-55.5 -138v-235z" />
<glyph unicode="h" horiz-adv-x="1091" d="M164 23v1337q0 27 24 26h150q10 0 16 -8t6 -18v-426l177 63h41q80 0 146.5 -26.5t113.5 -73.5t73.5 -111.5t26.5 -138.5v-624q0 -23 -20 -23h-152q-25 0 -25 23v593q0 90 -55 137.5t-125 47.5l-201 -70v-708q0 -23 -20 -23h-152q-24 0 -24 23z" />
<glyph unicode="i" horiz-adv-x="524" d="M164 25v929q0 27 24 27h148q25 0 24 -25v-931q0 -25 -26 -25h-144q-26 0 -26 25zM164 1171v189q0 27 26 26h144q27 0 26 -26v-189q0 -25 -26 -24h-144q-26 -1 -26 24z" />
<glyph unicode="j" horiz-adv-x="544" d="M-205 -332l41 137q6 27 33 19l164 -51q53 0 95 35.5t56 103.5v1042q0 27 25 27h147q25 0 25 -25v-1028q0 -86 -29.5 -151.5t-80 -109.5t-117 -66.5t-140.5 -22.5h-14l-188 57q-18 6 -18 23q0 5 1 10zM184 1171v189q0 27 27 26h143q27 0 27 -26v-189q0 -25 -27 -24h-143 q-27 -1 -27 24z" />
<glyph unicode="k" horiz-adv-x="1062" d="M164 27v1333q0 27 26 26h144q27 0 26 -26v-756l449 389q18 14 37 2l121 -92q23 -14 -6 -37l-297 -254l313 -450q14 -23 14 -43v-96q0 -23 -22 -23h-111q-18 0 -31 20l-323 463l-144 -127v-325q0 -31 -26 -31h-144q-26 0 -26 27z" />
<glyph unicode="l" horiz-adv-x="524" d="M164 25v1335q0 27 26 26h144q27 0 26 -26v-1335q0 -25 -26 -25h-144q-26 0 -26 25z" />
<glyph unicode="m" horiz-adv-x="1648" d="M119 907q-2 6 -2 11q0 15 18 22l135 53q12 4 19.5 2t13.5 -18l23 -55l200 75h41q80 0 146.5 -26.5t113.5 -73.5l267 100h41q80 0 146.5 -26.5t113.5 -73.5t73.5 -111.5t26.5 -138.5v-624q0 -23 -20 -23h-152q-25 0 -25 23v593q0 90 -55 137.5t-125 47.5l-198 -72 q8 -35 8 -82v-624q0 -23 -21 -23h-151q-25 0 -25 23v593q0 90 -55 137.5t-125 47.5l-191 -70v-708q0 -23 -20 -23h-152q-25 0 -24 23v770z" />
<glyph unicode="n" horiz-adv-x="1091" d="M119 907q-2 6 -2 11q0 15 18 22l135 53q12 4 19.5 2t13.5 -18l23 -55l211 75h41q80 0 146.5 -26.5t113.5 -73.5t73.5 -111.5t26.5 -138.5v-624q0 -23 -20 -23h-152q-25 0 -25 23v593q0 90 -55 137.5t-125 47.5l-201 -70v-708q0 -23 -20 -23h-152q-25 0 -24 23v770z" />
<glyph unicode="o" d="M123 350v281q0 84 29.5 151.5t82 115.5t123 73.5t152.5 25.5t152.5 -25.5t123 -73.5t82 -115.5t29.5 -151.5v-281q0 -84 -29.5 -151.5t-82 -115.5t-123 -73.5t-152.5 -25.5t-152.5 25.5t-123 73.5t-82 115.5t-29.5 151.5zM319 356q0 -78 49.5 -132t141.5 -54t141 54.5 t49 131.5v269q0 78 -49 132t-141 54t-141.5 -54.5t-49.5 -131.5v-269z" />
<glyph unicode="p" horiz-adv-x="1060" d="M119 907q-2 6 -2 11q0 15 18 22l135 53q12 4 19.5 2t13.5 -18l23 -55l211 75h41q80 0 146.5 -26.5t113.5 -73.5t73.5 -111.5t26.5 -138.5v-297q0 -84 -29.5 -151.5t-82 -115.5t-123 -73.5t-152.5 -25.5q-61 0 -108.5 14t-82.5 43v-424q0 -23 -20 -23h-152q-25 0 -24 23 v1176zM360 356q0 -78 49.5 -132t141.5 -54t141 54.5t49 131.5v260q0 90 -55 137.5t-125 47.5l-201 -70v-375z" />
<glyph unicode="q" horiz-adv-x="1060" d="M123 334v297q0 84 29.5 151.5t82 115.5t123 73.5t152.5 25.5q72 0 127 -21.5t96 -57.5l25 59q6 16 13 18t20 -2l135 -53q18 -8 18 -22q0 -5 -2 -11l-45 -114v-1176q0 -23 -25 -23h-151q-20 0 -21 23v430l-176 -63h-41q-80 0 -146.5 26.5t-113.5 73.5t-73.5 111.5 t-26.5 138.5zM319 365q0 -90 55.5 -137.5t125.5 -47.5l200 70v375q0 78 -49 132t-141 54t-141.5 -54.5t-49.5 -131.5v-260z" />
<glyph unicode="r" horiz-adv-x="790" d="M117 918q-1 4 -2 7q0 13 18 21l137 49q25 6 31 -12l29 -72q53 37 109.5 59.5t117.5 26.5h14l179 -55q18 -5 18 -21q0 -5 -2 -12l-45 -141q-6 -20 -27 -14l-149 47q-47 -10 -97.5 -35t-87.5 -57v-686q0 -23 -22 -23h-150q-25 0 -24 23v753z" />
<glyph unicode="s" horiz-adv-x="933" d="M106 203q-3 5 -2 10q0 6 5 10l129 86q12 10 22 -4q49 -66 105.5 -100.5t128.5 -34.5q66 0 103.5 30.5t37.5 80.5q0 27 -14.5 45t-36.5 28l-443 191v69q0 88 29 159t75 121t103.5 76.5t114.5 26.5h14l309 -92q14 -4 11 -16l-45 -154q-6 -12 -21 -10l-276 80 q-45 -14 -74 -51t-37 -82l324 -140q84 -35 123.5 -99t39.5 -142q0 -63 -24.5 -118.5t-69.5 -97.5t-109.5 -66.5t-142.5 -24.5q-111 0 -208 54t-171 165z" />
<glyph unicode="t" horiz-adv-x="724" d="M51 809v145q0 27 27 27h127v236q0 27 26 26h144q27 0 26 -26v-236h181q27 0 26 -27v-145q0 -25 -26 -25h-181v-540q0 -31 19.5 -45.5t46.5 -18.5l98 31q27 8 33 -16l43 -148q1 -4 1 -8q0 -14 -19 -19l-144 -36q-70 0 -121 19.5t-84.5 50t-51 69.5t-17.5 80v581h-127 q-27 0 -27 25z" />
<glyph unicode="u" horiz-adv-x="1091" d="M154 334v624q0 23 20 23h152q25 0 24 -23v-593q0 -90 55.5 -137.5t124.5 -47.5l201 70v708q0 23 21 23h151q25 0 25 -23v-770l45 -114q2 -6 2 -11q0 -15 -19 -22l-135 -53q-12 -4 -19 -2t-14 18l-22 55l-211 -75h-41q-80 0 -146.5 26.5t-113.5 73.5t-73.5 111.5 t-26.5 138.5z" />
<glyph unicode="v" horiz-adv-x="935" d="M33 948q-2 8 -3 14q0 19 25 19h152q16 0 23.5 -7t11.5 -22l225 -665l227 665q10 29 39 29h146q25 0 25 -19q0 -6 -3 -14l-330 -930q-6 -18 -24 -18h-166q-18 0 -25 18z" />
<glyph unicode="w" horiz-adv-x="1323" d="M53 950q-1 6 -1 11q0 20 22 20h143q29 0 35 -29l141 -639l172 564q6 18 25 18h147q18 0 25 -18l168 -576l143 651q6 29 33 29h143q16 0 21 -10q2 -5 2 -10.5t-2 -10.5l-213 -923q-6 -27 -27 -27h-164q-29 0 -37 27l-172 585l-180 -583q-10 -29 -37 -29h-151q-20 0 -23 18 z" />
<glyph unicode="x" horiz-adv-x="921" d="M42 9q-1 3 -1 6q0 6 4 14l289 491l-266 432q-6 10 -1 19.5t17 9.5h180q10 0 17.5 -6t11.5 -14l178 -299l203 327q9 17 22 18q6 0 13 -3l129 -64q25 -14 10 -37l-260 -411l289 -461q4 -6 3 -13q0 -4 -1 -8q-4 -10 -19 -10h-176q-20 0 -29 14l-202 334l-191 -332 q-10 -16 -24 -16h-179q-14 0 -17 9z" />
<glyph unicode="y" horiz-adv-x="952" d="M33 934q-3 7 -3 12q0 16 21 21l144 39q4 1 8 1q16 0 22 -22l269 -670l217 637q10 29 39 29h145q25 0 25 -19q0 -6 -2 -14l-394 -1110q-41 -117 -123 -178t-194 -82q-4 -1 -8 -1q-20 0 -25 20l-41 137q-6 27 17 33q61 12 119.5 38.5t80.5 88.5l45 120z" />
<glyph unicode="z" horiz-adv-x="901" d="M88 127l436 657h-381q-25 0 -24 27v143q0 27 26 27h506q14 0 25 -8l117 -82q15 -11 14 -23q0 -7 -4 -14l-438 -657h403q27 0 27 -27v-143q0 -27 -27 -27h-528q-14 0 -25 8l-117 82q-15 11 -14 23q0 7 4 14z" />
<glyph unicode="{" horiz-adv-x="800" d="M61 535v77q0 18 17 25l135 59q16 8 29 9h61v454q0 94 29.5 173t82 134.5t123 86t150.5 30.5h25q27 0 26 -24v-146q0 -27 -26 -27h-11q-94 0 -148 -68.5t-54 -174.5v-1108q0 -106 54 -175t148 -69h11q27 0 26 -24v-146q0 -27 -26 -27h-25q-80 0 -150.5 31t-123 86.5 t-82 133t-29.5 173.5v490h-219q-23 0 -23 27z" />
<glyph unicode="|" horiz-adv-x="811" d="M307 -381v1937q0 27 27 27h145q25 0 25 -27v-1937q0 -25 -25 -25h-147q-10 0 -17.5 7.5t-7.5 17.5z" />
<glyph unicode="}" horiz-adv-x="800" d="M61 -236q0 27 27 27h10q94 0 148.5 68.5t54.5 175.5v1108q0 106 -54 174.5t-149 68.5h-10q-27 0 -27 25v145q0 27 27 27h25q80 0 149.5 -30.5t121.5 -86t83 -134.5t31 -173v-454h219q23 0 22 -27v-78q0 -18 -16 -25l-135 -59q-16 -8 -29 -8h-61v-490q0 -96 -31 -173.5 t-83 -133t-121.5 -86.5t-149.5 -31h-25q-27 0 -27 25v145z" />
<glyph unicode="~" horiz-adv-x="1265" d="M205 561v146q0 23 24 38q59 39 129 55.5t129 16.5l291 -82q66 0 132.5 17.5t125.5 54.5q10 8 17.5 3t7.5 -15v-146q0 -23 -25 -39q-59 -39 -128.5 -55t-129.5 -16l-291 82q-66 0 -132 -17.5t-126 -54.5q-10 -8 -17 -3t-7 15z" />
<glyph unicode="&#xa1;" horiz-adv-x="565" d="M184 -379v989q0 25 25 25h147q25 0 25 -25v-989q0 -27 -25 -27h-147q-25 0 -25 27zM184 809v147q0 25 25 25h147q25 0 25 -25v-147q0 -25 -25 -25h-147q-25 0 -25 25z" />
<glyph unicode="&#xa2;" horiz-adv-x="987" d="M143 553v281q0 143 82 236t211 120v231q0 27 27 27h145q25 0 25 -27v-231q41 -8 90 -20.5t111 -34.5q18 -6 12 -25l-45 -147q-6 -20 -27 -15q-92 33 -150.5 47.5t-93.5 14.5q-92 0 -141 -54.5t-49 -132.5v-260q0 -47 15.5 -82t41 -58.5t57 -34.5t62.5 -11l295 84 q23 6 31 -19l41 -133q8 -27 -17 -33l-233 -65v-248q0 -25 -25 -24h-147q-10 0 -17.5 7t-7.5 17v232q-129 27 -211 121t-82 237z" />
<glyph unicode="&#xa3;" horiz-adv-x="1228" d="M102 631v135q0 27 25 27h160v129q0 98 40 187t105.5 154.5t148.5 104.5t171 39h12l323 -98q23 -6 17 -31l-41 -141q-4 -10 -11.5 -15.5t-21.5 -1.5l-293 90q-47 -4 -93 -31.5t-82 -68.5t-57.5 -94t-21.5 -111v-112h346q27 0 27 -25v-139q0 -25 -25 -25h-348v-321 l299 -103q70 0 105 37t35 100q0 23 24 23h152q20 0 20 -23q0 -150 -83 -241.5t-236 -91.5h-41l-309 108l-37 -90q-6 -16 -13.5 -18t-19.5 2l-135 53q-25 10 -17 33l60 149v383h-160q-25 0 -25 27z" />
<glyph unicode="&#xa4;" horiz-adv-x="1261" d="M164 649v88q0 100 38 186.5t101.5 148t148.5 96t179 34.5t179 -34.5t148.5 -96t101.5 -147.5t38 -187v-88q0 -102 -38 -187t-101.5 -146.5t-148.5 -96.5t-179 -35t-179 35t-148.5 96.5t-101.5 146.5t-38 187zM360 666q0 -61 20.5 -113.5t56.5 -90.5t85 -59.5t109 -21.5 q59 0 108 21.5t85 59.5t56.5 90t20.5 114v55q0 61 -20.5 113.5t-56.5 90.5t-85 59.5t-108 21.5t-108.5 -21.5t-85.5 -59.5t-56.5 -90.5t-20.5 -113.5v-55z" />
<glyph unicode="&#xa5;" horiz-adv-x="1273" d="M147 1311q-12 23 13 37l131 63q23 10 35 -14l313 -637l309 635q12 27 37 14l129 -63q23 -12 10 -37l-231 -451h186q27 0 27 -24v-148q0 -25 -25 -24h-288l-58 -115v-98h344q27 0 27 -25v-148q0 -25 -25 -24h-346v-225q0 -27 -26 -27h-144q-27 0 -26 27v225h-346 q-25 0 -25 27v143q0 27 25 27h346v98l-60 115h-286q-25 0 -25 26v143q0 27 25 27h186z" />
<glyph unicode="&#xa6;" horiz-adv-x="811" d="M307 262q0 27 27 27h145q25 0 25 -27v-643q0 -25 -25 -25h-147q-10 0 -17.5 7.5t-7.5 17.5v643zM307 717v643q0 27 27 26h145q25 0 25 -26v-643q0 -25 -25 -25h-147q-10 0 -17.5 7.5t-7.5 17.5z" />
<glyph unicode="&#xa7;" horiz-adv-x="933" d="M106 203q-6 12 3 20l129 86q12 10 22 -4q49 -66 105.5 -100.5t128.5 -34.5q66 0 103.5 30.5t37.5 80.5q0 27 -14.5 45t-36.5 28l-443 191v69q0 90 30 162t77 123l-107 47v70q0 88 29 158.5t75 122t103.5 79t114.5 27.5h14l309 -92q14 -4 11 -17l-45 -153q-6 -12 -21 -11 l-276 80q-45 -14 -74 -53t-37 -84l324 -139q84 -35 123.5 -99.5t39.5 -142.5q0 -123 -86 -209q43 -37 64.5 -87t21.5 -105q0 -63 -24.5 -118.5t-69.5 -97.5t-109.5 -66.5t-142.5 -24.5q-111 0 -208 54t-171 165zM344 672l227 -99q31 16 47.5 45t16.5 64q0 27 -14.5 45 t-36.5 29l-148 63q-39 -23 -62.5 -62.5t-29.5 -84.5z" />
<glyph unicode="&#xa8;" horiz-adv-x="999" d="M205 1155v188q0 27 26 27h144q27 0 26 -27v-188q0 -25 -26 -25h-144q-26 0 -26 25zM598 1155v188q0 27 27 27h143q27 0 27 -27v-188q0 -25 -27 -25h-143q-27 0 -27 25z" />
<glyph unicode="&#xa9;" horiz-adv-x="1757" d="M164 692q0 156 54 287t149.5 226t226.5 148.5t285 53.5q156 0 286.5 -53.5t226 -148.5t148.5 -226t53 -287q0 -154 -53 -285t-148.5 -226t-226.5 -148t-286 -53q-154 0 -285 53t-226.5 148t-149.5 226t-54 285zM297 692q0 -127 44 -232.5t121 -183t183.5 -120.5 t233.5 -43q125 0 232.5 43t184 120.5t120.5 183t44 232.5q0 125 -44 232.5t-120.5 184.5t-184 121t-232.5 44q-127 0 -233.5 -44t-183.5 -121t-121 -184.5t-44 -232.5zM539 627v127q0 74 29.5 140.5t78.5 116.5t110.5 78.5t127.5 28.5h10l262 -80q18 -6 12 -24l-30 -105 q-4 -20 -25 -12l-237 74q-35 -4 -70 -24.5t-61.5 -52.5t-43 -71t-16.5 -82v-102q0 -41 13.5 -79t36 -67.5t53 -48t65.5 -18.5h53q72 0 108 42t36 93q0 18 18 19h111q18 0 18 -19q0 -66 -23.5 -118t-61.5 -89t-89 -56t-106 -19h-74q-61 0 -116.5 27.5t-97.5 74.5t-66.5 110.5 t-24.5 135.5z" />
<glyph unicode="&#xaa;" horiz-adv-x="876" d="M92 799q0 66 32 122t93 78l344 107q-6 59 -53 94t-105 35l-174 -49q-16 -6 -26 14l-37 117q-8 23 12 29l199 57h16q74 0 137.5 -22.5t109.5 -62.5t72.5 -95.5t26.5 -122.5v-383l41 -99q2 -10 0 -17t-14 -11l-125 -47q-20 -8 -27 14l-22 55l-189 -71h-10q-70 0 -126 20.5 t-95 55t-59.5 82t-20.5 100.5zM272 794.5q4 -26.5 19.5 -47t43 -34t71.5 -13.5l155 60v180l-287 -90q-6 -29 -2 -55.5z" />
<glyph unicode="&#xab;" horiz-adv-x="1376" d="M109 522q-10 10 0 21l426 426q12 12 28 12h103q14 0 14 -12v-105q0 -20 -10 -30l-310 -302l310 -299q10 -10 10 -30v-105q0 -14 -14 -14h-103q-14 0 -28 14zM641 522q-10 10 0 21l426 426q12 12 29 12h102q14 0 14 -12v-105q0 -20 -10 -30l-309 -302l309 -299 q10 -10 10 -30v-105q0 -14 -14 -14h-102q-14 0 -29 14z" />
<glyph unicode="&#xac;" horiz-adv-x="1347" d="M205 809v145q0 27 24 27h734q10 0 26 -8l137 -70q16 -10 17 -24v-478q0 -27 -25 -26h-147q-10 0 -17.5 8t-7.5 18v383h-717q-24 0 -24 25z" />
<glyph unicode="&#xad;" horiz-adv-x="581" d="M61 590v78q0 18 17 24l135 60q16 8 29 8h254q25 0 24 -25v-145q0 -27 -24 -27h-412q-23 0 -23 27z" />
<glyph unicode="&#xae;" horiz-adv-x="1462" d="M164 1081q0 117 45 220.5t122 180.5t180 122t220 45t220.5 -45t180 -122t121.5 -180.5t45 -220.5t-45 -220t-121.5 -180t-180 -122t-220.5 -45t-220 45t-180 122t-122 180t-45 220zM266 1081q0 -96 37 -181t99.5 -147.5t147.5 -99.5t181 -37t181 37t147.5 99.5 t99.5 147.5t37 181t-37 181.5t-99.5 148t-147.5 99t-181 36.5t-181 -36.5t-147.5 -99t-99.5 -148t-37 -181.5zM496 795v573q0 16 14 16h278q94 0 156 -60t62 -155q0 -66 -33 -111.5t-84 -70.5l106 -117q8 -8 9 -26v-51q0 -14 -13 -15h-67q-12 0 -19 13l-155 174l-136 16 v-186q0 -16 -12 -17h-92q-14 1 -14 17zM614 1094l199 -23q29 10 48.5 33.5t19.5 64.5t-28 69t-75 28h-164v-172z" />
<glyph unicode="&#xaf;" horiz-adv-x="999" d="M205 1155v145q0 27 26 27h537q27 0 27 -27v-145q0 -25 -27 -25h-537q-26 0 -26 25z" />
<glyph unicode="&#xb0;" horiz-adv-x="917" d="M143 1092q0 66 25 123t68 100t100 67.5t123 24.5t123 -24.5t100 -67.5t67.5 -100.5t24.5 -122.5q0 -66 -24.5 -123.5t-67.5 -100.5t-100.5 -67.5t-122.5 -24.5q-66 0 -123 24.5t-100 67.5t-68 100.5t-25 123.5zM305 1092q0 -63 45 -108.5t109 -45.5q63 0 108 45t45 109 q0 63 -45 108t-108 45t-108.5 -45t-45.5 -108z" />
<glyph unicode="&#xb1;" horiz-adv-x="1347" d="M205 27v143q0 27 24 27h887q27 0 27 -25v-147q0 -25 -25 -25h-889q-24 0 -24 27zM205 688v143q0 27 24 27h346v262q0 27 25 27h148q25 0 24 -25v-264h344q27 0 27 -24v-148q0 -25 -25 -24h-346v-265q0 -25 -27 -24h-143q-27 0 -27 24v265h-346q-24 -1 -24 26z" />
<glyph unicode="&#xb2;" horiz-adv-x="1153" d="M111 141l589 607q53 55 83 114.5t30 126.5q0 43 -14.5 83t-43 71t-71.5 49t-98 18q-100 0 -168 -48t-111 -136q-12 -23 -35 -10l-120 65q-25 10 -11 37q27 61 71 114.5t100.5 91.5t126 60.5t149.5 22.5q86 0 162.5 -29.5t134 -84t91.5 -132.5t34 -174q0 -100 -46 -196.5 t-124 -174.5l-418 -419h561q23 0 23 -23v-151q0 -23 -27 -23h-752q-6 0 -14 2t-12 6l-88 98q-16 19 -2 35z" />
<glyph unicode="&#xb3;" horiz-adv-x="1153" d="M135 125l41 141q4 10 11.5 15.5t21.5 1.5l350 -107q125 0 191.5 70.5t66.5 171.5q0 86 -59.5 146.5t-182.5 72.5l-174 -57q-23 -6 -30 18l-45 137q-8 25 14 31l422 139q10 4 17 35t7 68q0 88 -52 145t-165 57q-84 0 -149.5 -36.5t-108.5 -110.5q-14 -23 -35 -10l-120 65 q-25 10 -11 37q53 111 167 181.5t259 70.5q86 0 161 -26.5t131.5 -78t88 -126t31.5 -170.5q0 -45 -9 -90.5t-21.5 -82t-26 -61t-21.5 -27.5l-80 -26q92 -31 143.5 -113t51.5 -188q0 -98 -34 -179t-95.5 -138.5t-145 -89t-184.5 -31.5h-29l-380 114q-23 6 -17 31z" />
<glyph unicode="&#xb4;" horiz-adv-x="890" d="M209 1204q-10 25 10 33l377 166q20 8 33 -14l53 -117q10 -23 -12 -33l-228 -102q-12 -6 -30 -7h-152q-18 0 -24 17z" />
<glyph unicode="&#xb5;" horiz-adv-x="1101" d="M164 -379v1337q0 23 20 23h152q25 0 24 -23v-593q0 -90 55.5 -137.5t125.5 -47.5l200 70v708q0 23 21 23h151q25 0 25 -23v-770l45 -114q8 -23 -16 -33l-136 -53q-12 -4 -19 -2t-13 18l-23 55l-211 -75h-41q-47 0 -88 13t-76 36v-412q0 -27 -26 -27h-146q-24 0 -24 27z " />
<glyph unicode="&#x3bc;" horiz-adv-x="1101" d="M164 -379v1337q0 23 20 23h152q25 0 24 -23v-593q0 -90 55.5 -137.5t125.5 -47.5l200 70v708q0 23 21 23h151q25 0 25 -23v-770l45 -114q8 -23 -16 -33l-136 -53q-12 -4 -19 -2t-13 18l-23 55l-211 -75h-41q-47 0 -88 13t-76 36v-412q0 -27 -26 -27h-146q-24 0 -24 27z " />
<glyph unicode="&#xb6;" horiz-adv-x="1390" d="M82 995q0 88 30.5 161t85 124t126 78.5t153.5 27.5h187q51 0 92 -12l364 -112q25 -8 25 -31v-1610q0 -27 -25 -27h-147q-10 0 -17.5 8.5t-7.5 18.5v1489l-274 80v-1569q0 -27 -25 -27h-145q-27 0 -27 27v981q-82 0 -153.5 27.5t-126 80t-85 124t-30.5 161.5z" />
<glyph unicode="&#xb7;" horiz-adv-x="503" d="M154 639v188q0 27 26 27h144q27 0 26 -27v-188q0 -25 -26 -25h-144q-26 0 -26 25z" />
<glyph unicode="&#xb8;" horiz-adv-x="657" d="M205 -248q0 18 6 31l43 92q8 20 33 21h145q12 0 16.5 -9.5t0.5 -19.5l-113 -254q-8 -18 -25 -19h-90q-16 0 -16 19v139z" />
<glyph unicode="&#xb9;" horiz-adv-x="983" d="M106 1266q-8 27 17 32l340 109q10 0 26 -8l138 -70q16 -8 16 -24v-1108h252q27 0 27 -25v-147q0 -25 -25 -25h-731q-25 0 -25 27v143q0 27 25 27h280v999l-268 -86q-20 -6 -26 14z" />
<glyph unicode="&#xba;" horiz-adv-x="917" d="M111 852v240q0 70 26.5 128t73.5 98t110.5 62.5t137.5 22.5t137 -22.5t110.5 -62.5t74 -98.5t26.5 -127.5v-240q0 -72 -26.5 -129t-74 -97t-111 -62.5t-136.5 -22.5q-74 0 -137.5 22.5t-110.5 62.5t-73.5 97t-26.5 129zM287 858q0 -66 44 -112t128 -46t128 46.5t44 111.5 v227q0 66 -44 113t-128 47t-128 -47t-44 -113v-227z" />
<glyph unicode="&#xbb;" horiz-adv-x="1376" d="M164 98v105q0 20 10 30l309 299l-309 302q-10 10 -10 30v105q0 12 14 12h103q16 0 28 -12l426 -426q10 -10 0 -21l-426 -424q-14 -14 -28 -14h-103q-14 0 -14 14zM696 98v105q0 20 11 30l309 299l-309 302q-10 10 -11 30v105q0 12 15 12h102q16 0 29 -12l426 -426 q10 -10 0 -21l-426 -424q-14 -14 -29 -14h-102q-15 0 -15 14z" />
<glyph unicode="&#xbc;" horiz-adv-x="536" d="M-281 25l922 1335q18 27 33 26h133q14 0 15 -8t-7 -18l-921 -1335q-16 -25 -39 -25h-123q-31 0 -13 25z" />
<glyph unicode="&#xbd;" horiz-adv-x="536" d="M-281 25l922 1335q18 27 33 26h133q14 0 15 -8t-7 -18l-921 -1335q-16 -25 -39 -25h-123q-31 0 -13 25z" />
<glyph unicode="&#xbe;" horiz-adv-x="536" d="M-281 25l922 1335q18 27 33 26h133q14 0 15 -8t-7 -18l-921 -1335q-16 -25 -39 -25h-123q-31 0 -13 25z" />
<glyph unicode="&#xbf;" horiz-adv-x="1005" d="M61 -27q0 201 211 326l172 104v207q0 25 25 25h147q25 0 25 -25v-317l-285 -172q-41 -25 -68.5 -60.5t-27.5 -87.5q0 -92 56.5 -147t172.5 -55q92 0 165 41t122 112q6 10 16.5 11.5t18.5 -5.5l125 -86q4 -4 6 -12t-2 -16q-70 -109 -186.5 -175.5t-264.5 -66.5 q-102 0 -182 32t-134 86t-83 126.5t-29 154.5zM444 809v147q0 25 25 25h147q25 0 25 -25v-147q0 -25 -25 -25h-147q-25 0 -25 25z" />
<glyph unicode="&#xc0;" horiz-adv-x="1185" d="M43 11.5q-4 11.5 0 21.5l457 1335q6 18 22 18h150q18 0 24 -18l447 -1335q10 -33 -23 -33h-157q-29 0 -35 29l-109 342h-268l-205 -62l-88 -280q-10 -29 -37 -29h-158q-16 0 -20 11.5zM274 1677l54 117q12 23 32 14l377 -166q20 -8 11 -32l-27 -58q-6 -16 -25 -16h-151 q-18 0 -31 6l-227 103q-23 9 -13 32zM422 537l63 18q20 6 45 9t48 3h180l-162 518z" />
<glyph unicode="&#xc1;" horiz-adv-x="1185" d="M43 11.5q-4 11.5 0 21.5l457 1335q6 18 22 18h150q18 0 24 -18l447 -1335q10 -33 -23 -33h-157q-29 0 -35 29l-109 342h-268l-205 -62l-88 -280q-10 -29 -37 -29h-158q-16 0 -20 11.5zM422 537l63 18q20 6 45 9t48 3h180l-162 518zM459 1610q-10 25 10 32l377 166 q20 8 33 -14l53 -117q10 -23 -12 -32l-228 -103q-12 -6 -30 -6h-152q-18 0 -25 16z" />
<glyph unicode="&#xc2;" horiz-adv-x="1185" d="M43 11.5q-4 11.5 0 21.5l457 1335q6 18 22 18h150q18 0 24 -18l447 -1335q10 -33 -23 -33h-157q-29 0 -35 29l-109 342h-268l-205 -62l-88 -280q-10 -29 -37 -29h-158q-16 0 -20 11.5zM301 1544q-4 8 6 19l273 241q18 18 36 0l273 -241q10 -10 6 -18.5t-14 -8.5h-166 q-12 0 -23 10l-94 82l-94 -82q-10 -10 -23 -10h-166q-10 0 -14 8zM422 537l63 18q20 6 45 9t48 3h180l-162 518z" />
<glyph unicode="&#xc3;" horiz-adv-x="1185" d="M43 11.5q-4 11.5 0 21.5l457 1335q6 18 22 18h150q18 0 24 -18l447 -1335q10 -33 -23 -33h-157q-29 0 -35 29l-109 342h-268l-205 -62l-88 -280q-10 -29 -37 -29h-158q-16 0 -20 11.5zM291 1561v131q0 20 24 37q39 23 82 37t84 14l230 -62q41 0 83 14.5t83 36.5 q10 4 17 0t7 -14v-131q0 -23 -24 -37q-39 -23 -82 -37t-84 -14l-230 61q-41 0 -83 -14t-83 -37q-10 -4 -17 0.5t-7 14.5zM422 537l63 18q20 6 45 9t48 3h180l-162 518z" />
<glyph unicode="&#xc4;" horiz-adv-x="1185" d="M43 11.5q-4 11.5 0 21.5l457 1335q6 18 22 18h150q18 0 24 -18l447 -1335q10 -33 -23 -33h-157q-29 0 -35 29l-109 342h-268l-205 -62l-88 -280q-10 -29 -37 -29h-158q-16 0 -20 11.5zM301 1561v188q0 27 27 27h143q27 0 27 -27v-188q0 -25 -27 -25h-143q-27 0 -27 25z M422 537l63 18q20 6 45 9t48 3h180l-162 518zM694 1561v188q0 27 27 27h143q27 0 27 -27v-188q0 -25 -27 -25h-143q-27 0 -27 25z" />
<glyph unicode="&#xc5;" horiz-adv-x="1185" d="M43 11.5q-4 11.5 0 21.5l457 1335q6 18 22 18h150q18 0 24 -18l447 -1335q10 -33 -23 -33h-157q-29 0 -35 29l-109 342h-268l-205 -62l-88 -280q-10 -29 -37 -29h-158q-16 0 -20 11.5zM422 537l63 18q20 6 45 9t48 3h180l-162 518zM430 1661q0 70 48 118t118 48t118 -48 t48 -118t-48 -118t-118 -48t-118 48t-48 118zM514 1661q0 -35 23.5 -58.5t58.5 -23.5t58.5 23.5t23.5 58.5t-23.5 58.5t-58.5 23.5t-58.5 -23.5t-23.5 -58.5z" />
<glyph unicode="&#xc6;" horiz-adv-x="1724" d="M4 10q-4 10 0 23l571 1335q6 18 23 18h938q25 0 25 -26v-146q0 -25 -25 -24h-539v-391l78 22q20 6 45 9.5t47 3.5h289q25 0 25 -25v-145q0 -27 -25 -27h-305l-154 -45v-395h580q25 0 25 -25v-147q0 -25 -25 -25h-752q-25 0 -24 25v507l-129 -36q-41 -12 -92 -13h-170 l-191 -454q-12 -29 -37 -29h-157q-17 0 -21 10zM494 680h102l205 59v451h-92z" />
<glyph unicode="&#xc7;" horiz-adv-x="1228" d="M143 465v457q0 98 40 187t105.5 154.5t148.5 104.5t171 39h13l432 -131q23 -6 16 -31l-41 -141q-4 -10 -11 -15.5t-22 -1.5l-401 123q-47 -4 -93 -31.5t-82 -68.5t-57.5 -94t-21.5 -111v-424q0 -53 17.5 -104t47 -91t70.5 -64.5t88 -24.5h176q94 0 142.5 56t48.5 124 q0 25 24 24h148q25 0 24 -24q0 -88 -30.5 -157.5t-82.5 -119t-119 -75t-140 -25.5h-205q-80 0 -153.5 37t-129 100.5t-89.5 147.5t-34 180zM489 -248q0 18 7 31l43 92q8 20 32 21h146q12 0 16 -9.5t0 -19.5l-112 -254q-8 -18 -25 -19h-90q-16 0 -17 19v139z" />
<glyph unicode="&#xc8;" horiz-adv-x="1107" d="M184 25v1335q0 12 7.5 19t17.5 7h711q25 0 24 -26v-146q0 -25 -24 -24h-539v-393l78 24q20 6 44.5 9.5t47.5 3.5h289q25 0 24 -25v-145q0 -27 -24 -27h-305l-154 -45v-395h580q25 0 24 -25v-147q0 -25 -24 -25h-752q-25 0 -25 25zM256 1677l53 117q12 23 33 14l377 -166 q20 -8 10 -32l-27 -58q-6 -16 -24 -16h-152q-18 0 -30 6l-228 103q-22 9 -12 32z" />
<glyph unicode="&#xc9;" horiz-adv-x="1107" d="M184 25v1335q0 12 7.5 19t17.5 7h711q25 0 24 -26v-146q0 -25 -24 -24h-539v-393l78 24q20 6 44.5 9.5t47.5 3.5h289q25 0 24 -25v-145q0 -27 -24 -27h-305l-154 -45v-395h580q25 0 24 -25v-147q0 -25 -24 -25h-752q-25 0 -25 25zM420 1610q-10 25 10 32l377 166 q20 8 33 -14l53 -117q10 -23 -12 -32l-228 -103q-12 -6 -30 -6h-152q-18 0 -25 16z" />
<glyph unicode="&#xca;" horiz-adv-x="1107" d="M184 25v1335q0 12 7.5 19t17.5 7h711q25 0 24 -26v-146q0 -25 -24 -24h-539v-393l78 24q20 6 44.5 9.5t47.5 3.5h289q25 0 24 -25v-145q0 -27 -24 -27h-305l-154 -45v-395h580q25 0 24 -25v-147q0 -25 -24 -25h-752q-25 0 -25 25zM274.5 1544q-4.5 8 6.5 19l272 241 q18 18 37 0l272 -241q10 -10 6 -18.5t-14 -8.5h-166q-12 0 -22 10l-95 82l-94 -82q-10 -10 -22 -10h-166q-10 0 -14.5 8z" />
<glyph unicode="&#xcb;" horiz-adv-x="1107" d="M184 25v1335q0 12 7.5 19t17.5 7h711q25 0 24 -26v-146q0 -25 -24 -24h-539v-393l78 24q20 6 44.5 9.5t47.5 3.5h289q25 0 24 -25v-145q0 -27 -24 -27h-305l-154 -45v-395h580q25 0 24 -25v-147q0 -25 -24 -25h-752q-25 0 -25 25zM279 1561v188q0 27 26 27h144 q27 0 26 -27v-188q0 -25 -26 -25h-144q-26 0 -26 25zM672 1561v188q0 27 26 27h144q27 0 26 -27v-188q0 -25 -26 -25h-144q-26 0 -26 25z" />
<glyph unicode="&#xcc;" horiz-adv-x="565" d="M-55 1677l53 117q12 23 33 14l377 -166q20 -8 10 -32l-27 -58q-6 -16 -24 -16h-152q-18 0 -31 6l-227 103q-22 9 -12 32zM184 25v1335q0 27 27 26h145q25 0 25 -26v-1335q0 -25 -25 -25h-147q-10 0 -17.5 7.5t-7.5 17.5z" />
<glyph unicode="&#xcd;" horiz-adv-x="565" d="M150 1610q-10 25 10 32l377 166q20 8 32 -14l54 -117q10 -23 -13 -32l-227 -103q-12 -6 -31 -6h-151q-18 0 -25 16zM184 25v1335q0 27 27 26h145q25 0 25 -26v-1335q0 -25 -25 -25h-147q-10 0 -17.5 7.5t-7.5 17.5z" />
<glyph unicode="&#xce;" horiz-adv-x="565" d="M-14 1544q-4 8 6 19l272 241q18 18 37 0l272 -241q10 -10 6 -18.5t-14 -8.5h-166q-12 0 -22 10l-94 82l-95 -82q-10 -10 -22 -10h-166q-10 0 -14 8zM184 25v1335q0 27 27 26h145q25 0 25 -26v-1335q0 -25 -25 -25h-147q-10 0 -17.5 7.5t-7.5 17.5z" />
<glyph unicode="&#xcf;" horiz-adv-x="565" d="M-12 1561v188q0 27 26 27h144q27 0 26 -27v-188q0 -25 -26 -25h-144q-26 0 -26 25zM184 25v1335q0 27 27 26h145q25 0 25 -26v-1335q0 -25 -25 -25h-147q-10 0 -17.5 7.5t-7.5 17.5zM381 1561v188q0 27 27 27h143q27 0 27 -27v-188q0 -25 -27 -25h-143q-27 0 -27 25z" />
<glyph unicode="&#xd0;" horiz-adv-x="1361" d="M20 662v147q0 25 27 25h178v450q0 14 17 25l137 69q16 8 27 8h407q80 0 153.5 -36.5t129 -100t89.5 -148.5t34 -179v-457q0 -96 -34 -180t-89.5 -147.5t-129 -100.5t-153.5 -37h-565q-23 0 -23 27v610h-180q-25 0 -25 25zM422 197h377q47 0 88 24.5t70.5 64.5t47 91 t17.5 104v424q0 53 -17.5 104.5t-47 91.5t-70.5 64.5t-88 24.5h-377v-356h100q6 0 17.5 -2.5t21.5 -6.5l176 -59q16 -6 17 -25v-77q0 -27 -25 -27h-307v-440z" />
<glyph unicode="&#xd1;" horiz-adv-x="1370" d="M184 25v1263q0 18 11 25l141 88q25 14 37 -8l616 -981v948q0 27 25 26h145q27 0 27 -26v-1335q0 -25 -27 -25h-102q-41 0 -66 37l-610 971v-983q0 -25 -25 -25h-145q-27 0 -27 25zM379 1561v131q0 20 24 37q39 23 82 37t84 14l230 -62q41 0 83 14.5t83 36.5q10 4 17 0 t7 -14v-131q0 -23 -24 -37q-39 -23 -82 -37t-84 -14l-230 61q-41 0 -83 -14t-83 -37q-10 -4 -17 0.5t-7 14.5z" />
<glyph unicode="&#xd2;" horiz-adv-x="1323" d="M143 465v457q0 94 34 179t89.5 148.5t129 100t153.5 36.5h272q33 0 58 -24l278 -277q23 -23 23 -55v-565q0 -96 -34 -180t-89.5 -147.5t-129 -100.5t-153.5 -37h-225q-80 0 -153.5 37t-129 100.5t-89.5 147.5t-34 180zM340 481q0 -53 17.5 -104t47 -91t70.5 -64.5 t88 -24.5h197q47 0 88 24.5t70.5 64.5t47 91t17.5 104v502l-207 207h-213q-47 0 -88 -24.5t-70.5 -64.5t-47 -91.5t-17.5 -104.5v-424zM342 1677l53 117q12 23 33 14l377 -166q20 -8 10 -32l-27 -58q-6 -16 -24 -16h-152q-18 0 -30 6l-228 103q-22 9 -12 32z" />
<glyph unicode="&#xd3;" horiz-adv-x="1323" d="M143 465v457q0 94 34 179t89.5 148.5t129 100t153.5 36.5h272q33 0 58 -24l278 -277q23 -23 23 -55v-565q0 -96 -34 -180t-89.5 -147.5t-129 -100.5t-153.5 -37h-225q-80 0 -153.5 37t-129 100.5t-89.5 147.5t-34 180zM340 481q0 -53 17.5 -104t47 -91t70.5 -64.5 t88 -24.5h197q47 0 88 24.5t70.5 64.5t47 91t17.5 104v502l-207 207h-213q-47 0 -88 -24.5t-70.5 -64.5t-47 -91.5t-17.5 -104.5v-424zM506 1610q-10 25 10 32l377 166q20 8 33 -14l53 -117q10 -23 -12 -32l-228 -103q-12 -6 -30 -6h-152q-18 0 -25 16z" />
<glyph unicode="&#xd4;" horiz-adv-x="1323" d="M143 465v457q0 94 34 179t89.5 148.5t129 100t153.5 36.5h272q33 0 58 -24l278 -277q23 -23 23 -55v-565q0 -96 -34 -180t-89.5 -147.5t-129 -100.5t-153.5 -37h-225q-80 0 -153.5 37t-129 100.5t-89.5 147.5t-34 180zM340 481q0 -53 17.5 -104t47 -91t70.5 -64.5 t88 -24.5h197q47 0 88 24.5t70.5 64.5t47 91t17.5 104v502l-207 207h-213q-47 0 -88 -24.5t-70.5 -64.5t-47 -91.5t-17.5 -104.5v-424zM364.5 1544q-4.5 8 6.5 19l272 241q18 18 37 0l272 -241q10 -10 6 -18.5t-14 -8.5h-166q-12 0 -22 10l-94 82l-95 -82q-10 -10 -22 -10 h-166q-10 0 -14.5 8z" />
<glyph unicode="&#xd5;" horiz-adv-x="1323" d="M143 465v457q0 94 34 179t89.5 148.5t129 100t153.5 36.5h272q33 0 58 -24l278 -277q23 -23 23 -55v-565q0 -96 -34 -180t-89.5 -147.5t-129 -100.5t-153.5 -37h-225q-80 0 -153.5 37t-129 100.5t-89.5 147.5t-34 180zM340 481q0 -53 17.5 -104t47 -91t70.5 -64.5 t88 -24.5h197q47 0 88 24.5t70.5 64.5t47 91t17.5 104v502l-207 207h-213q-47 0 -88 -24.5t-70.5 -64.5t-47 -91.5t-17.5 -104.5v-424zM356 1561v131q0 20 25 37q39 23 82 37t84 14l229 -62q41 0 83 14.5t83 36.5q10 4 17.5 0t7.5 -14v-131q0 -23 -25 -37q-39 -23 -82 -37 t-84 -14l-229 61q-41 0 -83 -14t-83 -37q-10 -4 -17.5 0.5t-7.5 14.5z" />
<glyph unicode="&#xd6;" horiz-adv-x="1323" d="M143 465v457q0 94 34 179t89.5 148.5t129 100t153.5 36.5h272q33 0 58 -24l278 -277q23 -23 23 -55v-565q0 -96 -34 -180t-89.5 -147.5t-129 -100.5t-153.5 -37h-225q-80 0 -153.5 37t-129 100.5t-89.5 147.5t-34 180zM340 481q0 -53 17.5 -104t47 -91t70.5 -64.5 t88 -24.5h197q47 0 88 24.5t70.5 64.5t47 91t17.5 104v502l-207 207h-213q-47 0 -88 -24.5t-70.5 -64.5t-47 -91.5t-17.5 -104.5v-424zM367 1561v188q0 27 26 27h144q27 0 26 -27v-188q0 -25 -26 -25h-144q-26 0 -26 25zM760 1561v188q0 27 26 27h144q27 0 26 -27v-188 q0 -25 -26 -25h-144q-26 0 -26 25z" />
<glyph unicode="&#xd7;" horiz-adv-x="1347" d="M250 393l285 285l-285 287q-16 14 2 34l100 103q18 20 37 2l285 -287l284 285q18 18 37 2l105 -105q16 -18 0 -34l-287 -287l285 -285q8 -6 9 -16t-7 -19l-105 -104q-18 -18 -34 0l-287 285l-285 -285q-18 -18 -37 2l-100 100q-20 19 -2 37z" />
<glyph unicode="&#xd8;" horiz-adv-x="1323" d="M143 465v457q0 94 34 179t89.5 148.5t129 100t153.5 36.5h287l34 97q10 27 27 26h115q25 0 14 -26l-72 -197l203 -201q23 -23 23 -55v-565q0 -96 -34 -180t-89.5 -147.5t-129 -100.5t-153.5 -37h-225q-16 0 -32.5 1t-27.5 3l-36 -102q-10 -25 -33 -25h-105q-29 0 -18 25 l57 157q-92 61 -151.5 169t-59.5 237zM340 481q0 -63 22.5 -122.5t63.5 -100.5l338 932h-201q-47 0 -88 -24.5t-70.5 -64.5t-47 -91.5t-17.5 -104.5v-424zM559 197h201q47 0 88 24.5t70.5 64.5t47 91t17.5 104v502l-102 100z" />
<glyph unicode="&#xd9;" horiz-adv-x="1310" d="M164 465v895q0 27 22 26h150q25 0 24 -26v-879q0 -53 17.5 -104t47.5 -91t71 -64.5t88 -24.5h143q47 0 88 24.5t70.5 64.5t47 91t17.5 104v879q0 27 23 26h149q25 0 25 -26v-895q0 -96 -34 -180t-89 -147.5t-129 -100.5t-154 -37h-172q-80 0 -153.5 37t-129 100.5 t-89 147.5t-33.5 180zM336 1677l53 117q12 23 33 14l377 -166q20 -8 10 -32l-27 -58q-6 -16 -24 -16h-152q-18 0 -31 6l-227 103q-22 9 -12 32z" />
<glyph unicode="&#xda;" horiz-adv-x="1310" d="M164 465v895q0 27 22 26h150q25 0 24 -26v-879q0 -53 17.5 -104t47.5 -91t71 -64.5t88 -24.5h143q47 0 88 24.5t70.5 64.5t47 91t17.5 104v879q0 27 23 26h149q25 0 25 -26v-895q0 -96 -34 -180t-89 -147.5t-129 -100.5t-154 -37h-172q-80 0 -153.5 37t-129 100.5 t-89 147.5t-33.5 180zM500 1610q-10 25 10 32l377 166q20 8 33 -14l53 -117q10 -23 -12 -32l-228 -103q-12 -6 -31 -6h-151q-18 0 -25 16z" />
<glyph unicode="&#xdb;" horiz-adv-x="1310" d="M164 465v895q0 27 22 26h150q25 0 24 -26v-879q0 -53 17.5 -104t47.5 -91t71 -64.5t88 -24.5h143q47 0 88 24.5t70.5 64.5t47 91t17.5 104v879q0 27 23 26h149q25 0 25 -26v-895q0 -96 -34 -180t-89 -147.5t-129 -100.5t-154 -37h-172q-80 0 -153.5 37t-129 100.5 t-89 147.5t-33.5 180zM358 1544q-4 8 7 19l272 241q18 18 37 0l272 -241q10 -10 6 -18.5t-14 -8.5h-166q-12 0 -22 10l-95 82l-94 -82q-10 -10 -22 -10h-166q-11 0 -15 8z" />
<glyph unicode="&#xdc;" horiz-adv-x="1310" d="M164 465v895q0 27 22 26h150q25 0 24 -26v-879q0 -53 17.5 -104t47.5 -91t71 -64.5t88 -24.5h143q47 0 88 24.5t70.5 64.5t47 91t17.5 104v879q0 27 23 26h149q25 0 25 -26v-895q0 -96 -34 -180t-89 -147.5t-129 -100.5t-154 -37h-172q-80 0 -153.5 37t-129 100.5 t-89 147.5t-33.5 180zM360 1561v188q0 27 27 27h143q27 0 27 -27v-188q0 -25 -27 -25h-143q-27 0 -27 25zM754 1561v188q0 27 26 27h144q27 0 26 -27v-188q0 -25 -26 -25h-144q-26 0 -26 25z" />
<glyph unicode="&#xdd;" horiz-adv-x="1028" d="M29 1303q-12 23 12 36l131 64q23 10 35 -14l309 -629l307 629q12 27 37 14l129 -64q23 -12 10 -36l-387 -756v-520q0 -27 -26 -27h-144q-27 0 -26 27v520zM381 1610q-10 25 10 32l377 166q20 8 33 -14l53 -117q10 -23 -12 -32l-228 -103q-12 -6 -30 -6h-152q-18 0 -24 16 z" />
<glyph unicode="&#xde;" horiz-adv-x="1167" d="M184 25v1335q0 27 27 26h145q25 0 25 -26v-273l65 21q20 6 45 9t48 3h188q78 0 145.5 -31.5t116.5 -87t78 -130t29 -158.5t-29 -159t-78 -130t-116.5 -87t-145.5 -32h-346v-280q0 -25 -27 -25h-143q-27 0 -27 25zM381 502h330q39 0 72.5 17.5t56 46t36 67.5t13.5 80 t-13.5 78.5t-36 67.5t-56 47.5t-72.5 17.5h-189l-141 -41v-381z" />
<glyph unicode="&#xdf;" horiz-adv-x="1191" d="M164 23v1030q0 84 30.5 149.5t83 109.5t123 67.5t148.5 23.5q86 0 156.5 -28.5t121 -80t78 -123t27.5 -157.5v-142q0 -20 -17 -22q-84 -12 -138 -59.5t-64 -118.5l237 -135q82 -51 121 -109.5t39 -136.5q0 -66 -22.5 -122t-66.5 -97t-106.5 -64.5t-142.5 -23.5 q-78 0 -146.5 24.5t-125.5 69.5q-12 10 -4 20l88 127q10 14 22 4q76 -59 166 -59q66 0 103.5 30.5t37.5 80.5q0 53 -53 84l-342 196v70q0 137 66.5 229t158.5 129q0 98 -52 157.5t-156 59.5q-68 0 -114 -36.5t-61 -98.5v-1048q0 -23 -22 -23h-152q-22 0 -22 23z" />
<glyph unicode="&#xe0;" horiz-adv-x="974" d="M102 287q0 78 35 144.5t105 90.5l383 127q-8 70 -60.5 111t-115.5 41l-193 -60q-23 -6 -31 19l-41 137q-8 27 15 33l221 67h16q82 0 152.5 -25.5t122 -72.5t81 -112.5t29.5 -145.5v-451l45 -116q6 -25 -14 -33l-139 -55q-23 -8 -31 16l-25 66l-208 -84h-13 q-78 0 -139 23.5t-104 65.5t-67 97.5t-24 116.5zM236 1272l53 117q12 23 33 14l376 -166q20 -8 11 -33l-27 -57q-6 -16 -25 -17h-151q-18 0 -31 7l-227 102q-22 10 -12 33zM303 282.5q4 -30.5 20.5 -55t48 -40t79.5 -15.5l174 70v211l-320 -107q-6 -33 -2 -63.5z" />
<glyph unicode="&#xe1;" horiz-adv-x="974" d="M102 287q0 78 35 144.5t105 90.5l383 127q-8 70 -60.5 111t-115.5 41l-193 -60q-23 -6 -31 19l-41 137q-8 27 15 33l221 67h16q82 0 152.5 -25.5t122 -72.5t81 -112.5t29.5 -145.5v-451l45 -116q6 -25 -14 -33l-139 -55q-23 -8 -31 16l-25 66l-208 -84h-13 q-78 0 -139 23.5t-104 65.5t-67 97.5t-24 116.5zM297 1204q-10 25 10 33l377 166q20 8 33 -14l53 -117q10 -23 -12 -33l-228 -102q-12 -6 -30 -7h-152q-18 0 -24 17zM303 282.5q4 -30.5 20.5 -55t48 -40t79.5 -15.5l174 70v211l-320 -107q-6 -33 -2 -63.5z" />
<glyph unicode="&#xe2;" horiz-adv-x="974" d="M102 287q0 78 35 144.5t105 90.5l383 127q-8 70 -60.5 111t-115.5 41l-193 -60q-23 -6 -31 19l-41 137q-8 27 15 33l221 67h16q82 0 152.5 -25.5t122 -72.5t81 -112.5t29.5 -145.5v-451l45 -116q6 -25 -14 -33l-139 -55q-23 -8 -31 16l-25 66l-208 -84h-13 q-78 0 -139 23.5t-104 65.5t-67 97.5t-24 116.5zM203 1138.5q-4 8.5 6 18.5l272 242q18 18 37 0l273 -242q10 -10 6 -18.5t-15 -8.5h-166q-12 0 -22 11l-94 82l-94 -82q-10 -10 -23 -11h-166q-10 0 -14 8.5zM303 282.5q4 -30.5 20.5 -55t48 -40t79.5 -15.5l174 70v211 l-320 -107q-6 -33 -2 -63.5z" />
<glyph unicode="&#xe3;" horiz-adv-x="974" d="M102 287q0 78 35 144.5t105 90.5l383 127q-8 70 -60.5 111t-115.5 41l-193 -60q-23 -6 -31 19l-41 137q-8 27 15 33l221 67h16q82 0 152.5 -25.5t122 -72.5t81 -112.5t29.5 -145.5v-451l45 -116q6 -25 -14 -33l-139 -55q-23 -8 -31 16l-25 66l-208 -84h-13 q-78 0 -139 23.5t-104 65.5t-67 97.5t-24 116.5zM188 1155v131q0 20 25 37q39 23 82 37t84 14l229 -61q41 0 83 14t83 37q10 4 17.5 0t7.5 -14v-131q0 -23 -25 -37q-39 -23 -82 -37.5t-84 -14.5l-229 62q-41 0 -83 -14.5t-83 -36.5q-10 -4 -17.5 0t-7.5 14zM303 282.5 q4 -30.5 20.5 -55t48 -40t79.5 -15.5l174 70v211l-320 -107q-6 -33 -2 -63.5z" />
<glyph unicode="&#xe4;" horiz-adv-x="974" d="M102 287q0 78 35 144.5t105 90.5l383 127q-8 70 -60.5 111t-115.5 41l-193 -60q-23 -6 -31 19l-41 137q-8 27 15 33l221 67h16q82 0 152.5 -25.5t122 -72.5t81 -112.5t29.5 -145.5v-451l45 -116q6 -25 -14 -33l-139 -55q-23 -8 -31 16l-25 66l-208 -84h-13 q-78 0 -139 23.5t-104 65.5t-67 97.5t-24 116.5zM199 1155v188q0 27 26 27h144q27 0 26 -27v-188q0 -25 -26 -25h-144q-26 0 -26 25zM303 282.5q4 -30.5 20.5 -55t48 -40t79.5 -15.5l174 70v211l-320 -107q-6 -33 -2 -63.5zM592 1155v188q0 27 26 27h144q27 0 26 -27v-188 q0 -25 -26 -25h-144q-26 0 -26 25z" />
<glyph unicode="&#xe5;" horiz-adv-x="974" d="M102 287q0 78 35 144.5t105 90.5l383 127q-8 70 -60.5 111t-115.5 41l-193 -60q-23 -6 -31 19l-41 137q-8 27 15 33l221 67h16q82 0 152.5 -25.5t122 -72.5t81 -112.5t29.5 -145.5v-451l45 -116q6 -25 -14 -33l-139 -55q-23 -8 -31 16l-25 66l-208 -84h-13 q-78 0 -139 23.5t-104 65.5t-67 97.5t-24 116.5zM303 282.5q4 -30.5 20.5 -55t48 -40t79.5 -15.5l174 70v211l-320 -107q-6 -33 -2 -63.5zM326 1255q0 70 48 118t118 48t117.5 -48t47.5 -118t-48 -117.5t-117 -47.5q-70 0 -118 47.5t-48 117.5zM410 1255q0 -35 23.5 -58 t58.5 -23t58 23.5t23 57.5q0 35 -23.5 58.5t-57.5 23.5q-35 0 -58.5 -23.5t-23.5 -58.5z" />
<glyph unicode="&#xe6;" horiz-adv-x="1501" d="M102 287q0 78 35 144.5t105 90.5l383 127q-8 70 -60.5 111t-115.5 41l-193 -60q-23 -6 -31 19l-41 137q-8 27 15 33l221 67h16q92 0 166 -32.5t121 -92.5q49 59 123 92t166 33q82 0 152.5 -25.5t122.5 -73.5t82 -115.5t30 -151.5v-43l-53 -180q-6 -18 -25 -19h-500v-78 q16 -53 57.5 -95t118.5 -42l295 84q23 6 31 -18l41 -134q8 -27 -16 -32l-322 -90h-14q-180 0 -287 110l-276 -110h-13q-78 0 -139 23.5t-104 65.5t-67 97.5t-24 116.5zM303 282.5q4 -30.5 20.5 -55t48 -40t79.5 -15.5l186 74q-12 49 -12 104v103l-320 -107q-6 -33 -2 -63.5z M821 575h381v50q0 78 -49 132t-141 54t-141.5 -54.5t-49.5 -131.5v-50z" />
<glyph unicode="&#xe7;" horiz-adv-x="946" d="M123 350v281q0 84 29.5 151.5t82 115.5t123 73.5t152.5 25.5q53 0 126 -14t177 -51q18 -6 12 -25l-45 -147q-6 -20 -26 -15q-92 33 -150.5 47.5t-93.5 14.5q-92 0 -141.5 -54.5t-49.5 -131.5v-261q0 -47 15.5 -81.5t41 -58t57.5 -35t63 -11.5l295 84q23 6 30 -18l41 -134 q8 -27 -16 -32l-322 -90h-14q-82 0 -152.5 25.5t-123 73.5t-82 115.5t-29.5 151.5zM348 -248q0 18 6 31l43 92q8 20 33 21h145q12 0 16.5 -9.5t0.5 -19.5l-113 -254q-8 -18 -24 -19h-90q-16 0 -17 19v139z" />
<glyph unicode="&#xe8;" horiz-adv-x="999" d="M123 350v281q0 84 29.5 151.5t82 115.5t123 73.5t152.5 25.5t152.5 -25.5t123 -73.5t82 -115.5t29.5 -151.5v-43l-53 -180q-6 -18 -25 -19h-500v-78q16 -53 57.5 -95t119.5 -42l295 84q23 6 30 -18l41 -134q8 -27 -16 -32l-322 -90h-14q-82 0 -152.5 25.5t-123 73.5 t-82 115.5t-29.5 151.5zM207 1272l53 117q12 23 33 14l377 -166q20 -8 10 -33l-27 -57q-6 -16 -24 -17h-152q-18 0 -31 7l-227 102q-22 10 -12 33zM319 575h381v50q0 78 -49 132t-141 54t-141.5 -54.5t-49.5 -131.5v-50z" />
<glyph unicode="&#xe9;" horiz-adv-x="999" d="M123 350v281q0 84 29.5 151.5t82 115.5t123 73.5t152.5 25.5t152.5 -25.5t123 -73.5t82 -115.5t29.5 -151.5v-43l-53 -180q-6 -18 -25 -19h-500v-78q16 -53 57.5 -95t119.5 -42l295 84q23 6 30 -18l41 -134q8 -27 -16 -32l-322 -90h-14q-82 0 -152.5 25.5t-123 73.5 t-82 115.5t-29.5 151.5zM319 575h381v50q0 78 -49 132t-141 54t-141.5 -54.5t-49.5 -131.5v-50zM330 1204q-10 25 10 33l377 166q20 8 33 -14l53 -117q10 -23 -12 -33l-228 -102q-12 -6 -31 -7h-151q-18 0 -25 17z" />
<glyph unicode="&#xea;" horiz-adv-x="999" d="M123 350v281q0 84 29.5 151.5t82 115.5t123 73.5t152.5 25.5t152.5 -25.5t123 -73.5t82 -115.5t29.5 -151.5v-43l-53 -180q-6 -18 -25 -19h-500v-78q16 -53 57.5 -95t119.5 -42l295 84q23 6 30 -18l41 -134q8 -27 -16 -32l-322 -90h-14q-82 0 -152.5 25.5t-123 73.5 t-82 115.5t-29.5 151.5zM215 1138.5q-4 8.5 6 18.5l273 242q18 18 36 0l273 -242q10 -10 6 -18.5t-14 -8.5h-166q-12 0 -23 11l-94 82l-94 -82q-10 -10 -23 -11h-166q-10 0 -14 8.5zM319 575h381v50q0 78 -49 132t-141 54t-141.5 -54.5t-49.5 -131.5v-50z" />
<glyph unicode="&#xeb;" horiz-adv-x="999" d="M123 350v281q0 84 29.5 151.5t82 115.5t123 73.5t152.5 25.5t152.5 -25.5t123 -73.5t82 -115.5t29.5 -151.5v-43l-53 -180q-6 -18 -25 -19h-500v-78q16 -53 57.5 -95t119.5 -42l295 84q23 6 30 -18l41 -134q8 -27 -16 -32l-322 -90h-14q-82 0 -152.5 25.5t-123 73.5 t-82 115.5t-29.5 151.5zM217 1155v188q0 27 27 27h143q27 0 27 -27v-188q0 -25 -27 -25h-143q-27 0 -27 25zM319 575h381v50q0 78 -49 132t-141 54t-141.5 -54.5t-49.5 -131.5v-50zM610 1155v188q0 27 27 27h143q27 0 27 -27v-188q0 -25 -27 -25h-143q-27 0 -27 25z" />
<glyph unicode="&#xec;" horiz-adv-x="524" d="M-76 1272l53 117q12 23 33 14l377 -166q20 -8 10 -33l-26 -57q-6 -16 -25 -17h-151q-18 0 -31 7l-227 102q-23 10 -13 33zM164 25v929q0 27 24 27h148q25 0 24 -25v-931q0 -25 -26 -25h-144q-26 0 -26 25z" />
<glyph unicode="&#xed;" horiz-adv-x="524" d="M129 1204q-10 25 10 33l377 166q20 8 33 -14l53 -117q10 -23 -12 -33l-228 -102q-12 -6 -30 -7h-152q-18 0 -24 17zM164 25v929q0 27 24 27h148q25 0 24 -25v-931q0 -25 -26 -25h-144q-26 0 -26 25z" />
<glyph unicode="&#xee;" horiz-adv-x="524" d="M-35 1138.5q-4 8.5 6 18.5l273 242q18 18 37 0l272 -242q10 -10 6 -18.5t-14 -8.5h-166q-12 0 -23 11l-94 82l-94 -82q-10 -10 -23 -11h-165q-11 0 -15 8.5zM164 25v929q0 27 24 27h148q25 0 24 -25v-931q0 -25 -26 -25h-144q-26 0 -26 25z" />
<glyph unicode="&#xef;" horiz-adv-x="524" d="M-33 1155v188q0 27 27 27h143q27 0 27 -27v-188q0 -25 -27 -25h-143q-27 0 -27 25zM164 25v929q0 27 24 27h148q25 0 24 -25v-931q0 -25 -26 -25h-144q-26 0 -26 25zM360 1155v188q0 27 27 27h143q27 0 27 -27v-188q0 -25 -27 -25h-143q-27 0 -27 25z" />
<glyph unicode="&#xf0;" d="M123 350v297q0 72 25.5 132.5t71.5 104.5t107.5 68.5t135.5 28.5l-92 90h-211q-16 0 -23 19l-14 43q-8 25 14 32l105 33l-66 66q-23 18 2 39l103 96q18 18 36 0l129 -133l220 73q23 8 30 -16l37 -109q6 -23 -18 -32l-142 -45l187 -191q74 -78 105.5 -155.5t31.5 -159.5 v-281q0 -84 -29.5 -151.5t-82 -115.5t-123 -73.5t-152.5 -25.5t-152.5 25.5t-123 73.5t-82 115.5t-29.5 151.5zM319 356q0 -78 49.5 -132t141.5 -54t141 54.5t49 131.5v269q0 78 -49 132t-141 54t-141.5 -54.5t-49.5 -131.5v-269z" />
<glyph unicode="&#xf1;" horiz-adv-x="1091" d="M119 907q-8 23 16 33l135 53q12 4 19.5 2t13.5 -18l23 -55l211 75h41q80 0 146.5 -26.5t113.5 -73.5t73.5 -111.5t26.5 -138.5v-624q0 -23 -20 -23h-152q-25 0 -25 23v593q0 90 -55 137.5t-125 47.5l-201 -70v-708q0 -23 -20 -23h-152q-25 0 -24 23v770zM240 1155v131 q0 20 24 37q39 23 82 37t84 14l229 -61q41 0 83 14t83 37q10 4 17.5 0t7.5 -14v-131q0 -23 -25 -37q-39 -23 -82 -37.5t-84 -14.5l-229 62q-41 0 -83 -14.5t-83 -36.5q-10 -4 -17 0t-7 14z" />
<glyph unicode="&#xf2;" d="M123 350v281q0 84 29.5 151.5t82 115.5t123 73.5t152.5 25.5t152.5 -25.5t123 -73.5t82 -115.5t29.5 -151.5v-281q0 -84 -29.5 -151.5t-82 -115.5t-123 -73.5t-152.5 -25.5t-152.5 25.5t-123 73.5t-82 115.5t-29.5 151.5zM211 1272l53 117q12 23 33 14l377 -166 q20 -8 10 -33l-27 -57q-6 -16 -24 -17h-152q-18 0 -30 7l-228 102q-22 10 -12 33zM319 356q0 -78 49.5 -132t141.5 -54t141 54.5t49 131.5v269q0 78 -49 132t-141 54t-141.5 -54.5t-49.5 -131.5v-269z" />
<glyph unicode="&#xf3;" d="M123 350v281q0 84 29.5 151.5t82 115.5t123 73.5t152.5 25.5t152.5 -25.5t123 -73.5t82 -115.5t29.5 -151.5v-281q0 -84 -29.5 -151.5t-82 -115.5t-123 -73.5t-152.5 -25.5t-152.5 25.5t-123 73.5t-82 115.5t-29.5 151.5zM319 356q0 -78 49.5 -132t141.5 -54t141 54.5 t49 131.5v269q0 78 -49 132t-141 54t-141.5 -54.5t-49.5 -131.5v-269zM334 1204q-10 25 10 33l377 166q20 8 33 -14l53 -117q10 -23 -12 -33l-228 -102q-12 -6 -30 -7h-152q-18 0 -25 17z" />
<glyph unicode="&#xf4;" d="M123 350v281q0 84 29.5 151.5t82 115.5t123 73.5t152.5 25.5t152.5 -25.5t123 -73.5t82 -115.5t29.5 -151.5v-281q0 -84 -29.5 -151.5t-82 -115.5t-123 -73.5t-152.5 -25.5t-152.5 25.5t-123 73.5t-82 115.5t-29.5 151.5zM213 1138.5q-4 8.5 6 18.5l273 242q18 18 36 0 l273 -242q10 -10 6 -18.5t-14 -8.5h-166q-12 0 -23 11l-94 82l-94 -82q-10 -10 -23 -11h-166q-10 0 -14 8.5zM319 356q0 -78 49.5 -132t141.5 -54t141 54.5t49 131.5v269q0 78 -49 132t-141 54t-141.5 -54.5t-49.5 -131.5v-269z" />
<glyph unicode="&#xf5;" d="M123 350v281q0 84 29.5 151.5t82 115.5t123 73.5t152.5 25.5t152.5 -25.5t123 -73.5t82 -115.5t29.5 -151.5v-281q0 -84 -29.5 -151.5t-82 -115.5t-123 -73.5t-152.5 -25.5t-152.5 25.5t-123 73.5t-82 115.5t-29.5 151.5zM205 1155v131q0 20 24 37q39 23 82 37t84 14 l230 -61q41 0 83 14t83 37q10 4 17 0t7 -14v-131q0 -23 -24 -37q-39 -23 -82 -37.5t-84 -14.5l-230 62q-41 0 -83 -14.5t-83 -36.5q-10 -4 -17 0t-7 14zM319 356q0 -78 49.5 -132t141.5 -54t141 54.5t49 131.5v269q0 78 -49 132t-141 54t-141.5 -54.5t-49.5 -131.5v-269z " />
<glyph unicode="&#xf6;" d="M123 350v281q0 84 29.5 151.5t82 115.5t123 73.5t152.5 25.5t152.5 -25.5t123 -73.5t82 -115.5t29.5 -151.5v-281q0 -84 -29.5 -151.5t-82 -115.5t-123 -73.5t-152.5 -25.5t-152.5 25.5t-123 73.5t-82 115.5t-29.5 151.5zM215 1155v188q0 27 27 27h143q27 0 27 -27v-188 q0 -25 -27 -25h-143q-27 0 -27 25zM319 356q0 -78 49.5 -132t141.5 -54t141 54.5t49 131.5v269q0 78 -49 132t-141 54t-141.5 -54.5t-49.5 -131.5v-269zM608 1155v188q0 27 27 27h143q27 0 27 -27v-188q0 -25 -27 -25h-143q-27 0 -27 25z" />
<glyph unicode="&#xf7;" horiz-adv-x="1347" d="M205 606v144q0 27 24 26h887q27 0 27 -24v-148q0 -25 -25 -24h-889q-24 -1 -24 26zM575 172v188q0 27 27 27h143q27 0 27 -27v-188q0 -25 -27 -25h-143q-27 0 -27 25zM575 993v189q0 27 27 26h143q27 0 27 -26v-189q0 -25 -27 -24h-143q-27 -1 -27 24z" />
<glyph unicode="&#xf8;" d="M123 350v281q0 84 29.5 151.5t82 115.5t123 73.5t152.5 25.5q35 0 69.5 -5t65.5 -15l45 100q12 27 27 27h114q25 0 15 -27l-74 -168q59 -47 92 -117.5t33 -160.5v-281q0 -84 -29.5 -151.5t-82 -115.5t-123 -73.5t-152.5 -25.5q-37 0 -70.5 5t-66.5 15l-45 -102 q-10 -25 -33 -25h-105q-29 0 -18 25l76 170q-57 47 -91 117.5t-34 160.5zM319 356q0 -49 17 -84l233 531q-25 8 -59 8q-92 0 -141.5 -54.5t-49.5 -131.5v-269zM449 176q27 -6 61 -6q92 0 141 54.5t49 131.5v269q0 43 -18 84z" />
<glyph unicode="&#xf9;" horiz-adv-x="1091" d="M154 334v624q0 23 20 23h152q25 0 24 -23v-593q0 -90 55.5 -137.5t124.5 -47.5l201 70v708q0 23 21 23h151q25 0 25 -23v-770l45 -114q8 -23 -17 -33l-135 -53q-12 -4 -19 -2t-14 18l-22 55l-211 -75h-41q-80 0 -146.5 26.5t-113.5 73.5t-73.5 111.5t-26.5 138.5z M227 1272l54 117q12 23 32 14l377 -166q20 -8 10 -33l-26 -57q-6 -16 -25 -17h-151q-18 0 -31 7l-227 102q-23 10 -13 33z" />
<glyph unicode="&#xfa;" horiz-adv-x="1091" d="M154 334v624q0 23 20 23h152q25 0 24 -23v-593q0 -90 55.5 -137.5t124.5 -47.5l201 70v708q0 23 21 23h151q25 0 25 -23v-770l45 -114q8 -23 -17 -33l-135 -53q-12 -4 -19 -2t-14 18l-22 55l-211 -75h-41q-80 0 -146.5 26.5t-113.5 73.5t-73.5 111.5t-26.5 138.5z M391 1204q-10 25 10 33l377 166q20 8 33 -14l53 -117q10 -23 -12 -33l-227 -102q-12 -6 -31 -7h-152q-18 0 -24 17z" />
<glyph unicode="&#xfb;" horiz-adv-x="1091" d="M154 334v624q0 23 20 23h152q25 0 24 -23v-593q0 -90 55.5 -137.5t124.5 -47.5l201 70v708q0 23 21 23h151q25 0 25 -23v-770l45 -114q8 -23 -17 -33l-135 -53q-12 -4 -19 -2t-14 18l-22 55l-211 -75h-41q-80 0 -146.5 26.5t-113.5 73.5t-73.5 111.5t-26.5 138.5z M248 1138.5q-4 8.5 6 18.5l272 242q18 18 37 0l273 -242q10 -10 6 -18.5t-15 -8.5h-165q-12 0 -23 11l-94 82l-94 -82q-10 -10 -23 -11h-166q-10 0 -14 8.5z" />
<glyph unicode="&#xfc;" horiz-adv-x="1091" d="M154 334v624q0 23 20 23h152q25 0 24 -23v-593q0 -90 55.5 -137.5t124.5 -47.5l201 70v708q0 23 21 23h151q25 0 25 -23v-770l45 -114q8 -23 -17 -33l-135 -53q-12 -4 -19 -2t-14 18l-22 55l-211 -75h-41q-80 0 -146.5 26.5t-113.5 73.5t-73.5 111.5t-26.5 138.5z M250 1155v188q0 27 26 27h144q27 0 26 -27v-188q0 -25 -26 -25h-144q-26 0 -26 25zM643 1155v188q0 27 27 27h143q27 0 27 -27v-188q0 -25 -27 -25h-143q-27 0 -27 25z" />
<glyph unicode="&#xfd;" horiz-adv-x="952" d="M33 934q-10 27 18 33l144 39q23 6 30 -21l269 -670l217 637q10 29 39 29h145q33 0 23 -33l-394 -1110q-41 -117 -123 -178t-194 -82q-27 -4 -33 19l-41 137q-6 27 17 33q61 12 119.5 38.5t80.5 88.5l45 120zM342 1204q-10 25 10 33l377 166q20 8 33 -14l53 -117 q10 -23 -12 -33l-228 -102q-12 -6 -30 -7h-152q-18 0 -24 17z" />
<glyph unicode="&#xfe;" horiz-adv-x="1060" d="M164 -383v1745q0 10 7 17t17 7h148q10 0 17 -7t7 -17v-428l177 63h41q80 0 146.5 -26.5t113.5 -73.5t73.5 -111.5t26.5 -138.5v-297q0 -84 -29.5 -151.5t-82 -115.5t-123 -73.5t-152.5 -25.5q-121 0 -191 55v-422q0 -23 -20 -23h-152q-24 0 -24 23zM360 356 q0 -78 49.5 -132t141.5 -54t141 54.5t49 131.5v260q0 90 -55 137.5t-125 47.5l-201 -70v-375z" />
<glyph unicode="&#xff;" horiz-adv-x="952" d="M33 934q-10 27 18 33l144 39q23 6 30 -21l269 -670l217 637q10 29 39 29h145q33 0 23 -33l-394 -1110q-41 -117 -123 -178t-194 -82q-27 -4 -33 19l-41 137q-6 27 17 33q61 12 119.5 38.5t80.5 88.5l45 120zM182 1155v188q0 27 27 27h143q27 0 27 -27v-188q0 -25 -27 -25 h-143q-27 0 -27 25zM575 1155v188q0 27 27 27h143q27 0 27 -27v-188q0 -25 -27 -25h-143q-27 0 -27 25z" />
<glyph unicode="&#x152;" horiz-adv-x="1906" d="M143 465v457q0 94 34 179t89.5 148.5t129 100t153.5 36.5h272q33 0 58 -24l104 -105v103q0 12 7 19t18 7h710q25 0 25 -26v-146q0 -25 -25 -24h-538v-393l77 24q20 6 45 9.5t48 3.5h288q25 0 25 -25v-145q0 -27 -25 -27h-305l-153 -45v-395h579q25 0 25 -25v-147 q0 -25 -25 -25h-751q-25 0 -25 25v65q-45 -43 -99.5 -66.5t-109.5 -23.5h-225q-80 0 -153.5 37t-129 100.5t-89.5 147.5t-34 180zM340 481q0 -53 17.5 -104t47 -91t70.5 -64.5t88 -24.5h197q47 0 88 24.5t70.5 64.5t47 91t17.5 104v502l-207 207h-213q-47 0 -88 -24.5 t-70.5 -64.5t-47 -91.5t-17.5 -104.5v-424z" />
<glyph unicode="&#x153;" horiz-adv-x="1576" d="M123 350v281q0 84 29.5 151.5t82 115.5t123 73.5t152.5 25.5q92 0 166 -33.5t123 -93.5q47 59 120.5 93t167.5 34q82 0 153 -25.5t123 -73.5t82 -115.5t30 -151.5v-43l-54 -180q-6 -18 -24 -19h-500v-78q16 -53 57 -95t119 -42l295 84q23 6 31 -18l41 -134q8 -27 -17 -32 l-321 -90h-15q-94 0 -167.5 32.5t-120.5 92.5q-49 -59 -123 -92t-166 -33q-82 0 -152.5 25.5t-123 73.5t-82 115.5t-29.5 151.5zM319 356q0 -78 49.5 -132t141.5 -54t141 54.5t49 131.5v269q0 78 -49 132t-141 54t-141.5 -54.5t-49.5 -131.5v-269zM897 575h381v50 q0 78 -49 132t-142 54q-92 0 -141 -54.5t-49 -131.5v-50z" />
<glyph unicode="&#x178;" horiz-adv-x="1028" d="M29 1303q-12 23 12 36l131 64q23 10 35 -14l309 -629l307 629q12 27 37 14l129 -64q23 -12 10 -36l-387 -756v-520q0 -27 -26 -27h-144q-27 0 -26 27v520zM219 1561v188q0 27 27 27h143q27 0 27 -27v-188q0 -25 -27 -25h-143q-27 0 -27 25zM612 1561v188q0 27 27 27h143 q27 0 27 -27v-188q0 -25 -27 -25h-143q-27 0 -27 25z" />
<glyph unicode="&#x2c6;" horiz-adv-x="1007" d="M207 1138.5q-4 8.5 6 18.5l272 242q18 18 37 0l273 -242q10 -10 6 -18.5t-15 -8.5h-165q-12 0 -23 11l-94 82l-94 -82q-10 -10 -23 -11h-166q-10 0 -14 8.5z" />
<glyph unicode="&#x2dc;" d="M205 1155v131q0 20 24 37q39 23 82 37t84 14l230 -61q41 0 83 14t83 37q10 4 17 0t7 -14v-131q0 -23 -24 -37q-39 -23 -82 -37.5t-84 -14.5l-230 62q-41 0 -83 -14.5t-83 -36.5q-10 -4 -17 0t-7 14z" />
<glyph unicode="&#x2000;" horiz-adv-x="913" />
<glyph unicode="&#x2001;" horiz-adv-x="1826" />
<glyph unicode="&#x2002;" horiz-adv-x="913" />
<glyph unicode="&#x2003;" horiz-adv-x="1826" />
<glyph unicode="&#x2004;" horiz-adv-x="608" />
<glyph unicode="&#x2005;" horiz-adv-x="456" />
<glyph unicode="&#x2006;" horiz-adv-x="303" />
<glyph unicode="&#x2007;" horiz-adv-x="303" />
<glyph unicode="&#x2008;" horiz-adv-x="227" />
<glyph unicode="&#x2009;" horiz-adv-x="364" />
<glyph unicode="&#x200a;" horiz-adv-x="100" />
<glyph unicode="&#x2010;" horiz-adv-x="581" d="M61 590v78q0 18 17 24l135 60q16 8 29 8h254q25 0 24 -25v-145q0 -27 -24 -27h-412q-23 0 -23 27z" />
<glyph unicode="&#x2011;" horiz-adv-x="581" d="M61 590v78q0 18 17 24l135 60q16 8 29 8h254q25 0 24 -25v-145q0 -27 -24 -27h-412q-23 0 -23 27z" />
<glyph unicode="&#x2012;" horiz-adv-x="581" d="M61 590v78q0 18 17 24l135 60q16 8 29 8h254q25 0 24 -25v-145q0 -27 -24 -27h-412q-23 0 -23 27z" />
<glyph unicode="&#x2013;" horiz-adv-x="1122" d="M92 590v78q0 18 17 24l176 60q10 4 21 6t18 2h680q27 0 26 -25v-147q0 -25 -24 -25h-889q-25 0 -25 27z" />
<glyph unicode="&#x2014;" horiz-adv-x="1552" d="M92 590v78q0 18 17 24l176 60q10 4 21 6t18 2h1110q27 0 26 -25v-147q0 -25 -24 -25h-1319q-25 0 -25 27z" />
<glyph unicode="&#x2018;" horiz-adv-x="495" d="M123 887v203q0 25 6 43l76 229q8 25 31 24h145q14 0 18 -9t0 -21l-80 -242v-227q0 -27 -26 -27h-143q-27 0 -27 27z" />
<glyph unicode="&#x2019;" horiz-adv-x="495" d="M96 869.5q-4 9.5 0 21.5l80 242v227q0 27 27 26h143q27 0 27 -26v-203q0 -25 -6 -43l-76 -229q-4 -12 -10.5 -18.5t-20.5 -6.5h-145q-15 0 -19 9.5z" />
<glyph unicode="&#x201a;" horiz-adv-x="495" d="M96 -256l80 242v227q0 27 27 27h143q27 0 27 -27v-203q0 -25 -6 -43l-76 -229q-4 -12 -10.5 -18.5t-20.5 -6.5h-145q-14 0 -18.5 9.5t-0.5 21.5z" />
<glyph unicode="&#x201c;" horiz-adv-x="888" d="M123 887v203q0 25 6 43l76 229q8 25 31 24h145q14 0 18 -9t0 -21l-80 -242v-227q0 -27 -26 -27h-143q-27 0 -27 27zM516 887v203q0 25 6 43l76 229q8 25 31 24h145q14 0 18.5 -9t0.5 -21l-80 -242v-227q0 -27 -27 -27h-143q-27 0 -27 27z" />
<glyph unicode="&#x201d;" horiz-adv-x="888" d="M96 869.5q-4 9.5 0 21.5l80 242v227q0 27 27 26h143q27 0 27 -26v-203q0 -25 -6 -43l-76 -229q-4 -12 -10.5 -18.5t-20.5 -6.5h-145q-15 0 -19 9.5zM489.5 869.5q-4.5 9.5 -0.5 21.5l80 242v227q0 27 27 26h143q27 0 27 -26v-203q0 -25 -6 -43l-76 -229q-4 -12 -10 -18.5 t-21 -6.5h-145q-14 0 -18.5 9.5z" />
<glyph unicode="&#x201e;" horiz-adv-x="888" d="M96 -256l80 242v227q0 27 27 27h143q27 0 27 -27v-203q0 -25 -6 -43l-76 -229q-4 -12 -10.5 -18.5t-20.5 -6.5h-145q-14 0 -18.5 9.5t-0.5 21.5zM489 -256l80 242v227q0 27 27 27h143q27 0 27 -27v-203q0 -25 -6 -43l-76 -229q-4 -12 -10 -18.5t-21 -6.5h-145 q-14 0 -18.5 9.5t-0.5 21.5z" />
<glyph unicode="&#x2022;" horiz-adv-x="917" d="M143 733q0 66 25 123t68 100t100 68t123 25t123 -25t100 -68t67.5 -100t24.5 -123t-24.5 -123t-67.5 -100t-100.5 -67.5t-122.5 -24.5q-66 0 -123 24.5t-100 67.5t-68 100t-25 123z" />
<glyph unicode="&#x2026;" horiz-adv-x="1511" d="M154 25v188q0 27 26 27h144q27 0 26 -27v-188q0 -25 -26 -25h-144q-26 0 -26 25zM657 25v188q0 27 27 27h143q27 0 27 -27v-188q0 -25 -27 -25h-143q-27 0 -27 25zM1161 25v188q0 27 27 27h143q27 0 27 -27v-188q0 -25 -27 -25h-143q-27 0 -27 25z" />
<glyph unicode="&#x202f;" horiz-adv-x="364" />
<glyph unicode="&#x2039;" horiz-adv-x="843" d="M109 522q-10 10 0 21l426 426q12 12 28 12h103q14 0 14 -12v-105q0 -20 -10 -30l-310 -302l310 -299q10 -10 10 -30v-105q0 -14 -14 -14h-103q-14 0 -28 14z" />
<glyph unicode="&#x203a;" horiz-adv-x="843" d="M164 98v105q0 20 10 30l309 299l-309 302q-10 10 -10 30v105q0 12 14 12h103q16 0 28 -12l426 -426q10 -10 0 -21l-426 -424q-14 -14 -28 -14h-103q-14 0 -14 14z" />
<glyph unicode="&#x205f;" horiz-adv-x="456" />
<glyph unicode="&#x20ac;" horiz-adv-x="1228" d="M102 426v135q0 27 25 27h160v180h-160q-25 0 -25 27v135q0 27 25 26h162q6 92 48 174t106.5 143.5t144.5 97.5t164 36h12l323 -98q23 -6 17 -31l-41 -141q-4 -10 -11.5 -15.5t-21.5 -1.5l-293 90q-43 -4 -84 -26.5t-74.5 -56t-58 -77.5t-33.5 -94h342q27 0 27 -24v-139 q0 -25 -25 -25h-348v-180h346q27 0 27 -25v-139q0 -25 -25 -25h-335q12 -45 36.5 -84t57.5 -68.5t70.5 -48t76.5 -22.5l293 90q14 4 21.5 -1t11.5 -15l41 -141q6 -25 -17 -31l-323 -98h-12q-80 0 -158 32.5t-140.5 89t-106.5 133t-56 164.5h-164q-25 0 -25 27z" />
<glyph unicode="&#x2122;" horiz-adv-x="1660" d="M123 1284v86q0 16 16 16h498q16 0 16 -16v-86q0 -16 -16 -16h-191v-471q0 -16 -14 -17h-90q-14 0 -14 17v471h-191q-14 0 -14 16zM807 797v542q0 10 10 15l86 43q14 6 21 -8l229 -365l219 352q6 10 14 10h95q16 0 16 -16v-573q0 -16 -16 -17h-86q-16 0 -17 17v366 l-211 -340q-6 -10 -16 -10q-8 0 -14 10l-211 340v-366q0 -16 -17 -17h-86q-16 1 -16 17z" />
<glyph unicode="&#xe000;" horiz-adv-x="1004" d="M0 1005h1005v-1005h-1005v1005z" />
<glyph unicode="&#xfb01;" horiz-adv-x="1198" d="M51 809v145q0 27 27 27h115v72q0 84 30.5 149.5t82.5 109.5t123 67.5t149 23.5h14l104 -33q18 -6 19 -24v-162q0 -10 -8.5 -15.5t-18.5 -1.5l-131 39q-68 0 -111 -36.5t-57 -98.5v-90h209q25 0 25 -23v-151q0 -23 -23 -23h-211v-761q0 -23 -22 -23h-152q-23 0 -22 23v761 h-115q-27 0 -27 25zM838 25v929q0 27 24 27h148q25 0 24 -25v-931q0 -25 -26 -25h-144q-26 0 -26 25zM838 1171v189q0 27 26 26h144q27 0 26 -26v-189q0 -25 -26 -24h-144q-26 -1 -26 24z" />
<glyph unicode="&#xfb02;" horiz-adv-x="1198" d="M51 809v145q0 27 27 27h115v72q0 84 30.5 149.5t82.5 109.5t123 67.5t149 23.5h14l104 -33q18 -6 19 -24v-162q0 -10 -8.5 -15.5t-18.5 -1.5l-131 39q-68 0 -111 -36.5t-57 -98.5v-90h209q25 0 25 -23v-151q0 -23 -23 -23h-211v-761q0 -23 -22 -23h-152q-23 0 -22 23v761 h-115q-27 0 -27 25zM838 25v1335q0 27 26 26h144q27 0 26 -26v-1335q0 -25 -26 -25h-144q-26 0 -26 25z" />
<glyph unicode="&#xfb03;" horiz-adv-x="1871" d="M1512 25v929q0 27 24 27h148q25 0 24 -25v-931q0 -25 -26 -25h-144q-26 0 -26 25zM1512 1171v189q0 27 26 26h144q27 0 26 -26v-189q0 -25 -26 -24h-144q-26 -1 -26 24zM725 809v145q0 27 27 27h115v72q0 84 30.5 149.5t82.5 109.5t123 67.5t149 23.5h14l170 -53 q14 -5 14 -16q0 -4 -2 -9l-45 -147q-6 -20 -27 -15l-145 43q-68 0 -111 -36.5t-57 -98.5v-90h209q25 0 25 -23v-151q0 -23 -23 -23h-211v-761q0 -23 -22 -23h-152q-23 0 -22 23v761h-115q-27 0 -27 25zM51 809v145q0 27 27 27h115v72q0 84 30.5 149.5t82.5 109.5t123 67.5 t149 23.5h14l170 -53q14 -5 14 -16q0 -4 -2 -9l-45 -147q-6 -20 -27 -15l-145 43q-68 0 -111 -36.5t-57 -98.5v-90h209q25 0 25 -23v-151q0 -23 -23 -23h-211v-761q0 -23 -22 -23h-152q-23 0 -22 23v761h-115q-27 0 -27 25z" />
<glyph unicode="&#xfb04;" horiz-adv-x="1871" d="M1512 25v1335q0 27 26 26h144q27 0 26 -26v-1335q0 -25 -26 -25h-144q-26 0 -26 25zM725 809v145q0 27 27 27h115v72q0 84 30.5 149.5t82.5 109.5t123 67.5t149 23.5h14l170 -53q14 -5 14 -16q0 -4 -2 -9l-45 -147q-6 -20 -27 -15l-145 43q-68 0 -111 -36.5t-57 -98.5 v-90h209q25 0 25 -23v-151q0 -23 -23 -23h-211v-761q0 -23 -22 -23h-152q-23 0 -22 23v761h-115q-27 0 -27 25zM51 809v145q0 27 27 27h115v72q0 84 30.5 149.5t82.5 109.5t123 67.5t149 23.5h14l170 -53q14 -5 14 -16q0 -4 -2 -9l-45 -147q-6 -20 -27 -15l-145 43 q-68 0 -111 -36.5t-57 -98.5v-90h209q25 0 25 -23v-151q0 -23 -23 -23h-211v-761q0 -23 -22 -23h-152q-23 0 -22 23v761h-115q-27 0 -27 25z" />
</font>
</defs>
</svg>
