<?xml version="1.0" standalone="no"?>
<!DOCTYPE svg PUBLIC "-//W3C//DTD SVG 1.1//EN" "http://www.w3.org/Graphics/SVG/1.1/DTD/svg11.dtd" >
<svg xmlns="http://www.w3.org/2000/svg">
<metadata>
This is a custom SVG webfont generated by Font Squirrel.
Copyright   : Original Typeface drawn by Daniel Drnemann at loyalkaspar and Digitized by Alan Greene with FontShop
Foundry     : Daniel Drnemann loyalkaspar
</metadata>
<defs>
<font id="XDRALightItalicRegular" horiz-adv-x="1134" >
<font-face units-per-em="2048" ascent="1536" descent="-512" />
<missing-glyph horiz-adv-x="491" />
<glyph unicode=" "  horiz-adv-x="491" />
<glyph unicode="&#x09;" horiz-adv-x="491" />
<glyph unicode="&#xa0;" horiz-adv-x="491" />
<glyph unicode="!" horiz-adv-x="493" d="M123 23l20 114q4 12 10.5 19.5t24.5 7.5h51q27 0 21 -27l-21 -114q-2 -12 -6 -17.5t-22 -5.5h-51q-16 0 -22.5 3.5t-4.5 19.5zM184 369l176 991q2 12 8.5 19t24.5 7h51q16 0 20.5 -5t2.5 -21l-176 -991q-2 -12 -7 -17.5t-24 -5.5h-51q-16 0 -22.5 3.5t-2.5 19.5z" />
<glyph unicode="&#x22;" horiz-adv-x="739" d="M225 883l86 477q2 12 8.5 19t22.5 7h53q25 0 23 -26l-86 -477q-2 -12 -7.5 -17.5t-21.5 -5.5h-53q-14 0 -20.5 3.5t-4.5 19.5zM571 883l86 477q2 12 8.5 19t22.5 7h51q27 0 25 -26l-86 -477q-2 -12 -7 -17.5t-24 -5.5h-51q-16 0 -21.5 3.5t-3.5 19.5z" />
<glyph unicode="#" horiz-adv-x="1239" d="M125 442l10 58q2 27 29 26h198l127 303h-192q-23 0 -21 27l11 57q6 27 28 27h222l182 428q10 18 22 18h78q20 0 10 -18l-182 -428h246l182 428q10 18 25 18h78q20 0 10 -18l-182 -428h170q10 0 17 -7t3 -18l-10 -61q-4 -25 -27 -25h-201l-127 -303h193q25 0 20 -24 l-12 -62q-4 -25 -26 -24h-222l-166 -391q-12 -25 -26 -25h-72q-29 0 -14 25l166 391h-246l-166 -391q-12 -25 -27 -25h-71q-27 0 -12 25l165 391h-172q-24 -1 -18 26zM473 526h246l127 303h-246z" />
<glyph unicode="$" horiz-adv-x="1138" d="M147 309q-6 25 15 37l43 27q25 16 35 -6q41 -98 113.5 -146.5t185.5 -48.5q147 0 233 66.5t109 191.5q10 59 -13.5 111.5t-93.5 79.5l-504 184l9 43q23 117 66.5 205t100 147.5t120 90t124.5 34.5l35 199q2 12 8 19t25 7h51q16 0 20.5 -5t1.5 -21l-40 -224l229 -71 q23 -6 12 -33l-18 -57q-4 -14 -12.5 -16.5t-20.5 1.5l-287 90q-96 -6 -177 -89t-122 -248l432 -158q102 -37 140.5 -119t19.5 -184q-16 -86 -55 -149.5t-94.5 -107.5t-123 -67.5t-141.5 -30.5l-36 -202q-2 -23 -31 -23h-51q-16 0 -21.5 3t-3.5 20l37 207q-117 16 -200 80.5 t-120 162.5z" />
<glyph unicode="%" horiz-adv-x="1548" d="M195 25l1134 1335q18 27 35 26h86q12 0 12 -8t-8 -18l-1135 -1335q-12 -14 -20 -19.5t-20 -5.5h-76q-33 0 -8 25zM274 956l37 209q20 115 102.5 176.5t190.5 61.5q53 0 97 -19.5t74 -54.5t42 -83t2 -105l-37 -209q-20 -115 -102 -176.5t-191 -61.5q-53 0 -97 19.5 t-73.5 54.5t-42 83t-2.5 105zM371 952q-14 -74 23.5 -116.5t109.5 -42.5t122 44t62 115l35 193q14 74 -23.5 117t-109.5 43t-122 -44t-62 -116zM827 246l37 209q20 115 102.5 176t190.5 61q53 0 97 -19.5t74 -54t42 -83t2 -105.5l-37 -209q-20 -115 -102 -176t-191 -61 q-53 0 -97 19.5t-73.5 54t-42 83t-2.5 105.5zM924 242q-14 -74 23.5 -117t109.5 -43t122 44t62 116l35 192q14 74 -24 117t-109 43q-72 0 -122 -44t-63 -116z" />
<glyph unicode="&#x26;" horiz-adv-x="1310" d="M115 395q12 70 45 130.5t79 112.5t104 94t122 73l-148 172q-6 8 -7 28.5t3 41.5q16 94 57.5 161.5t100.5 111.5t133 65.5t156 21.5h22l308 -98q23 -6 12 -33l-19 -57q-10 -23 -34 -17l-295 94q-78 0 -136.5 -20.5t-99.5 -57t-64.5 -88t-31.5 -108.5l809 -926q8 -8 4 -30 l-6 -41q-6 -25 -27 -25h-22q-14 0 -25 12l-209 240q-59 -127 -181 -199.5t-282 -72.5q-96 0 -171.5 31.5t-125 88t-68.5 132t-3 163.5zM225 389q-25 -135 50 -217t219 -82q66 0 126 18.5t109 52.5t85 80t54 101l-331 379q-47 -18 -97.5 -50t-94.5 -74t-77 -94.5t-43 -113.5z " />
<glyph unicode="'" horiz-adv-x="393" d="M225 883l86 477q2 12 8.5 19t22.5 7h53q25 0 23 -26l-86 -477q-2 -12 -7.5 -17.5t-21.5 -5.5h-53q-14 0 -20.5 3.5t-4.5 19.5z" />
<glyph unicode="(" horiz-adv-x="593" d="M115.5 313q-11.5 129 13.5 277q27 147 84 275t135 245l320 465q18 25 34 14l50 -41q18 -12 6 -37l-334 -487q-72 -106 -116 -212.5t-66 -233.5q-23 -127 -17 -234.5t41 -214.5l162 -487q2 -25 -18 -37l-60 -17q-20 -10 -31 15l-155 465q-37 116 -48.5 245z" />
<glyph unicode=")" horiz-adv-x="593" d="M-98 -334l331 488q72 106 115 213.5t66 234.5t17.5 233.5t-40.5 213.5l-162 487q-6 23 19 37l57 16q20 8 31 -14l156 -465q39 -117 50 -245t-16 -275q-25 -147 -82 -276.5t-137 -245.5l-319 -465q-16 -23 -35 -15l-45 41q-20 14 -6 37z" />
<glyph unicode="*" horiz-adv-x="849" d="M188 850q-14 27 9 39l239 127l-196 133q-6 6 -6.5 16.5t4.5 16.5l32 43q4 6 16.5 8t18.5 -2l195 -131l47 260q4 27 28 26h43q25 0 21 -24l-47 -262l242 131q8 4 19 2t13 -8l17 -43q4 -6 0 -16.5t-15 -16.5l-245 -133l198 -127q8 -6 8 -14.5t-12 -24.5l-24 -31 q-16 -29 -31 -12l-199 127l-45 -258q-6 -25 -31 -25h-38q-29 0 -23 25l45 258l-242 -127q-23 -16 -28 12z" />
<glyph unicode="+" horiz-adv-x="1306" d="M240 649l10 58q6 27 31 26h376l68 387q4 27 29 27h59q23 0 18 -25l-67 -389h377q10 0 16 -7t4 -17l-12 -62q-4 -25 -27 -24h-379l-67 -390q-6 -25 -31 -24h-55q-27 0 -21 24l68 390h-377q-22 -1 -20 26z" />
<glyph unicode="," horiz-adv-x="452" d="M-13 -276.5q-3 10.5 5 24.5l100 209l31 180q4 12 10 19.5t25 7.5h51q29 0 22 -27l-32 -186q-4 -23 -13 -39l-82 -176q-12 -23 -32 -23h-66q-16 0 -19 10.5z" />
<glyph unicode="-" horiz-adv-x="563" d="M100 647l2 12q4 18 21 25l94 39q18 8 33 8h287q25 0 18 -24l-10 -60q-6 -27 -27 -26h-399q-23 -1 -19 26z" />
<glyph unicode="." horiz-adv-x="452" d="M102 23l21 114q4 12 10 19.5t25 7.5h51q29 0 22 -27l-20 -114q-2 -12 -7 -17.5t-24 -5.5h-51q-16 0 -22.5 3.5t-4.5 19.5z" />
<glyph unicode="/" horiz-adv-x="811" d="M-131 -221l948 1581q14 27 31 26h82q20 0 8 -26l-948 -1581q-14 -25 -37 -25h-70q-28 0 -14 25z" />
<glyph unicode="0" horiz-adv-x="1236" d="M180 469l86 487q18 106 67.5 189.5t118 142t152.5 89t172 30.5q98 0 177 -37t131.5 -102.5t73 -155.5t1.5 -194l-86 -488q-18 -106 -67.5 -189t-118 -141.5t-152.5 -89t-172 -30.5q-98 0 -177 36.5t-131 102t-72.5 156t-2.5 194.5zM284.5 313.5q12.5 -67.5 49.5 -118 t98.5 -78t145.5 -27.5q70 0 134 25.5t116.5 74t89 117t53.5 154.5l82 465q14 80 1.5 147.5t-49 117.5t-98 77.5t-145.5 27.5q-72 0 -136.5 -25.5t-116.5 -73.5t-89 -116.5t-51 -154.5l-82 -465q-15 -80 -2.5 -147.5z" />
<glyph unicode="1" horiz-adv-x="954" d="M106 27l11 57q2 27 26 27h285l209 1181l-287 -90q-20 -6 -24 15l-13 59q-6 25 21 33l319 98q10 0 23 -8l61 -41q16 -8 13 -25l-215 -1222h301q25 0 20 -25l-10 -61q-6 -25 -27 -25h-694q-25 0 -19 27z" />
<glyph unicode="2" horiz-adv-x="1132" d="M88 70q-10 20 4 34l713 635q66 57 111 128t57 141q8 51 -1 102t-39 92t-79 67.5t-117 26.5q-113 0 -196.5 -51t-147.5 -143q-14 -23 -37 -10l-45 32q-25 10 -4 37q29 45 72 90t98 79t124 55.5t149 21.5t146.5 -32t111.5 -88t64.5 -134t2.5 -168q-18 -98 -71.5 -177 t-124.5 -142l-623 -555h641q20 0 16 -23l-12 -65q-4 -23 -27 -23h-716q-6 0 -14.5 2t-12.5 6z" />
<glyph unicode="3" horiz-adv-x="1150" d="M121 127l16 59q4 8 13.5 14.5t21.5 2.5l320 -113q78 0 140 21.5t109 60.5t77 90t40 113q10 57 0 110.5t-42 96.5t-84 69.5t-128 30.5l-160 -51q-23 -6 -28 18l-15 53q-6 25 19 31l403 129q6 2 20.5 14.5t31 34t31 52t22.5 71.5q8 51 0 98.5t-35 84t-72 58t-108 21.5 q-98 0 -176 -39.5t-144 -128.5q-20 -20 -37 -10l-45 31q-20 10 -4 37q61 90 166 155.5t254 65.5q78 0 140.5 -29.5t104.5 -82t57 -124t1 -157.5q-10 -55 -30.5 -97.5t-42 -72t-39 -45t-21.5 -17.5l-131 -41q63 -18 106 -58t66 -92t29 -112.5t-4 -118.5q-33 -180 -160 -280 t-311 -100h-25l-336 116q-20 6 -10 31z" />
<glyph unicode="4" horiz-adv-x="1048" d="M141 535l348 827q10 25 31 24h70q12 0 15 -8t-1 -18l-338 -801h512l142 801q4 27 30 26h58q25 0 20 -26l-235 -1335q-6 -25 -29 -25h-59q-10 0 -16.5 7t-4.5 18l74 424h-498q-16 0 -29 8l-86 49q-14 9 -4 29z" />
<glyph unicode="5" horiz-adv-x="1124" d="M117 109l18 59q10 25 35 16l281 -94q100 0 174.5 25.5t127 69.5t84 105.5t44.5 135.5q12 74 2.5 141.5t-42 118.5t-87 81t-131.5 28l-334 -127l-39 12q-23 6 -17 27l191 651q10 29 39 28h600q25 0 20 -24l-12 -62q-4 -25 -31 -24h-514q-14 0 -20 -19l-133 -444l241 92h25 q98 0 171 -39t118 -106.5t60.5 -157.5t-3.5 -190q-35 -199 -170 -315.5t-369 -116.5h-22l-299 98q-18 8 -8 31z" />
<glyph unicode="6" horiz-adv-x="1138" d="M177.5 274.5q-15.5 90.5 2.5 194.5l86 487q18 106 67.5 189.5t118 142t152.5 89t172 30.5h10l297 -96q20 -6 11 -31l-21 -55q-8 -25 -35 -17l-276 88q-72 0 -136.5 -25.5t-116.5 -73.5t-89 -116.5t-51 -154.5l-29 -158l289 102h14q96 0 170 -33.5t121 -94t64.5 -145.5 t-1.5 -187q-37 -213 -161.5 -321.5t-303.5 -108.5q-98 0 -172.5 36.5t-120.5 102t-61.5 156zM280.5 313.5q8.5 -67.5 39 -118t87 -78t140.5 -27.5q137 0 228 89t120 261q25 152 -49 237t-213 83l-314 -109l-32 -190q-15 -80 -6.5 -147.5z" />
<glyph unicode="7" horiz-adv-x="894" d="M228 8q-3 8 1 19l621 1249h-578q-27 0 -22 24l12 60q4 27 31 26h590q12 0 24 -8l72 -45q16 -8 6 -28l-635 -1280q-14 -25 -31 -25h-75q-13 0 -16 8z" />
<glyph unicode="8" horiz-adv-x="1200" d="M166 233.5q-16 75.5 0 165.5q23 123 92.5 212t161.5 143l-88 34q-10 4 -17 19q-12 35 -16 97.5t10 139.5q29 162 144.5 262.5t304.5 100.5q100 0 169.5 -33t109.5 -88t52.5 -129t-2.5 -153q-18 -104 -79.5 -179t-149.5 -127l92 -36q14 -8 21 -19q29 -53 37 -132t-7 -153 q-16 -90 -57 -159.5t-103.5 -118.5t-143.5 -74.5t-175 -25.5q-102 0 -176 31.5t-119 89t-61 133zM270 379q-23 -135 51 -212t218 -77q143 0 239 77t119 212q8 43 6 79t-8 61.5t-14.5 39.5t-10.5 16l-335 134q-41 -18 -84 -49t-79 -72t-64 -94.5t-38 -114.5zM406.5 914 q7.5 -40 11.5 -42l327 -129q94 47 158 114t82 167q20 117 -41 194.5t-205 77.5q-143 0 -225 -77.5t-102 -194.5q-13 -70 -5.5 -110z" />
<glyph unicode="9" horiz-adv-x="1138" d="M143 106l21 56q8 25 35 16l276 -88q70 0 134.5 25.5t116.5 74t89 117t53 154.5l21 114l-285 -100h-14q-96 0 -170 36t-120 101.5t-62.5 157.5t2.5 207q35 205 160.5 317.5t304.5 112.5q98 0 171.5 -37t119.5 -102.5t62.5 -155.5t-1.5 -194l-86 -488q-18 -106 -67.5 -189 t-118 -141.5t-152.5 -89t-172 -30.5h-10l-297 96q-21 5 -11 30zM341 796.5q13 -67.5 47 -114.5t88 -71.5t124 -24.5l309 106l41 234q14 80 6 147.5t-38.5 117.5t-87 77.5t-140.5 27.5q-133 0 -226 -87t-122 -259q-14 -86 -1 -153.5z" />
<glyph unicode=":" horiz-adv-x="452" d="M102 23l21 114q4 12 10 19.5t25 7.5h51q29 0 22 -27l-20 -114q-2 -12 -7 -17.5t-24 -5.5h-51q-16 0 -22.5 3.5t-4.5 19.5zM248 840l20 114q2 12 8.5 19.5t24.5 7.5h51q27 0 25 -27l-21 -114q-4 -12 -9 -17.5t-23 -5.5h-52q-16 0 -22 3.5t-2 19.5z" />
<glyph unicode=";" horiz-adv-x="452" d="M-13 -276.5q-3 10.5 5 24.5l100 209l31 180q4 12 10 19.5t25 7.5h51q29 0 22 -27l-32 -186q-4 -23 -13 -39l-82 -176q-12 -23 -32 -23h-66q-16 0 -19 10.5zM248 840l20 114q2 12 8.5 19.5t24.5 7.5h51q27 0 25 -27l-21 -114q-4 -12 -9 -17.5t-23 -5.5h-52q-16 0 -22 3.5 t-2 19.5z" />
<glyph unicode="&#x3c;" horiz-adv-x="1105" d="M135 592q-8 12 4 20l465 406q14 12 29 12h47q12 0 12 -12l-8 -62q-2 -14 -16 -24l-318 -275h656q16 0 12 -14l-14 -82q-4 -14 -17 -14h-672l228 -283q6 -8 6 -24l-12 -54q0 -12 -17 -12h-39q-10 0 -14 4l-10 10z" />
<glyph unicode="=" horiz-adv-x="1306" d="M205 442l10 58q2 27 29 26h860q10 0 16 -7t4 -17l-12 -62q-4 -25 -27 -24h-862q-24 -1 -18 26zM276 856l11 57q6 27 28 27h861q10 0 17 -7t3 -18l-10 -61q-4 -25 -27 -25h-862q-23 0 -21 27z" />
<glyph unicode="&#x3e;" horiz-adv-x="1105" d="M156 561l14 82q4 14 16 14h668l-225 283q-6 8 -6 25l12 53q0 12 16 12h39q10 0 15 -4l10 -10l321 -404q8 -12 -4 -20l-465 -406q-16 -12 -28 -12h-47q-12 0 -13 12l8 62q2 14 17 24l315 275h-651q-16 0 -12 14z" />
<glyph unicode="?" horiz-adv-x="972" d="M207 1155q-8 8 0 21q80 109 197.5 170t267.5 61q84 0 150.5 -28.5t109.5 -80t59.5 -122t1.5 -156.5q-16 -94 -78.5 -166t-175.5 -139l-219 -133l-39 -211q-4 -25 -28 -25h-60q-25 0 -20 25l49 272l283 170q86 51 130 108.5t54 118.5q8 53 -1 100.5t-38 82t-76 54 t-115 19.5q-111 0 -207 -46t-157 -128q-4 -8 -16.5 -10t-18.5 2zM311 23l21 114q4 12 10 19.5t25 7.5h51q29 0 22 -27l-20 -114q-2 -12 -7 -17.5t-24 -5.5h-51q-16 0 -22.5 3.5t-4.5 19.5z" />
<glyph unicode="@" horiz-adv-x="1835" d="M197 608q23 184 89 331.5t172.5 252t248 160t313.5 55.5q184 0 319.5 -61.5t219 -171t114.5 -261t6 -331.5q-12 -94 -43.5 -177t-79 -147.5t-107.5 -108t-132 -57.5l-199 94l-270 -94h-27q-68 0 -119 26.5t-82.5 70.5t-43 102.5t1.5 120.5l53 299q27 147 124 225t238 78 q70 0 126.5 -25.5t93 -71t50 -107.5t1.5 -136l-72 -404l139 -67q53 18 95 57t73 91t50.5 114.5t29.5 128.5q25 164 -3 295t-99.5 222t-188.5 140t-270 49q-143 0 -266 -46t-216.5 -135t-156 -221t-82.5 -304q-23 -186 9 -331.5t113 -246t210 -151.5t299 -47l372 133 q27 8 35 -17l17 -49q6 -25 -15 -32l-405 -142h-19q-178 0 -323.5 55.5t-241.5 168t-138 280.5t-13 393zM688 426q-20 -111 24 -170t126 -55l249 86l70 393q8 45 2 86t-27.5 71.5t-58.5 48t-90 17.5q-106 0 -169.5 -62.5t-80.5 -160.5z" />
<glyph unicode="A" d="M-5 19q0 7 3 14l674 1335q8 18 26 18h90q14 0 19 -18l194 -1335q6 -33 -26 -33h-57q-16 0 -21.5 8t-7.5 21l-66 450h-293l-215 -61l-192 -389q-16 -29 -39 -29h-70q-19 0 -19 19zM381 549l92 29q43 12 92 12h244l-90 639z" />
<glyph unicode="B" horiz-adv-x="1222" d="M119 23l237 1341q2 10 12.5 16t20.5 6h483q70 0 124.5 -30.5t90 -82.5t49.5 -122q6 -34 6 -69q0 -38 -7 -78q-18 -104 -83 -183.5t-157 -115.5l178 -226q20 -25 14 -55q-12 -74 -53 -149.5t-98 -137t-129 -99.5t-145 -38h-517q-10 0 -20 5q-7 4 -7 11q0 3 1 7zM244 111 h415q53 0 105.5 31.5t95.5 78.5t74 101.5t41 101.5l-205 260h-426zM365 795h421q43 0 83 18t72 50t54.5 73t30.5 86q6 30 6 57q0 22 -4 42q-8 46 -30.5 81t-59.5 54.5t-82 19.5h-407z" />
<glyph unicode="C" horiz-adv-x="1173" d="M160 292q-8 42 -8 86.5t8 90.5l86 487q16 96 69.5 179.5t125 143.5t152.5 94t155 34h12l381 -127q14 -4 13 -16q0 -6 -3 -15l-23 -59q-8 -23 -30 -12l-359 118q-59 -4 -122.5 -32.5t-119 -77.5t-95.5 -115.5t-54 -144.5l-82 -465q-7 -36 -6 -71q0 -29 4 -58 q10 -63 38 -112.5t73 -79t104 -29.5h193q61 0 109 20.5t84 54t58.5 77.5t30.5 89q2 25 29 25h61q23 0 21 -25q-31 -172 -141.5 -262t-259.5 -90h-207q-74 0 -135.5 39t-103.5 103.5t-58 149.5z" />
<glyph unicode="D" horiz-adv-x="1271" d="M119 23l225 1273q2 14 21 25l116 57q16 8 29 8h403q74 0 135.5 -38.5t103.5 -103t58 -149.5q8 -42 8.5 -86.5t-8.5 -90.5l-86 -488q-16 -96 -60 -176t-104.5 -136.5t-132 -87t-145.5 -30.5h-545q-10 0 -16 5q-4 3 -4 9q0 4 2 9zM244 111h442q59 0 114.5 26.5t99.5 74.5 t77 111.5t45 137.5l82 465q7 36 7 71q0 29 -5 58q-10 63 -38 112.5t-73 79t-104 29.5h-442z" />
<glyph unicode="E" horiz-adv-x="1034" d="M119 23l237 1339q2 16 7.5 20t11.5 4h655q16 0 19.5 -9t1.5 -19l-11 -58q-4 -16 -9 -20t-17 -4h-565l-93 -522l88 26q39 12 84 13h318q16 0 18 -6.5t0 -18.5l-10 -57q-4 -18 -10 -23.5t-19 -5.5h-333l-156 -45l-92 -526h606q12 0 17 -4.5t1 -20.5l-10 -61 q-2 -10 -8 -17.5t-19 -7.5h-696q-18 0 -16 23z" />
<glyph unicode="F" horiz-adv-x="944" d="M119 23l237 1339q2 12 12.5 18t20.5 6h633q16 0 18 -9q1 -5 1 -9.5t-1 -9.5l-10 -58q-4 -16 -8 -20t-14 -4h-559l-93 -522l88 26q39 12 84 13h316q16 0 19 -6.5t1 -18.5l-10 -57q-4 -18 -10 -23.5t-19 -5.5h-333l-156 -45l-109 -614q-4 -12 -7 -17.5t-21 -5.5h-54 q-12 0 -20 3.5t-6 19.5z" />
<glyph unicode="G" horiz-adv-x="1224" d="M160 292q-8 42 -8 86.5t8 90.5l86 487q16 96 69.5 179.5t125 143.5t152.5 94t155 34h12l381 -127q14 -4 13 -16q0 -6 -3 -15l-23 -59q-8 -23 -30 -12l-359 118q-59 -4 -122.5 -32.5t-119 -77.5t-95.5 -115.5t-54 -144.5l-82 -465q-7 -36 -6 -71q0 -29 4 -58 q10 -63 38 -112.5t73 -79t104 -29.5h193q61 0 109 20.5t85 54t59.5 77.5t30.5 89l41 230h-247q-27 0 -23 24l10 60q6 27 31 26h330q29 0 22 -28l-55 -312q-31 -172 -141.5 -262t-259.5 -90h-207q-74 0 -135.5 39t-103.5 103.5t-58 149.5z" />
<glyph unicode="H" horiz-adv-x="1335" d="M119 23l237 1339q2 25 23 24h70q12 0 15 -7t1 -17l-111 -625l150 45q43 12 92 13h512l100 567q2 10 6.5 17t14.5 7h69q12 0 16.5 -7t2.5 -17l-238 -1339q-2 -10 -6 -16.5t-16 -6.5h-72q-16 0 -14 23l116 661h-528l-225 -63l-107 -598q-4 -23 -26 -23h-60q-24 0 -23 15 q0 4 1 8z" />
<glyph unicode="I" horiz-adv-x="485" d="M119 23l237 1339q4 16 8.5 20t16.5 4h70q18 0 14 -24l-238 -1339q-4 -23 -26 -23h-68q-18 0 -14 23z" />
<glyph unicode="J" horiz-adv-x="931" d="M35 100l18 56q8 27 31 18l276 -84q49 0 92.5 16.5t77 45t55 66.5t29.5 81l189 1063q2 12 10 18t18 6h64q12 0 16 -3q2 -2 2 -7t-2 -14l-192 -1086q-10 -61 -42 -116.5t-78 -95t-105.5 -63.5t-126.5 -24h-9l-313 93q-14 4 -14 16q1 6 4 14z" />
<glyph unicode="K" horiz-adv-x="1140" d="M119 23l237 1339q2 16 9.5 20t23.5 4h51q16 0 22.5 -3t2.5 -21l-119 -670l797 697q10 8 19 8t18 -8l49 -39q5 -6 4 -14q0 -15 -12 -25l-488 -420l301 -780q8 -23 4 -43l-8 -45q-4 -23 -22 -23h-35q-18 0 -27 20l-303 793l-326 -283l-90 -507q-4 -18 -8 -20.5t-22 -2.5 h-52q-12 0 -21 3q-6 2 -6 11q0 4 1 9z" />
<glyph unicode="L" horiz-adv-x="935" d="M119 23l237 1339q2 25 25 24h68q12 0 15 -7t1 -17l-221 -1251h563q12 0 19 -5q5 -3 5 -10q0 -4 -2 -10l-10 -57q-6 -29 -31 -29h-653q-20 0 -16 23z" />
<glyph unicode="M" horiz-adv-x="1464" d="M119 23l231 1306q4 16 21 25l73 37q8 3 14 3q13 0 17 -16l270 -864l572 856q12 16 24 16h82q10 0 17.5 -6t5.5 -18l-238 -1339q-4 -23 -28 -23h-60q-10 0 -17 5t-3 18l203 1144l-560 -839q-12 -16 -30 -17q-14 0 -21 17l-262 839l-203 -1144q-4 -23 -30 -23h-52 q-10 0 -20 5q-7 4 -7 11q0 3 1 7z" />
<glyph unicode="N" horiz-adv-x="1320" d="M119 23l229 1292q2 16 14 24l89 43q9 7 16 7q11 0 16 -15l502 -1159l203 1147q2 16 6 20t20 4h56q16 0 23 -3q5 -2 5 -10q0 -5 -2 -11l-237 -1339q-6 -23 -31 -23h-49q-20 0 -31 23l-510 1185l-211 -1185q-2 -12 -6 -17.5t-20 -5.5h-56q-16 0 -22 3.5t-4 19.5z" />
<glyph unicode="O" horiz-adv-x="1277" d="M160 292q-8 42 -8 86.5t8 90.5l86 487q16 96 60 176t104.5 136.5t132 87t145.5 30.5h273q29 0 51 -24l215 -268q8 -10 12 -24q2 -7 2 -14.5t-2 -17.5l-109 -608q-16 -96 -60 -176t-104.5 -136.5t-132 -87t-145.5 -30.5h-231q-74 0 -135.5 39t-103.5 103.5t-58 149.5z M264 332q10 -63 38 -112.5t73 -79t104 -29.5h213q59 0 114.5 26.5t99.5 74.5t77 111.5t45 137.5l102 575l-192 240h-254q-59 0 -114.5 -26.5t-99.5 -75t-77 -112t-45 -136.5l-82 -465q-7 -36 -6 -71q-1 -29 4 -58z" />
<glyph unicode="P" horiz-adv-x="1099" d="M119 23l225 1273q2 14 21 25l116 57q16 8 29 8h360q68 0 122.5 -29.5t91 -81.5t53.5 -122q11 -46 11 -97q0 -25 -3 -52q-10 -84 -43 -150t-83 -111t-113.5 -67.5t-131.5 -22.5h-434l-113 -630q-2 -23 -30 -23h-60q-22 0 -18 23zM358 764h420q94 0 168 63.5t88 178.5 q3 26 3 50q0 83 -38 143q-49 77 -151 77h-399z" />
<glyph unicode="Q" horiz-adv-x="1288" d="M160 292q-8 42 -8 86.5t8 90.5l86 487q16 96 60 176t104.5 136.5t132 87t145.5 30.5h232q74 0 135 -38.5t103 -103t59 -149.5q8 -42 8 -86.5t-8 -90.5l-105 -594q-2 -12 -7 -28.5t-22 -31.5l-96 -84l125 -155q14 -18 -6 -35l-43 -35q-10 -8 -19 -8t-16 8l-123 154 l-108 -93q-16 -16 -54 -16h-286q-74 0 -135.5 39t-103.5 103.5t-58 149.5zM264 332q10 -63 38 -112.5t73 -79t104 -29.5h269l92 79l-107 138q-10 18 6 34l43 37q20 16 33 0l109 -137l84 74l102 590q7 36 7 71q0 29 -5 58q-10 63 -37.5 112.5t-73 79t-104.5 29.5h-213 q-59 0 -114.5 -26.5t-99.5 -75t-77 -112t-45 -136.5l-82 -465q-7 -36 -6 -71q-1 -29 4 -58z" />
<glyph unicode="R" horiz-adv-x="1181" d="M119 23l237 1339q2 12 10.5 18t18.5 6h485q68 0 122.5 -29.5t91 -81.5t53.5 -122q11 -46 11 -97q0 -25 -3 -52q-16 -139 -98 -239.5t-205 -146.5l213 -507q4 -8 7 -20.5t-1 -22.5l-8 -45q-4 -23 -25 -23h-33q-20 0 -28 20l-244 594l-375 86l-121 -677q-2 -10 -6 -16.5 t-16 -6.5h-68q-22 0 -18 23zM367 809l415 -96q96 23 167 100.5t85 192.5q3 26 3 50q0 83 -38 143q-49 77 -151 77h-399z" />
<glyph unicode="S" horiz-adv-x="1105" d="M98 254q-1 6 -1 11q0 17 16 26l45 26q25 16 35 -6q49 -117 125.5 -169t207.5 -52q147 0 246.5 74t122.5 198q4 23 4 46q0 45 -16 89q-25 65 -105 105l-534 264l6 33q25 125 79 220t121.5 159.5t141.5 96.5t135 32h6l326 -102q15 -4 15 -19q0 -6 -3 -14l-18 -58 q-4 -14 -12.5 -16t-20.5 2l-305 96q-47 -4 -100.5 -30.5t-101.5 -73.5t-87 -113.5t-59 -148.5l464 -230q109 -53 149 -149q27 -66 27 -137q0 -33 -6 -66q-16 -96 -60 -165.5t-108.5 -114.5t-143.5 -66.5t-167 -21.5q-166 0 -270.5 73.5t-153.5 200.5z" />
<glyph unicode="T" horiz-adv-x="890" d="M195 1300l10 58q6 29 33 28h759q16 0 19 -9q1 -5 1 -9.5t-1 -9.5l-10 -58q-4 -25 -29 -24h-322l-223 -1253q-4 -14 -8 -18.5t-21 -4.5h-61q-23 0 -18 23l223 1253h-334q-12 0 -16 4t-2 20z" />
<glyph unicode="U" horiz-adv-x="1263" d="M178 292q-8 42 -8 86.5t8 90.5l158 893q2 25 24 24h64q23 0 20 -24l-159 -901q-7 -36 -7 -71q0 -29 5 -58q10 -63 37.5 -112.5t72.5 -79t105 -29.5h159q59 0 114.5 26.5t99.5 74.5t77 111.5t45 137.5l160 901q2 10 9 17t18 7h63q20 0 19 -24l-166 -932 q-16 -96 -60.5 -176t-105 -136.5t-132 -87t-145.5 -30.5h-178q-74 0 -135 39t-103.5 103.5t-58.5 149.5z" />
<glyph unicode="V" horiz-adv-x="1116" d="M227 1354q-4 33 29 32h59q23 0 27 -28l162 -1213l592 1213q16 29 43 28h61q16 0 21 -9q1 -3 1 -6q0 -7 -5 -17l-658 -1336q-10 -18 -27 -18h-104q-18 0 -20 18z" />
<glyph unicode="W" horiz-adv-x="1466" d="M248 1356q0 31 24 30h60q27 0 26 -28l35 -1227l348 746q8 18 29 18h84q16 0 20 -18l76 -768l484 1249q12 29 36 28h66q18 0 18 -14q0 -8 -4 -16l-516 -1329q-6 -12 -12 -19.5t-16 -7.5h-123q-31 0 -33 27l-70 688l-317 -686q-16 -29 -39 -29h-117q-18 0 -18 18z" />
<glyph unicode="X" horiz-adv-x="1034" d="M21 12q0 8 6 17l475 729l-209 600q-4 14 3 21t19 7h68q18 0 25 -20l186 -537l371 549q11 15 25 15q8 0 18 -4l51 -25q10 -5 10 -15q0 -9 -8 -22l-420 -612l229 -684q4 -12 -1 -21.5t-19 -9.5h-66q-12 0 -16 3t-8 11l-209 627l-406 -625q-10 -16 -26 -16h-84q-14 0 -14 12 z" />
<glyph unicode="Y" horiz-adv-x="997" d="M221 1317q-2 5 -2 10q0 16 21 27l51 28q25 10 31 -14l217 -698l467 702q8 10 18 16q5 2 9 2l11 -4l50 -30q11 -7 11 -18q0 -8 -7 -19l-520 -772l-93 -520q-4 -27 -30 -27h-56q-27 0 -22 27l92 520z" />
<glyph unicode="Z" horiz-adv-x="983" d="M41 84l825 1192h-549q-27 0 -18 27l10 57q2 27 29 26h596q10 0 22 -8l58 -37q10 -7 10 -17q0 -8 -6 -19l-830 -1194h607q27 0 22 -27l-10 -57q-6 -27 -31 -27h-649q-10 0 -27 8l-57 39q-11 6 -11 16q0 9 9 21z" />
<glyph unicode="[" horiz-adv-x="608" d="M29 -379l342 1935q4 27 30 27h308q27 0 22 -27l-12 -59q-4 -25 -31 -24h-225l-311 -1768h225q25 0 22 -24l-10 -60q-4 -27 -31 -27h-307q-10 0 -18 7.5t-4 19.5z" />
<glyph unicode="\" horiz-adv-x="811" d="M176 1360q-6 27 19 26h63q12 0 21 -26l395 -1581q6 -25 -23 -25h-53q-12 0 -17.5 5t-9.5 20z" />
<glyph unicode="]" horiz-adv-x="608" d="M-59 -379l10 60q2 25 29 24h227l311 1768h-227q-25 0 -21 24l13 59q2 10 10 18.5t18 8.5h310q25 0 20 -27l-342 -1935q-6 -27 -29 -27h-309q-10 0 -16 8.5t-4 18.5z" />
<glyph unicode="^" horiz-adv-x="1128" d="M223 586l441 782q8 18 28 18h90q10 0 13.5 -4t5.5 -14l168 -782q4 -33 -29 -33h-61q-16 0 -20.5 7t-6.5 22l-135 673l-371 -673q-16 -29 -39 -29h-67q-33 0 -17 33z" />
<glyph unicode="_" horiz-adv-x="989" d="M-63 -174l8 57q6 27 30 27h861q27 0 22 -25l-12 -61q-4 -25 -29 -25h-862q-24 0 -18 27z" />
<glyph unicode="`" horiz-adv-x="813" d="M371 1305l24 47q12 25 31 14l301 -158q23 -10 16 -24q-4 -12 -20 -13h-143q-12 0 -25 7l-178 94q-18 10 -6 33z" />
<glyph unicode="a" horiz-adv-x="1032" d="M135 199q-6 32 -6 64.5t6 66.5l60 334q29 162 136 247.5t263 85.5q78 0 139.5 -27.5t101 -77.5t55.5 -119q8 -35 8 -74q0 -36 -7 -74l-84 -478l33 -106q6 -23 -21 -33l-55 -22q-6 -2 -10 -2q-14 0 -21 18l-20 80l-279 -98h-31q-74 0 -130 28.5t-91 76t-47 110.5zM244 234 q8 -48 32.5 -79.5t63.5 -46.5q34 -14 75 -14h11l281 96l77 443q5 28 5 54q0 71 -36 125q-50 75 -169 75q-123 0 -195 -69.5t-92 -184.5l-51 -289q-6 -34 -6 -64q0 -25 4 -46z" />
<glyph unicode="b" horiz-adv-x="1040" d="M82 41l59 109l215 1214q4 23 27 22h68q18 0 14 -22l-80 -444l221 77h31q74 0 134 -28.5t100 -75.5t58 -111q10 -37 10 -76q0 -27 -5 -55l-60 -334q-29 -162 -136 -247.5t-263 -85.5q-158 0 -246 112l-51 -94q-8 -16 -15 -18q-2 -1 -5 -1q-5 0 -13 3l-55 22q-13 5 -13 17 q0 7 5 16zM283 249q8 -46 32.5 -80t67.5 -54.5t102 -20.5q123 0 195 69.5t92 184.5l51 289q5 28 5 53q0 30 -7 56q-12 48 -40.5 80t-71.5 47q-38 14 -83 14h-12l-249 -86l-80 -453q-6 -30 -6 -57q0 -22 4 -42z" />
<glyph unicode="c" horiz-adv-x="950" d="M139 208q-7 34 -7 71t7 77l56 314q29 162 138 244.5t265 82.5q63 0 131 -13t131 -40q10 -4 10 -14q0 -4 -2 -10l-22 -68q-8 -20 -27 -14q-53 23 -115.5 36t-115.5 13q-123 0 -197 -66.5t-94 -181.5l-51 -291q-6 -31 -6 -60q0 -20 3 -39q7 -46 31.5 -80t66.5 -54.5 t101 -20.5l293 82q16 4 21 -16l16 -60q8 -27 -20 -32l-308 -84h-12q-78 0 -138.5 27.5t-100.5 77.5t-54 119z" />
<glyph unicode="d" horiz-adv-x="1040" d="M133 330l60 334q29 162 136 247.5t263 85.5q82 0 141.5 -30.5t93.5 -83.5l84 481q4 23 27 22h68q18 0 14 -22l-215 -1217l33 -106q6 -23 -21 -33l-55 -22q-6 -2 -11 -2q-14 0 -20 18l-22 70l-248 -88h-31q-74 0 -134 28.5t-100 75.5t-58 111q-10 37 -10 75q0 28 5 56z M244 344q-5 -28 -5 -53q0 -30 7 -57q12 -48 40.5 -79.5t71.5 -46.5q38 -14 83 -14h12l249 86l80 453q5 28 5 54q0 71 -36 125q-50 75 -169 75q-123 0 -195 -69.5t-92 -184.5z" />
<glyph unicode="e" horiz-adv-x="995" d="M139 208q-7 34 -7 71t7 77l56 314q29 162 135 244.5t262 82.5q78 0 139.5 -28.5t101 -80.5t53.5 -125q6 -30 5 -64q0 -46 -10 -99l-45 -94q-8 -16 -25 -19l-557 -92l-8 -47q-6 -31 -6 -60q0 -20 3 -39q7 -46 31.5 -80t66.5 -54.5t101 -20.5l293 82q16 4 21 -16l16 -60 q8 -27 -20 -32l-308 -84h-12q-78 0 -138.5 27.5t-100.5 77.5t-54 119zM272 506l500 84l6 39q4 27 5 53q0 23 -4 45q-7 47 -30.5 83t-65.5 56.5t-101 20.5q-123 0 -194 -66.5t-91 -181.5z" />
<glyph unicode="f" horiz-adv-x="641" d="M82 -383l221 1253h-125q-27 0 -20 25l10 59q4 27 31 27h125l16 92q29 160 131 245t236 85h8l137 -47q11 -4 11 -18q0 -7 -3 -15l-18 -57q-6 -20 -29 -15l-117 41h-6q-82 0 -146 -54q-67 -56 -93 -153l-19 -104h223q23 0 19 -23l-12 -65q-4 -23 -25 -23h-225l-222 -1253 q-2 -23 -26 -23h-64q-20 0 -18 23z" />
<glyph unicode="g" horiz-adv-x="1040" d="M86 -299l16 59q4 12 13.5 17.5t19.5 1.5l262 -90q78 0 149.5 56t106.5 157l31 176l-221 -78h-31q-74 0 -134 28.5t-100 76t-58 110.5q-10 37 -10 76q0 27 5 55l58 318q29 162 136 247.5t263 85.5h10l246 -92l41 74q8 16 15 18q2 1 5 1q5 0 13 -3l55 -22q13 -5 13 -17 q0 -7 -5 -16l-59 -109l-162 -913q-14 -84 -51 -147.5t-90.5 -106.5t-118 -64.5t-133.5 -21.5l-271 92q-16 6 -15 21q0 5 1 10zM246 360q-5 -28 -5 -53q0 -30 7 -56q12 -48 40.5 -80t71.5 -47q38 -14 83 -14q6 0 12 1l250 86l108 604l-231 86q-123 0 -195 -69.5t-92 -184.5z " />
<glyph unicode="h" horiz-adv-x="1071" d="M119 23l237 1339q4 16 8.5 20t16.5 4h70q18 0 14 -24l-80 -442l221 77h31q74 0 134 -28.5t100 -75.5t58 -111q10 -37 10 -76q0 -27 -5 -55l-111 -628q-2 -23 -22 -23h-64q-25 0 -22 23l108 614q6 31 6 58t-6 51q-12 48 -41.5 80t-72.5 47q-38 14 -83 14h-12l-249 -86 l-138 -778q-4 -23 -26 -23h-68q-18 0 -14 23z" />
<glyph unicode="i" horiz-adv-x="493" d="M121 23l166 935q4 16 8 19.5t16 3.5h70q18 0 14 -23l-166 -935q-4 -23 -26 -23h-68q-18 0 -14 23zM338 1245l20 119q4 16 8.5 19t16.5 3h70q18 0 14 -22l-21 -119q-4 -23 -26 -22h-68q-18 -1 -14 22z" />
<glyph unicode="j" horiz-adv-x="552" d="M-289 -354q0 6 2 14l17 59q4 12 13 17.5t19 1.5l144 -49q76 0 147.5 53t106.5 154l188 1062q4 16 8 19.5t17 3.5h69q18 0 15 -23l-185 -1042q-14 -82 -51 -145.5t-88 -106.5t-112.5 -64.5t-124.5 -21.5h-19l-151 51q-15 5 -15 17zM399 1245l21 119q4 16 8 19t16 3h70 q18 0 14 -22l-20 -119q-4 -23 -27 -22h-67q-19 -1 -15 22z" />
<glyph unicode="k" horiz-adv-x="1056" d="M119 23l237 1339q4 16 8.5 20t16.5 4h70q18 0 14 -24l-150 -844l619 475q20 14 37 2l47 -45q7 -4 7 -11q0 -3 -1 -5q-4 -10 -18 -21l-392 -299l269 -495q10 -18 6 -43l-10 -53q-4 -23 -25 -23h-25q-16 0 -26 20l-279 527l-235 -180l-62 -344q-4 -23 -26 -23h-68 q-18 0 -14 23z" />
<glyph unicode="l" horiz-adv-x="493" d="M121 23l237 1339q4 16 8.5 20t16.5 4h70q18 0 14 -24l-238 -1339q-4 -23 -26 -23h-68q-18 0 -14 23z" />
<glyph unicode="m" horiz-adv-x="1619" d="M119 23l143 811l-33 106q-6 23 21 33l55 22q6 2 11 2q14 0 20 -18l22 -70l248 88h31q78 0 136 -30.5t93 -81.5l316 112h30q74 0 131.5 -28.5t94.5 -75.5t50 -111q7 -33 7 -67q0 -31 -6 -64l-111 -628q-2 -23 -22 -23h-64q-25 0 -22 23l108 614q7 37 7 68q0 76 -38 121 q-51 61 -145 61h-12l-281 -96q9 -40 10 -80q0 -30 -6 -60l-110 -628q-2 -23 -23 -23h-63q-25 0 -23 23l109 614q7 37 6 68q0 76 -38 121q-51 61 -145 61h-12l-249 -86l-138 -778q-2 -23 -22 -23h-64q-24 0 -22 23z" />
<glyph unicode="n" horiz-adv-x="1071" d="M119 23l143 811l-33 106q-6 23 21 33l55 22q6 2 11 2q14 0 20 -18l22 -70l248 88h31q74 0 134 -28.5t100 -75.5t58 -111q10 -37 10 -76q0 -27 -5 -55l-111 -628q-2 -23 -22 -23h-64q-25 0 -22 23l108 614q6 31 6 58t-6 51q-12 48 -41.5 80t-72.5 47q-38 14 -83 14h-12 l-249 -86l-138 -778q-2 -23 -22 -23h-64q-24 0 -22 23z" />
<glyph unicode="o" horiz-adv-x="1009" d="M139 208q-7 34 -7 71t7 77l56 314q29 162 135 244.5t262 82.5q78 0 138.5 -27.5t100 -77.5t54.5 -119q7 -34 7 -71t-7 -77l-56 -314q-29 -162 -135 -244.5t-262 -82.5q-78 0 -138.5 27.5t-100.5 77.5t-54 119zM243 249q7 -46 31.5 -80t66.5 -54.5t101 -20.5 q123 0 194 66.5t91 181.5l51 291q5 29 5 55q0 70 -34 124q-48 75 -167 75q-123 0 -194 -66.5t-91 -181.5l-51 -291q-6 -31 -6 -60q0 -20 3 -39z" />
<glyph unicode="p" horiz-adv-x="1040" d="M47 -383l215 1217l-33 106q-6 23 21 33l55 22q6 2 11 2q14 0 20 -18l22 -70l248 88h31q74 0 134 -28.5t100 -75.5t58 -111q10 -37 10 -76q0 -27 -5 -55l-60 -334q-29 -162 -136 -247.5t-263 -85.5q-82 0 -141.5 30.5t-93.5 83.5l-84 -481q-4 -23 -27 -23h-68 q-18 0 -14 23zM283 249q8 -46 32.5 -80t67.5 -54.5t102 -20.5q123 0 195 69.5t92 184.5l51 289q5 28 5 53q0 30 -7 56q-12 48 -40.5 80t-71.5 47q-38 14 -83 14h-12l-249 -86l-80 -453q-6 -30 -6 -57q0 -22 4 -42z" />
<glyph unicode="q" horiz-adv-x="1040" d="M133 330l60 334q29 162 136 247.5t263 85.5q158 0 246 -112l51 94q8 16 15 18q2 1 5 1q5 0 13 -3l55 -22q13 -5 13 -17q0 -7 -5 -16l-59 -109l-215 -1214q-4 -23 -27 -23h-68q-18 0 -14 23l80 444l-221 -77h-31q-74 0 -134 28.5t-100 75.5t-58 111q-10 37 -10 75 q0 28 5 56zM244 344q-5 -28 -5 -53q0 -30 7 -57q12 -48 40.5 -79.5t71.5 -46.5q38 -14 83 -14h12l249 86l80 453q5 28 5 54q0 71 -36 125q-50 75 -169 75q-123 0 -195 -69.5t-92 -184.5z" />
<glyph unicode="r" horiz-adv-x="780" d="M119 23l143 811l-33 106q-6 23 21 33l55 22q6 2 11 2q14 0 20 -18l24 -78q127 84 261 96h14l147 -49q13 -5 13 -14q0 -6 -2 -16l-21 -60q-6 -20 -29 -14l-125 43q-72 -8 -141 -39t-117 -70l-133 -755q-2 -23 -22 -23h-64q-24 0 -22 23z" />
<glyph unicode="s" horiz-adv-x="935" d="M94 199q-2 4 -2 7q0 6 6 13l60 47q16 10 22 -4q41 -78 97.5 -123t150.5 -45q90 0 150.5 41t72.5 117q3 16 3 31q0 25 -8 51q-13 41 -56 63l-395 203l4 23q14 86 51 154.5t85 117.5t103.5 75.5t106.5 26.5h8l272 -88q6 -3 7 -8q0 -3 -3 -8l-28 -76q-8 -14 -23 -10l-243 80 q-39 -6 -74 -26.5t-62.5 -51.5t-47 -70t-32.5 -80l324 -163q76 -39 102 -112q17 -47 18 -94q0 -25 -5 -50q-20 -117 -105.5 -186.5t-232.5 -69.5q-111 0 -192 55.5t-134 159.5z" />
<glyph unicode="t" horiz-adv-x="671" d="M160 895l10 59q4 27 29 27h125l43 244q2 18 22 18h68q14 0 17 -4t1 -14l-43 -244h172q27 0 23 -27l-11 -59q-6 -25 -32 -25h-172l-119 -669q-4 -17 -4 -31q0 -25 11 -43q17 -29 48 -33l129 41q18 6 25 -14l16 -72q4 -18 -22 -24l-144 -41q-49 0 -84 17t-56.5 46t-28.5 66 q-4 20 -4 40q0 18 3 35l121 682h-125q-20 0 -19 16q0 4 1 9z" />
<glyph unicode="u" horiz-adv-x="1071" d="M164 330l110 628q2 23 23 23h63q25 0 23 -23l-109 -614q-6 -31 -6 -58t6 -52q12 -48 42 -79.5t73 -46.5q38 -14 82 -14h12l250 86l137 778q2 23 23 23h63q25 0 23 -23l-143 -811l32 -106q6 -23 -20 -33l-55 -22q-6 -2 -11 -2q-14 0 -20 18l-23 70l-247 -88h-31 q-74 0 -134.5 28.5t-100.5 75.5t-57 111q-10 37 -10 75q0 28 5 56z" />
<glyph unicode="v" horiz-adv-x="899" d="M135 948q-4 33 29 33h53q16 0 21.5 -7t7.5 -22l133 -837l434 837q14 29 43 29h59q20 0 21 -15q0 -8 -6 -18l-484 -930q-10 -18 -26 -18h-113q-20 0 -22 18z" />
<glyph unicode="w" horiz-adv-x="1316" d="M154 950q0 31 26 31h53q27 0 27 -29l41 -800l352 725q8 18 29 18h106q16 0 21 -18l82 -734l326 809q12 29 36 29h64q19 0 19 -15q0 -8 -5 -16l-370 -923q-14 -27 -29 -27h-103q-29 0 -30 27l-86 745l-363 -743q-16 -29 -41 -29h-94q-6 0 -12 4t-6 14z" />
<glyph unicode="x" horiz-adv-x="894" d="M8 13q0 8 6 16l375 493l-184 430q-4 10 3 19.5t19 9.5h76q18 0 23 -20l157 -369l299 393q14 17 27 17l10 -3l53 -30q11 -8 12 -19q0 -8 -7 -18l-342 -447l196 -454q4 -10 -1 -20.5t-19 -10.5h-70q-18 0 -25 14l-176 402l-301 -400q-12 -16 -26 -16h-88q-17 0 -17 13z" />
<glyph unicode="y" horiz-adv-x="931" d="M-6 -346q-4 25 20 31q104 25 164 62.5t98 111.5l70 133l-178 956q-6 29 18 35l60 18q5 1 8 2q14 0 16 -18l160 -835l414 802q12 29 45 29h57q16 0 21 -9q1 -3 1 -7q0 -7 -5 -17l-586 -1130q-55 -104 -142.5 -160.5t-207.5 -79.5q-4 -1 -8 -1q-5 0 -8 2q-5 3 -7 15z" />
<glyph unicode="z" horiz-adv-x="892" d="M68 113l647 757h-459q-27 0 -18 27l10 57q2 12 10 19.5t18 7.5h476q14 0 22 -8l80 -68q12 -9 12 -19q0 -8 -8 -18l-647 -757h473q25 0 21 -27l-11 -57q-6 -27 -28 -27h-490q-14 0 -22 8l-82 68q-11 9 -12 19q1 9 8 18z" />
<glyph unicode="{" horiz-adv-x="731" d="M88 573l4 23q2 12 19 18l118 39q10 4 21.5 6.5t17.5 2.5h72l90 505q39 217 153.5 316.5t272.5 99.5q20 0 18 -20l-12 -68q-4 -23 -26 -22q-117 0 -196 -83t-108 -247l-196 -1108q-29 -164 21.5 -247t166.5 -83q23 0 19 -22l-13 -68q-2 -20 -24 -21q-78 0 -137.5 32 t-96 91.5t-47 146.5t7.5 195l86 492h-213q-20 -1 -18 22z" />
<glyph unicode="|" horiz-adv-x="780" d="M197 -383l342 1939q2 12 8 19.5t24 7.5h52q16 0 20 -5t2 -22l-342 -1939q-4 -12 -8 -17.5t-23 -5.5h-51q-16 0 -22 3.5t-2 19.5z" />
<glyph unicode="}" horiz-adv-x="731" d="M-82 -385l12 68q4 23 27 22q117 0 195.5 83t107.5 247l197 1108q29 164 -21.5 247t-167.5 83q-23 0 -18 22l12 68q2 20 25 20q78 0 137 -31.5t96 -92t47.5 -146.5t-8.5 -195l-82 -456h215q20 0 19 -23l-4 -23q-2 -12 -19 -18l-119 -39q-10 -4 -21 -6t-18 -2h-71l-97 -541 q-18 -109 -58 -187.5t-95 -129.5t-125 -75t-147 -24q-21 1 -19 21z" />
<glyph unicode="~" horiz-adv-x="1226" d="M231 602l13 64q2 23 30 39q63 39 133 55t128 16l268 -82q63 0 132 17.5t132 54.5q12 8 18.5 3t1.5 -15l-10 -64q-2 -23 -28 -39q-66 -39 -136.5 -55t-126.5 -16l-268 82q-66 0 -133.5 -17.5t-130.5 -54.5q-12 -8 -18.5 -3t-4.5 15z" />
<glyph unicode="&#xa1;" horiz-adv-x="493" d="M53 -379l174 991q4 12 9.5 17.5t23.5 5.5h51q16 0 21.5 -3t1.5 -20l-174 -991q-4 -12 -8.5 -19.5t-22.5 -7.5h-51q-31 0 -25 27zM268 844l21 114q2 12 8 17.5t25 5.5h51q16 0 21 -3t1 -20l-20 -114q-2 -12 -7.5 -19.5t-23.5 -7.5h-51q-31 0 -25 27z" />
<glyph unicode="&#xa2;" horiz-adv-x="958" d="M187.5 420.5q-11.5 64.5 2.5 138.5l56 313q29 152 126 234t238 92l41 223q2 12 8.5 19.5t22.5 7.5h53q29 0 23 -27l-41 -225q49 -4 98 -17.5t96 -31.5q14 -6 9 -25l-23 -67q-8 -20 -27 -15q-53 23 -115.5 36.5t-115.5 13.5q-123 0 -196.5 -67t-94.5 -181l-51 -291 q-10 -53 -3 -99t31.5 -80t66.5 -54.5t102 -20.5l292 82q16 4 21 -17l16 -59q8 -27 -20 -33l-260 -71l-43 -238q-2 -23 -31 -22h-53q-14 0 -20.5 3t-2.5 19l41 229q-68 8 -119 39t-83.5 79t-44 112.5z" />
<glyph unicode="&#xa3;" horiz-adv-x="1191" d="M166 676l10 57q2 27 29 27h186l37 209q16 96 60 177t105.5 139t138.5 91t159 33h6l264 -88q20 -6 13 -31l-21 -59q-4 -10 -12 -15.5t-23 -1.5l-250 82q-59 -4 -113.5 -29.5t-99.5 -71.5t-77.5 -109.5t-47.5 -141.5l-32 -184h407q27 0 23 -25l-10 -61q-6 -25 -31 -25h-410 l-78 -442l308 -113q84 4 139 50t74 130q6 25 26 25h60q27 0 20 -25q-12 -72 -43 -126t-76 -91t-99 -55t-116 -18h-10l-328 120l-61 -102q-10 -16 -17.5 -18t-19.5 2l-47 22q-23 10 -10 33l94 160l78 448h-187q-24 0 -18 27z" />
<glyph unicode="&#xa4;" horiz-adv-x="1275" d="M174 647v94q0 100 37 185.5t100.5 147t148.5 95t179 33.5t178 -33.5t147.5 -95t100.5 -146.5t37 -186v-94q0 -102 -37 -187t-100.5 -146.5t-147.5 -95.5t-178 -34t-179 34t-148.5 95.5t-100.5 146.5t-37 187zM285 664q0 -80 25.5 -147.5t72.5 -117t112.5 -77t143.5 -27.5 t143.5 27.5t111.5 77t71.5 117t25.5 147.5v59q0 78 -25.5 145.5t-71.5 116.5t-111.5 78t-143.5 29t-143.5 -29t-112.5 -78t-72.5 -116.5t-25.5 -145.5v-59z" />
<glyph unicode="&#xa5;" horiz-adv-x="1234" d="M145 311l11 58q6 27 28 26h377l27 152l-37 110h-322q-20 0 -18 27l10 57q6 27 29 27h266l-176 549q-8 23 18 37l52 28q25 10 30 -14l217 -698l467 702q8 10 18.5 15.5t20.5 -1.5l49 -30q20 -12 5 -37l-371 -551h264q27 0 23 -25l-13 -61q-4 -25 -28 -25h-322l-74 -110 l-26 -152h374q27 0 21 -24l-10 -62q-4 -25 -29 -24h-377l-45 -258q-4 -27 -31 -27h-55q-27 0 -22 27l45 258h-377q-21 -1 -19 26z" />
<glyph unicode="&#xa6;" horiz-adv-x="780" d="M197 -383l114 653q2 12 8.5 19.5t24.5 7.5h51q29 0 23 -27l-115 -653q-4 -12 -8 -17.5t-23 -5.5h-51q-16 0 -22 3.5t-2 19.5zM387 707l117 653q2 12 8 19t25 7h51q16 0 20 -5t2 -21l-116 -653q-2 -12 -7.5 -17.5t-23.5 -5.5h-51q-16 0 -21.5 3.5t-3.5 19.5z" />
<glyph unicode="&#xa7;" horiz-adv-x="905" d="M94 199q-6 10 4 20l60 47q16 10 22 -4q41 -78 97.5 -123t150.5 -45q90 0 150.5 41t72.5 117q8 41 -5 82t-56 63l-395 203l4 23q18 111 71.5 191.5t120.5 127.5l-121 64l4 22q14 86 51 154.5t85.5 118t103.5 76t107 26.5h8l272 -88q10 -4 4 -17l-28 -75q-8 -14 -23 -11 l-244 80q-39 -6 -73.5 -26.5t-62.5 -51t-47 -69.5t-32 -80l324 -164q76 -39 102.5 -111.5t12.5 -144.5q-25 -133 -127 -201q37 -41 49 -96t2 -108q-20 -117 -105.5 -186.5t-232.5 -69.5q-111 0 -192 55.5t-134 159.5zM319 659l283 -143q106 35 125 141q8 41 -5 82t-56 64 l-156 78q-70 -18 -119 -82t-72 -140z" />
<glyph unicode="&#xa8;" horiz-adv-x="829" d="M336 1194l20 115q4 12 9.5 19t23.5 7h51q29 0 23 -26l-21 -115q-2 -23 -30 -23h-52q-16 0 -21 3.5t-3 19.5zM662 1194l20 115q4 12 9 19t24 7h51q29 0 22 -26l-20 -115q-2 -12 -7 -17.5t-24 -5.5h-51q-16 0 -21 3.5t-3 19.5z" />
<glyph unicode="&#xa9;" horiz-adv-x="1703" d="M213 425q-27 134 0 288q27 156 100.5 283.5t180 219t240.5 141.5t284 50q158 0 277.5 -56.5t194.5 -155.5t101.5 -233.5t-0.5 -289.5q-27 -154 -99.5 -282t-179 -219t-241.5 -141t-285 -50q-158 0 -276.5 56t-194 155.5t-102.5 233.5zM308.5 445.5q23.5 -111.5 88 -192.5 t166 -126t232.5 -45t247.5 45t208.5 126t155.5 192.5t88.5 246.5t0 248t-89.5 193.5t-164.5 126t-231 45.5t-248 -45.5t-210 -126t-155.5 -193.5t-87.5 -248q-24 -135 -0.5 -246.5zM569 580l43 241q12 72 49 127.5t87.5 93t111 57t119.5 19.5h12l230 -80q14 -4 8 -24 l-23 -64q-6 -16 -24 -12l-213 74q-41 -2 -83 -17.5t-78 -43t-62.5 -69.5t-36.5 -96l-35 -196q-16 -96 27.5 -153.5t144.5 -57.5h31q78 0 128 43t66 106q6 18 23 19h67q16 0 15 -19q-10 -53 -37 -100t-65 -82t-87 -54.5t-100 -19.5h-70q-59 0 -110.5 23.5t-85 64.5t-49 97.5 t-3.5 122.5z" />
<glyph unicode="&#xaa;" horiz-adv-x="929" d="M203 793l53 282q29 139 124 212t236 73q70 0 125.5 -23.5t91 -66.5t49 -101.5t1.5 -126.5l-74 -405l29 -90q6 -18 -19 -29l-49 -18q-20 -8 -29 14l-18 68l-250 -84h-29q-68 0 -118 24.5t-80.5 64.5t-41.5 93.5t-1 112.5zM303 805q-20 -106 28 -161.5t134 -51.5l252 82 l71 377q14 88 -29.5 151.5t-152.5 63.5q-111 0 -175 -58.5t-83 -156.5z" />
<glyph unicode="&#xab;" horiz-adv-x="1253" d="M168 543q-8 12 4 20l465 406q14 12 29 12h47q12 0 12 -12l-8 -62q-2 -14 -17 -24l-389 -338l264 -330q6 -8 7 -25l-13 -53q0 -12 -16 -12h-39q-10 0 -14 4l-11 10zM625 543q-8 12 4 20l465 406q14 12 28 12h47q12 0 13 -12l-8 -62q-2 -14 -17 -24l-389 -338l264 -330 q6 -8 6 -25l-12 -53q0 -12 -16 -12h-39q-10 0 -15 4l-10 10z" />
<glyph unicode="&#xac;" horiz-adv-x="1265" d="M205 854v57q0 10 4 19.5t22 9.5h676q10 0 27 -8l110 -58q16 -10 17 -24v-412q0 -16 -6 -19t-23 -3h-55q-27 0 -27 24v389h-719q-26 0 -26 25z" />
<glyph unicode="&#xad;" horiz-adv-x="563" d="M100 647l2 12q4 18 21 25l94 39q18 8 33 8h287q25 0 18 -24l-10 -60q-6 -27 -27 -26h-399q-23 -1 -19 26z" />
<glyph unicode="&#xae;" horiz-adv-x="1419" d="M283 1102q20 117 79.5 217t145.5 174t191.5 115t220.5 41q123 0 216 -48.5t153.5 -129t83 -187t1.5 -223.5q-20 -117 -80.5 -217.5t-146.5 -174t-192.5 -114.5t-221.5 -41q-121 0 -214 48t-152.5 129t-81.5 187.5t-2 223.5zM358 1081q-18 -100 2.5 -188t71.5 -154.5 t130 -104.5t179 -38q104 0 197.5 38t167.5 104.5t124 154.5t68 188t-3 188.5t-73.5 154t-132 104.5t-178.5 39q-104 0 -197 -39t-166 -104.5t-122.5 -154t-67.5 -188.5zM567 795l101 573q4 16 18 16h234q45 0 78.5 -18t54 -49t27.5 -71t-1 -83q-12 -66 -49 -104.5t-90 -67.5 l90 -137q8 -10 4 -27l-6 -34q-4 -14 -14 -15h-35q-10 0 -16 13l-121 184l-152 16l-35 -196q-4 -16 -14 -17h-61q-17 1 -13 17zM707 1083l188 -22q31 10 59.5 37.5t38.5 77.5q10 57 -16.5 87.5t-73.5 30.5h-160z" />
<glyph unicode="&#xaf;" horiz-adv-x="968" d="M336 1196l12 59q4 27 31 27h520q25 0 21 -27l-13 -59q-4 -25 -28 -25h-521q-26 0 -22 25z" />
<glyph unicode="&#xb0;" horiz-adv-x="876" d="M262 1108q0 61 23.5 116.5t63.5 95.5t94.5 63.5t115.5 23.5t116.5 -23.5t95.5 -63.5t63.5 -95.5t23.5 -116.5t-23.5 -115.5t-63.5 -94.5t-95 -63.5t-117 -23.5q-61 0 -115.5 23.5t-94.5 63.5t-63.5 94.5t-23.5 115.5zM373 1108q0 -78 54 -132t132 -54q39 0 74 14 t60.5 39.5t40 59.5t14.5 73t-14.5 74t-40 60.5t-60.5 39.5t-74 14t-72.5 -14t-59.5 -39.5t-40 -60.5t-14 -74z" />
<glyph unicode="&#xb1;" horiz-adv-x="1306" d="M131 27l10 57q2 27 29 27h860q10 0 16.5 -7.5t4.5 -17.5l-11 -61q-6 -25 -26 -25h-862q-27 0 -21 27zM248 690l10 58q2 27 29 26h377l61 346q4 27 29 27h59q23 0 18 -25l-61 -348h377q10 0 16 -7t4 -17l-10 -62q-4 -25 -27 -24h-378l-62 -349q-6 -25 -28 -24h-56 q-29 0 -22 24l61 349h-377q-26 -1 -20 26z" />
<glyph unicode="&#xb2;" horiz-adv-x="1132" d="M88 70q-10 20 4 34l713 635q66 57 111 128t57 141q8 51 -1 102t-39 92t-79 67.5t-117 26.5q-113 0 -196.5 -51t-147.5 -143q-14 -23 -37 -10l-45 32q-25 10 -4 37q29 45 72 90t98 79t124 55.5t149 21.5t146.5 -32t111.5 -88t64.5 -134t2.5 -168q-18 -98 -71.5 -177 t-124.5 -142l-623 -555h641q20 0 16 -23l-12 -65q-4 -23 -27 -23h-716q-6 0 -14.5 2t-12.5 6z" />
<glyph unicode="&#xb3;" horiz-adv-x="1150" d="M121 127l16 59q4 8 13.5 14.5t21.5 2.5l320 -113q78 0 140 21.5t109 60.5t77 90t40 113q10 57 0 110.5t-42 96.5t-84 69.5t-128 30.5l-160 -51q-23 -6 -28 18l-15 53q-6 25 19 31l403 129q6 2 20.5 14.5t31 34t31 52t22.5 71.5q8 51 0 98.5t-35 84t-72 58t-108 21.5 q-98 0 -176 -39.5t-144 -128.5q-20 -20 -37 -10l-45 31q-20 10 -4 37q61 90 166 155.5t254 65.5q78 0 140.5 -29.5t104.5 -82t57 -124t1 -157.5q-10 -55 -30.5 -97.5t-42 -72t-39 -45t-21.5 -17.5l-131 -41q63 -18 106 -58t66 -92t29 -112.5t-4 -118.5q-33 -180 -160 -280 t-311 -100h-25l-336 116q-20 6 -10 31z" />
<glyph unicode="&#xb4;" horiz-adv-x="813" d="M338 1188q-2 8 0 13t12 9l338 150q18 8 27 -14l22 -56q6 -23 -18 -33l-182 -79q-12 -6 -31 -7h-154q-10 1 -14 17z" />
<glyph unicode="&#xb5;" horiz-adv-x="1091" d="M47 -383l238 1341q2 23 22 23h64q25 0 22 -23l-108 -614q-12 -61 0 -109.5t41.5 -80t72.5 -47t95 -13.5l249 86l138 778q2 23 22 23h64q25 0 22 -23l-143 -811l33 -106q6 -23 -21 -33l-55 -22q-23 -8 -31 16l-22 70l-248 -88h-31q-92 0 -165 47t-101 125l47 4l-96 -543 q-4 -23 -27 -23h-68q-18 0 -14 23z" />
<glyph unicode="&#x3bc;" horiz-adv-x="1091" d="M47 -383l238 1341q2 23 22 23h64q25 0 22 -23l-108 -614q-12 -61 0 -109.5t41.5 -80t72.5 -47t95 -13.5l249 86l138 778q2 23 22 23h64q25 0 22 -23l-143 -811l33 -106q6 -23 -21 -33l-55 -22q-23 -8 -31 16l-22 70l-248 -88h-31q-92 0 -165 47t-101 125l47 4l-96 -543 q-4 -23 -27 -23h-68q-18 0 -14 23z" />
<glyph unicode="&#xb6;" horiz-adv-x="1171" d="M253 921.5q-11 65.5 3 141.5q12 76 48 136.5t87 101t113.5 63t130.5 22.5h98q23 0 46.5 -3t39.5 -9l254 -86q23 -8 21 -31l-289 -1636q-6 -27 -29 -27h-59q-27 0 -21 27l279 1577l-252 80l-293 -1657q-6 -27 -27 -27h-55q-12 0 -20.5 6.5t-3.5 20.5l188 1065 q-72 8 -126 39t-88 81t-45 115.5z" />
<glyph unicode="&#xb7;" horiz-adv-x="452" d="M219 682l21 115q4 12 9 19t23 7h52q31 0 24 -26l-20 -115q-2 -12 -8.5 -17.5t-24.5 -5.5h-51q-16 0 -22.5 3.5t-2.5 19.5z" />
<glyph unicode="&#xb8;" horiz-adv-x="577" d="M53 -387l19 102q2 14 12 31l78 129q12 20 37 21h75q10 0 12.5 -9.5t-3.5 -19.5l-154 -254q-10 -18 -27 -19h-34q-19 1 -15 19z" />
<glyph unicode="&#xb9;" horiz-adv-x="954" d="M106 27l11 57q2 27 26 27h285l209 1181l-287 -90q-20 -6 -24 15l-13 59q-6 25 21 33l319 98q10 0 23 -8l61 -41q16 -8 13 -25l-215 -1222h301q25 0 20 -25l-10 -61q-6 -25 -27 -25h-694q-25 0 -19 27z" />
<glyph unicode="&#xba;" horiz-adv-x="909" d="M207 815l49 266q29 137 123 208t235 71q70 0 125.5 -23.5t90 -66.5t48 -101.5t1.5 -126.5l-52 -266q-27 -137 -121 -207.5t-235 -70.5q-70 0 -125 23.5t-90 66.5t-48 101t-1 126zM303 807q-16 -88 26 -151.5t150 -63.5q111 0 175.5 56.5t80.5 154.5l47 248 q16 88 -25.5 151.5t-150.5 63.5q-111 0 -175 -56.5t-83 -154.5z" />
<glyph unicode="&#xbb;" horiz-adv-x="1253" d="M121 137l8 62q2 14 16 24l390 338l-265 330q-6 8 -6 24l12 54q0 12 17 12h39q10 0 14 -4l10 -10l322 -404q8 -12 -4 -20l-465 -406q-16 -12 -29 -12h-47q-12 0 -12 12zM578 137l8 62q2 14 16 24l389 338l-264 330q-6 8 -6 24l12 54q0 12 17 12h38q10 0 15 -4l10 -10 l322 -404q8 -12 -5 -20l-464 -406q-16 -12 -29 -12h-47q-12 0 -12 12z" />
<glyph unicode="&#xbc;" horiz-adv-x="520" d="M-319 25l1134 1335q18 27 35 26h86q12 0 12 -8t-8 -18l-1135 -1335q-12 -14 -20 -19.5t-21 -5.5h-75q-33 0 -8 25z" />
<glyph unicode="&#xbd;" horiz-adv-x="520" d="M-319 25l1134 1335q18 27 35 26h86q12 0 12 -8t-8 -18l-1135 -1335q-12 -14 -20 -19.5t-21 -5.5h-75q-33 0 -8 25z" />
<glyph unicode="&#xbe;" horiz-adv-x="520" d="M-319 25l1134 1335q18 27 35 26h86q12 0 12 -8t-8 -18l-1135 -1335q-12 -14 -20 -19.5t-21 -5.5h-75q-33 0 -8 25z" />
<glyph unicode="&#xbf;" horiz-adv-x="972" d="M6 -39q16 94 78.5 166t175.5 139l219 133l39 211q4 25 29 25h59q25 0 21 -25l-49 -272l-283 -170q-86 -51 -130 -108.5t-54 -118.5q-18 -109 39 -182.5t190 -73.5q111 0 207 46t158 128q4 8 16 10t18 -2l54 -41q8 -8 0 -21q-80 -109 -198 -170t-267 -61 q-84 0 -150.5 28.5t-109.5 80t-60.5 122t-1.5 156.5zM559 844l21 114q2 12 7 17.5t23 5.5h52q16 0 22 -3t4 -20l-20 -114q-4 -12 -10.5 -19.5t-24.5 -7.5h-51q-29 0 -23 27z" />
<glyph unicode="&#xc0;" d="M-4 11.5q-2 11.5 2 21.5l674 1335q8 18 26 18h90q14 0 19 -18l194 -1335q6 -33 -26 -33h-57q-16 0 -21.5 8t-7.5 21l-66 450h-293l-215 -61l-192 -389q-16 -29 -39 -29h-70q-16 0 -18 11.5zM381 549l92 29q43 12 92 12h244l-90 639zM475 1710l25 47q12 25 30 15l301 -158 q23 -10 17 -25q-4 -12 -21 -12h-143q-12 0 -25 6l-178 94q-18 10 -6 33z" />
<glyph unicode="&#xc1;" d="M-4 11.5q-2 11.5 2 21.5l674 1335q8 18 26 18h90q14 0 19 -18l194 -1335q6 -33 -26 -33h-57q-16 0 -21.5 8t-7.5 21l-66 450h-293l-215 -61l-192 -389q-16 -29 -39 -29h-70q-16 0 -18 11.5zM381 549l92 29q43 12 92 12h244l-90 639zM651 1593q-2 8 0 13.5t13 9.5l337 149 q18 8 27 -14l23 -55q6 -23 -19 -33l-182 -80q-12 -6 -31 -6h-153q-11 0 -15 16z" />
<glyph unicode="&#xc2;" d="M-4 11.5q-2 11.5 2 21.5l674 1335q8 18 26 18h90q14 0 19 -18l194 -1335q6 -33 -26 -33h-57q-16 0 -21.5 8t-7.5 21l-66 450h-293l-215 -61l-192 -389q-16 -29 -39 -29h-70q-16 0 -18 11.5zM381 549l92 29q43 12 92 12h244l-90 639zM481 1585q0 8 11 19l280 221 q20 16 35 0l205 -221q8 -10 2 -18.5t-17 -8.5h-88q-8 0 -11 3l-7 7l-113 123l-155 -123q-10 -10 -25 -10h-106q-11 0 -11 8z" />
<glyph unicode="&#xc3;" d="M-4 11.5q-2 11.5 2 21.5l674 1335q8 18 26 18h90q14 0 19 -18l194 -1335q6 -33 -26 -33h-57q-16 0 -21.5 8t-7.5 21l-66 450h-293l-215 -61l-192 -389q-16 -29 -39 -29h-70q-16 0 -18 11.5zM381 549l92 29q43 12 92 12h244l-90 639zM475 1602l12 63q2 20 31 37 q41 23 82 37t80 14l178 -61q41 0 85 14t87 37q10 4 17.5 0t3.5 -14l-11 -64q-2 -20 -30 -37q-41 -23 -82 -37t-82 -14l-178 61q-39 0 -83 -14t-87 -37q-10 -4 -17.5 0.5t-5.5 14.5z" />
<glyph unicode="&#xc4;" d="M-4 11.5q-2 11.5 2 21.5l674 1335q8 18 26 18h90q14 0 19 -18l194 -1335q6 -33 -26 -33h-57q-16 0 -21.5 8t-7.5 21l-66 450h-293l-215 -61l-192 -389q-16 -29 -39 -29h-70q-16 0 -18 11.5zM381 549l92 29q43 12 92 12h244l-90 639zM549 1599l20 115q4 12 9.5 19.5 t23.5 7.5h51q29 0 23 -27l-21 -115q-2 -23 -30 -22h-52q-16 0 -21 3t-3 19zM874 1599l21 115q4 12 9 19.5t24 7.5h51q29 0 22 -27l-20 -115q-2 -12 -7 -17t-24 -5h-51q-16 0 -21.5 3t-3.5 19z" />
<glyph unicode="&#xc5;" d="M-4 11.5q-2 11.5 2 21.5l674 1335q8 18 26 18h90q14 0 19 -18l194 -1335q6 -33 -26 -33h-57q-16 0 -21.5 8t-7.5 21l-66 450h-293l-215 -61l-192 -389q-16 -29 -39 -29h-70q-16 0 -18 11.5zM381 549l92 29q43 12 92 12h244l-90 639zM604 1702q0 70 48 118t118 48t118 -48 t48 -118t-48 -118t-118 -48t-118 48t-48 118zM688 1702q0 -35 23.5 -58.5t58.5 -23.5t58.5 23.5t23.5 58.5t-23.5 58.5t-58.5 23.5t-58.5 -23.5t-23.5 -58.5z" />
<glyph unicode="&#xc6;" horiz-adv-x="1634" d="M-57 9q-4 9 4 24l835 1335q12 18 25 18h823q16 0 19.5 -9t1.5 -19l-11 -58q-4 -16 -9 -20t-17 -4h-565l-93 -522l88 26q39 12 84 13h318q16 0 18 -6.5t0 -18.5l-10 -57q-4 -18 -10 -23.5t-19 -5.5h-333l-156 -45l-92 -526h606q12 0 17.5 -4.5t0.5 -20.5l-10 -61 q-2 -10 -8 -17.5t-18 -7.5h-697q-23 0 -16 23l104 583l-145 -41q-20 -6 -44 -9t-46 -3h-191l-323 -524q-18 -29 -41 -29h-72q-14 0 -18 9zM469 664h170l205 59l96 553h-94z" />
<glyph unicode="&#xc7;" horiz-adv-x="1173" d="M159.5 292q-16.5 85 0.5 177l86 487q16 96 69.5 179.5t125 143.5t152.5 94t155 34h12l381 -127q20 -6 10 -31l-23 -59q-8 -23 -30 -12l-359 118q-59 -4 -122.5 -32.5t-119 -77.5t-95.5 -115.5t-54 -144.5l-82 -465q-12 -66 -2 -129.5t38 -112.5t73 -78.5t104 -29.5h193 q61 0 109 20.5t84 54t58.5 77.5t30.5 89q2 25 29 25h61q23 0 21 -25q-31 -172 -141.5 -262t-259.5 -90h-207q-74 0 -135.5 39t-103.5 103.5t-58.5 149.5zM397 -387l19 102q2 14 12 31l78 129q12 20 37 21h75q10 0 12.5 -9.5t-3.5 -19.5l-154 -254q-10 -18 -27 -19h-34 q-19 1 -15 19z" />
<glyph unicode="&#xc8;" horiz-adv-x="1034" d="M119 23l237 1339q2 16 7.5 20t11.5 4h655q16 0 19.5 -9t1.5 -19l-11 -58q-4 -16 -9 -20t-17 -4h-565l-93 -522l88 26q39 12 84 13h318q16 0 18 -6.5t0 -18.5l-10 -57q-4 -18 -10 -23.5t-19 -5.5h-333l-156 -45l-92 -526h606q12 0 17 -4.5t1 -20.5l-10 -61 q-2 -10 -8 -17.5t-19 -7.5h-696q-18 0 -16 23zM467 1710l25 47q12 25 30 15l301 -158q23 -10 17 -25q-4 -12 -21 -12h-143q-12 0 -25 6l-178 94q-18 10 -6 33z" />
<glyph unicode="&#xc9;" horiz-adv-x="1034" d="M119 23l237 1339q2 16 7.5 20t11.5 4h655q16 0 19.5 -9t1.5 -19l-11 -58q-4 -16 -9 -20t-17 -4h-565l-93 -522l88 26q39 12 84 13h318q16 0 18 -6.5t0 -18.5l-10 -57q-4 -18 -10 -23.5t-19 -5.5h-333l-156 -45l-92 -526h606q12 0 17 -4.5t1 -20.5l-10 -61 q-2 -10 -8 -17.5t-19 -7.5h-696q-18 0 -16 23zM573 1593q-2 8 0 13.5t13 9.5l338 149q18 8 26 -14l23 -55q6 -23 -19 -33l-182 -80q-12 -6 -31 -6h-153q-11 0 -15 16z" />
<glyph unicode="&#xca;" horiz-adv-x="1034" d="M119 23l237 1339q2 16 7.5 20t11.5 4h655q16 0 19.5 -9t1.5 -19l-11 -58q-4 -16 -9 -20t-17 -4h-565l-93 -522l88 26q39 12 84 13h318q16 0 18 -6.5t0 -18.5l-10 -57q-4 -18 -10 -23.5t-19 -5.5h-333l-156 -45l-92 -526h606q12 0 17 -4.5t1 -20.5l-10 -61 q-2 -10 -8 -17.5t-19 -7.5h-696q-18 0 -16 23zM444 1585q0 8 11 19l280 221q20 16 35 0l205 -221q8 -10 2 -18.5t-16 -8.5h-89q-8 0 -11 3l-7 7l-113 123l-155 -123q-10 -10 -25 -10h-106q-11 0 -11 8z" />
<glyph unicode="&#xcb;" horiz-adv-x="1034" d="M119 23l237 1339q2 16 7.5 20t11.5 4h655q16 0 19.5 -9t1.5 -19l-11 -58q-4 -16 -9 -20t-17 -4h-565l-93 -522l88 26q39 12 84 13h318q16 0 18 -6.5t0 -18.5l-10 -57q-4 -18 -10 -23.5t-19 -5.5h-333l-156 -45l-92 -526h606q12 0 17 -4.5t1 -20.5l-10 -61 q-2 -10 -8 -17.5t-19 -7.5h-696q-18 0 -16 23zM504 1599l20 115q4 12 9.5 19.5t23.5 7.5h51q29 0 23 -27l-21 -115q-2 -23 -30 -22h-52q-16 0 -21 3t-3 19zM829 1599l21 115q4 12 9 19.5t24 7.5h51q29 0 22 -27l-20 -115q-2 -12 -7 -17t-24 -5h-51q-16 0 -21.5 3t-3.5 19z " />
<glyph unicode="&#xcc;" horiz-adv-x="485" d="M119 23l237 1339q4 16 8.5 20t16.5 4h70q18 0 14 -24l-238 -1339q-4 -23 -26 -23h-68q-18 0 -14 23zM147 1710l25 47q12 25 31 15l301 -158q23 -10 16 -25q-4 -12 -20 -12h-144q-12 0 -24 6l-178 94q-19 10 -7 33z" />
<glyph unicode="&#xcd;" horiz-adv-x="485" d="M119 23l237 1339q4 16 8.5 20t16.5 4h70q18 0 14 -24l-238 -1339q-4 -23 -26 -23h-68q-18 0 -14 23zM360 1593q-2 8 0 13.5t13 9.5l338 149q18 8 26 -14l23 -55q6 -23 -19 -33l-182 -80q-12 -6 -31 -6h-153q-11 0 -15 16z" />
<glyph unicode="&#xce;" horiz-adv-x="485" d="M119 23l237 1339q4 16 8.5 20t16.5 4h70q18 0 14 -24l-238 -1339q-4 -23 -26 -23h-68q-18 0 -14 23zM160 1585q0 8 10 19l281 221q20 16 34 0l205 -221q8 -10 2 -18.5t-16 -8.5h-88q-8 0 -11 3l-8 7l-112 123l-156 -123q-10 -10 -25 -10h-106q-10 0 -10 8z" />
<glyph unicode="&#xcf;" horiz-adv-x="485" d="M119 23l237 1339q4 16 8.5 20t16.5 4h70q18 0 14 -24l-238 -1339q-4 -23 -26 -23h-68q-18 0 -14 23zM221 1599l21 115q4 12 9 19.5t23 7.5h52q29 0 22 -27l-20 -115q-2 -23 -31 -22h-51q-16 0 -21.5 3t-3.5 19zM547 1599l20 115q4 12 9.5 19.5t23.5 7.5h51q29 0 23 -27 l-21 -115q-2 -12 -7 -17t-23 -5h-52q-16 0 -21 3t-3 19z" />
<glyph unicode="&#xd0;" horiz-adv-x="1310" d="M90 709l12 61q4 25 29 25h164l90 501q2 14 21 25l116 57q16 8 29 8h403q74 0 135.5 -38.5t103.5 -103t58.5 -149.5t-0.5 -177l-86 -488q-16 -96 -60 -176t-104.5 -136.5t-132 -87t-145.5 -30.5h-545q-10 0 -16 5t-2 18l116 661h-167q-23 0 -19 25zM285 111h442 q59 0 114.5 26.5t99.5 74.5t77 111.5t45 137.5l82 465q12 66 2 129t-38 112.5t-73 79t-104 29.5h-443l-86 -481h172q6 0 16.5 -2t20.5 -7l105 -38q14 -6 10 -25l-2 -16q-4 -23 -29 -23h-311z" />
<glyph unicode="&#xd1;" horiz-adv-x="1320" d="M119 23l229 1292q2 16 14 24l89 43q23 16 32 -8l502 -1159l203 1147q2 16 6 20t20 4h56q16 0 23 -3t3 -21l-237 -1339q-6 -23 -31 -23h-49q-20 0 -31 23l-510 1185l-211 -1185q-2 -12 -6 -17.5t-20 -5.5h-56q-16 0 -22 3.5t-4 19.5zM565 1602l13 63q2 20 30 37 q41 23 82 37t80 14l178 -61q41 0 85 14t87 37q10 4 17.5 0t3.5 -14l-11 -64q-2 -20 -30 -37q-41 -23 -82 -37t-82 -14l-178 61q-39 0 -83 -14t-87 -37q-10 -4 -17.5 0.5t-5.5 14.5z" />
<glyph unicode="&#xd2;" horiz-adv-x="1277" d="M159.5 292q-16.5 85 0.5 177l86 487q16 96 60 176t104.5 136.5t132 87t145.5 30.5h273q29 0 51 -24l215 -268q8 -10 12 -23.5t0 -32.5l-109 -608q-16 -96 -60 -176t-104.5 -136.5t-132 -87t-145.5 -30.5h-231q-74 0 -135.5 39t-103.5 103.5t-58.5 149.5zM264 331.5 q10 -63.5 38 -112.5t73 -78.5t104 -29.5h213q59 0 114.5 26.5t99.5 74.5t77 111.5t45 137.5l102 575l-192 240h-254q-59 0 -114.5 -26.5t-99.5 -75t-77 -112t-45 -136.5l-82 -465q-12 -66 -2 -129.5zM588 1710l24 47q12 25 31 15l301 -158q23 -10 17 -25q-4 -12 -21 -12 h-143q-12 0 -25 6l-178 94q-18 10 -6 33z" />
<glyph unicode="&#xd3;" horiz-adv-x="1277" d="M159.5 292q-16.5 85 0.5 177l86 487q16 96 60 176t104.5 136.5t132 87t145.5 30.5h273q29 0 51 -24l215 -268q8 -10 12 -23.5t0 -32.5l-109 -608q-16 -96 -60 -176t-104.5 -136.5t-132 -87t-145.5 -30.5h-231q-74 0 -135.5 39t-103.5 103.5t-58.5 149.5zM264 331.5 q10 -63.5 38 -112.5t73 -78.5t104 -29.5h213q59 0 114.5 26.5t99.5 74.5t77 111.5t45 137.5l102 575l-192 240h-254q-59 0 -114.5 -26.5t-99.5 -75t-77 -112t-45 -136.5l-82 -465q-12 -66 -2 -129.5zM715 1593q-2 8 0 13.5t12 9.5l338 149q18 8 27 -14l22 -55q6 -23 -18 -33 l-183 -80q-12 -6 -30 -6h-154q-10 0 -14 16z" />
<glyph unicode="&#xd4;" horiz-adv-x="1277" d="M159.5 292q-16.5 85 0.5 177l86 487q16 96 60 176t104.5 136.5t132 87t145.5 30.5h273q29 0 51 -24l215 -268q8 -10 12 -23.5t0 -32.5l-109 -608q-16 -96 -60 -176t-104.5 -136.5t-132 -87t-145.5 -30.5h-231q-74 0 -135.5 39t-103.5 103.5t-58.5 149.5zM264 331.5 q10 -63.5 38 -112.5t73 -78.5t104 -29.5h213q59 0 114.5 26.5t99.5 74.5t77 111.5t45 137.5l102 575l-192 240h-254q-59 0 -114.5 -26.5t-99.5 -75t-77 -112t-45 -136.5l-82 -465q-12 -66 -2 -129.5zM561 1585q0 8 10 19l281 221q20 16 35 0l205 -221q8 -10 1.5 -18.5 t-16.5 -8.5h-88q-8 0 -11 3l-7 7l-113 123l-156 -123q-10 -10 -24 -10h-107q-10 0 -10 8z" />
<glyph unicode="&#xd5;" horiz-adv-x="1277" d="M159.5 292q-16.5 85 0.5 177l86 487q16 96 60 176t104.5 136.5t132 87t145.5 30.5h273q29 0 51 -24l215 -268q8 -10 12 -23.5t0 -32.5l-109 -608q-16 -96 -60 -176t-104.5 -136.5t-132 -87t-145.5 -30.5h-231q-74 0 -135.5 39t-103.5 103.5t-58.5 149.5zM264 331.5 q10 -63.5 38 -112.5t73 -78.5t104 -29.5h213q59 0 114.5 26.5t99.5 74.5t77 111.5t45 137.5l102 575l-192 240h-254q-59 0 -114.5 -26.5t-99.5 -75t-77 -112t-45 -136.5l-82 -465q-12 -66 -2 -129.5zM539 1602l12 63q2 20 31 37q41 23 82 37t79 14l179 -61q41 0 85 14t87 37 q10 4 17 0t3 -14l-10 -64q-2 -20 -31 -37q-41 -23 -82 -37t-82 -14l-178 61q-39 0 -83 -14t-87 -37q-10 -4 -17 0.5t-5 14.5z" />
<glyph unicode="&#xd6;" horiz-adv-x="1277" d="M159.5 292q-16.5 85 0.5 177l86 487q16 96 60 176t104.5 136.5t132 87t145.5 30.5h273q29 0 51 -24l215 -268q8 -10 12 -23.5t0 -32.5l-109 -608q-16 -96 -60 -176t-104.5 -136.5t-132 -87t-145.5 -30.5h-231q-74 0 -135.5 39t-103.5 103.5t-58.5 149.5zM264 331.5 q10 -63.5 38 -112.5t73 -78.5t104 -29.5h213q59 0 114.5 26.5t99.5 74.5t77 111.5t45 137.5l102 575l-192 240h-254q-59 0 -114.5 -26.5t-99.5 -75t-77 -112t-45 -136.5l-82 -465q-12 -66 -2 -129.5zM627 1599l20 115q4 12 9.5 19.5t23.5 7.5h51q29 0 23 -27l-21 -115 q-2 -23 -31 -22h-51q-16 0 -21 3t-3 19zM952 1599l21 115q4 12 9 19.5t24 7.5h51q29 0 22 -27l-20 -115q-2 -12 -7 -17t-24 -5h-51q-16 0 -21.5 3t-3.5 19z" />
<glyph unicode="&#xd7;" horiz-adv-x="1306" d="M260 330q-14 18 4 37l361 315l-250 317q-12 18 8 37l43 35q25 20 37 2l246 -315l360 315q16 16 33 2l43 -47q10 -18 -6 -35l-363 -319l250 -318q14 -16 -4 -34l-47 -39q-23 -14 -33 0l-252 315l-354 -313q-18 -18 -37 2z" />
<glyph unicode="&#xd8;" horiz-adv-x="1277" d="M154.5 333.5q-7.5 65.5 5.5 135.5l86 487q16 96 60 176t104.5 136.5t132 87t145.5 30.5h277l47 97q12 27 26 26h68q27 0 12 -26l-65 -135l180 -224q8 -10 12 -23.5t0 -31.5l-115 -639q-16 -96 -60 -176t-104.5 -136.5t-132 -87t-145.5 -30.5h-231q-25 0 -45 4l-50 -102 q-14 -25 -34 -25h-60q-23 0 -12 25l66 137q-45 27 -81 72t-57.5 101t-29 121.5zM266 461q-16 -98 11.5 -186.5t93.5 -133.5l542 1135h-229q-59 0 -114.5 -26.5t-99.5 -75t-77 -112t-45 -136.5zM463 111h229q59 0 114.5 26.5t99.5 74.5t77 111.5t45 137.5l107 598l-138 172z " />
<glyph unicode="&#xd9;" horiz-adv-x="1263" d="M178.5 292q-16.5 85 -0.5 177l158 893q2 25 24 24h64q23 0 20 -24l-159 -901q-12 -66 -2 -129.5t37.5 -112.5t72.5 -78.5t105 -29.5h159q59 0 114.5 26.5t99.5 74.5t77 111.5t45 137.5l160 901q2 10 9 17t18 7h63q20 0 19 -24l-166 -932q-16 -96 -60.5 -176t-105 -136.5 t-132 -87t-145.5 -30.5h-178q-74 0 -135 39t-103 103.5t-58.5 149.5zM569 1710l25 47q12 25 31 15l301 -158q23 -10 16 -25q-4 -12 -20 -12h-144q-12 0 -24 6l-179 94q-18 10 -6 33z" />
<glyph unicode="&#xda;" horiz-adv-x="1263" d="M178.5 292q-16.5 85 -0.5 177l158 893q2 25 24 24h64q23 0 20 -24l-159 -901q-12 -66 -2 -129.5t37.5 -112.5t72.5 -78.5t105 -29.5h159q59 0 114.5 26.5t99.5 74.5t77 111.5t45 137.5l160 901q2 10 9 17t18 7h63q20 0 19 -24l-166 -932q-16 -96 -60.5 -176t-105 -136.5 t-132 -87t-145.5 -30.5h-178q-74 0 -135 39t-103 103.5t-58.5 149.5zM707 1593q-2 8 0 13.5t12 9.5l338 149q18 8 26 -14l23 -55q6 -23 -19 -33l-182 -80q-12 -6 -31 -6h-153q-10 0 -14 16z" />
<glyph unicode="&#xdb;" horiz-adv-x="1263" d="M178.5 292q-16.5 85 -0.5 177l158 893q2 25 24 24h64q23 0 20 -24l-159 -901q-12 -66 -2 -129.5t37.5 -112.5t72.5 -78.5t105 -29.5h159q59 0 114.5 26.5t99.5 74.5t77 111.5t45 137.5l160 901q2 10 9 17t18 7h63q20 0 19 -24l-166 -932q-16 -96 -60.5 -176t-105 -136.5 t-132 -87t-145.5 -30.5h-178q-74 0 -135 39t-103 103.5t-58.5 149.5zM553 1585q0 8 10 19l281 221q20 16 35 0l204 -221q8 -10 2 -18.5t-16 -8.5h-88q-8 0 -11 3l-7 7l-113 123l-156 -123q-10 -10 -24 -10h-107q-10 0 -10 8z" />
<glyph unicode="&#xdc;" horiz-adv-x="1263" d="M178.5 292q-16.5 85 -0.5 177l158 893q2 25 24 24h64q23 0 20 -24l-159 -901q-12 -66 -2 -129.5t37.5 -112.5t72.5 -78.5t105 -29.5h159q59 0 114.5 26.5t99.5 74.5t77 111.5t45 137.5l160 901q2 10 9 17t18 7h63q20 0 19 -24l-166 -932q-16 -96 -60.5 -176t-105 -136.5 t-132 -87t-145.5 -30.5h-178q-74 0 -135 39t-103 103.5t-58.5 149.5zM606 1599l21 115q4 12 9 19.5t23 7.5h52q29 0 22 -27l-20 -115q-2 -23 -31 -22h-51q-16 0 -21.5 3t-3.5 19zM932 1599l20 115q4 12 9.5 19.5t23.5 7.5h51q29 0 23 -27l-21 -115q-2 -12 -7 -17t-23 -5h-52 q-16 0 -21 3t-3 19z" />
<glyph unicode="&#xdd;" horiz-adv-x="997" d="M221 1317q-8 23 19 37l51 28q25 10 31 -14l217 -698l467 702q8 10 18 15.5t20 -1.5l50 -30q20 -12 4 -37l-520 -772l-93 -520q-4 -27 -30 -27h-56q-27 0 -22 27l92 520zM555 1593q-2 8 0 13.5t12 9.5l338 149q18 8 27 -14l22 -55q6 -23 -18 -33l-182 -80q-12 -6 -31 -6 h-154q-10 0 -14 16z" />
<glyph unicode="&#xde;" horiz-adv-x="1110" d="M119 23l237 1339q4 16 8.5 20t16.5 4h70q18 0 14 -24l-55 -315l67 20q39 12 84 12h256q68 0 122 -29.5t91 -82t53.5 -122t8.5 -149.5q-10 -84 -43 -149.5t-83.5 -110.5t-114 -67.5t-130.5 -22.5h-434l-60 -323q-2 -23 -30 -23h-56q-16 0 -20 5.5t-2 17.5zM305 457h420 q94 0 168 63.5t88 177.5q14 117 -35 194t-151 77h-275l-131 -37z" />
<glyph unicode="&#xdf;" d="M55 -383l256 1444q14 78 47 141.5t81 107.5t109.5 68.5t133.5 24.5q88 0 151.5 -31t99.5 -85t46 -125.5t-4 -151.5l-12 -66q-4 -23 -21 -22q-109 -10 -198 -73t-123 -190l239 -155q152 -98 121 -264q-23 -123 -102.5 -189.5t-214.5 -66.5q-72 0 -141.5 34.5t-116.5 106.5 q-10 12 2 20l59 48q12 12 22 -3q61 -96 183 -96q90 0 140 41t62 117q18 98 -73 160l-299 198l4 23q14 86 49 151.5t84 112.5t107.5 78t121.5 43q25 127 -21 200.5t-171 73.5q-80 0 -149.5 -49t-102.5 -141l-260 -1485q-2 -23 -27 -23h-63q-21 0 -19 23z" />
<glyph unicode="&#xe0;" horiz-adv-x="1032" d="M135 198.5q-12 63.5 0 131.5l60 334q29 162 136 247.5t263 85.5q78 0 139.5 -27.5t101 -77.5t55 -118.5t1.5 -148.5l-84 -478l33 -106q6 -23 -21 -33l-55 -22q-23 -8 -31 16l-20 80l-279 -98h-31q-74 0 -130 28.5t-91 75.5t-47 110.5zM244 234.5q8 -48.5 32.5 -80 t63.5 -47t86 -13.5l281 96l77 443q18 104 -32 179t-168 75q-123 0 -195 -69.5t-92 -184.5l-51 -289q-10 -61 -2 -109.5zM399 1305l25 47q12 25 31 14l301 -158q23 -10 16 -24q-4 -12 -20 -13h-144q-12 0 -24 7l-178 94q-19 10 -7 33z" />
<glyph unicode="&#xe1;" horiz-adv-x="1032" d="M135 198.5q-12 63.5 0 131.5l60 334q29 162 136 247.5t263 85.5q78 0 139.5 -27.5t101 -77.5t55 -118.5t1.5 -148.5l-84 -478l33 -106q6 -23 -21 -33l-55 -22q-23 -8 -31 16l-20 80l-279 -98h-31q-74 0 -130 28.5t-91 75.5t-47 110.5zM244 234.5q8 -48.5 32.5 -80 t63.5 -47t86 -13.5l281 96l77 443q18 104 -32 179t-168 75q-123 0 -195 -69.5t-92 -184.5l-51 -289q-10 -61 -2 -109.5zM485 1188q-2 8 0 13t13 9l338 150q18 8 26 -14l23 -56q6 -23 -19 -33l-182 -79q-12 -6 -31 -7h-153q-11 1 -15 17z" />
<glyph unicode="&#xe2;" horiz-adv-x="1032" d="M135 198.5q-12 63.5 0 131.5l60 334q29 162 136 247.5t263 85.5q78 0 139.5 -27.5t101 -77.5t55 -118.5t1.5 -148.5l-84 -478l33 -106q6 -23 -21 -33l-55 -22q-23 -8 -31 16l-20 80l-279 -98h-31q-74 0 -130 28.5t-91 75.5t-47 110.5zM244 234.5q8 -48.5 32.5 -80 t63.5 -47t86 -13.5l281 96l77 443q18 104 -32 179t-168 75q-123 0 -195 -69.5t-92 -184.5l-51 -289q-10 -61 -2 -109.5zM356 1179.5q0 8.5 11 18.5l280 221q20 16 35 0l205 -221q8 -10 2 -18.5t-17 -8.5h-88q-8 0 -11 4l-7 7l-113 123l-155 -123q-10 -10 -25 -11h-106 q-11 0 -11 8.5z" />
<glyph unicode="&#xe3;" horiz-adv-x="1032" d="M135 198.5q-12 63.5 0 131.5l60 334q29 162 136 247.5t263 85.5q78 0 139.5 -27.5t101 -77.5t55 -118.5t1.5 -148.5l-84 -478l33 -106q6 -23 -21 -33l-55 -22q-23 -8 -31 16l-20 80l-279 -98h-31q-74 0 -130 28.5t-91 75.5t-47 110.5zM244 234.5q8 -48.5 32.5 -80 t63.5 -47t86 -13.5l281 96l77 443q18 104 -32 179t-168 75q-123 0 -195 -69.5t-92 -184.5l-51 -289q-10 -61 -2 -109.5zM336 1196l12 64q2 20 31 36q41 23 82 37.5t80 14.5l178 -62q41 0 85 14.5t87 36.5q10 4 17 0t3 -14l-10 -63q-2 -20 -31 -37q-41 -23 -81.5 -37.5 t-81.5 -14.5l-179 62q-39 0 -83 -14.5t-87 -36.5q-10 -4 -17 0t-5 14z" />
<glyph unicode="&#xe4;" horiz-adv-x="1032" d="M135 198.5q-12 63.5 0 131.5l60 334q29 162 136 247.5t263 85.5q78 0 139.5 -27.5t101 -77.5t55 -118.5t1.5 -148.5l-84 -478l33 -106q6 -23 -21 -33l-55 -22q-23 -8 -31 16l-20 80l-279 -98h-31q-74 0 -130 28.5t-91 75.5t-47 110.5zM244 234.5q8 -48.5 32.5 -80 t63.5 -47t86 -13.5l281 96l77 443q18 104 -32 179t-168 75q-123 0 -195 -69.5t-92 -184.5l-51 -289q-10 -61 -2 -109.5zM397 1194l21 115q4 12 9 19t24 7h51q29 0 22 -26l-20 -115q-2 -23 -31 -23h-51q-16 0 -21.5 3.5t-3.5 19.5zM723 1194l20 115q4 12 9.5 19t23.5 7h51 q29 0 23 -26l-21 -115q-2 -12 -7 -17.5t-23 -5.5h-51q-16 0 -21.5 3.5t-3.5 19.5z" />
<glyph unicode="&#xe5;" horiz-adv-x="1032" d="M135 198.5q-12 63.5 0 131.5l60 334q29 162 136 247.5t263 85.5q78 0 139.5 -27.5t101 -77.5t55 -118.5t1.5 -148.5l-84 -478l33 -106q6 -23 -21 -33l-55 -22q-23 -8 -31 16l-20 80l-279 -98h-31q-74 0 -130 28.5t-91 75.5t-47 110.5zM244 234.5q8 -48.5 32.5 -80 t63.5 -47t86 -13.5l281 96l77 443q18 104 -32 179t-168 75q-123 0 -195 -69.5t-92 -184.5l-51 -289q-10 -61 -2 -109.5zM459 1296q0 70 48 118t118 48t118 -48t48 -118t-48.5 -118t-117.5 -48q-70 0 -118 48t-48 118zM543 1296q0 -35 23.5 -58.5t58.5 -23.5t58.5 24t23.5 58 q0 35 -24 58.5t-58 23.5q-35 0 -58.5 -23.5t-23.5 -58.5z" />
<glyph unicode="&#xe6;" horiz-adv-x="1591" d="M135 198.5q-12 63.5 0 131.5l60 334q29 162 136 247.5t263 85.5q98 0 165.5 -44t102.5 -117q102 162 326 161q78 0 139.5 -28.5t101 -80.5t53 -125t-4.5 -163l-45 -94q-8 -16 -25 -19l-557 -92l-8 -47q-10 -53 -3 -99t31.5 -80t66.5 -54.5t101 -20.5l293 82q16 4 21 -16 l16 -60q8 -27 -20 -32l-308 -84h-12q-86 0 -148.5 31.5t-101.5 88.5l-344 -120h-31q-74 0 -130 28.5t-91 75.5t-47 110.5zM244 234.5q8 -48.5 32.5 -80t63.5 -47t86 -13.5l309 107q-14 70 0 155l49 277q18 104 -32 179t-168 75q-123 0 -195 -69.5t-92 -184.5l-51 -289 q-10 -61 -2 -109.5zM868 506l500 84l6 39q8 51 1 98t-30.5 83t-65.5 56.5t-101 20.5q-123 0 -194 -66.5t-91 -181.5z" />
<glyph unicode="&#xe7;" horiz-adv-x="950" d="M139.5 207.5q-14.5 68.5 -0.5 148.5l56 314q29 162 138 244.5t265 82.5q63 0 131 -13t131 -40q14 -6 8 -24l-22 -68q-8 -20 -27 -14q-53 23 -115.5 36t-115.5 13q-123 0 -197 -66.5t-94 -181.5l-51 -291q-10 -53 -3 -99t31.5 -80t66.5 -54.5t101 -20.5l293 82 q16 4 21 -16l16 -60q8 -27 -20 -32l-308 -84h-12q-78 0 -138.5 27.5t-100 77.5t-54 118.5zM285 -387l18 102q2 14 12 31l78 129q12 20 37 21h76q10 0 12 -9.5t-4 -19.5l-154 -254q-10 -18 -26 -19h-35q-18 1 -14 19z" />
<glyph unicode="&#xe8;" horiz-adv-x="995" d="M139.5 207.5q-14.5 68.5 -0.5 148.5l56 314q29 162 135 244.5t262 82.5q78 0 139.5 -28.5t101 -80.5t53 -125t-4.5 -163l-45 -94q-8 -16 -25 -19l-557 -92l-8 -47q-10 -53 -3 -99t31.5 -80t66.5 -54.5t101 -20.5l293 82q16 4 21 -16l16 -60q8 -27 -20 -32l-308 -84h-12 q-78 0 -138.5 27.5t-100 77.5t-54 118.5zM272 506l500 84l6 39q8 51 1 98t-30.5 83t-65.5 56.5t-101 20.5q-123 0 -194 -66.5t-91 -181.5zM367 1305l24 47q12 25 31 14l301 -158q23 -10 16 -24q-4 -12 -20 -13h-144q-12 0 -24 7l-178 94q-18 10 -6 33z" />
<glyph unicode="&#xe9;" horiz-adv-x="995" d="M139.5 207.5q-14.5 68.5 -0.5 148.5l56 314q29 162 135 244.5t262 82.5q78 0 139.5 -28.5t101 -80.5t53 -125t-4.5 -163l-45 -94q-8 -16 -25 -19l-557 -92l-8 -47q-10 -53 -3 -99t31.5 -80t66.5 -54.5t101 -20.5l293 82q16 4 21 -16l16 -60q8 -27 -20 -32l-308 -84h-12 q-78 0 -138.5 27.5t-100 77.5t-54 118.5zM272 506l500 84l6 39q8 51 1 98t-30.5 83t-65.5 56.5t-101 20.5q-123 0 -194 -66.5t-91 -181.5zM473 1188q-2 8 0 13t12 9l338 150q18 8 27 -14l22 -56q6 -23 -18 -33l-182 -79q-12 -6 -31 -7h-154q-10 1 -14 17z" />
<glyph unicode="&#xea;" horiz-adv-x="995" d="M139.5 207.5q-14.5 68.5 -0.5 148.5l56 314q29 162 135 244.5t262 82.5q78 0 139.5 -28.5t101 -80.5t53 -125t-4.5 -163l-45 -94q-8 -16 -25 -19l-557 -92l-8 -47q-10 -53 -3 -99t31.5 -80t66.5 -54.5t101 -20.5l293 82q16 4 21 -16l16 -60q8 -27 -20 -32l-308 -84h-12 q-78 0 -138.5 27.5t-100 77.5t-54 118.5zM272 506l500 84l6 39q8 51 1 98t-30.5 83t-65.5 56.5t-101 20.5q-123 0 -194 -66.5t-91 -181.5zM344 1179.5q0 8.5 10 18.5l281 221q20 16 35 0l204 -221q8 -10 2 -18.5t-16 -8.5h-88q-8 0 -11 4l-7 7l-113 123l-156 -123 q-10 -10 -24 -11h-107q-10 0 -10 8.5z" />
<glyph unicode="&#xeb;" horiz-adv-x="995" d="M139.5 207.5q-14.5 68.5 -0.5 148.5l56 314q29 162 135 244.5t262 82.5q78 0 139.5 -28.5t101 -80.5t53 -125t-4.5 -163l-45 -94q-8 -16 -25 -19l-557 -92l-8 -47q-10 -53 -3 -99t31.5 -80t66.5 -54.5t101 -20.5l293 82q16 4 21 -16l16 -60q8 -27 -20 -32l-308 -84h-12 q-78 0 -138.5 27.5t-100 77.5t-54 118.5zM272 506l500 84l6 39q8 51 1 98t-30.5 83t-65.5 56.5t-101 20.5q-123 0 -194 -66.5t-91 -181.5zM385 1194l21 115q4 12 9 19t23 7h51q29 0 23 -26l-20 -115q-2 -23 -31 -23h-51q-16 0 -21.5 3.5t-3.5 19.5zM711 1194l20 115 q4 12 9 19t24 7h51q29 0 23 -26l-21 -115q-2 -12 -7 -17.5t-24 -5.5h-51q-16 0 -21 3.5t-3 19.5z" />
<glyph unicode="&#xec;" horiz-adv-x="493" d="M74 1305l24 47q12 25 31 14l301 -158q23 -10 16 -24q-4 -12 -20 -13h-143q-12 0 -25 7l-178 94q-18 10 -6 33zM121 23l166 935q4 16 8 19.5t16 3.5h70q18 0 14 -23l-166 -935q-4 -23 -26 -23h-68q-18 0 -14 23z" />
<glyph unicode="&#xed;" horiz-adv-x="493" d="M121 23l166 935q4 16 8 19.5t16 3.5h70q18 0 14 -23l-166 -935q-4 -23 -26 -23h-68q-18 0 -14 23zM283 1188q-2 8 0 13t12 9l338 150q18 8 26 -14l23 -56q6 -23 -18 -33l-183 -79q-12 -6 -30 -7h-154q-10 1 -14 17z" />
<glyph unicode="&#xee;" horiz-adv-x="493" d="M92 1179.5q0 8.5 10 18.5l281 221q20 16 35 0l205 -221q8 -10 1.5 -18.5t-16.5 -8.5h-88q-8 0 -11 4l-7 7l-113 123l-156 -123q-10 -10 -24 -11h-107q-10 0 -10 8.5zM121 23l166 935q4 16 8 19.5t16 3.5h70q18 0 14 -23l-166 -935q-4 -23 -26 -23h-68q-18 0 -14 23z" />
<glyph unicode="&#xef;" horiz-adv-x="493" d="M121 23l166 935q4 16 8 19.5t16 3.5h70q18 0 14 -23l-166 -935q-4 -23 -26 -23h-68q-18 0 -14 23zM154 1194l20 115q4 12 9 19t24 7h51q29 0 23 -26l-21 -115q-2 -23 -31 -23h-51q-16 0 -21 3.5t-3 19.5zM479 1194l21 115q4 12 9 19t23 7h52q29 0 22 -26l-20 -115 q-2 -12 -7.5 -17.5t-23.5 -5.5h-51q-16 0 -21.5 3.5t-3.5 19.5z" />
<glyph unicode="&#xf0;" horiz-adv-x="1009" d="M139.5 207.5q-14.5 68.5 -0.5 148.5l51 297q29 162 135.5 245t262.5 83h23q11 0 22 -2l-115 149l-49 -16q-4 -2 -16.5 -3t-22.5 -1h-125q-14 0 -18 18l-2 9q-6 25 18 30l150 49l-84 111q-4 8 -5.5 18.5t9.5 18.5l43 35q6 6 16 8t17 -8l112 -148l262 88q23 6 29 -16 l16 -51q4 -10 -4 -19.5t-18 -13.5l-219 -74l174 -227q59 -76 77.5 -159t2.5 -169l-52 -297q-29 -162 -135 -244.5t-262 -82.5q-78 0 -138.5 27.5t-100 77.5t-54 118.5zM243 249q7 -46 31.5 -80t66.5 -54.5t101 -20.5q123 0 194 66.5t91 181.5l47 274q18 104 -30 179t-166 75 q-123 0 -194 -66.5t-91 -180.5l-47 -275q-10 -53 -3 -99z" />
<glyph unicode="&#xf1;" horiz-adv-x="1071" d="M119 23l143 811l-33 106q-6 23 21 33l55 22q23 8 31 -16l22 -70l248 88h31q74 0 134 -28.5t100 -75.5t57.5 -110.5t5.5 -131.5l-111 -628q-2 -23 -22 -23h-64q-25 0 -22 23l108 614q12 61 0 109.5t-41.5 80t-72.5 47t-95 13.5l-249 -86l-138 -778q-2 -23 -22 -23h-64 q-24 0 -22 23zM369 1196l12 64q2 20 31 36q41 23 82 37.5t79 14.5l179 -62q41 0 85 14.5t87 36.5q10 4 17 0t3 -14l-10 -63q-2 -20 -31 -37q-41 -23 -82 -37.5t-82 -14.5l-178 62q-39 0 -83 -14.5t-87 -36.5q-10 -4 -17 0t-5 14z" />
<glyph unicode="&#xf2;" horiz-adv-x="1009" d="M139.5 207.5q-14.5 68.5 -0.5 148.5l56 314q29 162 135 244.5t262 82.5q78 0 138.5 -27.5t100 -77.5t54 -118.5t0.5 -148.5l-56 -314q-29 -162 -135 -244.5t-262 -82.5q-78 0 -138.5 27.5t-100 77.5t-54 118.5zM243 249q7 -46 31.5 -80t66.5 -54.5t101 -20.5 q123 0 194 66.5t91 181.5l51 291q18 104 -30 179t-166 75q-123 0 -194 -66.5t-91 -181.5l-51 -291q-10 -53 -3 -99zM348 1305l25 47q12 25 30 14l302 -158q23 -10 16 -24q-4 -12 -21 -13h-143q-12 0 -25 7l-178 94q-18 10 -6 33z" />
<glyph unicode="&#xf3;" horiz-adv-x="1009" d="M139.5 207.5q-14.5 68.5 -0.5 148.5l56 314q29 162 135 244.5t262 82.5q78 0 138.5 -27.5t100 -77.5t54 -118.5t0.5 -148.5l-56 -314q-29 -162 -135 -244.5t-262 -82.5q-78 0 -138.5 27.5t-100 77.5t-54 118.5zM243 249q7 -46 31.5 -80t66.5 -54.5t101 -20.5 q123 0 194 66.5t91 181.5l51 291q18 104 -30 179t-166 75q-123 0 -194 -66.5t-91 -181.5l-51 -291q-10 -53 -3 -99zM479 1188q-2 8 0 13t13 9l337 150q18 8 27 -14l23 -56q6 -23 -19 -33l-182 -79q-12 -6 -31 -7h-153q-11 1 -15 17z" />
<glyph unicode="&#xf4;" horiz-adv-x="1009" d="M139.5 207.5q-14.5 68.5 -0.5 148.5l56 314q29 162 135 244.5t262 82.5q78 0 138.5 -27.5t100 -77.5t54 -118.5t0.5 -148.5l-56 -314q-29 -162 -135 -244.5t-262 -82.5q-78 0 -138.5 27.5t-100 77.5t-54 118.5zM243 249q7 -46 31.5 -80t66.5 -54.5t101 -20.5 q123 0 194 66.5t91 181.5l51 291q18 104 -30 179t-166 75q-123 0 -194 -66.5t-91 -181.5l-51 -291q-10 -53 -3 -99zM350 1179.5q0 8.5 10 18.5l281 221q20 16 35 0l205 -221q8 -10 2 -18.5t-17 -8.5h-88q-8 0 -11 4l-7 7l-113 123l-155 -123q-10 -10 -25 -11h-107 q-10 0 -10 8.5z" />
<glyph unicode="&#xf5;" horiz-adv-x="1009" d="M139.5 207.5q-14.5 68.5 -0.5 148.5l56 314q29 162 135 244.5t262 82.5q78 0 138.5 -27.5t100 -77.5t54 -118.5t0.5 -148.5l-56 -314q-29 -162 -135 -244.5t-262 -82.5q-78 0 -138.5 27.5t-100 77.5t-54 118.5zM243 249q7 -46 31.5 -80t66.5 -54.5t101 -20.5 q123 0 194 66.5t91 181.5l51 291q18 104 -30 179t-166 75q-123 0 -194 -66.5t-91 -181.5l-51 -291q-10 -53 -3 -99zM328 1196l12 64q2 20 31 36q41 23 82 37.5t79 14.5l179 -62q41 0 85 14.5t87 36.5q10 4 17 0t3 -14l-10 -63q-2 -20 -31 -37q-41 -23 -82 -37.5t-82 -14.5 l-178 62q-39 0 -83 -14.5t-87 -36.5q-10 -4 -17 0t-5 14z" />
<glyph unicode="&#xf6;" horiz-adv-x="1009" d="M139.5 207.5q-14.5 68.5 -0.5 148.5l56 314q29 162 135 244.5t262 82.5q78 0 138.5 -27.5t100 -77.5t54 -118.5t0.5 -148.5l-56 -314q-29 -162 -135 -244.5t-262 -82.5q-78 0 -138.5 27.5t-100 77.5t-54 118.5zM243 249q7 -46 31.5 -80t66.5 -54.5t101 -20.5 q123 0 194 66.5t91 181.5l51 291q18 104 -30 179t-166 75q-123 0 -194 -66.5t-91 -181.5l-51 -291q-10 -53 -3 -99zM397 1194l21 115q4 12 9 19t24 7h51q29 0 22 -26l-20 -115q-2 -23 -31 -23h-51q-16 0 -21.5 3.5t-3.5 19.5zM723 1194l20 115q4 12 9.5 19t23.5 7h51 q29 0 23 -26l-21 -115q-2 -12 -7 -17.5t-23 -5.5h-51q-16 0 -21.5 3.5t-3.5 19.5z" />
<glyph unicode="&#xf7;" horiz-adv-x="1306" d="M240 649l10 58q6 27 31 26h860q10 0 16 -7t4 -17l-12 -62q-4 -25 -27 -24h-862q-22 -1 -20 26zM567 231l21 115q4 12 10 19.5t25 7.5h51q27 0 20 -27l-20 -115q-2 -23 -31 -22h-51q-16 0 -21.5 3t-3.5 19zM705 1006l20 114q2 12 8 19.5t25 7.5h51q29 0 22 -27l-20 -114 q-2 -23 -31 -23h-51q-16 0 -22 3.5t-2 19.5z" />
<glyph unicode="&#xf8;" horiz-adv-x="1009" d="M102 -98l103 172q-47 51 -64.5 122.5t-1.5 159.5l56 314q29 162 135 244.5t262 82.5q78 0 147 -32l68 112q18 27 33 27h71q25 0 9 -27l-103 -170q47 -51 65.5 -122.5t2.5 -159.5l-56 -314q-29 -162 -135 -244.5t-262 -82.5q-43 0 -80 8t-69 24l-70 -114 q-10 -14 -15 -19.5t-20 -5.5h-61q-29 0 -15 25zM246 348q-18 -100 22 -170l412 688q-45 20 -98 21q-123 0 -194 -66.5t-91 -181.5zM340 115q41 -20 102 -21q123 0 194 66.5t91 181.5l51 291q8 49 3 92t-27 78z" />
<glyph unicode="&#xf9;" horiz-adv-x="1071" d="M164 330l110 628q2 23 23 23h63q25 0 23 -23l-109 -614q-12 -61 0.5 -109.5t42 -80t72.5 -47t94 -13.5l250 86l137 778q2 23 23 23h63q25 0 23 -23l-143 -811l32 -106q6 -23 -20 -33l-55 -22q-23 -8 -31 16l-23 70l-247 -88h-31q-74 0 -134.5 28.5t-100.5 75.5t-57 110.5 t-5 131.5zM403 1305l25 47q12 25 31 14l301 -158q23 -10 16 -24q-4 -12 -20 -13h-144q-12 0 -24 7l-178 94q-19 10 -7 33z" />
<glyph unicode="&#xfa;" horiz-adv-x="1071" d="M164 330l110 628q2 23 23 23h63q25 0 23 -23l-109 -614q-12 -61 0.5 -109.5t42 -80t72.5 -47t94 -13.5l250 86l137 778q2 23 23 23h63q25 0 23 -23l-143 -811l32 -106q6 -23 -20 -33l-55 -22q-23 -8 -31 16l-23 70l-247 -88h-31q-74 0 -134.5 28.5t-100.5 75.5t-57 110.5 t-5 131.5zM551 1188q-2 8 0 13t12 9l338 150q18 8 27 -14l22 -56q6 -23 -18 -33l-182 -79q-12 -6 -31 -7h-154q-10 1 -14 17z" />
<glyph unicode="&#xfb;" horiz-adv-x="1071" d="M164 330l110 628q2 23 23 23h63q25 0 23 -23l-109 -614q-12 -61 0.5 -109.5t42 -80t72.5 -47t94 -13.5l250 86l137 778q2 23 23 23h63q25 0 23 -23l-143 -811l32 -106q6 -23 -20 -33l-55 -22q-23 -8 -31 16l-23 70l-247 -88h-31q-74 0 -134.5 28.5t-100.5 75.5t-57 110.5 t-5 131.5zM381 1179.5q0 8.5 10 18.5l281 221q20 16 35 0l204 -221q8 -10 2 -18.5t-16 -8.5h-88q-8 0 -11 4l-7 7l-113 123l-156 -123q-10 -10 -24 -11h-107q-10 0 -10 8.5z" />
<glyph unicode="&#xfc;" horiz-adv-x="1071" d="M164 330l110 628q2 23 23 23h63q25 0 23 -23l-109 -614q-12 -61 0.5 -109.5t42 -80t72.5 -47t94 -13.5l250 86l137 778q2 23 23 23h63q25 0 23 -23l-143 -811l32 -106q6 -23 -20 -33l-55 -22q-23 -8 -31 16l-23 70l-247 -88h-31q-74 0 -134.5 28.5t-100.5 75.5t-57 110.5 t-5 131.5zM434 1194l21 115q4 12 9 19t23 7h52q29 0 22 -26l-20 -115q-2 -23 -31 -23h-51q-16 0 -21.5 3.5t-3.5 19.5zM760 1194l20 115q4 12 9.5 19t23.5 7h51q29 0 23 -26l-21 -115q-2 -12 -7 -17.5t-23 -5.5h-52q-16 0 -21 3.5t-3 19.5z" />
<glyph unicode="&#xfd;" horiz-adv-x="931" d="M-6 -346q-4 25 20 31q104 25 164 62.5t98 111.5l70 133l-178 956q-6 29 18 35l60 18q23 6 24 -16l160 -835l414 802q12 29 45 29h57q16 0 20.5 -9t-3.5 -24l-586 -1130q-55 -104 -142.5 -160.5t-207.5 -79.5q-10 -2 -15.5 1t-7.5 15zM483 1188q-2 8 0 13t13 9l338 150 q18 8 26 -14l23 -56q6 -23 -19 -33l-182 -79q-12 -6 -31 -7h-153q-11 1 -15 17z" />
<glyph unicode="&#xfe;" horiz-adv-x="1040" d="M47 -383l309 1745q4 16 8.5 20t16.5 4h70q18 0 14 -24l-78 -442l219 77h31q74 0 134 -28.5t100 -75.5t57.5 -110.5t5.5 -131.5l-60 -334q-29 -162 -136 -247.5t-263 -85.5q-82 0 -141.5 30.5t-93.5 83.5l-84 -481q-4 -23 -27 -23h-68q-18 0 -14 23zM282.5 249 q8.5 -46 33 -80t67.5 -54.5t102 -20.5q123 0 195 69.5t92 184.5l51 289q10 61 -2 109.5t-40.5 80t-71.5 47t-95 13.5l-249 -86l-80 -453q-11 -53 -2.5 -99z" />
<glyph unicode="&#xff;" horiz-adv-x="931" d="M-6 -346q-4 25 20 31q104 25 164 62.5t98 111.5l70 133l-178 956q-6 29 18 35l60 18q23 6 24 -16l160 -835l414 802q12 29 45 29h57q16 0 20.5 -9t-3.5 -24l-586 -1130q-55 -104 -142.5 -160.5t-207.5 -79.5q-10 -2 -15.5 1t-7.5 15zM362 1194l21 115q4 12 9 19t24 7h51 q29 0 22 -26l-20 -115q-2 -23 -31 -23h-51q-16 0 -21.5 3.5t-3.5 19.5zM688 1194l21 115q4 12 9 19t23 7h52q29 0 22 -26l-20 -115q-2 -12 -7.5 -17.5t-23.5 -5.5h-51q-16 0 -21.5 3.5t-3.5 19.5z" />
<glyph unicode="&#x152;" horiz-adv-x="1865" d="M159.5 292q-16.5 85 0.5 177l86 487q16 96 60 176t104.5 136.5t132 87t145.5 30.5h273q29 0 51 -24l143 -180l33 180q4 16 8 20t10 4h656q16 0 19 -9t1 -19l-10 -58q-4 -16 -9 -20t-18 -4h-565l-92 -522l88 26q39 12 84 13h317q16 0 18.5 -6.5t0.5 -18.5l-10 -57 q-4 -18 -10.5 -23.5t-18.5 -5.5h-334l-156 -45l-92 -526h606q12 0 17.5 -4.5t1.5 -20.5l-10 -61q-2 -10 -8.5 -17.5t-18.5 -7.5h-696q-18 0 -17 23l19 110q-59 -63 -131 -98t-150 -35h-231q-74 0 -135.5 39t-103.5 103.5t-58.5 149.5zM264 331.5q10 -63.5 38 -112.5 t73 -78.5t104 -29.5h213q59 0 114.5 26.5t99.5 74.5t77 111.5t45 137.5l102 575l-192 240h-254q-59 0 -114.5 -26.5t-99.5 -75t-77 -112t-45 -136.5l-82 -465q-12 -66 -2 -129.5z" />
<glyph unicode="&#x153;" horiz-adv-x="1585" d="M139.5 207.5q-14.5 68.5 -0.5 148.5l56 314q29 162 135 244.5t262 82.5q98 0 164.5 -43t99.5 -116q106 160 326 159q78 0 139 -28.5t101 -80.5t53.5 -125t-5.5 -163l-45 -94q-8 -16 -24 -19l-557 -92l-8 -47q-10 -53 -3 -99t31.5 -80t66.5 -54.5t101 -20.5l293 82 q16 4 21 -16l16 -60q8 -27 -21 -32l-307 -84h-12q-98 0 -166 43t-100 114q-51 -78 -133 -117.5t-191 -39.5q-78 0 -138.5 27.5t-100 77.5t-54 118.5zM243 249q7 -46 31.5 -80t66.5 -54.5t101 -20.5q123 0 194 66.5t91 181.5l51 291q18 104 -30 179t-166 75 q-123 0 -194 -66.5t-91 -181.5l-51 -291q-10 -53 -3 -99zM862 506l500 84l6 39q8 51 1 98t-30.5 83t-65.5 56.5t-102 20.5q-123 0 -193.5 -66.5t-90.5 -181.5z" />
<glyph unicode="&#x178;" horiz-adv-x="997" d="M221 1317q-8 23 19 37l51 28q25 10 31 -14l217 -698l467 702q8 10 18 15.5t20 -1.5l50 -30q20 -12 4 -37l-520 -772l-93 -520q-4 -27 -30 -27h-56q-27 0 -22 27l92 520zM455 1599l20 115q4 12 9 19.5t24 7.5h51q29 0 23 -27l-21 -115q-2 -23 -31 -22h-51q-16 0 -21 3 t-3 19zM780 1599l21 115q4 12 9 19.5t24 7.5h51q29 0 22 -27l-20 -115q-2 -12 -7.5 -17t-23.5 -5h-51q-16 0 -21.5 3t-3.5 19z" />
<glyph unicode="&#x2c6;" horiz-adv-x="976" d="M358 1179.5q0 8.5 11 18.5l280 221q20 16 35 0l205 -221q8 -10 2 -18.5t-17 -8.5h-88q-8 0 -11 4l-7 7l-113 123l-155 -123q-10 -10 -25 -11h-106q-11 0 -11 8.5z" />
<glyph unicode="&#x2dc;" horiz-adv-x="950" d="M336 1196l12 64q2 20 31 36q41 23 82 37.5t80 14.5l178 -62q41 0 85 14.5t87 36.5q10 4 17 0t3 -14l-10 -63q-2 -20 -31 -37q-41 -23 -81.5 -37.5t-81.5 -14.5l-179 62q-39 0 -83 -14.5t-87 -36.5q-10 -4 -17 0t-5 14z" />
<glyph unicode="&#x2000;" horiz-adv-x="933" />
<glyph unicode="&#x2001;" horiz-adv-x="1867" />
<glyph unicode="&#x2002;" horiz-adv-x="933" />
<glyph unicode="&#x2003;" horiz-adv-x="1867" />
<glyph unicode="&#x2004;" horiz-adv-x="622" />
<glyph unicode="&#x2005;" horiz-adv-x="466" />
<glyph unicode="&#x2006;" horiz-adv-x="311" />
<glyph unicode="&#x2007;" horiz-adv-x="311" />
<glyph unicode="&#x2008;" horiz-adv-x="233" />
<glyph unicode="&#x2009;" horiz-adv-x="372" />
<glyph unicode="&#x200a;" horiz-adv-x="102" />
<glyph unicode="&#x2010;" horiz-adv-x="563" d="M100 647l2 12q4 18 21 25l94 39q18 8 33 8h287q25 0 18 -24l-10 -60q-6 -27 -27 -26h-399q-23 -1 -19 26z" />
<glyph unicode="&#x2011;" horiz-adv-x="563" d="M100 647l2 12q4 18 21 25l94 39q18 8 33 8h287q25 0 18 -24l-10 -60q-6 -27 -27 -26h-399q-23 -1 -19 26z" />
<glyph unicode="&#x2012;" horiz-adv-x="563" d="M100 647l2 12q4 18 21 25l94 39q18 8 33 8h287q25 0 18 -24l-10 -60q-6 -27 -27 -26h-399q-23 -1 -19 26z" />
<glyph unicode="&#x2013;" horiz-adv-x="1089" d="M131 645l4 23q2 12 19 18l118 39q10 4 21.5 6t17.5 2h719q27 0 23 -24l-13 -62q-6 -25 -28 -24h-862q-21 -1 -19 22z" />
<glyph unicode="&#x2014;" horiz-adv-x="1505" d="M131 645l4 23q2 12 19 18l118 39q10 4 21.5 6t17.5 2h1137q27 0 22 -24l-12 -62q-6 -25 -28 -24h-1280q-21 -1 -19 22z" />
<glyph unicode="&#x2018;" horiz-adv-x="403" d="M229 963l33 186q2 10 5 21.5t7 17.5l82 176q10 23 33 22h66q16 0 19 -10t-5 -24l-100 -209l-31 -180q-4 -12 -10 -19.5t-25 -7.5h-51q-29 0 -23 27z" />
<glyph unicode="&#x2019;" horiz-adv-x="403" d="M193.5 946q-3.5 10 5.5 25l100 209l31 180q4 12 10 19t25 7h51q29 0 22 -26l-32 -186q-4 -23 -13 -39l-82 -177q-12 -23 -32 -22h-66q-16 0 -19.5 10z" />
<glyph unicode="&#x201a;" horiz-adv-x="403" d="M-23.5 -276.5q-3.5 10.5 5.5 24.5l100 209l31 180q4 12 10 19.5t24 7.5h52q29 0 22 -27l-33 -186q-4 -23 -12 -39l-82 -176q-12 -23 -33 -23h-65q-16 0 -19.5 10.5z" />
<glyph unicode="&#x201c;" horiz-adv-x="729" d="M229 963l33 186q2 10 5 21.5t7 17.5l82 176q10 23 33 22h66q16 0 19 -10t-5 -24l-100 -209l-31 -180q-4 -12 -10 -19.5t-25 -7.5h-51q-29 0 -23 27zM555 963l33 186q2 10 5 21.5t7 17.5l82 176q10 23 33 22h65q16 0 19.5 -10t-4.5 -24l-101 -209l-30 -180 q-4 -12 -10.5 -19.5t-24.5 -7.5h-51q-29 0 -23 27z" />
<glyph unicode="&#x201d;" horiz-adv-x="729" d="M193.5 946q-3.5 10 5.5 25l100 209l31 180q4 12 10 19t25 7h51q29 0 22 -26l-32 -186q-4 -23 -13 -39l-82 -177q-12 -23 -32 -22h-66q-16 0 -19.5 10zM519 946q-3 10 5 25l101 209l30 180q4 12 10.5 19t24.5 7h51q29 0 23 -26l-33 -186q-4 -23 -12 -39l-82 -177 q-12 -23 -33 -22h-65q-17 0 -20 10z" />
<glyph unicode="&#x201e;" horiz-adv-x="729" d="M-23.5 -276.5q-3.5 10.5 5.5 24.5l100 209l31 180q4 12 10 19.5t24 7.5h52q29 0 22 -27l-33 -186q-4 -23 -12 -39l-82 -176q-12 -23 -33 -23h-65q-16 0 -19.5 10.5zM302 -276.5q-3 10.5 5 24.5l101 209l30 180q4 12 10.5 19.5t24.5 7.5h51q29 0 23 -27l-33 -186 q-4 -23 -12 -39l-82 -176q-12 -23 -33 -23h-65q-17 0 -20 10.5z" />
<glyph unicode="&#x2022;" horiz-adv-x="917" d="M143 733q0 66 25 123t68 100t100 68t123 25t123 -25t100 -68t67.5 -100t24.5 -123t-24.5 -123t-67.5 -100t-100.5 -67.5t-122.5 -24.5q-66 0 -123 24.5t-100 67.5t-68 100t-25 123z" />
<glyph unicode="&#x2026;" horiz-adv-x="1357" d="M102 23l21 114q4 12 10 19.5t25 7.5h51q29 0 22 -27l-20 -114q-2 -12 -7 -17.5t-24 -5.5h-51q-16 0 -22.5 3.5t-4.5 19.5zM557 23l21 114q4 12 9 19.5t23 7.5h52q29 0 22 -27l-20 -114q-2 -12 -7.5 -17.5t-23.5 -5.5h-51q-16 0 -21.5 3.5t-3.5 19.5zM1010 23l20 114 q4 12 10.5 19.5t22.5 7.5h53q27 0 21 -27l-21 -114q-2 -12 -7 -17.5t-22 -5.5h-53q-14 0 -20 3.5t-4 19.5z" />
<glyph unicode="&#x202f;" horiz-adv-x="372" />
<glyph unicode="&#x2039;" horiz-adv-x="796" d="M168 543q-8 12 4 20l465 406q14 12 29 12h47q12 0 12 -12l-8 -62q-2 -14 -17 -24l-389 -338l264 -330q6 -8 7 -25l-13 -53q0 -12 -16 -12h-39q-10 0 -14 4l-11 10z" />
<glyph unicode="&#x203a;" horiz-adv-x="796" d="M121 137l8 62q2 14 16 24l390 338l-265 330q-6 8 -6 24l12 54q0 12 17 12h39q10 0 14 -4l10 -10l322 -404q8 -12 -4 -20l-465 -406q-16 -12 -29 -12h-47q-12 0 -12 12z" />
<glyph unicode="&#x205f;" horiz-adv-x="466" />
<glyph unicode="&#x20ac;" horiz-adv-x="1191" d="M135 500l8 57q6 27 31 27h182l39 221h-182q-23 0 -20 26l10 58q6 27 28 26h185q14 111 67.5 202t127 155.5t156.5 100.5t157 36h12l276 -92q20 -6 11 -31l-23 -59q-8 -23 -31 -13l-254 84q-59 -4 -123.5 -32.5t-120 -79.5t-95 -120t-54.5 -151h371q25 0 20 -24l-10 -62 q-4 -25 -26 -24h-373l-39 -221h371q25 0 20 -25l-12 -61q-4 -25 -27 -25h-373q-14 -84 0.5 -153.5t49 -119.5t85 -79t107.5 -31l289 86q12 4 18 -1t8 -15l17 -60q4 -25 -23 -30l-303 -90h-6q-82 0 -152.5 38.5t-119.5 105t-72 157t-4 192.5h-184q-25 0 -19 27z" />
<glyph unicode="&#x2122;" horiz-adv-x="1611" d="M279 1313l8 57q4 16 20 16h484q14 0 10 -16l-8 -57q-4 -16 -19 -17h-199l-88 -499q-4 -16 -16 -17h-59q-16 0 -13 17l88 499h-198q-14 1 -10 17zM864 795l97 551q4 12 14 14l78 37q12 6 16 -8l150 -408l288 395q10 10 17 10h84q16 0 12 -16l-100 -573q-4 -16 -19 -17h-55 q-18 0 -14 17l77 438l-299 -412q-6 -10 -16 -10q-8 0 -14 10l-150 412l-78 -438q-4 -16 -18 -17h-57q-17 1 -13 15z" />
<glyph unicode="&#xe000;" horiz-adv-x="1000" d="M0 1000h1000v-1000h-1000v1000z" />
<glyph unicode="&#xfb01;" horiz-adv-x="641" d="M82 -383l221 1253h-125q-27 0 -20 25l10 59q4 27 31 27h125l16 92q29 160 131 245t236 85h8l137 -47q16 -6 8 -33l-18 -57q-6 -20 -29 -15l-117 41q-86 2 -152.5 -54t-92.5 -153l-19 -104h223q23 0 19 -23l-12 -65q-4 -23 -25 -23h-225l-222 -1253q-2 -23 -26 -23h-64 q-20 0 -18 23zM762 23l166 935q4 16 8 19.5t16 3.5h70q18 0 14 -23l-166 -935q-4 -23 -26 -23h-68q-18 0 -14 23zM979 1245l20 119q4 16 8.5 19t16.5 3h70q18 0 14 -22l-21 -119q-4 -23 -26 -22h-68q-18 -1 -14 22z" />
<glyph unicode="&#xfb02;" horiz-adv-x="641" d="M82 -383l221 1253h-125q-27 0 -20 25l10 59q4 27 31 27h125l16 92q29 160 131 245t236 85h8l137 -47q16 -6 8 -33l-18 -57q-6 -20 -29 -15l-117 41q-86 2 -152.5 -54t-92.5 -153l-19 -104h223q23 0 19 -23l-12 -65q-4 -23 -25 -23h-225l-222 -1253q-2 -23 -26 -23h-64 q-20 0 -18 23zM762 23l237 1339q4 16 8.5 20t16.5 4h70q18 0 14 -24l-238 -1339q-4 -23 -26 -23h-68q-18 0 -14 23z" />
<glyph unicode="&#xfb03;" horiz-adv-x="1775" d="M1403 23l166 935q4 16 8 19.5t16 3.5h70q18 0 14 -23l-166 -935q-4 -23 -26 -23h-68q-18 0 -14 23zM1620 1245l20 119q4 16 8.5 19t16.5 3h70q18 0 14 -22l-21 -119q-4 -23 -26 -22h-68q-18 -1 -14 22zM723 -383l221 1253h-125q-27 0 -20 25l10 59q4 27 31 27h125l16 92 q29 160 131 245t236 85h8l137 -47q11 -4 11 -18q0 -7 -3 -15l-18 -57q-6 -20 -29 -15l-117 41h-6q-82 0 -146 -54q-67 -56 -93 -153l-19 -104h223q23 0 19 -23l-12 -65q-4 -23 -25 -23h-225l-222 -1253q-2 -23 -26 -23h-64q-20 0 -18 23zM82 -383l221 1253h-125 q-27 0 -20 25l10 59q4 27 31 27h125l16 92q29 160 131 245t236 85h8l137 -47q11 -4 11 -18q0 -7 -3 -15l-18 -57q-6 -20 -29 -15l-117 41h-6q-82 0 -146 -54q-67 -56 -93 -153l-19 -104h223q23 0 19 -23l-12 -65q-4 -23 -25 -23h-225l-222 -1253q-2 -23 -26 -23h-64 q-20 0 -18 23z" />
<glyph unicode="&#xfb04;" horiz-adv-x="1775" d="M1403 23l237 1339q4 16 8.5 20t16.5 4h70q18 0 14 -24l-238 -1339q-4 -23 -26 -23h-68q-18 0 -14 23zM723 -383l221 1253h-125q-27 0 -20 25l10 59q4 27 31 27h125l16 92q29 160 131 245t236 85h8l137 -47q11 -4 11 -18q0 -7 -3 -15l-18 -57q-6 -20 -29 -15l-117 41h-6 q-82 0 -146 -54q-67 -56 -93 -153l-19 -104h223q23 0 19 -23l-12 -65q-4 -23 -25 -23h-225l-222 -1253q-2 -23 -26 -23h-64q-20 0 -18 23zM82 -383l221 1253h-125q-27 0 -20 25l10 59q4 27 31 27h125l16 92q29 160 131 245t236 85h8l137 -47q11 -4 11 -18q0 -7 -3 -15 l-18 -57q-6 -20 -29 -15l-117 41h-6q-82 0 -146 -54q-67 -56 -93 -153l-19 -104h223q23 0 19 -23l-12 -65q-4 -23 -25 -23h-225l-222 -1253q-2 -23 -26 -23h-64q-20 0 -18 23z" />
</font>
</defs>
</svg>
