<?xml version="1.0" standalone="no"?>
<!DOCTYPE svg PUBLIC "-//W3C//DTD SVG 1.1//EN" "http://www.w3.org/Graphics/SVG/1.1/DTD/svg11.dtd" >
<svg xmlns="http://www.w3.org/2000/svg">
<metadata>
This is a custom SVG webfont generated by Font Squirrel.
Copyright   : Original Typeface drawn by Daniel Drnemann at loyalkaspar and Digitized by Alan Greene with FontShop
Foundry     : Daniel Drnemann loyalkaspar
</metadata>
<defs>
<font id="XDRALightRegular" horiz-adv-x="1169" >
<font-face units-per-em="2048" ascent="1536" descent="-512" />
<missing-glyph horiz-adv-x="512" />
<glyph unicode=" "  horiz-adv-x="512" />
<glyph unicode="&#x09;" horiz-adv-x="512" />
<glyph unicode="&#xa0;" horiz-adv-x="512" />
<glyph unicode="!" horiz-adv-x="507" d="M199 23v114q0 12 5 19.5t23 7.5h54q29 0 28 -27v-114q0 -12 -5 -17.5t-23 -5.5h-54q-16 0 -22 3.5t-6 19.5zM199 369v991q0 12 5 19t23 7h54q29 0 28 -26v-991q0 -12 -5 -17.5t-23 -5.5h-54q-16 0 -22 3.5t-6 19.5z" />
<glyph unicode="&#x22;" horiz-adv-x="761" d="M147 883v477q0 12 5.5 19t23.5 7h53q29 0 29 -26v-477q0 -12 -5 -17.5t-24 -5.5h-53q-16 0 -22.5 3.5t-6.5 19.5zM504 883v477q0 12 5 19t23 7h54q29 0 28 -26v-477q0 -12 -5 -17.5t-23 -5.5h-54q-16 0 -22 3.5t-6 19.5z" />
<glyph unicode="#" horiz-adv-x="1277" d="M123 442v58q0 27 24 26h205l78 303h-201q-25 0 -24 27v57q0 27 24 27h230l108 428q6 18 21 18h80q20 0 14 -18l-109 -428h254l109 428q6 18 20 18h80q20 0 15 -18l-109 -428h174q27 0 27 -25v-61q0 -25 -25 -25h-205l-77 -303h198q27 0 27 -24v-62q0 -25 -25 -24h-229 l-100 -391q-6 -25 -23 -25h-74q-25 0 -18 25l100 391h-254l-100 -391q-6 -25 -23 -25h-73q-25 0 -19 25l101 391h-177q-24 -1 -24 26zM467 526h254l78 303h-254z" />
<glyph unicode="$" horiz-adv-x="1173" d="M168 313q-10 27 10 37l49 27q23 12 35 -10q47 -92 135 -144.5t211 -52.5q139 0 218 71.5t79 182.5q0 78 -43 126t-123 75l-526 176v39q0 117 28.5 205t76 147t106.5 92t121 41v199q0 12 5 19t23 7h54q29 0 28 -26v-224l252 -81q27 -4 19 -33l-19 -58q-8 -23 -33 -16 l-307 100q-98 -10 -166.5 -93t-76.5 -238l458 -154q109 -35 171.5 -109.5t62.5 -193.5q0 -80 -30 -145.5t-79 -111.5t-114.5 -72.5t-137.5 -31.5v-204q0 -12 -5 -17.5t-23 -5.5h-54q-16 0 -22 3t-6 20v204q-63 6 -123 28t-109 54.5t-87 75.5t-58 92z" />
<glyph unicode="%" horiz-adv-x="1595" d="M184 944v209q0 115 76 182.5t189 67.5t188.5 -67.5t75.5 -182.5v-209q0 -115 -76 -182.5t-188 -67.5q-113 0 -189 67.5t-76 182.5zM270 25l930 1335q18 27 33 26h84q14 0 15 -8t-7 -18l-930 -1335q-16 -25 -39 -25h-73q-31 0 -13 25zM287 952q0 -74 45 -116.5t117 -42.5 t116.5 43t44.5 116v193q0 74 -45 117t-116 43q-72 0 -117 -43t-45 -117v-193zM883 233v209q0 115 75.5 182.5t188.5 67.5t188.5 -67.5t75.5 -182.5v-209q0 -115 -75.5 -182t-188.5 -67t-188.5 67t-75.5 182zM985 242q0 -74 45 -117t117 -43t117 43t45 117v192q0 74 -45 117 t-117 43t-117 -43t-45 -117v-192z" />
<glyph unicode="&#x26;" horiz-adv-x="1351" d="M123 389q0 139 78 246.5t198 169.5l-174 162q-6 6 -12 32.5t-6 47.5q0 94 31.5 161.5t87 111.5t129 65.5t157.5 21.5h23l336 -98q25 -6 18 -33l-18 -57q-8 -23 -33 -17l-322 94q-160 2 -233.5 -72.5t-65.5 -191.5l1008 -932q12 -12 12 -34v-41q0 -25 -24 -25h-23 q-10 0 -23.5 7t-21.5 16l-248 229q-41 -127 -152.5 -199.5t-277.5 -72.5q-100 0 -182 30.5t-140.5 86t-90 130t-31.5 162.5zM233 389q0 -68 25 -123t69 -94t105.5 -60.5t134.5 -21.5q137 0 230.5 66.5t111.5 177.5l-426 393q-45 -18 -89 -51t-79.5 -76t-58.5 -96.5 t-23 -114.5z" />
<glyph unicode="'" horiz-adv-x="405" d="M147 883v477q0 12 5.5 19t23.5 7h53q29 0 29 -26v-477q0 -12 -5 -17.5t-24 -5.5h-53q-16 0 -22.5 3.5t-6.5 19.5z" />
<glyph unicode="(" horiz-adv-x="612" d="M102 590q0 147 35 275t94 245l246 465q14 23 35 14l53 -28q25 -14 13 -37l-254 -488q-55 -106 -81 -212.5t-26 -233.5t25.5 -234.5t81.5 -214.5l254 -487q12 -23 -13 -37l-53 -29q-20 -8 -35 15l-246 465q-59 117 -94 246t-35 276z" />
<glyph unicode=")" horiz-adv-x="612" d="M35 -346l254 487q55 106 80.5 214t25.5 235t-25.5 233.5t-80.5 212.5l-254 488q-12 23 12 37l53 28q20 8 35 -14l246 -465q59 -117 94 -245t35 -275t-35 -276.5t-94 -245.5l-246 -465q-14 -23 -35 -15l-53 29q-24 14 -12 37z" />
<glyph unicode="*" horiz-adv-x="878" d="M109 858q-14 20 8 33l219 127l-219 127q-23 14 -8 35l24 43q12 23 35 10l219 -127v254q0 27 25 26h53q25 0 24 -24v-256l222 129q23 12 34 -10l25 -43q14 -23 -8 -35l-223 -129l221 -127q10 -4 13 -13.5t-3 -19.5l-27 -47q-12 -23 -32 -8l-222 127v-254q0 -25 -26 -25 h-49q-27 0 -27 25v254l-217 -125q-10 -6 -20.5 -5t-14.5 11z" />
<glyph unicode="+" horiz-adv-x="1347" d="M205 649v58q0 27 24 26h389v387q0 27 25 27h62q25 0 24 -25v-389h387q27 0 27 -24v-62q0 -25 -25 -24h-389v-390q0 -25 -27 -24h-57q-27 0 -27 24v390h-389q-24 -1 -24 26z" />
<glyph unicode="," horiz-adv-x="466" d="M113 -252l65 209v180q0 12 5 19.5t24 7.5h53q29 0 29 -27v-164q0 -18 -4 -34l-62 -203q-8 -23 -28 -23h-62q-16 0 -20 10.5t0 24.5z" />
<glyph unicode="-" horiz-adv-x="581" d="M61 647v12q0 18 17 25l88 39q16 8 29 8h301q25 0 24 -24v-60q0 -27 -24 -26h-412q-23 -1 -23 26z" />
<glyph unicode="." horiz-adv-x="466" d="M178 23v114q0 12 5 19.5t24 7.5h53q29 0 29 -27v-114q0 -12 -5 -17.5t-24 -5.5h-53q-16 0 -22.5 3.5t-6.5 19.5z" />
<glyph unicode="/" horiz-adv-x="835" d="M-20 -221l696 1581q12 27 26 26h78q25 0 15 -26l-697 -1581q-10 -25 -32 -25h-68q-28 0 -18 25z" />
<glyph unicode="0" horiz-adv-x="1275" d="M174 442v504q0 100 37 185.5t100.5 146.5t148.5 95t179 34t178 -34t147.5 -95t100.5 -146t37 -186v-504q0 -102 -37 -187t-100.5 -146.5t-147.5 -95t-178 -33.5t-179 33.5t-148.5 95t-100.5 146.5t-37 187zM285 459q0 -80 25.5 -147.5t72.5 -117t112.5 -77t143.5 -27.5 t143.5 27.5t111.5 77t71.5 117t25.5 147.5v469q0 78 -25.5 145.5t-71.5 116.5t-111.5 77.5t-143.5 28.5t-143.5 -28.5t-112.5 -77.5t-72.5 -116.5t-25.5 -145.5v-469z" />
<glyph unicode="1" horiz-adv-x="983" d="M158 27v57q0 27 24 27h314v1181l-279 -90q-20 -6 -27 15l-18 61q-8 27 16 33l304 96q10 0 26 -8l72 -41q16 -8 16 -25v-1222h289q27 0 27 -25v-61q0 -25 -25 -25h-715q-24 0 -24 27z" />
<glyph unicode="2" horiz-adv-x="1167" d="M152 104l618 635q57 59 90 130t33 149q0 51 -18.5 100t-53.5 89t-89 64.5t-124 24.5q-117 0 -198.5 -51t-128.5 -143q-12 -23 -35 -10l-51 28q-27 10 -11 37q20 45 59.5 90t93.5 81t122.5 57.5t150.5 21.5q78 0 148.5 -27.5t125 -78t87.5 -123t33 -162.5 q0 -100 -40 -189.5t-110 -160.5l-541 -555h666q23 0 22 -23v-65q0 -23 -26 -23h-739q-6 0 -14.5 2t-12.5 6l-55 62q-16 18 -2 34z" />
<glyph unicode="3" horiz-adv-x="1185" d="M166 127l16 59q4 8 12.5 14.5t20.5 2.5l350 -113q80 0 140.5 25.5t102.5 67.5t62.5 97.5t20.5 116.5q0 115 -80 196t-238 89l-155 -51q-23 -6 -31 18l-18 53q-8 25 14 31l391 129q14 4 41 47t27 125q0 53 -14.5 100.5t-45 83t-81 57t-119.5 21.5q-100 0 -178 -39.5 t-130 -128.5q-16 -20 -34 -10l-50 29q-25 10 -10 37q23 45 59.5 86t88 71.5t115 48t141.5 17.5t145.5 -24.5t116.5 -72.5t77.5 -121t28.5 -167q0 -55 -13 -98t-29.5 -74t-32 -48.5t-19.5 -19.5l-131 -43q66 -12 117 -46t86 -80t53 -102t18 -114q0 -90 -31.5 -166.5t-88 -132 t-135 -87t-173.5 -31.5h-24l-367 116q-22 6 -16 31z" />
<glyph unicode="4" horiz-adv-x="1081" d="M123 535l209 827q6 25 28 24h68q27 0 18 -26l-202 -801h532v801q0 27 27 26h59q25 0 25 -26v-1335q0 -25 -25 -25h-61q-10 0 -17.5 7t-7.5 18v424h-514q-14 0 -31 8l-98 49q-16 9 -10 29z" />
<glyph unicode="5" horiz-adv-x="1159" d="M168 109l16 59q6 25 33 16l307 -94q102 0 175 26.5t119 74t66.5 111t20.5 136.5q0 74 -21.5 139.5t-64.5 114.5t-105.5 77t-142.5 26l-319 -127l-43 12q-23 6 -21 27l78 651q4 29 33 28h643q25 0 25 -24v-62q0 -25 -27 -24h-553q-18 0 -20 -19l-54 -446l236 94h24 q100 0 182.5 -34.5t139.5 -97t89 -148.5t32 -187q0 -98 -31 -182t-92.5 -145.5t-151.5 -96t-209 -34.5h-24l-324 98q-22 6 -16 31z" />
<glyph unicode="6" horiz-adv-x="1173" d="M174 440v535q0 96 34 176t93 136t141 88t181 32h24l316 -94q23 -6 16 -31l-21 -57q-4 -8 -12 -14.5t-20 -2.5l-295 88q-86 0 -151.5 -25.5t-108.5 -69.5t-64.5 -102.5t-21.5 -123.5v-211l290 106h17q98 0 179 -31.5t138.5 -91t89 -143.5t31.5 -186q0 -94 -29.5 -174 t-86 -138.5t-136.5 -92t-180 -33.5q-92 0 -170 33.5t-134 94t-88 145.5t-32 187zM285 440q0 -66 18.5 -128t56 -111t97 -80t141.5 -31q147 0 234.5 90t87.5 238q0 76 -21.5 139.5t-63.5 108.5t-103.5 69.5t-141.5 24.5l-305 -109v-211z" />
<glyph unicode="7" horiz-adv-x="923" d="M98 1300v60q0 27 27 26h608q10 0 27 -8l84 -45q16 -8 10 -28l-422 -1280q-6 -25 -29 -25h-69q-12 0 -17.5 8t-1.5 19l414 1249h-604q-27 -1 -27 24z" />
<glyph unicode="8" horiz-adv-x="1236" d="M174 379q0 123 55.5 220t141.5 151l-97 34q-12 4 -20 19q-20 35 -35.5 89t-15.5 132q0 80 26.5 150.5t77.5 122t127 81t174 29.5t174 -29.5t127.5 -81t78 -122t26.5 -150.5q0 -104 -50.5 -187t-132.5 -135l103 -36q14 -6 24 -19q39 -53 61.5 -123.5t22.5 -144.5 q0 -90 -30.5 -163t-88 -126t-137 -81.5t-178.5 -28.5q-98 0 -178 28.5t-137 81.5t-88 126t-31 163zM285 379q0 -135 88 -212t235 -77t235.5 77t88.5 212q0 43 -8.5 78t-19.5 59.5t-21.5 38.5t-14.5 16l-376 136q-39 -18 -76 -48t-67 -72t-47 -94.5t-17 -113.5zM313 1024 q0 -70 14.5 -107.5t18.5 -39.5l367 -132q90 47 140 113t50 166q0 117 -73.5 194.5t-221.5 77.5q-147 0 -221 -77.5t-74 -194.5z" />
<glyph unicode="9" horiz-adv-x="1173" d="M143 948q0 94 30 177t86 145.5t136 99.5t180 37q92 0 170 -34t134.5 -94t88 -145t31.5 -188v-534q0 -96 -33.5 -176t-93 -137.5t-141.5 -88t-180 -30.5h-25l-315 94q-23 6 -16 30l20 58q4 8 12.5 14t20.5 2l295 -88q86 0 151.5 25.5t108.5 69.5t64.5 102.5t21.5 124.5 v170l-291 -107h-16q-98 0 -179 35t-138.5 98.5t-89.5 150.5t-32 189zM254 948q0 -76 21.5 -142.5t63.5 -115.5t103.5 -76.5t141.5 -27.5l305 108v252q0 63 -18.5 127t-57.5 113t-97.5 79.5t-140.5 30.5q-74 0 -133 -26.5t-101 -73.5t-64.5 -110.5t-22.5 -137.5z" />
<glyph unicode=":" horiz-adv-x="466" d="M178 23v114q0 12 5 19.5t24 7.5h53q29 0 29 -27v-114q0 -12 -5 -17.5t-24 -5.5h-53q-16 0 -22.5 3.5t-6.5 19.5zM178 840v114q0 12 5 19.5t24 7.5h53q29 0 29 -27v-114q0 -12 -5 -17.5t-24 -5.5h-53q-16 0 -22.5 3.5t-6.5 19.5z" />
<glyph unicode=";" horiz-adv-x="466" d="M113 -252l65 209v180q0 12 5 19.5t24 7.5h53q29 0 29 -27v-164q0 -18 -4 -34l-62 -203q-8 -23 -28 -23h-62q-16 0 -20 10.5t0 24.5zM178 840v114q0 12 5 19.5t24 7.5h53q29 0 29 -27v-114q0 -12 -5 -17.5t-24 -5.5h-53q-16 0 -22.5 3.5t-6.5 19.5z" />
<glyph unicode="&#x3c;" horiz-adv-x="1140" d="M109 592q-10 10 0 20l405 406q12 12 29 12h39q14 0 14 -12v-62q0 -14 -10 -24l-275 -275h682q14 0 15 -14v-82q0 -14 -15 -14h-682l275 -275q10 -10 10 -24v-62q0 -12 -14 -12h-39q-10 0 -16.5 4t-12.5 10z" />
<glyph unicode="=" horiz-adv-x="1347" d="M205 442v58q0 27 24 26h887q27 0 27 -24v-62q0 -25 -25 -24h-889q-24 -1 -24 26zM205 856v57q0 27 24 27h887q27 0 27 -25v-61q0 -25 -25 -25h-889q-24 0 -24 27z" />
<glyph unicode="&#x3e;" horiz-adv-x="1140" d="M133 561v82q0 14 14 14h682l-274 275q-10 10 -10 24v62q0 12 14 12h39q16 0 29 -12l405 -406q10 -10 0 -20l-405 -404q-6 -6 -12.5 -10t-16.5 -4h-39q-14 0 -14 12v62q0 14 10 24l274 275h-682q-14 0 -14 14z" />
<glyph unicode="?" horiz-adv-x="1003" d="M80 1164q-4 7 0 12q63 109 174 170t264 61q104 0 179 -33t123 -85t70.5 -117.5t22.5 -131.5q0 -190 -206 -325l-203 -133v-211q0 -25 -25 -25h-61q-25 0 -25 25v272l260 170q150 100 150 227q0 109 -73 182.5t-210 73.5q-117 0 -206 -46t-138 -128q-4 -8 -16.5 -10 t-18.5 2l-57 41q0 2 -4 9zM393 23v114q0 12 5 19.5t24 7.5h53q29 0 29 -27v-114q0 -12 -5 -17.5t-24 -5.5h-53q-16 0 -22.5 3.5t-6.5 19.5z" />
<glyph unicode="@" horiz-adv-x="1835" d="M186 608q23 184 89.5 331.5t173 252t248 160t313.5 55.5q184 0 319 -61.5t219 -171t115 -261t6 -331.5q-12 -94 -44 -177t-79 -147.5t-107.5 -108t-131.5 -57.5l-199 94l-270 -94h-27q-68 0 -119 26.5t-82.5 70.5t-43 102.5t0.5 120.5l54 299q27 147 124 225t238 78 q70 0 126 -25.5t93 -71t50.5 -107.5t0.5 -136l-71 -404l139 -67q53 18 95 57t73 91t50.5 114.5t29.5 128.5q25 164 -3 295t-99.5 222t-188.5 140t-270 49q-143 0 -266.5 -46t-216.5 -135t-155.5 -221t-82.5 -304q-23 -186 9 -331.5t112.5 -246t210 -151.5t299.5 -47l372 133 q27 8 35 -17l16 -49q6 -25 -14 -32l-405 -142h-19q-178 0 -323.5 55.5t-241.5 168t-138.5 280.5t-13.5 393zM678 426q-20 -111 23.5 -170t125.5 -55l250 86l70 393q8 45 2 86t-27.5 71.5t-58.5 48t-90 17.5q-106 0 -170 -62.5t-80 -160.5z" />
<glyph unicode="A" d="M68 11q-2 6 -2 11.5t2 10.5l452 1335q6 18 23 18h92q18 0 24 -18l443 -1335q2 -8 2 -14q0 -19 -25 -19h-63q-29 0 -35 29l-147 450h-318l-199 -59l-129 -391q-10 -29 -36 -29h-64q-16 0 -20 11zM360 549l97 29q20 6 44.5 9t47.5 3h248l-209 645z" />
<glyph unicode="B" horiz-adv-x="1259" d="M195 27v1333q0 10 9 18t19 8h535q68 0 125 -28.5t97 -77.5t62.5 -113.5t22.5 -134.5q0 -53 -16.5 -101t-44 -90t-64.5 -75t-80 -53l234 -234q23 -27 22 -55q0 -74 -30.5 -149.5t-83 -137t-122 -99.5t-145.5 -38h-512q-10 0 -19 7.5t-9 19.5zM305 111h430q55 0 103.5 30.5 t83 75.5t56 97.5t23.5 97.5l-268 272h-428v-573zM305 795h436q45 0 83 20.5t67 53t45 75.5t16 88q0 51 -15 95t-44 77t-68 52.5t-84 19.5h-436v-481z" />
<glyph unicode="C" horiz-adv-x="1210" d="M154 449v489q0 96 37.5 181t101 149.5t144.5 101.5t165 37h6l412 -123q23 -6 16 -31l-16 -59q-4 -10 -11.5 -15t-21.5 -1l-395 118q-59 -4 -118.5 -32.5t-105.5 -77.5t-75 -115.5t-29 -146.5v-463q0 -66 21.5 -129.5t60.5 -112.5t91 -78.5t114 -29.5h197q61 0 108 20.5 t79 54t47 77.5t15 89q0 25 25 25h61q25 0 25 -25q0 -82 -28.5 -147.5t-78 -110.5t-113 -69.5t-130.5 -24.5h-219q-76 0 -145.5 36t-123 96.5t-85 142.5t-31.5 174z" />
<glyph unicode="D" horiz-adv-x="1310" d="M195 27v1269q0 14 16 25l111 57q16 8 26 8h424q76 0 145.5 -35.5t123 -96t85 -142.5t31.5 -174v-489q0 -92 -31.5 -174t-85 -142.5t-123 -96.5t-145.5 -36h-557q-20 0 -20 27zM305 111h459q61 0 112.5 29.5t89.5 78.5t59.5 112.5t21.5 129.5v465q0 66 -21.5 129 t-59.5 112.5t-89.5 79t-112.5 29.5h-459v-1165z" />
<glyph unicode="E" horiz-adv-x="1067" d="M195 23v1337q0 16 9 21t15 5h670q16 0 19 -9t3 -19v-58q0 -16 -5 -20t-17 -4h-584v-520l86 26q20 6 45 9.5t47 3.5h320q16 0 19 -6.5t3 -18.5v-57q0 -18 -5 -23.5t-17 -5.5h-352l-146 -45v-528h627q12 0 17 -4.5t5 -20.5v-61q0 -10 -5 -17.5t-17 -7.5h-713q-10 0 -17 5.5 t-7 17.5z" />
<glyph unicode="F" horiz-adv-x="972" d="M195 23v1337q0 12 9 19t19 7h660q16 0 17 -9t1 -19v-58q0 -16 -4 -20t-14 -4h-578v-520l86 26q20 6 45 9.5t47 3.5h320q16 0 19 -6.5t3 -18.5v-57q0 -18 -5 -23.5t-17 -5.5h-352l-146 -45v-614q0 -12 -4 -18.5t-22 -6.5h-56q-12 0 -20 3.5t-8 19.5z" />
<glyph unicode="G" horiz-adv-x="1261" d="M154 449v489q0 96 37.5 181t101 149.5t144.5 101.5t165 37h6l412 -123q23 -6 16 -31l-16 -59q-4 -10 -11.5 -15t-21.5 -1l-395 118q-59 -4 -118.5 -32.5t-105.5 -77.5t-75 -115.5t-29 -146.5v-463q0 -66 21.5 -129.5t60.5 -112.5t91 -78.5t114 -29.5h197q61 0 108 20.5 t79 54t47 77.5t15 89v230h-256q-27 0 -26 24v60q0 27 26 26h340q27 0 27 -26v-312q0 -82 -28.5 -147.5t-78 -111.5t-113 -70.5t-130.5 -24.5h-219q-76 0 -145.5 36t-123 96.5t-85 142.5t-31.5 174z" />
<glyph unicode="H" horiz-adv-x="1376" d="M195 27v1333q0 12 7 19t17 7h62q12 0 18 -8t6 -18v-621l148 43q20 6 44.5 9.5t47.5 3.5h526v565q0 10 7 18t18 8h57q12 0 20.5 -8t8.5 -18v-1333q0 -10 -8.5 -18.5t-20.5 -8.5h-57q-10 0 -17.5 7t-7.5 20v657h-559l-207 -61v-596q0 -10 -7 -18.5t-17 -8.5h-62 q-24 0 -24 27z" />
<glyph unicode="I" horiz-adv-x="499" d="M195 23v1337q0 27 28 26h58q25 0 24 -26v-1337q0 -12 -4 -17.5t-20 -5.5h-62q-10 0 -17 6.5t-7 16.5z" />
<glyph unicode="J" horiz-adv-x="960" d="M84 100l16 56q8 25 31 18l299 -84h7q100 0 158 60q60 61 60 147v1063q0 12 7.5 19t17.5 7h65q12 0 16.5 -4t4.5 -22v-1079q0 -61 -23.5 -116.5t-65.5 -96.5t-100.5 -64.5t-127.5 -23.5h-11l-336 90q-20 5 -19 21q0 4 1 9z" />
<glyph unicode="K" horiz-adv-x="1175" d="M195 27v1333q0 27 28 26h53q16 0 22.5 -4t6.5 -22v-682l711 711q8 8 17 8t20 -8l43 -39q8 -8 8 -19.5t-8 -19.5l-426 -420l450 -780q14 -23 15 -43v-45q0 -23 -23 -23h-41q-18 0 -31 20l-452 791l-283 -281v-495q0 -18 -5 -26.5t-24 -8.5h-53q-28 0 -28 27z" />
<glyph unicode="L" horiz-adv-x="964" d="M195 27v1333q0 27 28 26h53q12 0 20.5 -8t8.5 -18v-1249h582q12 0 19 -4.5t7 -20.5v-57q0 -10 -7 -19.5t-19 -9.5h-664q-10 0 -19 5.5t-9 21.5z" />
<glyph unicode="M" horiz-adv-x="1509" d="M195 27v1298q0 16 16 23l76 43q8 4 15 4q13 0 20 -17l434 -864l434 856q8 16 22 16h78q10 0 17.5 -7t7.5 -19v-1333q0 -10 -6 -18.5t-19 -8.5h-61q-10 0 -17.5 7t-7.5 20v1138l-424 -837q-10 -16 -26 -17q-16 0 -25 17l-424 839v-1140q0 -10 -8 -18.5t-21 -8.5h-53 q-10 0 -19 7.5t-9 19.5z" />
<glyph unicode="N" horiz-adv-x="1361" d="M195 23v1282q0 18 10 24l88 53q10 6 17 6q12 0 20 -14l727 -1159v1145q0 16 4 21t20 5h58q16 0 22 -4t6 -22v-1335q0 -25 -26 -25h-37q-41 0 -66 37l-733 1171v-1185q0 -12 -4 -17.5t-20 -5.5h-58q-16 0 -22 3.5t-6 19.5z" />
<glyph unicode="O" horiz-adv-x="1316" d="M154 449v489q0 92 31.5 174t85 142.5t123 96t145.5 35.5h274q33 0 57 -24l271 -268q23 -23 22 -56v-589q0 -92 -31.5 -174t-85 -142.5t-123 -96.5t-145.5 -36h-239q-76 0 -145.5 36t-123 96.5t-85 142.5t-31.5 174zM264 461q0 -66 21.5 -129.5t60.5 -112.5t90 -78.5 t113 -29.5h219q61 0 112.5 29.5t90.5 78.5t60.5 112.5t21.5 129.5v565l-250 250h-254q-61 0 -112.5 -29.5t-90.5 -79t-60.5 -113t-21.5 -128.5v-465z" />
<glyph unicode="P" horiz-adv-x="1134" d="M195 23v1273q0 14 16 25l111 57q16 8 26 8h400q63 0 122.5 -29.5t104.5 -80.5t71.5 -116.5t26.5 -139.5t-26.5 -139.5t-71.5 -116.5t-104.5 -81t-122.5 -30h-443v-630q0 -23 -29 -23h-53q-16 0 -22 3.5t-6 19.5zM305 764h434q45 0 86 21.5t70 56.5t46 82t17 96t-17 96 t-46 82t-70 56.5t-86 21.5h-434v-512z" />
<glyph unicode="Q" horiz-adv-x="1327" d="M154 449v489q0 92 31.5 174t85 142.5t123 96t145.5 35.5h239q76 0 145.5 -35.5t123 -96t85 -142.5t31.5 -174v-614q0 -12 -2 -28.5t-16 -31.5l-82 -82l151 -151q8 -9 8.5 -18t-8.5 -17l-40 -41q-10 -8 -19.5 -8t-17.5 8l-152 151l-90 -90q-16 -16 -53 -16h-303 q-76 0 -145.5 36t-123 96.5t-85 142.5t-31.5 174zM264 461q0 -66 21.5 -129.5t60.5 -112.5t90 -78.5t113 -29.5h289l71 71l-143 146q-18 16 0 34l41 44q16 16 35 0l145 -146l66 66v600q0 66 -21.5 129t-60.5 112.5t-90.5 79t-112.5 29.5h-219q-61 0 -112.5 -29.5t-90.5 -79 t-60.5 -113t-21.5 -128.5v-465z" />
<glyph unicode="R" horiz-adv-x="1218" d="M195 23v1337q0 12 7 19t17 7h508q74 0 137.5 -31.5t109.5 -84.5t71.5 -124t25.5 -147q0 -123 -62.5 -225t-179.5 -156l314 -507q14 -18 14 -43v-45q0 -23 -22 -23h-41q-18 0 -31 20l-358 590l-400 86v-673q0 -23 -20 -23h-70q-20 0 -20 23zM305 809l465 -100 q86 29 136 107.5t50 182.5q0 57 -18 107.5t-51 88.5t-78 59.5t-100 21.5h-404v-467z" />
<glyph unicode="S" horiz-adv-x="1140" d="M119 254q-6 10 -6 18q0 11 12 19l49 37q25 16 37 -6q72 -123 164 -177.5t227 -54.5q152 0 241 81t89 206q0 72 -43 127t-121 90l-600 266v37q0 127 39 222t99.5 159.5t131 96.5t133.5 32h7l356 -102q25 -6 18 -33l-20 -60q-8 -23 -33 -16l-340 100q-45 -6 -92 -31.5 t-87 -71.5t-67.5 -111.5t-31.5 -149.5l536 -236q117 -53 171 -136t54 -181q0 -96 -34.5 -171t-94 -126t-139.5 -76.5t-170 -25.5q-172 0 -292.5 73.5t-192.5 200.5z" />
<glyph unicode="T" horiz-adv-x="917" d="M41 1300v58q0 29 27 28h782q18 0 22.5 -9t4.5 -19v-58q0 -25 -27 -24h-336v-1249q0 -27 -29 -27h-57q-25 0 -25 27v1249h-340q-12 0 -17 4t-5 20z" />
<glyph unicode="U" horiz-adv-x="1302" d="M174 449v911q0 27 21 26h65q25 0 25 -26v-899q0 -66 21.5 -129.5t60.5 -112.5t90 -78.5t112 -29.5h164q61 0 112.5 29.5t90.5 78.5t60.5 112.5t21.5 129.5v899q0 10 5 18t15 8h66q25 0 24 -26v-911q0 -92 -31.5 -174t-85 -142.5t-123 -96.5t-145.5 -36h-184 q-76 0 -145.5 36t-122.5 96.5t-85 142.5t-32 174z" />
<glyph unicode="V" horiz-adv-x="1150" d="M63 1354q-2 8 -2 13q0 19 25 19h64q16 0 23 -7t11 -21l387 -1217l392 1217q10 29 38 28h60q25 0 25 -19q0 -6 -3 -13l-436 -1336q-6 -18 -24 -18h-107q-18 0 -24 18z" />
<glyph unicode="W" horiz-adv-x="1511" d="M84 1356q-1 6 -1 10q0 20 21 20h66q29 0 35 -28l258 -1227l223 746q6 18 25 18h88q18 0 24 -18l217 -768l273 1249q6 29 33 28h61q16 0 20 -10q2 -5 2.5 -10t-2.5 -10l-290 -1329q-6 -27 -27 -27h-127q-29 0 -37 27l-196 688l-203 -686q-10 -29 -37 -29h-119 q-20 0 -22 18z" />
<glyph unicode="X" horiz-adv-x="1067" d="M94 15q0 6 2 14l365 704l-330 625q-4 10 0 19t16 9h80q12 0 18.5 -6t10.5 -14l283 -541l288 553q9 16 24 17q9 0 19 -6l48 -25q23 -12 10 -37l-322 -608l361 -688q2 -5 2 -11q0 -4 -1 -9q-3 -11 -18 -11h-76q-23 0 -28 14l-318 613l-311 -611q-6 -16 -24 -16h-82 q-17 0 -17 15z" />
<glyph unicode="Y" horiz-adv-x="1028" d="M63 1317q-4 8 -4 14q0 13 17 23l53 28q23 10 35 -14l352 -698l352 702q10 17 25 18q6 0 12 -4l51 -30q15 -8 15 -21q0 -7 -4 -16l-398 -772v-520q0 -27 -26 -27h-58q-27 0 -26 27v520z" />
<glyph unicode="Z" horiz-adv-x="1013" d="M100 84l645 1192h-575q-25 0 -25 27v57q0 27 27 26h612q10 0 27 -8l66 -37q23 -12 10 -36l-645 -1194h632q27 0 27 -27v-57q0 -27 -27 -27h-669q-10 0 -27 8l-67 39q-15 8 -15 21q0 7 4 16z" />
<glyph unicode="[" horiz-adv-x="626" d="M174 -379v1935q0 27 27 27h317q27 0 27 -27v-59q0 -25 -27 -24h-233v-1768h233q27 0 27 -24v-60q0 -27 -27 -27h-317q-27 0 -27 27z" />
<glyph unicode="\" horiz-adv-x="835" d="M2 1360q-10 27 14 26h78q14 0 27 -26l696 -1581q10 -25 -18 -25h-68q-23 0 -33 25z" />
<glyph unicode="]" horiz-adv-x="626" d="M82 -319q0 25 27 24h233v1768h-233q-27 0 -27 24v59q0 27 27 27h317q27 0 27 -27v-1935q0 -27 -27 -27h-317q-27 0 -27 27v60z" />
<glyph unicode="^" horiz-adv-x="1163" d="M199 586l313 782q6 18 25 18h92q18 0 24 -18l314 -782q10 -33 -23 -33h-67q-16 0 -23.5 7t-11.5 22l-260 673l-260 -673q-4 -14 -11.5 -21.5t-23.5 -7.5h-66q-32 0 -22 33z" />
<glyph unicode="_" horiz-adv-x="1019" d="M41 -117q0 27 25 27h886q27 0 27 -25v-61q0 -25 -25 -25h-888q-25 0 -25 27v57z" />
<glyph unicode="`" horiz-adv-x="837" d="M209 1305l24 49q12 25 31 14l354 -154q18 -8 11 -26q-6 -16 -17 -17h-147q-16 0 -29 7l-215 94q-22 10 -12 33z" />
<glyph unicode="a" horiz-adv-x="997" d="M133 281q0 31 6 64.5t19.5 64t35 53t52.5 33.5l456 147q0 111 -70.5 177.5t-176.5 66.5l-219 -68q-20 -6 -27 15l-19 57q-8 27 17 33l242 73q80 0 146.5 -25.5t115.5 -70.5t75.5 -107.5t26.5 -136.5v-501l47 -115q2 -6 2 -11q0 -15 -18 -22l-53 -22q-8 -3 -15 -3 q-3 0 -5 1q-7 2 -13 18l-31 72l-252 -90q-84 0 -148.5 23.5t-107.5 63.5t-64.5 94.5t-21.5 115.5zM271 191q24 -42 70 -69.5t120 -27.5l241 86v346l-440 -145q-17 -42 -16 -87q-1 -57 25 -103z" />
<glyph unicode="b" horiz-adv-x="1073" d="M147 41l48 115v1208q0 23 24 22h66q20 0 20 -22v-446l227 79h19q78 0 145.5 -25.5t116.5 -70.5t78 -106.5t29 -132.5v-326q0 -80 -27 -145.5t-75 -111.5t-114.5 -70.5t-146.5 -24.5q-76 0 -146.5 29.5t-119.5 84.5l-41 -96q-6 -16 -13 -18q-2 -1 -6 -1q-6 0 -14 3l-53 22 q-18 8 -19 22q0 5 2 11zM305 307q0 -39 17.5 -76.5t49 -68.5t79 -49.5t106.5 -18.5q61 0 108.5 19.5t79 52.5t48 75t16.5 89v307q0 61 -22.5 109.5t-59.5 80t-84 46.5q-42 14 -85 14h-11l-242 -86v-494z" />
<glyph unicode="c" horiz-adv-x="978" d="M154 338v305q0 80 27.5 145.5t77.5 111.5t120 71.5t151 25.5q125 0 269 -53q18 -6 12 -24l-20 -68q-6 -20 -27 -14q-59 23 -118.5 36t-115.5 13q-127 0 -196.5 -72t-69.5 -184v-281q0 -63 23.5 -111.5t60.5 -80t84 -48t94 -16.5l287 82q18 4 25 -18l16 -58q2 -7 2 -12 q0 -16 -18 -20l-301 -84h-7q-80 0 -148.5 25.5t-119.5 71.5t-79.5 111.5t-28.5 145.5z" />
<glyph unicode="d" horiz-adv-x="1073" d="M154 319v326q0 80 26.5 145.5t74.5 111.5t114.5 70.5t146.5 24.5q78 0 144.5 -28.5t107.5 -79.5v475q0 23 20 22h66q25 0 25 -22v-1208l47 -115q2 -6 2 -11q0 -15 -19 -22l-53 -22q-8 -3 -14 -3q-3 0 -5 1q-7 2 -14 18l-30 72l-252 -90h-19q-78 0 -145.5 25.5 t-116.5 70.5t-77.5 106t-28.5 133zM264 344q0 -61 22.5 -109.5t59.5 -80t84 -46.5q42 -14 85 -14h11l242 86v494q0 39 -17.5 76.5t-49 68.5t-79 49.5t-106.5 18.5q-61 0 -108.5 -19.5t-79 -52.5t-48 -76t-16.5 -88v-307z" />
<glyph unicode="e" horiz-adv-x="1019" d="M154 336v309q0 80 27.5 145.5t75.5 111.5t115.5 70.5t147.5 24.5t147.5 -24.5t115.5 -70.5t76 -111.5t28 -145.5v-88l-29 -102q-6 -18 -24 -19h-570v-129q14 -100 76.5 -156.5t179.5 -56.5l293 82q18 4 25 -18l16 -58q8 -27 -16 -32l-301 -84h-17q-80 0 -147.5 24.5 t-115.5 70.5t-75.5 111.5t-27.5 145.5zM264 547h512v86q0 104 -65.5 179t-190.5 75t-190.5 -75t-65.5 -179v-86z" />
<glyph unicode="f" horiz-adv-x="661" d="M74 895v59q0 27 26 27h129v86q0 80 25 142.5t69 105.5t103 65.5t129 22.5h8l150 -47q18 -5 18 -21q0 -5 -2 -12l-18 -57q-6 -20 -27 -15l-129 41h-7q-86 0 -140 -51q-57 -53 -68 -149v-111h231q25 0 25 -23v-65q0 -23 -23 -23h-233v-847q0 -23 -23 -23h-65q-23 0 -23 23 v847h-129q-26 0 -26 25z" />
<glyph unicode="g" horiz-adv-x="1073" d="M154 336v326q0 72 28.5 133t77.5 106t116.5 70.5t145.5 25.5h19l252 -88l30 70q6 16 14 18q2 1 5 1q6 0 14 -3l53 -22q18 -8 19 -22q0 -5 -2 -11l-47 -115v-909q0 -84 -31 -146.5t-82 -105.5t-114.5 -64.5t-131.5 -21.5l-297 92q-23 8 -16 33l16 57q6 27 33 19l285 -90 q80 0 144.5 50t82.5 150v191l-227 -80h-19q-78 0 -145.5 25.5t-116.5 70.5t-77.5 106.5t-28.5 133.5zM264 360q0 -61 22.5 -109t59.5 -80t84 -47q42 -14 85 -14q6 0 11 1l242 86v604l-242 86h-11q-43 0 -85 -14q-47 -15 -84 -46.5t-59.5 -80t-22.5 -109.5v-277z" />
<glyph unicode="h" horiz-adv-x="1103" d="M195 23v1337q0 12 4 19t20 7h66q10 0 15 -8t5 -18v-445l227 82h19q78 0 145.5 -25.5t116.5 -70.5t78 -106.5t29 -132.5v-639q0 -23 -21 -23h-65q-25 0 -25 23v614q0 61 -22.5 109.5t-59.5 80t-84 46.5q-42 14 -85 14h-11l-242 -86v-778q0 -23 -20 -23h-66q-24 0 -24 23z " />
<glyph unicode="i" horiz-adv-x="507" d="M199 23v931q0 10 6 18.5t18 8.5h62q10 0 17 -5t7 -18v-935q0 -12 -5 -17.5t-23 -5.5h-54q-16 0 -22 3.5t-6 19.5zM199 1245v115q0 12 5 19t23 7h54q29 0 28 -26v-115q0 -12 -5 -17t-23 -5h-54q-16 0 -22 3t-6 19z" />
<glyph unicode="j" horiz-adv-x="569" d="M-190 -332l16 58q6 27 33 18l174 -55q80 0 144.5 50t82.5 150v1065q0 10 6 18.5t19 8.5h61q10 0 17.5 -5t7.5 -18v-1042q0 -84 -31 -146.5t-82 -105.5t-114.5 -64.5t-131.5 -21.5l-186 57q-18 6 -18 23zM260 1245v115q0 12 5 19t24 7h53q29 0 29 -26v-115q0 -12 -5.5 -17 t-23.5 -5h-53q-16 0 -22.5 3t-6.5 19z" />
<glyph unicode="k" horiz-adv-x="1089" d="M195 27v1333q0 27 26 26h58q27 0 26 -26v-850l559 483q18 14 37 2l51 -45q23 -14 -6 -37l-350 -299l367 -495q14 -23 14 -43v-53q0 -23 -23 -23h-30q-16 0 -31 20l-381 523l-207 -176v-336q0 -31 -26 -31h-58q-26 0 -26 27z" />
<glyph unicode="l" horiz-adv-x="507" d="M199 23v1337q0 12 5 19t23 7h54q29 0 28 -26v-1337q0 -12 -5 -17.5t-23 -5.5h-54q-16 0 -22 3.5t-6 19.5z" />
<glyph unicode="m" horiz-adv-x="1669" d="M147 940q-2 6 -2 11q0 15 19 22l53 22q8 3 14 3q3 0 6 -1q7 -2 13 -18l31 -72l251 90h19q82 0 149.5 -29.5t114.5 -82.5l311 112h19q76 0 140.5 -25.5t110.5 -70.5t71.5 -106.5t25.5 -132.5v-639q0 -23 -20 -23h-66q-25 0 -25 23v614q0 61 -20.5 109.5t-54 80t-76.5 46.5 q-38 14 -79 14h-11l-267 -96q25 -59 25 -129v-639q0 -23 -20 -23h-66q-25 0 -25 23v614q0 61 -20 109.5t-54 80t-77 46.5q-38 14 -79 14h-11l-242 -86v-778q0 -23 -20 -23h-66q-25 0 -24 23v802z" />
<glyph unicode="n" horiz-adv-x="1103" d="M147 940q-2 6 -2 11q0 15 19 22l53 22q8 3 14 3q3 0 6 -1q7 -2 13 -18l31 -72l251 90h19q78 0 145.5 -25.5t116.5 -70.5t78 -106.5t29 -132.5v-639q0 -23 -21 -23h-65q-25 0 -25 23v614q0 61 -22.5 109.5t-59.5 80t-84 46.5q-42 14 -85 14h-11l-242 -86v-778 q0 -23 -20 -23h-66q-25 0 -24 23v802z" />
<glyph unicode="o" horiz-adv-x="1040" d="M154 336v309q0 80 27.5 145.5t75.5 111.5t115.5 70.5t147.5 24.5t147.5 -24.5t115.5 -70.5t76 -111.5t28 -145.5v-309q0 -80 -28 -145.5t-76 -111.5t-115.5 -70.5t-147.5 -24.5t-147.5 24.5t-115.5 70.5t-75.5 111.5t-27.5 145.5zM264 348q0 -104 65.5 -179t190.5 -75 t190.5 75t65.5 179v285q0 104 -65.5 179t-190.5 75t-190.5 -75t-65.5 -179v-285z" />
<glyph unicode="p" horiz-adv-x="1073" d="M147 940q-2 6 -2 11q0 15 19 22l53 22q8 3 14 3q3 0 6 -1q7 -2 13 -18l31 -72l251 90h19q78 0 145.5 -25.5t116.5 -70.5t78 -106.5t29 -132.5v-326q0 -80 -27 -145.5t-75 -111.5t-114.5 -70.5t-146.5 -24.5q-78 0 -144.5 28.5t-107.5 79.5v-475q0 -23 -20 -23h-66 q-25 0 -24 23v1208zM305 307q0 -39 17.5 -76.5t49 -68.5t79 -49.5t106.5 -18.5q61 0 108.5 19.5t79 52.5t48 75t16.5 89v307q0 61 -22.5 109.5t-59.5 80t-84 46.5q-42 14 -85 14h-11l-242 -86v-494z" />
<glyph unicode="q" horiz-adv-x="1073" d="M154 319v326q0 80 26.5 145.5t74.5 111.5t114.5 70.5t146.5 24.5q76 0 146.5 -29.5t119.5 -84.5l41 96q6 16 14 18q2 1 5 1q6 0 14 -3l53 -22q18 -8 19 -22q0 -5 -2 -11l-47 -115v-1208q0 -23 -25 -23h-66q-20 0 -20 23v446l-227 -79h-19q-78 0 -145.5 25.5t-116.5 70.5 t-77.5 106t-28.5 133zM264 344q0 -61 22.5 -109.5t59.5 -80t84 -46.5q42 -14 85 -14h11l242 86v494q0 39 -17.5 76.5t-49 68.5t-79 49.5t-106.5 18.5q-61 0 -108.5 -19.5t-79 -52.5t-48 -76t-16.5 -88v-307z" />
<glyph unicode="r" horiz-adv-x="804" d="M147 940q-2 6 -2 11q0 15 19 22l53 22q8 3 14 3q3 0 6 -1q7 -2 13 -18l37 -86q57 41 119.5 69.5t132.5 34.5h14l160 -49q18 -5 18 -21q0 -5 -2 -12l-18 -57q-6 -20 -27 -14l-137 43q-72 -8 -135.5 -38t-106.5 -69v-757q0 -23 -20 -23h-66q-25 0 -24 23v802z" />
<glyph unicode="s" horiz-adv-x="964" d="M127 199q-3 5 -3 9q0 6 5 11l66 47q12 10 22 -4q53 -78 119.5 -123t165.5 -45q92 0 148.5 47t56.5 123q0 41 -20.5 72t-70.5 53l-444 207v22q0 86 26.5 156t70.5 119t98.5 76.5t109.5 27.5h8l293 -88q14 -4 10 -16l-22 -80q-6 -12 -21 -10l-280 84q-39 -6 -68.5 -27.5 t-52 -51.5t-36 -66.5t-19.5 -75.5l377 -174q80 -37 115.5 -95.5t35.5 -130.5q0 -59 -21.5 -110.5t-61.5 -89t-98 -60t-134 -22.5q-113 0 -207 55.5t-168 159.5z" />
<glyph unicode="t" horiz-adv-x="692" d="M76 895v59q0 27 26 27h127v236q0 27 27 26h61q23 0 23 -26v-236h180q27 0 27 -27v-59q0 -25 -27 -25h-180v-671q0 -45 23.5 -73t54.5 -32l114 37q23 6 29 -16l19 -68q1 -4 1 -8q0 -14 -20 -19l-129 -36q-49 0 -87 16t-63.5 44t-39 63.5t-13.5 74.5v688h-127q-26 0 -26 25 z" />
<glyph unicode="u" horiz-adv-x="1103" d="M184 319v639q0 23 21 23h65q25 0 25 -23v-614q0 -61 22.5 -109.5t59.5 -80t84 -46.5q42 -14 85 -14h11l242 86v778q0 23 20 23h66q25 0 24 -23v-802l47 -115q2 -6 2 -11q0 -15 -18 -22l-53 -22q-8 -3 -14 -3q-3 0 -6 1q-7 2 -13 18l-31 72l-252 -90h-18 q-78 0 -145.5 25.5t-116.5 70.5t-78 106t-29 133z" />
<glyph unicode="v" horiz-adv-x="927" d="M53 948q-2 8 -2 14q0 19 25 19h59q16 0 23.5 -7t11.5 -22l291 -837l295 837q6 29 39 29h55q25 0 25 -19q0 -6 -3 -14l-329 -930q-6 -18 -25 -18h-117q-18 0 -24 18z" />
<glyph unicode="w" horiz-adv-x="1357" d="M72 950q-1 6 -1 11q0 20 21 20h60q29 0 34 -29l185 -800l233 725q6 18 25 18h110q18 0 25 -18l217 -734l190 809q6 29 33 29h62q16 0 20 -10q2 -5 2 -10.5t-2 -10.5l-215 -923q-6 -27 -27 -27h-104q-29 0 -37 27l-223 745l-240 -743q-10 -29 -37 -29h-96q-20 0 -22 18z " />
<glyph unicode="x" horiz-adv-x="923" d="M81 9q-1 3 -1 6q0 6 4 14l297 489l-266 434q-6 10 -1 19.5t17 9.5h84q10 0 17.5 -6t11.5 -14l225 -375l240 399q11 17 24 17q5 0 10 -3l56 -30q25 -14 10 -37l-266 -440l280 -461q4 -6 4 -13q0 -4 -2 -8q-4 -10 -18 -10h-78q-20 0 -29 14l-245 410l-246 -408 q-10 -16 -25 -16h-86q-14 0 -17 9z" />
<glyph unicode="y" horiz-adv-x="960" d="M86 948q-4 10 -4 17q0 14 16 18l62 18q5 1 9 2q15 0 21 -18l316 -835l282 802q6 29 39 29h56q25 0 25 -19q0 -6 -3 -14l-399 -1130q-37 -104 -117 -160.5t-199 -79.5q-3 -1 -6 -1q-17 0 -22 20l-15 55q-6 27 17 33q104 25 157.5 61.5t79.5 112.5l48 129z" />
<glyph unicode="z" horiz-adv-x="921" d="M125 113l541 757h-484q-27 0 -26 27v57q0 27 26 27h490q14 0 24 -8l97 -68q15 -11 14 -23q0 -7 -4 -14l-541 -757h498q27 0 26 -27v-57q0 -27 -26 -27h-504q-14 0 -25 8l-96 68q-15 11 -14 23q0 7 4 14z" />
<glyph unicode="{" horiz-adv-x="753" d="M61 573v17q0 18 17 24l115 39q10 4 21 6.5t17 2.5h74v481q0 219 101.5 329.5t263.5 110.5q23 0 22 -20v-68q0 -23 -22 -22q-123 0 -188.5 -83t-65.5 -247v-1108q0 -164 65.5 -247t188.5 -83q23 0 22 -22v-68q0 -20 -22 -21q-162 0 -263.5 111t-101.5 330v516h-219 q-25 -1 -25 22z" />
<glyph unicode="|" horiz-adv-x="794" d="M342 -383v1939q0 12 5 19.5t24 7.5h53q29 0 29 -27v-1939q0 -12 -5.5 -17.5t-23.5 -5.5h-53q-16 0 -22.5 3.5t-6.5 19.5z" />
<glyph unicode="}" horiz-adv-x="753" d="M61 -317q0 23 23 22q123 0 188.5 83t65.5 247v1108q0 164 -65.5 247t-188.5 83q-23 0 -23 22v68q0 20 23 20q162 0 263.5 -110.5t101.5 -329.5v-481h219q25 0 24 -23v-16q0 -18 -16 -25l-115 -39q-10 -4 -21.5 -6t-17.5 -2h-73v-516q0 -219 -101.5 -330t-263.5 -111 q-23 0 -23 21v68z" />
<glyph unicode="~" horiz-adv-x="1265" d="M205 602v64q0 23 24 39q59 39 129 55t129 16l291 -82q66 0 132.5 17.5t125.5 54.5q10 8 17.5 3t7.5 -15v-64q0 -23 -25 -39q-59 -39 -128.5 -55t-129.5 -16l-291 82q-66 0 -132 -17.5t-126 -54.5q-10 -8 -17 -3t-7 15z" />
<glyph unicode="&#xa1;" horiz-adv-x="507" d="M199 -379v991q0 12 5 17.5t23 5.5h54q16 0 22 -3t6 -20v-991q0 -12 -5 -19.5t-23 -7.5h-54q-28 0 -28 27zM199 844v114q0 12 5 17.5t23 5.5h54q16 0 22 -3t6 -20v-114q0 -12 -5 -19.5t-23 -7.5h-54q-28 0 -28 27z" />
<glyph unicode="&#xa2;" horiz-adv-x="987" d="M166 541v305q0 74 23.5 135t65.5 106.5t101.5 73t130.5 35.5v225q0 12 5.5 19.5t23.5 7.5h53q29 0 29 -27v-223q51 -4 104.5 -17.5t108.5 -33.5q18 -6 12 -25l-20 -67q-6 -20 -27 -15q-59 23 -118.5 36.5t-114.5 13.5q-127 0 -197 -72t-70 -184v-281q0 -63 24 -111.5 t60.5 -80t84 -48t94.5 -16.5l286 82q18 4 25 -19l16 -57q8 -27 -16 -33l-252 -71v-238q0 -12 -5 -17t-24 -5h-53q-16 0 -22.5 3t-6.5 19v227q-70 8 -129 37t-102 74t-66.5 106.5t-23.5 135.5z" />
<glyph unicode="&#xa3;" horiz-adv-x="1228" d="M123 676v57q0 27 24 27h193v198q0 96 31.5 178.5t87 142.5t129.5 94t157 34h7l288 -86q23 -6 17 -31l-17 -59q-4 -10 -11 -15.5t-21 -1.5l-273 82q-59 -4 -111.5 -29.5t-91 -71.5t-60 -109.5t-21.5 -141.5v-184h419q27 0 27 -25v-61q0 -25 -25 -25h-421v-442l333 -113 q90 0 139.5 47t49.5 133q0 25 24 25h62q25 0 24 -25q0 -72 -22.5 -126t-62.5 -91t-94 -55t-116 -18h-12l-358 120l-43 -102q-6 -16 -13.5 -18t-19.5 2l-53 22q-25 10 -17 33l68 160v448h-193q-24 0 -24 27z" />
<glyph unicode="&#xa4;" horiz-adv-x="1275" d="M174 647v94q0 100 37 185.5t100.5 147t148.5 95t179 33.5t178 -33.5t147.5 -95t100.5 -146.5t37 -186v-94q0 -102 -37 -187t-100.5 -146.5t-147.5 -95.5t-178 -34t-179 34t-148.5 95.5t-100.5 146.5t-37 187zM285 664q0 -80 25.5 -147.5t72.5 -117t112.5 -77t143.5 -27.5 t143.5 27.5t111.5 77t71.5 117t25.5 147.5v59q0 78 -25.5 145.5t-71.5 116.5t-111.5 78t-143.5 29t-143.5 -29t-112.5 -78t-72.5 -116.5t-25.5 -145.5v-59z" />
<glyph unicode="&#xa5;" horiz-adv-x="1273" d="M168 311v58q0 27 25 26h389v152l-58 110h-331q-25 0 -25 27v57q0 27 25 27h274l-281 549q-12 23 13 37l53 28q23 10 35 -14l352 -698l352 702q14 25 37 14l51 -30q23 -12 11 -37l-283 -551h272q27 0 27 -25v-61q0 -25 -25 -25h-331l-58 -110v-152h387q27 0 27 -24v-62 q0 -25 -25 -24h-389v-258q0 -27 -26 -27h-58q-27 0 -26 27v258h-389q-25 -1 -25 26z" />
<glyph unicode="&#xa6;" horiz-adv-x="794" d="M342 270q0 12 5 19.5t24 7.5h53q29 0 29 -27v-653q0 -12 -5.5 -17.5t-23.5 -5.5h-53q-16 0 -22.5 3.5t-6.5 19.5v653zM342 707v653q0 12 5 19t24 7h53q29 0 29 -26v-653q0 -12 -5.5 -17.5t-23.5 -5.5h-53q-16 0 -22.5 3.5t-6.5 19.5z" />
<glyph unicode="&#xa7;" horiz-adv-x="933" d="M127 199q-6 12 2 20l66 47q12 10 22 -4q53 -78 119.5 -123t165.5 -45q92 0 148.5 47t56.5 123q0 41 -20.5 72t-70.5 53l-444 207v22q0 104 40 186.5t101 131.5l-141 65v23q0 86 26.5 155.5t70.5 119t98.5 77t109.5 27.5h8l293 -88q14 -4 10 -17l-22 -79q-6 -12 -21 -11 l-280 84q-39 -6 -68.5 -27.5t-52 -51t-36 -66.5t-19.5 -76l377 -174q80 -37 115.5 -95.5t35.5 -129.5q0 -63 -24.5 -118.5t-71.5 -94.5q96 -72 96 -193q0 -59 -21.5 -110.5t-61.5 -89t-98 -60t-134 -22.5q-113 0 -207 55.5t-168 159.5zM289 666l315 -148q47 20 75 59t28 93 q0 41 -20.5 71.5t-70.5 53.5l-182 84q-63 -23 -99 -82t-46 -131z" />
<glyph unicode="&#xa8;" horiz-adv-x="856" d="M205 1194v115q0 12 5 19t23 7h54q29 0 28 -26v-115q0 -12 -5 -17.5t-23 -5.5h-54q-16 0 -22 3.5t-6 19.5zM541 1194v115q0 12 5 19t23 7h54q29 0 28 -26v-115q0 -12 -5 -17.5t-23 -5.5h-54q-16 0 -22 3.5t-6 19.5z" />
<glyph unicode="&#xa9;" horiz-adv-x="1757" d="M164 692q0 156 54 287t149.5 226t226.5 148.5t285 53.5q156 0 286.5 -53.5t226 -148.5t148.5 -226t53 -287q0 -154 -53 -285t-148.5 -226t-226.5 -148t-286 -53q-154 0 -285 53t-226.5 148t-149.5 226t-54 285zM266 692q0 -135 45 -246.5t126 -192.5t193.5 -126 t248.5 -45q135 0 246.5 45t193.5 126t127 192.5t45 246.5t-45 248t-127 193.5t-193.5 126t-246.5 45.5t-248 -45.5t-194 -126t-126 -193.5t-45 -248zM557 567v242q0 72 28.5 129t76 97t106.5 61.5t121 21.5h12l252 -80q18 -6 12 -24l-18 -64q-4 -18 -25 -12l-233 74 q-41 -2 -82 -17.5t-73 -43t-51 -69.5t-19 -96v-196q0 -96 55 -153.5t160 -57.5h30q80 0 124 43t50 106q2 18 19 19h69q18 0 19 -19q0 -53 -20.5 -100t-56.5 -82t-83 -54.5t-100 -19.5h-72q-61 0 -116.5 21.5t-96.5 60.5t-64.5 93t-23.5 120z" />
<glyph unicode="&#xaa;" horiz-adv-x="897" d="M119 793q0 27 5 55.5t17.5 55t32 46t47.5 27.5l412 125q0 94 -63.5 150.5t-159.5 56.5l-199 -58q-16 -6 -23 13l-16 49q-4 10 0 17t14 9l217 64q72 0 132.5 -21.5t103.5 -60.5t67.5 -92t24.5 -115v-426l43 -98q8 -18 -14 -29l-49 -18q-18 -8 -29 14l-29 61l-225 -77 q-154 0 -231.5 74t-77.5 178zM220 795q1 -43 22.5 -78t63.5 -58.5t108 -23.5l219 74v292l-397 -122q-17 -41 -16 -84z" />
<glyph unicode="&#xab;" horiz-adv-x="1292" d="M150 543q-10 10 0 20l405 406q12 12 29 12h39q14 0 14 -12v-62q0 -14 -10 -24l-332 -330l332 -330q10 -10 10 -24v-62q0 -12 -14 -12h-39q-10 0 -16.5 4t-12.5 10zM621 543q-10 10 0 20l405 406q12 12 29 12h39q14 0 14 -12v-62q0 -14 -10 -24l-332 -330l332 -330 q10 -10 10 -24v-62q0 -12 -14 -12h-39q-10 0 -16.5 4t-12.5 10z" />
<glyph unicode="&#xac;" horiz-adv-x="1265" d="M205 854v57q0 10 4 19.5t22 9.5h676q10 0 27 -8l110 -58q16 -10 17 -24v-412q0 -16 -6 -19t-23 -3h-55q-27 0 -27 24v389h-719q-26 0 -26 25z" />
<glyph unicode="&#xad;" horiz-adv-x="581" d="M61 647v12q0 18 17 25l88 39q16 8 29 8h301q25 0 24 -24v-60q0 -27 -24 -26h-412q-23 -1 -23 26z" />
<glyph unicode="&#xae;" horiz-adv-x="1462" d="M164 1081q0 117 45 220.5t122 180.5t180 122t220 45t220.5 -45t180 -122t121.5 -180.5t45 -220.5t-45 -220t-121.5 -180t-180 -122t-220.5 -45t-220 45t-180 122t-122 180t-45 220zM246 1081q0 -100 38 -188t104.5 -154.5t154.5 -104.5t188 -38t188.5 38t154 104.5 t104.5 154.5t39 188t-39 188.5t-104.5 154t-154 104.5t-188.5 39t-188 -39t-154.5 -104.5t-104.5 -154t-38 -188.5zM516 795v573q0 16 14 16h250q92 0 143.5 -60t51.5 -148q0 -66 -31 -110t-82 -73l119 -139q8 -8 8 -27v-34q0 -14 -12 -15h-43q-12 0 -21 13l-155 184 l-152 16v-196q0 -16 -12 -17h-64q-14 1 -14 17zM606 1083l199 -22q29 10 54.5 37.5t25.5 77.5q0 57 -34 87.5t-81 30.5h-164v-211z" />
<glyph unicode="&#xaf;" horiz-adv-x="999" d="M205 1196v59q0 27 26 27h537q27 0 27 -27v-59q0 -25 -27 -25h-537q-26 0 -26 25z" />
<glyph unicode="&#xb0;" horiz-adv-x="903" d="M154 1108q0 61 23.5 116.5t63.5 95.5t94 63.5t116 23.5q61 0 116.5 -23.5t95 -63.5t63.5 -95.5t24 -116.5t-24 -115.5t-63.5 -94.5t-95 -63.5t-116.5 -23.5t-115.5 23.5t-94.5 63.5t-63.5 94.5t-23.5 115.5zM264 1108q0 -78 54.5 -132t132.5 -54q39 0 73.5 14t60 39.5 t40 59.5t14.5 73t-14.5 74t-40 60.5t-60.5 39.5t-73 14q-39 0 -73 -14t-59.5 -39.5t-40 -60.5t-14.5 -74z" />
<glyph unicode="&#xb1;" horiz-adv-x="1347" d="M205 27v57q0 27 24 27h887q27 0 27 -25v-61q0 -25 -25 -25h-889q-24 0 -24 27zM205 690v58q0 27 24 26h389v346q0 27 25 27h62q25 0 24 -25v-348h387q27 0 27 -24v-62q0 -25 -25 -24h-389v-349q0 -25 -27 -24h-57q-27 0 -27 24v349h-389q-24 -1 -24 26z" />
<glyph unicode="&#xb2;" horiz-adv-x="1167" d="M152 104l618 635q57 59 90 130t33 149q0 51 -18.5 100t-53.5 89t-89 64.5t-124 24.5q-117 0 -198.5 -51t-128.5 -143q-12 -23 -35 -10l-51 28q-27 10 -11 37q20 45 59.5 90t93.5 81t122.5 57.5t150.5 21.5q78 0 148.5 -27.5t125 -78t87.5 -123t33 -162.5 q0 -100 -40 -189.5t-110 -160.5l-541 -555h666q23 0 22 -23v-65q0 -23 -26 -23h-739q-6 0 -14.5 2t-12.5 6l-55 62q-16 18 -2 34z" />
<glyph unicode="&#xb3;" horiz-adv-x="1185" d="M166 127l16 59q4 8 12.5 14.5t20.5 2.5l350 -113q80 0 140.5 25.5t102.5 67.5t62.5 97.5t20.5 116.5q0 115 -80 196t-238 89l-155 -51q-23 -6 -31 18l-18 53q-8 25 14 31l391 129q14 4 41 47t27 125q0 53 -14.5 100.5t-45 83t-81 57t-119.5 21.5q-100 0 -178 -39.5 t-130 -128.5q-16 -20 -34 -10l-50 29q-25 10 -10 37q23 45 59.5 86t88 71.5t115 48t141.5 17.5t145.5 -24.5t116.5 -72.5t77.5 -121t28.5 -167q0 -55 -13 -98t-29.5 -74t-32 -48.5t-19.5 -19.5l-131 -43q66 -12 117 -46t86 -80t53 -102t18 -114q0 -90 -31.5 -166.5t-88 -132 t-135 -87t-173.5 -31.5h-24l-367 116q-22 6 -16 31z" />
<glyph unicode="&#xb4;" horiz-adv-x="837" d="M209 1188q-8 18 10 26l354 154q18 10 31 -14l25 -49q10 -23 -13 -33l-215 -94q-12 -6 -28 -7h-148q-10 1 -16 17z" />
<glyph unicode="&#xb5;" horiz-adv-x="1114" d="M195 -383v1341q0 23 20 23h66q25 0 24 -23v-614q0 -61 22.5 -109.5t59.5 -80t84 -47t96 -13.5l242 86v778q0 23 20 23h66q25 0 25 -23v-802l47 -115q8 -23 -17 -33l-53 -22q-12 -4 -19.5 -2t-13.5 18l-30 72l-252 -90h-19q-80 0 -145.5 27.5t-112.5 74.5v-469 q0 -12 -5 -17.5t-24 -5.5h-53q-16 0 -22 3.5t-6 19.5z" />
<glyph unicode="&#x3bc;" horiz-adv-x="1114" d="M195 -383v1341q0 23 20 23h66q25 0 24 -23v-614q0 -61 22.5 -109.5t59.5 -80t84 -47t96 -13.5l242 86v778q0 23 20 23h66q25 0 25 -23v-802l47 -115q8 -23 -17 -33l-53 -22q-12 -4 -19.5 -2t-13.5 18l-30 72l-252 -90h-19q-80 0 -145.5 27.5t-112.5 74.5v-469 q0 -12 -5 -17.5t-24 -5.5h-53q-16 0 -22 3.5t-6 19.5z" />
<glyph unicode="&#xb6;" horiz-adv-x="1208" d="M143 1036q0 76 27 140.5t72 110.5t105.5 72.5t129.5 26.5h101q51 0 92 -12l278 -86q25 -8 25 -31v-1636q0 -27 -25 -27h-61q-25 0 -25 27v1577l-274 80v-1657q0 -12 -7.5 -19.5t-17.5 -7.5h-57q-29 0 -29 27v1065q-70 0 -130 26.5t-105 72.5t-72 110.5t-27 140.5z" />
<glyph unicode="&#xb7;" horiz-adv-x="466" d="M178 682v115q0 12 5 19t24 7h53q29 0 29 -26v-115q0 -12 -5 -17.5t-24 -5.5h-53q-16 0 -22.5 3.5t-6.5 19.5z" />
<glyph unicode="&#xb8;" horiz-adv-x="595" d="M205 -285q0 14 6 31l57 129q8 20 33 21h70q12 0 16 -9.5t0 -19.5l-113 -254q-8 -18 -24 -19h-29q-16 0 -16 19v102z" />
<glyph unicode="&#xb9;" horiz-adv-x="983" d="M158 27v57q0 27 24 27h314v1181l-279 -90q-20 -6 -27 15l-18 61q-8 27 16 33l304 96q10 0 26 -8l72 -41q16 -8 16 -25v-1222h289q27 0 27 -25v-61q0 -25 -25 -25h-715q-24 0 -24 27z" />
<glyph unicode="&#xba;" horiz-adv-x="935" d="M137 840v264q0 68 24.5 123t68.5 94t105.5 60.5t133.5 21.5t132.5 -21.5t104.5 -60.5t68.5 -94.5t24.5 -122.5v-264q0 -68 -24.5 -123t-68.5 -94t-104.5 -60.5t-132.5 -21.5t-133.5 21.5t-105.5 60.5t-68.5 94t-24.5 123zM238 850q0 -88 59 -151.5t172 -63.5 q111 0 170 63.5t59 151.5v244q0 88 -59 151.5t-170 63.5q-113 0 -172 -63.5t-59 -151.5v-244z" />
<glyph unicode="&#xbb;" horiz-adv-x="1292" d="M184 137v62q0 14 11 24l331 330l-331 330q-10 10 -11 24v62q0 12 15 12h39q16 0 28 -12l406 -406q10 -10 0 -20l-406 -404q-6 -6 -12 -10t-16 -4h-39q-15 0 -15 12zM655 137v62q0 14 11 24l331 330l-331 330q-10 10 -11 24v62q0 12 15 12h39q16 0 28 -12l406 -406 q10 -10 0 -20l-406 -404q-6 -6 -12 -10t-16 -4h-39q-15 0 -15 12z" />
<glyph unicode="&#xbc;" horiz-adv-x="536" d="M-260 25l930 1335q18 27 32 26h84q14 0 15.5 -8t-6.5 -18l-930 -1335q-16 -25 -39 -25h-74q-30 0 -12 25z" />
<glyph unicode="&#xbd;" horiz-adv-x="536" d="M-260 25l930 1335q18 27 32 26h84q14 0 15.5 -8t-6.5 -18l-930 -1335q-16 -25 -39 -25h-74q-30 0 -12 25z" />
<glyph unicode="&#xbe;" horiz-adv-x="536" d="M-260 25l930 1335q18 27 32 26h84q14 0 15.5 -8t-6.5 -18l-930 -1335q-16 -25 -39 -25h-74q-30 0 -12 25z" />
<glyph unicode="&#xbf;" horiz-adv-x="1003" d="M90 -59q0 190 207 325l203 133v211q0 25 24 25h62q25 0 24 -25v-272l-260 -170q-150 -100 -149 -227q0 -109 72.5 -182.5t209.5 -73.5q117 0 206 46t138 128q4 8 16.5 10t18.5 -2l58 -41q0 -2 4 -9t0 -12q-63 -109 -174 -170t-265 -61q-104 0 -179 33t-123 85 t-70.5 117.5t-22.5 131.5zM500 844v114q0 12 5 17.5t23 5.5h54q16 0 22 -3t6 -20v-114q0 -12 -5 -19.5t-23 -7.5h-54q-28 0 -28 27z" />
<glyph unicode="&#xc0;" d="M67.5 11.5q-4.5 11.5 0.5 21.5l452 1335q6 18 23 18h92q18 0 24 -18l443 -1335q10 -33 -23 -33h-63q-29 0 -35 29l-147 450h-318l-199 -59l-129 -391q-10 -29 -36 -29h-64q-16 0 -20.5 11.5zM272 1710l25 49q12 25 31 15l354 -154q18 -8 10 -27q-6 -16 -16 -16h-148 q-16 0 -28 6l-215 94q-23 10 -13 33zM360 549l97 29q20 6 44.5 9t47.5 3h248l-209 645z" />
<glyph unicode="&#xc1;" d="M67.5 11.5q-4.5 11.5 0.5 21.5l452 1335q6 18 23 18h92q18 0 24 -18l443 -1335q10 -33 -23 -33h-63q-29 0 -35 29l-147 450h-318l-199 -59l-129 -391q-10 -29 -36 -29h-64q-16 0 -20.5 11.5zM360 549l97 29q20 6 44.5 9t47.5 3h248l-209 645zM496 1593q-8 18 10 27 l354 154q18 10 31 -15l24 -49q10 -23 -12 -33l-215 -94q-12 -6 -29 -6h-147q-10 0 -16 16z" />
<glyph unicode="&#xc2;" d="M67.5 11.5q-4.5 11.5 0.5 21.5l452 1335q6 18 23 18h92q18 0 24 -18l443 -1335q10 -33 -23 -33h-63q-29 0 -35 29l-147 450h-318l-199 -59l-129 -391q-10 -29 -36 -29h-64q-16 0 -20.5 11.5zM309 1585q-4 8 6 19l250 221q18 18 37 0l250 -221q10 -10 6 -18.5t-14 -8.5 h-99q-12 0 -22 10l-139 123l-140 -123q-10 -10 -22 -10h-98q-11 0 -15 8zM360 549l97 29q20 6 44.5 9t47.5 3h248l-209 645z" />
<glyph unicode="&#xc3;" d="M67.5 11.5q-4.5 11.5 0.5 21.5l452 1335q6 18 23 18h92q18 0 24 -18l443 -1335q10 -33 -23 -33h-63q-29 0 -35 29l-147 450h-318l-199 -59l-129 -391q-10 -29 -36 -29h-64q-16 0 -20.5 11.5zM305 1602v63q0 20 25 37q39 23 80 37t82 14l196 -61q41 0 81 14t81 37 q10 4 17 0t7 -14v-64q0 -23 -24 -37q-39 -23 -80 -37t-82 -14l-196 61q-41 0 -81 -14t-81 -37q-10 -4 -17.5 0.5t-7.5 14.5zM360 549l97 29q20 6 44.5 9t47.5 3h248l-209 645z" />
<glyph unicode="&#xc4;" d="M67.5 11.5q-4.5 11.5 0.5 21.5l452 1335q6 18 23 18h92q18 0 24 -18l443 -1335q10 -33 -23 -33h-63q-29 0 -35 29l-147 450h-318l-199 -59l-129 -391q-10 -29 -36 -29h-64q-16 0 -20.5 11.5zM360 549l97 29q20 6 44.5 9t47.5 3h248l-209 645zM360 1599v115q0 12 5.5 19.5 t23.5 7.5h53q29 0 29 -27v-115q0 -12 -5 -17t-24 -5h-53q-16 0 -22.5 3t-6.5 19zM696 1599v115q0 12 5.5 19.5t23.5 7.5h53q29 0 29 -27v-115q0 -12 -5 -17t-24 -5h-53q-16 0 -22.5 3t-6.5 19z" />
<glyph unicode="&#xc5;" d="M67.5 11.5q-4.5 11.5 0.5 21.5l452 1335q6 18 23 18h92q18 0 24 -18l443 -1335q10 -33 -23 -33h-63q-29 0 -35 29l-147 450h-318l-199 -59l-129 -391q-10 -29 -36 -29h-64q-16 0 -20.5 11.5zM360 549l97 29q20 6 44.5 9t47.5 3h248l-209 645zM418 1702q0 70 48 118 t118 48t118 -48t48 -118t-48.5 -118t-117.5 -48q-70 0 -118 48t-48 118zM502 1702q0 -35 23.5 -58.5t58.5 -23.5t58.5 23.5t23.5 58.5t-24 58.5t-58 23.5q-35 0 -58.5 -23.5t-23.5 -58.5z" />
<glyph unicode="&#xc6;" horiz-adv-x="1685" d="M14 33l619 1335q8 18 22 18h852q16 0 19.5 -9t3.5 -19v-58q0 -16 -5 -20t-18 -4h-583v-520l86 26q20 6 44.5 9.5t47.5 3.5h319q16 0 19.5 -6.5t3.5 -18.5v-57q0 -18 -5 -23.5t-18 -5.5h-352l-145 -45v-528h626q12 0 17.5 -4.5t5.5 -20.5v-61q0 -10 -5 -17.5t-18 -7.5 h-712q-10 0 -17.5 5t-7.5 18v583l-141 -41q-41 -12 -92 -12h-201l-240 -524q-12 -29 -37 -29h-67q-35 0 -21 33zM430 664h182l201 59v553h-104z" />
<glyph unicode="&#xc7;" horiz-adv-x="1210" d="M154 449v489q0 96 37.5 181t101 149.5t144.5 101.5t165 37h6l412 -123q23 -6 16 -31l-16 -59q-4 -10 -11.5 -15t-21.5 -1l-395 118q-59 -4 -118.5 -32.5t-105.5 -77.5t-75 -115.5t-29 -146.5v-463q0 -66 21.5 -129.5t60.5 -112.5t91 -78.5t114 -29.5h197q61 0 108 20.5 t79 54t47 77.5t15 89q0 25 25 25h61q25 0 25 -25q0 -82 -28.5 -147.5t-78 -110.5t-113 -69.5t-130.5 -24.5h-219q-76 0 -145.5 36t-123 96.5t-85 142.5t-31.5 174zM510 -285q0 14 6 31l57 129q8 20 33 21h70q12 0 16 -9.5t0 -19.5l-112 -254q-8 -18 -25 -19h-29 q-16 0 -16 19v102z" />
<glyph unicode="&#xc8;" horiz-adv-x="1067" d="M195 23v1337q0 16 9 21t15 5h670q16 0 19 -9t3 -19v-58q0 -16 -5 -20t-17 -4h-584v-520l86 26q20 6 45 9.5t47 3.5h320q16 0 19 -6.5t3 -18.5v-57q0 -18 -5 -23.5t-17 -5.5h-352l-146 -45v-528h627q12 0 17 -4.5t5 -20.5v-61q0 -10 -5 -17.5t-17 -7.5h-713q-10 0 -17 5.5 t-7 17.5zM283 1710l24 49q12 25 31 15l354 -154q18 -8 10 -27q-6 -16 -16 -16h-147q-16 0 -29 6l-215 94q-22 10 -12 33z" />
<glyph unicode="&#xc9;" horiz-adv-x="1067" d="M195 23v1337q0 16 9 21t15 5h670q16 0 19 -9t3 -19v-58q0 -16 -5 -20t-17 -4h-584v-520l86 26q20 6 45 9.5t47 3.5h320q16 0 19 -6.5t3 -18.5v-57q0 -18 -5 -23.5t-17 -5.5h-352l-146 -45v-528h627q12 0 17 -4.5t5 -20.5v-61q0 -10 -5 -17.5t-17 -7.5h-713q-10 0 -17 5.5 t-7 17.5zM424 1593q-8 18 10 27l354 154q18 10 31 -15l25 -49q10 -23 -13 -33l-215 -94q-12 -6 -28 -6h-148q-10 0 -16 16z" />
<glyph unicode="&#xca;" horiz-adv-x="1067" d="M195 23v1337q0 16 9 21t15 5h670q16 0 19 -9t3 -19v-58q0 -16 -5 -20t-17 -4h-584v-520l86 26q20 6 45 9.5t47 3.5h320q16 0 19 -6.5t3 -18.5v-57q0 -18 -5 -23.5t-17 -5.5h-352l-146 -45v-528h627q12 0 17 -4.5t5 -20.5v-61q0 -10 -5 -17.5t-17 -7.5h-713q-10 0 -17 5.5 t-7 17.5zM295 1585q-4 8 6 19l250 221q18 18 37 0l250 -221q10 -10 6 -18.5t-15 -8.5h-98q-12 0 -22 10l-140 123l-139 -123q-10 -10 -22 -10h-99q-10 0 -14 8z" />
<glyph unicode="&#xcb;" horiz-adv-x="1067" d="M195 23v1337q0 16 9 21t15 5h670q16 0 19 -9t3 -19v-58q0 -16 -5 -20t-17 -4h-584v-520l86 26q20 6 45 9.5t47 3.5h320q16 0 19 -6.5t3 -18.5v-57q0 -18 -5 -23.5t-17 -5.5h-352l-146 -45v-528h627q12 0 17 -4.5t5 -20.5v-61q0 -10 -5 -17.5t-17 -7.5h-713q-10 0 -17 5.5 t-7 17.5zM344 1599v115q0 12 5 19.5t24 7.5h53q29 0 29 -27v-115q0 -12 -5.5 -17t-23.5 -5h-53q-16 0 -22.5 3t-6.5 19zM680 1599v115q0 12 5 19.5t24 7.5h53q29 0 29 -27v-115q0 -12 -5.5 -17t-23.5 -5h-53q-16 0 -22.5 3t-6.5 19z" />
<glyph unicode="&#xcc;" horiz-adv-x="499" d="M-82 1710l25 49q12 25 30 15l355 -154q18 -8 10 -27q-6 -16 -16 -16h-148q-16 0 -29 6l-215 94q-22 10 -12 33zM195 23v1337q0 27 28 26h58q25 0 24 -26v-1337q0 -12 -4 -17.5t-20 -5.5h-62q-10 0 -17 6.5t-7 16.5z" />
<glyph unicode="&#xcd;" horiz-adv-x="499" d="M162 1593q-8 18 10 27l354 154q18 10 31 -15l25 -49q10 -23 -13 -33l-215 -94q-12 -6 -28 -6h-148q-10 0 -16 16zM195 23v1337q0 27 28 26h58q25 0 24 -26v-1337q0 -12 -4 -17.5t-20 -5.5h-62q-10 0 -17 6.5t-7 16.5z" />
<glyph unicode="&#xce;" horiz-adv-x="499" d="M-24.5 1585q-4.5 8 6.5 19l249 221q18 18 37 0l250 -221q10 -10 6 -18.5t-14 -8.5h-98q-12 0 -23 10l-139 123l-139 -123q-10 -10 -23 -10h-98q-10 0 -14.5 8zM195 23v1337q0 27 28 26h58q25 0 24 -26v-1337q0 -12 -4 -17.5t-20 -5.5h-62q-10 0 -17 6.5t-7 16.5z" />
<glyph unicode="&#xcf;" horiz-adv-x="499" d="M27 1599v115q0 12 5 19.5t23 7.5h54q29 0 28 -27v-115q0 -12 -5 -17t-23 -5h-54q-16 0 -22 3t-6 19zM195 23v1337q0 27 28 26h58q25 0 24 -26v-1337q0 -12 -4 -17.5t-20 -5.5h-62q-10 0 -17 6.5t-7 16.5zM362 1599v115q0 12 5.5 19.5t23.5 7.5h53q29 0 29 -27v-115 q0 -12 -5 -17t-24 -5h-53q-16 0 -22.5 3t-6.5 19z" />
<glyph unicode="&#xd0;" horiz-adv-x="1351" d="M41 709v61q0 25 27 25h168v501q0 14 16 25l110 57q16 8 27 8h424q76 0 145.5 -35.5t123 -96t85 -142.5t31.5 -174v-489q0 -92 -31.5 -174t-85 -142.5t-123 -96.5t-145.5 -36h-557q-20 0 -20 27v657h-170q-25 0 -25 25zM346 111h459q61 0 112.5 29.5t89 78.5t59 112.5 t21.5 129.5v465q0 66 -21.5 129t-59 112.5t-89 79t-112.5 29.5h-459v-481h176q6 0 17.5 -2t21.5 -7l115 -38q16 -6 16 -25v-16q0 -23 -24 -23h-322v-573z" />
<glyph unicode="&#xd1;" horiz-adv-x="1361" d="M195 23v1282q0 18 10 24l88 53q25 14 37 -8l727 -1159v1145q0 16 4 21t20 5h58q16 0 22 -4t6 -22v-1335q0 -25 -26 -25h-37q-41 0 -66 37l-733 1171v-1185q0 -12 -4 -17.5t-20 -5.5h-58q-16 0 -22 3.5t-6 19.5zM410 1602v63q0 20 24 37q39 23 80 37t82 14l197 -61 q41 0 80.5 14t80.5 37q10 4 17.5 0t7.5 -14v-64q0 -23 -25 -37q-39 -23 -79.5 -37t-81.5 -14l-197 61q-41 0 -81 -14t-81 -37q-10 -4 -17 0.5t-7 14.5z" />
<glyph unicode="&#xd2;" horiz-adv-x="1316" d="M154 449v489q0 92 31.5 174t85 142.5t123 96t145.5 35.5h274q33 0 57 -24l271 -268q23 -23 22 -56v-589q0 -92 -31.5 -174t-85 -142.5t-123 -96.5t-145.5 -36h-239q-76 0 -145.5 36t-123 96.5t-85 142.5t-31.5 174zM264 461q0 -66 21.5 -129.5t60.5 -112.5t90 -78.5 t113 -29.5h219q61 0 112.5 29.5t90.5 78.5t60.5 112.5t21.5 129.5v565l-250 250h-254q-61 0 -112.5 -29.5t-90.5 -79t-60.5 -113t-21.5 -128.5v-465zM367 1710l24 49q12 25 31 15l354 -154q18 -8 10 -27q-6 -16 -16 -16h-147q-16 0 -29 6l-215 94q-22 10 -12 33z" />
<glyph unicode="&#xd3;" horiz-adv-x="1316" d="M154 449v489q0 92 31.5 174t85 142.5t123 96t145.5 35.5h274q33 0 57 -24l271 -268q23 -23 22 -56v-589q0 -92 -31.5 -174t-85 -142.5t-123 -96.5t-145.5 -36h-239q-76 0 -145.5 36t-123 96.5t-85 142.5t-31.5 174zM264 461q0 -66 21.5 -129.5t60.5 -112.5t90 -78.5 t113 -29.5h219q61 0 112.5 29.5t90.5 78.5t60.5 112.5t21.5 129.5v565l-250 250h-254q-61 0 -112.5 -29.5t-90.5 -79t-60.5 -113t-21.5 -128.5v-465zM549 1593q-8 18 10 27l354 154q18 10 31 -15l25 -49q10 -23 -13 -33l-215 -94q-12 -6 -28 -6h-148q-10 0 -16 16z" />
<glyph unicode="&#xd4;" horiz-adv-x="1316" d="M154 449v489q0 92 31.5 174t85 142.5t123 96t145.5 35.5h274q33 0 57 -24l271 -268q23 -23 22 -56v-589q0 -92 -31.5 -174t-85 -142.5t-123 -96.5t-145.5 -36h-239q-76 0 -145.5 36t-123 96.5t-85 142.5t-31.5 174zM264 461q0 -66 21.5 -129.5t60.5 -112.5t90 -78.5 t113 -29.5h219q61 0 112.5 29.5t90.5 78.5t60.5 112.5t21.5 129.5v565l-250 250h-254q-61 0 -112.5 -29.5t-90.5 -79t-60.5 -113t-21.5 -128.5v-465zM383 1585q-4 8 6 19l250 221q18 18 37 0l250 -221q10 -10 6 -18.5t-14 -8.5h-99q-12 0 -22 10l-140 123l-139 -123 q-10 -10 -22 -10h-99q-10 0 -14 8z" />
<glyph unicode="&#xd5;" horiz-adv-x="1316" d="M154 449v489q0 92 31.5 174t85 142.5t123 96t145.5 35.5h274q33 0 57 -24l271 -268q23 -23 22 -56v-589q0 -92 -31.5 -174t-85 -142.5t-123 -96.5t-145.5 -36h-239q-76 0 -145.5 36t-123 96.5t-85 142.5t-31.5 174zM264 461q0 -66 21.5 -129.5t60.5 -112.5t90 -78.5 t113 -29.5h219q61 0 112.5 29.5t90.5 78.5t60.5 112.5t21.5 129.5v565l-250 250h-254q-61 0 -112.5 -29.5t-90.5 -79t-60.5 -113t-21.5 -128.5v-465zM373 1602v63q0 20 24 37q39 23 80 37t82 14l197 -61q41 0 81 14t81 37q10 4 17 0t7 -14v-64q0 -23 -24 -37 q-39 -23 -80 -37t-82 -14l-197 61q-41 0 -81 -14t-81 -37q-10 -4 -17 0.5t-7 14.5z" />
<glyph unicode="&#xd6;" horiz-adv-x="1316" d="M154 449v489q0 92 31.5 174t85 142.5t123 96t145.5 35.5h274q33 0 57 -24l271 -268q23 -23 22 -56v-589q0 -92 -31.5 -174t-85 -142.5t-123 -96.5t-145.5 -36h-239q-76 0 -145.5 36t-123 96.5t-85 142.5t-31.5 174zM264 461q0 -66 21.5 -129.5t60.5 -112.5t90 -78.5 t113 -29.5h219q61 0 112.5 29.5t90.5 78.5t60.5 112.5t21.5 129.5v565l-250 250h-254q-61 0 -112.5 -29.5t-90.5 -79t-60.5 -113t-21.5 -128.5v-465zM434 1599v115q0 12 5 19.5t24 7.5h53q29 0 29 -27v-115q0 -12 -5 -17t-24 -5h-53q-16 0 -22.5 3t-6.5 19zM770 1599v115 q0 12 5 19.5t24 7.5h53q29 0 29 -27v-115q0 -12 -5.5 -17t-23.5 -5h-53q-16 0 -22.5 3t-6.5 19z" />
<glyph unicode="&#xd7;" horiz-adv-x="1347" d="M281 365l315 313l-315 315q-16 18 2 37l41 41q18 18 36 2l314 -317l315 317q16 16 35 2l45 -45q14 -18 0 -35l-317 -317l315 -316q16 -16 2 -34l-45 -45q-18 -14 -35 0l-315 317l-314 -315q-18 -16 -36 2l-41 41q-18 19 -2 37z" />
<glyph unicode="&#xd8;" horiz-adv-x="1316" d="M154 449v489q0 92 31.5 174t85 142.5t123 96t145.5 35.5h280l31 97q8 27 24 26h66q25 0 16 -26l-41 -133l226 -224q23 -23 22 -55v-622q0 -92 -31.5 -174t-85 -142.5t-123 -96.5t-145.5 -36h-239h-22q-11 0 -21 2l-31 -100q-8 -25 -33 -25h-55q-25 0 -19 25l41 131 q-53 25 -98 66.5t-78 95t-51 118t-18 136.5zM264 461q0 -98 46 -186.5t122 -133.5l352 1135h-235q-61 0 -112.5 -29.5t-90.5 -79t-60.5 -113t-21.5 -128.5v-465zM530 111h238q61 0 112.5 29.5t90.5 78.5t60.5 112.5t21.5 129.5v598l-174 174z" />
<glyph unicode="&#xd9;" horiz-adv-x="1302" d="M174 449v911q0 27 21 26h65q25 0 25 -26v-899q0 -66 21.5 -129.5t60.5 -112.5t90 -78.5t112 -29.5h164q61 0 112.5 29.5t90.5 78.5t60.5 112.5t21.5 129.5v899q0 10 5 18t15 8h66q25 0 24 -26v-911q0 -92 -31.5 -174t-85 -142.5t-123 -96.5t-145.5 -36h-184 q-76 0 -145.5 36t-122.5 96.5t-85 142.5t-32 174zM340 1710l25 49q12 25 30 15l355 -154q18 -8 10 -27q-6 -16 -17 -16h-147q-16 0 -29 6l-215 94q-22 10 -12 33z" />
<glyph unicode="&#xda;" horiz-adv-x="1302" d="M174 449v911q0 27 21 26h65q25 0 25 -26v-899q0 -66 21.5 -129.5t60.5 -112.5t90 -78.5t112 -29.5h164q61 0 112.5 29.5t90.5 78.5t60.5 112.5t21.5 129.5v899q0 10 5 18t15 8h66q25 0 24 -26v-911q0 -92 -31.5 -174t-85 -142.5t-123 -96.5t-145.5 -36h-184 q-76 0 -145.5 36t-122.5 96.5t-85 142.5t-32 174zM543 1593q-8 18 10 27l354 154q18 10 31 -15l25 -49q10 -23 -13 -33l-215 -94q-12 -6 -28 -6h-148q-10 0 -16 16z" />
<glyph unicode="&#xdb;" horiz-adv-x="1302" d="M174 449v911q0 27 21 26h65q25 0 25 -26v-899q0 -66 21.5 -129.5t60.5 -112.5t90 -78.5t112 -29.5h164q61 0 112.5 29.5t90.5 78.5t60.5 112.5t21.5 129.5v899q0 10 5 18t15 8h66q25 0 24 -26v-911q0 -92 -31.5 -174t-85 -142.5t-123 -96.5t-145.5 -36h-184 q-76 0 -145.5 36t-122.5 96.5t-85 142.5t-32 174zM377 1585q-4 8 6 19l250 221q18 18 37 0l250 -221q10 -10 6 -18.5t-15 -8.5h-98q-12 0 -22 10l-140 123l-139 -123q-10 -10 -23 -10h-98q-10 0 -14 8z" />
<glyph unicode="&#xdc;" horiz-adv-x="1302" d="M174 449v911q0 27 21 26h65q25 0 25 -26v-899q0 -66 21.5 -129.5t60.5 -112.5t90 -78.5t112 -29.5h164q61 0 112.5 29.5t90.5 78.5t60.5 112.5t21.5 129.5v899q0 10 5 18t15 8h66q25 0 24 -26v-911q0 -92 -31.5 -174t-85 -142.5t-123 -96.5t-145.5 -36h-184 q-76 0 -145.5 36t-122.5 96.5t-85 142.5t-32 174zM428 1599v115q0 12 5 19.5t24 7.5h53q29 0 29 -27v-115q0 -12 -5.5 -17t-23.5 -5h-53q-16 0 -22.5 3t-6.5 19zM764 1599v115q0 12 5 19.5t24 7.5h53q29 0 28 -27v-115q0 -12 -5 -17t-23 -5h-53q-16 0 -22.5 3t-6.5 19z" />
<glyph unicode="&#xdd;" horiz-adv-x="1028" d="M63 1317q-12 23 13 37l53 28q23 10 35 -14l352 -698l352 702q14 25 37 14l51 -30q23 -12 11 -37l-398 -772v-520q0 -27 -26 -27h-58q-27 0 -26 27v520zM406 1593q-8 18 10 27l354 154q18 10 31 -15l24 -49q10 -23 -12 -33l-215 -94q-12 -6 -29 -6h-147q-10 0 -16 16z" />
<glyph unicode="&#xde;" horiz-adv-x="1144" d="M195 23v1337q0 27 28 26h58q25 0 24 -26v-313l66 20q20 6 44.5 9t47.5 3h285q63 0 122.5 -29.5t104.5 -80.5t71.5 -117t26.5 -139q0 -74 -26.5 -139.5t-71.5 -116.5t-104.5 -81t-122.5 -30h-443v-323q0 -23 -29 -23h-53q-16 0 -22 3.5t-6 19.5zM305 457h434q45 0 86 21.5 t70 56t46 82t17 96.5t-17 96t-46 82t-70 56.5t-86 21.5h-293l-141 -41v-471z" />
<glyph unicode="&#xdf;" d="M203 23v1038q0 80 24.5 143.5t69.5 107.5t108.5 67.5t139.5 23.5q82 0 146.5 -26.5t109.5 -75t69.5 -117t24.5 -150.5v-90q0 -23 -16 -22q-121 -10 -197 -68.5t-86 -175.5l299 -170q76 -43 111.5 -105.5t35.5 -134.5q0 -61 -19 -112.5t-56 -90t-90.5 -60t-120.5 -21.5 q-80 0 -154 30.5t-141 104.5q-8 10 0 20l61 54q8 12 23 -3q45 -53 96 -74.5t115 -21.5q80 0 128 48t48 124q0 41 -21.5 78t-68.5 64l-363 204v19q0 147 78 251.5t227 135.5q4 127 -57 200.5t-190 73.5q-84 0 -145.5 -49t-78.5 -141v-1079q0 -23 -22 -23h-66q-22 0 -22 23z " />
<glyph unicode="&#xe0;" horiz-adv-x="987" d="M123 281q0 31 6 64.5t19.5 64t35 53t52.5 33.5l456 147q0 111 -70.5 177.5t-177.5 66.5l-219 -68q-20 -6 -26 15l-19 57q-8 27 17 33l241 73q80 0 146.5 -25.5t116 -70.5t76 -107.5t26.5 -136.5v-501l47 -115q8 -23 -16 -33l-54 -22q-12 -4 -19 -2t-13 18l-31 72 l-252 -90q-84 0 -148.5 23.5t-107.5 63.5t-64.5 94.5t-21.5 115.5zM235.5 283.5q2.5 -50.5 26 -92t69.5 -69.5t120 -28l241 86v346l-440 -145q-19 -47 -16.5 -97.5zM244 1305l24 49q12 25 31 14l354 -154q18 -8 11 -26q-6 -16 -17 -17h-147q-16 0 -29 7l-215 94 q-22 10 -12 33z" />
<glyph unicode="&#xe1;" horiz-adv-x="987" d="M123 281q0 31 6 64.5t19.5 64t35 53t52.5 33.5l456 147q0 111 -70.5 177.5t-177.5 66.5l-219 -68q-20 -6 -26 15l-19 57q-8 27 17 33l241 73q80 0 146.5 -25.5t116 -70.5t76 -107.5t26.5 -136.5v-501l47 -115q8 -23 -16 -33l-54 -22q-12 -4 -19 -2t-13 18l-31 72 l-252 -90q-84 0 -148.5 23.5t-107.5 63.5t-64.5 94.5t-21.5 115.5zM235.5 283.5q2.5 -50.5 26 -92t69.5 -69.5t120 -28l241 86v346l-440 -145q-19 -47 -16.5 -97.5zM324 1188q-8 18 10 26l354 154q18 10 31 -14l24 -49q10 -23 -12 -33l-215 -94q-12 -6 -29 -7h-147 q-10 1 -16 17z" />
<glyph unicode="&#xe2;" horiz-adv-x="987" d="M123 281q0 31 6 64.5t19.5 64t35 53t52.5 33.5l456 147q0 111 -70.5 177.5t-177.5 66.5l-219 -68q-20 -6 -26 15l-19 57q-8 27 17 33l241 73q80 0 146.5 -25.5t116 -70.5t76 -107.5t26.5 -136.5v-501l47 -115q8 -23 -16 -33l-54 -22q-12 -4 -19 -2t-13 18l-31 72 l-252 -90q-84 0 -148.5 23.5t-107.5 63.5t-64.5 94.5t-21.5 115.5zM219 1179.5q-4 8.5 6 18.5l250 221q18 18 37 0l250 -221q10 -10 6 -18.5t-14 -8.5h-99q-12 0 -22 11l-139 123l-140 -123q-10 -10 -22 -11h-99q-10 0 -14 8.5zM235.5 283.5q2.5 -50.5 26 -92t69.5 -69.5 t120 -28l241 86v346l-440 -145q-19 -47 -16.5 -97.5z" />
<glyph unicode="&#xe3;" horiz-adv-x="987" d="M123 281q0 31 6 64.5t19.5 64t35 53t52.5 33.5l456 147q0 111 -70.5 177.5t-177.5 66.5l-219 -68q-20 -6 -26 15l-19 57q-8 27 17 33l241 73q80 0 146.5 -25.5t116 -70.5t76 -107.5t26.5 -136.5v-501l47 -115q8 -23 -16 -33l-54 -22q-12 -4 -19 -2t-13 18l-31 72 l-252 -90q-84 0 -148.5 23.5t-107.5 63.5t-64.5 94.5t-21.5 115.5zM209 1196v64q0 20 24 36q39 23 80 37.5t82 14.5l197 -62q41 0 81 14.5t81 36.5q10 4 17 0t7 -14v-63q0 -23 -24 -37q-39 -23 -80 -37.5t-82 -14.5l-197 62q-41 0 -81 -14.5t-81 -36.5q-10 -4 -17 0t-7 14z M235.5 283.5q2.5 -50.5 26 -92t69.5 -69.5t120 -28l241 86v346l-440 -145q-19 -47 -16.5 -97.5z" />
<glyph unicode="&#xe4;" horiz-adv-x="987" d="M123 281q0 31 6 64.5t19.5 64t35 53t52.5 33.5l456 147q0 111 -70.5 177.5t-177.5 66.5l-219 -68q-20 -6 -26 15l-19 57q-8 27 17 33l241 73q80 0 146.5 -25.5t116 -70.5t76 -107.5t26.5 -136.5v-501l47 -115q8 -23 -16 -33l-54 -22q-12 -4 -19 -2t-13 18l-31 72 l-252 -90q-84 0 -148.5 23.5t-107.5 63.5t-64.5 94.5t-21.5 115.5zM235.5 283.5q2.5 -50.5 26 -92t69.5 -69.5t120 -28l241 86v346l-440 -145q-19 -47 -16.5 -97.5zM270 1194v115q0 12 5.5 19t23.5 7h53q29 0 29 -26v-115q0 -12 -5 -17.5t-24 -5.5h-53q-16 0 -22.5 3.5 t-6.5 19.5zM606 1194v115q0 12 5 19t24 7h53q29 0 29 -26v-115q0 -12 -5 -17.5t-24 -5.5h-53q-16 0 -22.5 3.5t-6.5 19.5z" />
<glyph unicode="&#xe5;" horiz-adv-x="987" d="M123 281q0 31 6 64.5t19.5 64t35 53t52.5 33.5l456 147q0 111 -70.5 177.5t-177.5 66.5l-219 -68q-20 -6 -26 15l-19 57q-8 27 17 33l241 73q80 0 146.5 -25.5t116 -70.5t76 -107.5t26.5 -136.5v-501l47 -115q8 -23 -16 -33l-54 -22q-12 -4 -19 -2t-13 18l-31 72 l-252 -90q-84 0 -148.5 23.5t-107.5 63.5t-64.5 94.5t-21.5 115.5zM235.5 283.5q2.5 -50.5 26 -92t69.5 -69.5t120 -28l241 86v346l-440 -145q-19 -47 -16.5 -97.5zM328 1296q0 70 48 118t118 48t117.5 -48t47.5 -118t-48 -118t-117 -48q-70 0 -118 48t-48 118zM412 1296 q0 -35 23.5 -58.5t58.5 -23.5t58 24t23 58q0 35 -23.5 58.5t-57.5 23.5q-35 0 -58.5 -23.5t-23.5 -58.5z" />
<glyph unicode="&#xe6;" horiz-adv-x="1568" d="M133 281q0 31 6 64.5t19.5 64t35 53t52.5 33.5l456 147q0 111 -70.5 177.5t-176.5 66.5l-219 -68q-20 -6 -27 15l-19 57q-8 27 17 33l242 73q106 0 186 -44t123 -117q45 78 125 119.5t186 41.5q80 0 147.5 -24.5t115.5 -70.5t76 -111.5t28 -145.5v-88l-29 -102 q-6 -18 -25 -19h-569v-129q14 -100 76.5 -156.5t179.5 -56.5l293 82q18 4 24 -18l17 -58q8 -27 -17 -32l-301 -84h-16q-88 0 -159.5 29.5t-121.5 82.5l-313 -112q-84 0 -148.5 23.5t-107.5 63.5t-64.5 94.5t-21.5 115.5zM246 283.5q2 -50.5 25.5 -92t69.5 -69.5t120 -28 l268 94q-27 70 -27 148v190l-440 -145q-18 -47 -16 -97.5zM813 547h512v86q0 104 -65.5 179t-190.5 75t-190.5 -75t-65.5 -179v-86z" />
<glyph unicode="&#xe7;" horiz-adv-x="978" d="M154 338v305q0 80 27.5 145.5t77.5 111.5t120 71.5t151 25.5q125 0 269 -53q18 -6 12 -24l-20 -68q-6 -20 -27 -14q-59 23 -118.5 36t-115.5 13q-127 0 -196.5 -72t-69.5 -184v-281q0 -63 23.5 -111.5t60.5 -80t84 -48t94 -16.5l287 82q18 4 25 -18l16 -58q8 -27 -16 -32 l-301 -84h-7q-80 0 -148.5 25.5t-119.5 71.5t-79.5 111.5t-28.5 145.5zM395 -285q0 14 6 31l58 129q8 20 33 21h69q12 0 16.5 -9.5t0.5 -19.5l-113 -254q-8 -18 -25 -19h-28q-16 0 -17 19v102z" />
<glyph unicode="&#xe8;" horiz-adv-x="1071" d="M154 336v309q0 80 27.5 145.5t75.5 111.5t115.5 70.5t147.5 24.5t147.5 -24.5t115.5 -70.5t76 -111.5t28 -145.5v-88l-29 -102q-6 -18 -24 -19h-570v-129q14 -100 76.5 -156.5t179.5 -56.5l293 82q18 4 25 -18l16 -58q8 -27 -16 -32l-301 -84h-17q-80 0 -147.5 24.5 t-115.5 70.5t-75.5 111.5t-27.5 145.5zM244 1305l24 49q12 25 31 14l354 -154q18 -8 11 -26q-6 -16 -17 -17h-147q-16 0 -29 7l-215 94q-22 10 -12 33zM264 547h512v86q0 104 -65.5 179t-190.5 75t-190.5 -75t-65.5 -179v-86z" />
<glyph unicode="&#xe9;" horiz-adv-x="1071" d="M154 336v309q0 80 27.5 145.5t75.5 111.5t115.5 70.5t147.5 24.5t147.5 -24.5t115.5 -70.5t76 -111.5t28 -145.5v-88l-29 -102q-6 -18 -24 -19h-570v-129q14 -100 76.5 -156.5t179.5 -56.5l293 82q18 4 25 -18l16 -58q8 -27 -16 -32l-301 -84h-17q-80 0 -147.5 24.5 t-115.5 70.5t-75.5 111.5t-27.5 145.5zM264 547h512v86q0 104 -65.5 179t-190.5 75t-190.5 -75t-65.5 -179v-86zM406 1188q-8 18 10 26l354 154q18 10 31 -14l24 -49q10 -23 -12 -33l-215 -94q-12 -6 -29 -7h-147q-10 1 -16 17z" />
<glyph unicode="&#xea;" horiz-adv-x="1071" d="M154 336v309q0 80 27.5 145.5t75.5 111.5t115.5 70.5t147.5 24.5t147.5 -24.5t115.5 -70.5t76 -111.5t28 -145.5v-88l-29 -102q-6 -18 -24 -19h-570v-129q14 -100 76.5 -156.5t179.5 -56.5l293 82q18 4 25 -18l16 -58q8 -27 -16 -32l-301 -84h-17q-80 0 -147.5 24.5 t-115.5 70.5t-75.5 111.5t-27.5 145.5zM260 1179.5q-4 8.5 6 18.5l250 221q18 18 37 0l250 -221q10 -10 6 -18.5t-14 -8.5h-99q-12 0 -22 11l-139 123l-140 -123q-10 -10 -22 -11h-99q-10 0 -14 8.5zM264 547h512v86q0 104 -65.5 179t-190.5 75t-190.5 -75t-65.5 -179v-86z " />
<glyph unicode="&#xeb;" horiz-adv-x="1071" d="M154 336v309q0 80 27.5 145.5t75.5 111.5t115.5 70.5t147.5 24.5t147.5 -24.5t115.5 -70.5t76 -111.5t28 -145.5v-88l-29 -102q-6 -18 -24 -19h-570v-129q14 -100 76.5 -156.5t179.5 -56.5l293 82q18 4 25 -18l16 -58q8 -27 -16 -32l-301 -84h-17q-80 0 -147.5 24.5 t-115.5 70.5t-75.5 111.5t-27.5 145.5zM264 547h512v86q0 104 -65.5 179t-190.5 75t-190.5 -75t-65.5 -179v-86zM311 1194v115q0 12 5.5 19t23.5 7h53q29 0 29 -26v-115q0 -12 -5 -17.5t-24 -5.5h-53q-16 0 -22.5 3.5t-6.5 19.5zM647 1194v115q0 12 5 19t24 7h53 q29 0 29 -26v-115q0 -12 -5 -17.5t-24 -5.5h-53q-16 0 -22.5 3.5t-6.5 19.5z" />
<glyph unicode="&#xec;" horiz-adv-x="507" d="M-78 1305l25 49q12 25 30 14l355 -154q18 -8 10 -26q-6 -16 -16 -17h-148q-16 0 -28 7l-216 94q-22 10 -12 33zM199 23v931q0 10 6 18.5t18 8.5h62q10 0 17 -5t7 -18v-935q0 -12 -5 -17.5t-23 -5.5h-54q-16 0 -22 3.5t-6 19.5z" />
<glyph unicode="&#xed;" horiz-adv-x="507" d="M166 1188q-8 18 10 26l354 154q18 10 31 -14l25 -49q10 -23 -13 -33l-215 -94q-12 -6 -28 -7h-148q-10 1 -16 17zM199 23v931q0 10 6 18.5t18 8.5h62q10 0 17 -5t7 -18v-935q0 -12 -5 -17.5t-23 -5.5h-54q-16 0 -22 3.5t-6 19.5z" />
<glyph unicode="&#xee;" horiz-adv-x="507" d="M-20.5 1179.5q-4.5 8.5 6.5 18.5l250 221q18 18 36 0l250 -221q10 -10 6 -18.5t-14 -8.5h-98q-12 0 -23 11l-139 123l-139 -123q-10 -10 -23 -11h-98q-10 0 -14.5 8.5zM199 23v931q0 10 6 18.5t18 8.5h62q10 0 17 -5t7 -18v-935q0 -12 -5 -17.5t-23 -5.5h-54 q-16 0 -22 3.5t-6 19.5z" />
<glyph unicode="&#xef;" horiz-adv-x="507" d="M31 1194v115q0 12 5 19t23 7h54q29 0 28 -26v-115q0 -12 -5 -17.5t-23 -5.5h-54q-16 0 -22 3.5t-6 19.5zM199 23v931q0 10 6 18.5t18 8.5h62q10 0 17 -5t7 -18v-935q0 -12 -5 -17.5t-23 -5.5h-54q-16 0 -22 3.5t-6 19.5zM367 1194v115q0 12 5 19t23 7h54q29 0 28 -26 v-115q0 -12 -5 -17.5t-23 -5.5h-54q-16 0 -22 3.5t-6 19.5z" />
<glyph unicode="&#xf0;" horiz-adv-x="1040" d="M154 336v293q0 80 27.5 145.5t75.5 111.5t115.5 70.5t147.5 24.5h25l-144 149l-53 -18q-12 -4 -39 -4h-121q-14 0 -22 18l-6 15q-8 23 16 30l139 48l-94 98q-6 8 -8 18.5t6 18.5l45 43q6 6 15.5 8t17.5 -8l133 -140l250 86q10 4 18.5 -1t12.5 -15l20 -57q6 -23 -18 -33 l-197 -68l244 -249q127 -129 127 -291v-293q0 -80 -28 -145.5t-76 -111.5t-115.5 -70.5t-147.5 -24.5t-147.5 24.5t-115.5 70.5t-75.5 111.5t-27.5 145.5zM264 348q0 -104 65.5 -179t190.5 -75t190.5 75t65.5 179v268q0 104 -65.5 179t-190.5 75t-190.5 -74.5t-65.5 -179.5 v-268z" />
<glyph unicode="&#xf1;" horiz-adv-x="1103" d="M147 940q-8 23 17 33l53 22q12 4 19.5 2t13.5 -18l31 -72l251 90h19q78 0 145.5 -25.5t116.5 -70.5t78 -106.5t29 -132.5v-639q0 -23 -21 -23h-65q-25 0 -25 23v614q0 61 -22.5 109.5t-59.5 80t-84 47t-96 13.5l-242 -86v-778q0 -23 -20 -23h-66q-25 0 -24 23v802z M272 1196v64q0 20 25 36q39 23 80 37.5t82 14.5l196 -62q41 0 81 14.5t81 36.5q10 4 17.5 0t7.5 -14v-63q0 -23 -25 -37q-39 -23 -80 -37.5t-82 -14.5l-196 62q-41 0 -81 -14.5t-81 -36.5q-10 -4 -17.5 0t-7.5 14z" />
<glyph unicode="&#xf2;" horiz-adv-x="1040" d="M154 336v309q0 80 27.5 145.5t75.5 111.5t115.5 70.5t147.5 24.5t147.5 -24.5t115.5 -70.5t76 -111.5t28 -145.5v-309q0 -80 -28 -145.5t-76 -111.5t-115.5 -70.5t-147.5 -24.5t-147.5 24.5t-115.5 70.5t-75.5 111.5t-27.5 145.5zM209 1305l24 49q12 25 31 14l354 -154 q18 -8 11 -26q-6 -16 -17 -17h-147q-16 0 -29 7l-215 94q-22 10 -12 33zM264 348q0 -104 65.5 -179t190.5 -75t190.5 75t65.5 179v285q0 104 -65.5 179t-190.5 75t-190.5 -75t-65.5 -179v-285z" />
<glyph unicode="&#xf3;" horiz-adv-x="1040" d="M154 336v309q0 80 27.5 145.5t75.5 111.5t115.5 70.5t147.5 24.5t147.5 -24.5t115.5 -70.5t76 -111.5t28 -145.5v-309q0 -80 -28 -145.5t-76 -111.5t-115.5 -70.5t-147.5 -24.5t-147.5 24.5t-115.5 70.5t-75.5 111.5t-27.5 145.5zM264 348q0 -104 65.5 -179t190.5 -75 t190.5 75t65.5 179v285q0 104 -65.5 179t-190.5 75t-190.5 -75t-65.5 -179v-285zM412 1188q-8 18 10 26l354 154q18 10 31 -14l24 -49q10 -23 -12 -33l-215 -94q-12 -6 -29 -7h-147q-10 1 -16 17z" />
<glyph unicode="&#xf4;" horiz-adv-x="1040" d="M154 336v309q0 80 27.5 145.5t75.5 111.5t115.5 70.5t147.5 24.5t147.5 -24.5t115.5 -70.5t76 -111.5t28 -145.5v-309q0 -80 -28 -145.5t-76 -111.5t-115.5 -70.5t-147.5 -24.5t-147.5 24.5t-115.5 70.5t-75.5 111.5t-27.5 145.5zM246 1179.5q-4 8.5 6 18.5l250 221 q18 18 37 0l249 -221q10 -10 6.5 -18.5t-14.5 -8.5h-98q-12 0 -23 11l-139 123l-139 -123q-10 -10 -23 -11h-98q-10 0 -14 8.5zM264 348q0 -104 65.5 -179t190.5 -75t190.5 75t65.5 179v285q0 104 -65.5 179t-190.5 75t-190.5 -75t-65.5 -179v-285z" />
<glyph unicode="&#xf5;" horiz-adv-x="1040" d="M154 336v309q0 80 27.5 145.5t75.5 111.5t115.5 70.5t147.5 24.5t147.5 -24.5t115.5 -70.5t76 -111.5t28 -145.5v-309q0 -80 -28 -145.5t-76 -111.5t-115.5 -70.5t-147.5 -24.5t-147.5 24.5t-115.5 70.5t-75.5 111.5t-27.5 145.5zM236 1196v64q0 20 24 36q39 23 80 37.5 t82 14.5l196 -62q41 0 81 14.5t81 36.5q10 4 17.5 0t7.5 -14v-63q0 -23 -25 -37q-39 -23 -80 -37.5t-82 -14.5l-196 62q-41 0 -81 -14.5t-81 -36.5q-10 -4 -17 0t-7 14zM264 348q0 -104 65.5 -179t190.5 -75t190.5 75t65.5 179v285q0 104 -65.5 179t-190.5 75t-190.5 -75 t-65.5 -179v-285z" />
<glyph unicode="&#xf6;" horiz-adv-x="1040" d="M154 336v309q0 80 27.5 145.5t75.5 111.5t115.5 70.5t147.5 24.5t147.5 -24.5t115.5 -70.5t76 -111.5t28 -145.5v-309q0 -80 -28 -145.5t-76 -111.5t-115.5 -70.5t-147.5 -24.5t-147.5 24.5t-115.5 70.5t-75.5 111.5t-27.5 145.5zM264 348q0 -104 65.5 -179t190.5 -75 t190.5 75t65.5 179v285q0 104 -65.5 179t-190.5 75t-190.5 -75t-65.5 -179v-285zM297 1194v115q0 12 5 19t24 7h53q29 0 29 -26v-115q0 -12 -5.5 -17.5t-23.5 -5.5h-53q-16 0 -22.5 3.5t-6.5 19.5zM633 1194v115q0 12 5 19t24 7h53q29 0 28 -26v-115q0 -12 -5 -17.5 t-23 -5.5h-53q-16 0 -22.5 3.5t-6.5 19.5z" />
<glyph unicode="&#xf7;" horiz-adv-x="1347" d="M205 649v58q0 27 24 26h887q27 0 27 -24v-62q0 -25 -25 -24h-889q-24 -1 -24 26zM618 231v115q0 12 5.5 19.5t23.5 7.5h53q29 0 29 -27v-115q0 -12 -5 -17t-24 -5h-53q-16 0 -22.5 3t-6.5 19zM618 1006v114q0 12 5.5 19.5t23.5 7.5h53q29 0 29 -27v-114q0 -12 -5 -17.5 t-24 -5.5h-53q-16 0 -22.5 3.5t-6.5 19.5z" />
<glyph unicode="&#xf8;" horiz-adv-x="1040" d="M154 336v309q0 80 27.5 145.5t75.5 111.5t115.5 70.5t147.5 24.5q82 0 156 -28l47 108q12 27 27 27h69q25 0 15 -27l-70 -159q57 -47 90 -116t33 -157v-309q0 -80 -28 -145.5t-76 -111.5t-115.5 -70.5t-147.5 -24.5q-82 0 -158 26l-47 -108q-10 -25 -32 -25h-60 q-29 0 -18 25l69 159q-57 47 -88.5 116t-31.5 159zM264 348q0 -104 60 -174l305 692q-51 20 -109 21q-125 0 -190.5 -75t-65.5 -179v-285zM410 115q43 -20 110 -21q125 0 190.5 75t65.5 179v285q0 100 -61 174z" />
<glyph unicode="&#xf9;" horiz-adv-x="1103" d="M184 319v639q0 23 21 23h65q25 0 25 -23v-614q0 -61 22.5 -109.5t59.5 -80t84 -47t96 -13.5l242 86v778q0 23 20 23h66q25 0 24 -23v-802l47 -115q8 -23 -16 -33l-53 -22q-12 -4 -19.5 -2t-13.5 18l-31 72l-252 -90h-18q-78 0 -145.5 25.5t-116.5 70.5t-78 106t-29 133z M260 1305l25 49q12 25 30 14l355 -154q18 -8 10 -26q-6 -16 -16 -17h-148q-16 0 -29 7l-215 94q-22 10 -12 33z" />
<glyph unicode="&#xfa;" horiz-adv-x="1103" d="M184 319v639q0 23 21 23h65q25 0 25 -23v-614q0 -61 22.5 -109.5t59.5 -80t84 -47t96 -13.5l242 86v778q0 23 20 23h66q25 0 24 -23v-802l47 -115q8 -23 -16 -33l-53 -22q-12 -4 -19.5 -2t-13.5 18l-31 72l-252 -90h-18q-78 0 -145.5 25.5t-116.5 70.5t-78 106t-29 133z M442 1188q-8 18 11 26l354 154q18 10 31 -14l24 -49q10 -23 -12 -33l-215 -94q-12 -6 -29 -7h-147q-11 1 -17 17z" />
<glyph unicode="&#xfb;" horiz-adv-x="1103" d="M184 319v639q0 23 21 23h65q25 0 25 -23v-614q0 -61 22.5 -109.5t59.5 -80t84 -47t96 -13.5l242 86v778q0 23 20 23h66q25 0 24 -23v-802l47 -115q8 -23 -16 -33l-53 -22q-12 -4 -19.5 -2t-13.5 18l-31 72l-252 -90h-18q-78 0 -145.5 25.5t-116.5 70.5t-78 106t-29 133z M276.5 1179.5q-4.5 8.5 6.5 18.5l249 221q18 18 37 0l250 -221q10 -10 6 -18.5t-14 -8.5h-98q-12 0 -23 11l-139 123l-139 -123q-10 -10 -23 -11h-98q-10 0 -14.5 8.5z" />
<glyph unicode="&#xfc;" horiz-adv-x="1103" d="M184 319v639q0 23 21 23h65q25 0 25 -23v-614q0 -61 22.5 -109.5t59.5 -80t84 -47t96 -13.5l242 86v778q0 23 20 23h66q25 0 24 -23v-802l47 -115q8 -23 -16 -33l-53 -22q-12 -4 -19.5 -2t-13.5 18l-31 72l-252 -90h-18q-78 0 -145.5 25.5t-116.5 70.5t-78 106t-29 133z M328 1194v115q0 12 5 19t23 7h54q29 0 28 -26v-115q0 -12 -5 -17.5t-23 -5.5h-54q-16 0 -22 3.5t-6 19.5zM664 1194v115q0 12 5 19t23 7h53q29 0 29 -26v-115q0 -12 -5 -17.5t-24 -5.5h-53q-16 0 -22 3.5t-6 19.5z" />
<glyph unicode="&#xfd;" horiz-adv-x="960" d="M86 948q-12 29 12 35l62 18q23 6 30 -16l316 -835l282 802q6 29 39 29h56q33 0 22 -33l-399 -1130q-37 -104 -117 -160.5t-199 -79.5q-23 -4 -28 19l-15 55q-6 27 17 33q104 25 157.5 61.5t79.5 112.5l48 129zM391 1188q-8 18 10 26l355 154q18 10 30 -14l25 -49 q10 -23 -12 -33l-215 -94q-12 -6 -29 -7h-147q-11 1 -17 17z" />
<glyph unicode="&#xfe;" horiz-adv-x="1073" d="M195 -383v1743q0 12 5 19t23 7h53q29 0 29 -26v-445l227 82h19q78 0 145.5 -25.5t116.5 -70.5t78 -106.5t29 -132.5v-326q0 -80 -27 -145.5t-75 -111.5t-114.5 -70.5t-146.5 -24.5q-78 0 -144.5 28.5t-107.5 79.5v-475q0 -23 -20 -23h-66q-24 0 -24 23zM305 307 q0 -39 17.5 -76.5t49 -68.5t79 -49.5t106.5 -18.5q61 0 108.5 19.5t79 52.5t48 75t16.5 89v307q0 61 -22.5 109.5t-59.5 80t-84 47t-96 13.5l-242 -86v-494z" />
<glyph unicode="&#xff;" horiz-adv-x="960" d="M86 948q-12 29 12 35l62 18q23 6 30 -16l316 -835l282 802q6 29 39 29h56q33 0 22 -33l-399 -1130q-37 -104 -117 -160.5t-199 -79.5q-23 -4 -28 19l-15 55q-6 27 17 33q104 25 157.5 61.5t79.5 112.5l48 129zM256 1194v115q0 12 5 19t24 7h53q29 0 29 -26v-115 q0 -12 -5.5 -17.5t-23.5 -5.5h-53q-16 0 -22.5 3.5t-6.5 19.5zM592 1194v115q0 12 5 19t24 7h53q29 0 28 -26v-115q0 -12 -5 -17.5t-23 -5.5h-53q-16 0 -22.5 3.5t-6.5 19.5z" />
<glyph unicode="&#x152;" horiz-adv-x="1925" d="M154 449v489q0 92 31.5 174t85 142.5t123 96t145.5 35.5h274q33 0 57 -24l183 -182v180q0 16 9 21t15 5h670q16 0 19 -9t3 -19v-58q0 -16 -5 -20t-17 -4h-584v-520l86 26q20 6 45 9.5t47 3.5h320q16 0 19 -6.5t3 -18.5v-57q0 -18 -5 -23.5t-17 -5.5h-352l-146 -45v-528 h627q12 0 17 -4.5t5 -20.5v-61q0 -10 -5 -17.5t-17 -7.5h-713q-10 0 -17 5t-7 18v131q-51 -72 -122 -113t-153 -41h-239q-76 0 -145.5 36t-123 96.5t-85 142.5t-31.5 174zM264 461q0 -66 21.5 -129.5t60.5 -112.5t90 -78.5t113 -29.5h219q61 0 112.5 29.5t90.5 78.5 t60.5 112.5t21.5 129.5v565l-250 250h-254q-61 0 -112.5 -29.5t-90.5 -79t-60.5 -113t-21.5 -128.5v-465z" />
<glyph unicode="&#x153;" horiz-adv-x="1642" d="M154 336v309q0 80 27.5 145.5t75.5 111.5t115.5 70.5t147.5 24.5q106 0 186 -43t125 -120q45 78 125 120.5t187 42.5q80 0 147.5 -24.5t115.5 -70.5t75.5 -111.5t27.5 -145.5v-88l-28 -102q-6 -18 -25 -19h-569v-129q14 -100 76.5 -156.5t179.5 -56.5l293 82q18 4 24 -18 l17 -58q8 -27 -17 -32l-301 -84h-16q-106 0 -186 42t-126 119q-45 -78 -124.5 -119.5t-186.5 -41.5q-80 0 -147.5 24.5t-115.5 70.5t-75.5 111.5t-27.5 145.5zM264 348q0 -104 65.5 -179t190.5 -75t190.5 75t65.5 179v285q0 104 -65.5 179t-190.5 75t-190.5 -75t-65.5 -179 v-285zM887 547h512v86q0 104 -65.5 179t-190.5 75t-190.5 -75t-65.5 -179v-86z" />
<glyph unicode="&#x178;" horiz-adv-x="1028" d="M63 1317q-12 23 13 37l53 28q23 10 35 -14l352 -698l352 702q14 25 37 14l51 -30q23 -12 11 -37l-398 -772v-520q0 -27 -26 -27h-58q-27 0 -26 27v520zM291 1599v115q0 12 5 19.5t23 7.5h54q29 0 28 -27v-115q0 -12 -5 -17t-23 -5h-54q-16 0 -22 3t-6 19zM627 1599v115 q0 12 5 19.5t23 7.5h54q29 0 28 -27v-115q0 -12 -5 -17t-23 -5h-54q-16 0 -22 3t-6 19z" />
<glyph unicode="&#x2c6;" horiz-adv-x="1007" d="M229 1179.5q-4 8.5 7 18.5l249 221q18 18 37 0l250 -221q10 -10 6 -18.5t-14 -8.5h-98q-12 0 -23 11l-139 123l-139 -123q-10 -10 -23 -11h-98q-11 0 -15 8.5z" />
<glyph unicode="&#x2dc;" horiz-adv-x="978" d="M205 1196v64q0 20 24 36q39 23 80 37.5t82 14.5l197 -62q41 0 81 14.5t81 36.5q10 4 17 0t7 -14v-63q0 -23 -24 -37q-39 -23 -80 -37.5t-82 -14.5l-197 62q-41 0 -81 -14.5t-81 -36.5q-10 -4 -17 0t-7 14z" />
<glyph unicode="&#x2000;" horiz-adv-x="933" />
<glyph unicode="&#x2001;" horiz-adv-x="1867" />
<glyph unicode="&#x2002;" horiz-adv-x="933" />
<glyph unicode="&#x2003;" horiz-adv-x="1867" />
<glyph unicode="&#x2004;" horiz-adv-x="622" />
<glyph unicode="&#x2005;" horiz-adv-x="466" />
<glyph unicode="&#x2006;" horiz-adv-x="311" />
<glyph unicode="&#x2007;" horiz-adv-x="311" />
<glyph unicode="&#x2008;" horiz-adv-x="233" />
<glyph unicode="&#x2009;" horiz-adv-x="372" />
<glyph unicode="&#x200a;" horiz-adv-x="102" />
<glyph unicode="&#x2010;" horiz-adv-x="581" d="M61 647v12q0 18 17 25l88 39q16 8 29 8h301q25 0 24 -24v-60q0 -27 -24 -26h-412q-23 -1 -23 26z" />
<glyph unicode="&#x2011;" horiz-adv-x="581" d="M61 647v12q0 18 17 25l88 39q16 8 29 8h301q25 0 24 -24v-60q0 -27 -24 -26h-412q-23 -1 -23 26z" />
<glyph unicode="&#x2012;" horiz-adv-x="581" d="M61 647v12q0 18 17 25l88 39q16 8 29 8h301q25 0 24 -24v-60q0 -27 -24 -26h-412q-23 -1 -23 26z" />
<glyph unicode="&#x2013;" horiz-adv-x="1122" d="M92 645v17q0 18 17 24l114 39q10 4 21.5 6t17.5 2h742q27 0 26 -24v-62q0 -25 -24 -24h-889q-25 -1 -25 22z" />
<glyph unicode="&#x2014;" horiz-adv-x="1552" d="M92 645v17q0 18 17 24l114 39q10 4 21.5 6t17.5 2h1172q27 0 26 -24v-62q0 -25 -24 -24h-1319q-25 -1 -25 22z" />
<glyph unicode="&#x2018;" horiz-adv-x="415" d="M137 963v163q0 18 4 35l62 203q8 23 28 22h62q16 0 20 -10t0 -24l-65 -209v-180q0 -12 -5 -19.5t-24 -7.5h-53q-29 0 -29 27z" />
<glyph unicode="&#x2019;" horiz-adv-x="415" d="M102 946q-4 10 0 25l66 209v180q0 12 5 19t24 7h53q29 0 29 -26v-164q0 -18 -5 -35l-61 -203q-8 -23 -29 -22h-61q-17 0 -21 10z" />
<glyph unicode="&#x201a;" horiz-adv-x="415" d="M102 -252l66 209v180q0 12 5 19.5t24 7.5h53q29 0 29 -27v-164q0 -18 -5 -34l-61 -203q-8 -23 -29 -23h-61q-16 0 -20.5 10.5t-0.5 24.5z" />
<glyph unicode="&#x201c;" horiz-adv-x="751" d="M137 963v163q0 18 4 35l62 203q8 23 28 22h62q16 0 20 -10t0 -24l-65 -209v-180q0 -12 -5 -19.5t-24 -7.5h-53q-29 0 -29 27zM473 963v163q0 18 4 35l62 203q8 23 28 22h62q16 0 20 -10t0 -24l-65 -209v-180q0 -12 -5.5 -19.5t-23.5 -7.5h-53q-29 0 -29 27z" />
<glyph unicode="&#x201d;" horiz-adv-x="751" d="M102 946q-4 10 0 25l66 209v180q0 12 5 19t24 7h53q29 0 29 -26v-164q0 -18 -5 -35l-61 -203q-8 -23 -29 -22h-61q-17 0 -21 10zM438 946q-4 10 0 25l66 209v180q0 12 5 19t23 7h54q29 0 28 -26v-164q0 -18 -4 -35l-61 -203q-8 -23 -29 -22h-61q-17 0 -21 10z" />
<glyph unicode="&#x201e;" horiz-adv-x="751" d="M102 -252l66 209v180q0 12 5 19.5t24 7.5h53q29 0 29 -27v-164q0 -18 -5 -34l-61 -203q-8 -23 -29 -23h-61q-16 0 -20.5 10.5t-0.5 24.5zM438 -252l66 209v180q0 12 5 19.5t23 7.5h54q29 0 28 -27v-164q0 -18 -4 -34l-61 -203q-8 -23 -29 -23h-61q-16 0 -20.5 10.5 t-0.5 24.5z" />
<glyph unicode="&#x2022;" horiz-adv-x="917" d="M143 733q0 66 25 123t68 100t100 68t123 25t123 -25t100 -68t67.5 -100t24.5 -123t-24.5 -123t-67.5 -100t-100.5 -67.5t-122.5 -24.5q-66 0 -123 24.5t-100 67.5t-68 100t-25 123z" />
<glyph unicode="&#x2026;" horiz-adv-x="1400" d="M178 23v114q0 12 5 19.5t24 7.5h53q29 0 29 -27v-114q0 -12 -5 -17.5t-24 -5.5h-53q-16 0 -22.5 3.5t-6.5 19.5zM645 23v114q0 12 5 19.5t24 7.5h53q29 0 29 -27v-114q0 -12 -5.5 -17.5t-23.5 -5.5h-53q-16 0 -22.5 3.5t-6.5 19.5zM1112 23v114q0 12 5 19.5t24 7.5h53 q29 0 29 -27v-114q0 -12 -5.5 -17.5t-23.5 -5.5h-53q-16 0 -22.5 3.5t-6.5 19.5z" />
<glyph unicode="&#x202f;" horiz-adv-x="372" />
<glyph unicode="&#x2039;" horiz-adv-x="821" d="M150 543q-10 10 0 20l405 406q12 12 29 12h39q14 0 14 -12v-62q0 -14 -10 -24l-332 -330l332 -330q10 -10 10 -24v-62q0 -12 -14 -12h-39q-10 0 -16.5 4t-12.5 10z" />
<glyph unicode="&#x203a;" horiz-adv-x="821" d="M184 137v62q0 14 11 24l331 330l-331 330q-10 10 -11 24v62q0 12 15 12h39q16 0 28 -12l406 -406q10 -10 0 -20l-406 -404q-6 -6 -12 -10t-16 -4h-39q-15 0 -15 12z" />
<glyph unicode="&#x205f;" horiz-adv-x="466" />
<glyph unicode="&#x20ac;" horiz-adv-x="1228" d="M123 500v57q0 27 24 27h191v221h-191q-25 0 -24 26v58q0 27 24 26h191v23q0 96 38 181t101.5 149.5t144 101.5t164.5 37h7l297 -88q23 -6 16 -31l-16 -59q-4 -10 -11.5 -15.5t-21.5 -1.5l-281 84q-59 -4 -118.5 -32.5t-105.5 -77.5t-74.5 -115.5t-28.5 -146.5v-9h380 q27 0 27 -24v-62q0 -25 -25 -24h-382v-221h380q27 0 27 -25v-61q0 -25 -25 -25h-382v-8q0 -80 28.5 -146.5t74.5 -116.5t105.5 -80t118.5 -32l281 86q14 4 21 -1t12 -15l16 -60q6 -25 -16 -30l-297 -90h-7q-84 0 -164.5 37.5t-144 102t-101.5 149.5t-38 182v22h-191 q-24 0 -24 27z" />
<glyph unicode="&#x2122;" horiz-adv-x="1660" d="M123 1313v57q0 16 16 16h498q16 0 16 -16v-57q0 -16 -16 -17h-205v-499q0 -16 -14 -17h-62q-14 0 -14 17v499h-205q-14 1 -14 17zM821 795v551q0 10 10 14l78 37q14 6 21 -8l229 -406l223 393q6 10 15 10h84q16 0 16 -16v-573q0 -16 -16 -17h-58q-16 0 -16 17v438 l-233 -412q-6 -10 -17 -10q-8 0 -14 10l-232 412v-438q0 -16 -16 -17h-59q-15 1 -15 15z" />
<glyph unicode="&#xe000;" horiz-adv-x="1000" d="M0 1000h1000v-1000h-1000v1000z" />
<glyph unicode="&#xfb01;" d="M74 895v59q0 27 26 27h129v86q0 80 25 142.5t69 105.5t103 65.5t129 22.5h8l150 -47q25 -6 16 -33l-18 -57q-6 -20 -27 -15l-129 41q-90 2 -147.5 -51t-67.5 -149v-111h231q25 0 25 -23v-65q0 -23 -23 -23h-233v-847q0 -23 -23 -23h-65q-23 0 -23 23v847h-129 q-26 0 -26 25zM860 23v931q0 10 6 18.5t19 8.5h61q10 0 17.5 -5t7.5 -18v-935q0 -12 -5 -17.5t-24 -5.5h-53q-16 0 -22.5 3.5t-6.5 19.5zM860 1245v115q0 12 5 19t24 7h53q29 0 29 -26v-115q0 -12 -5 -17t-24 -5h-53q-16 0 -22.5 3t-6.5 19z" />
<glyph unicode="&#xfb02;" d="M74 895v59q0 27 26 27h129v86q0 80 25 142.5t69 105.5t103 65.5t129 22.5h8l150 -47q25 -6 16 -33l-18 -57q-6 -20 -27 -15l-129 41q-90 2 -147.5 -51t-67.5 -149v-111h231q25 0 25 -23v-65q0 -23 -23 -23h-233v-847q0 -23 -23 -23h-65q-23 0 -23 23v847h-129 q-26 0 -26 25zM860 23v1337q0 12 5 19t24 7h53q29 0 29 -26v-1337q0 -12 -5 -17.5t-24 -5.5h-53q-16 0 -22.5 3.5t-6.5 19.5z" />
<glyph unicode="&#xfb03;" horiz-adv-x="1830" d="M1522 23v931q0 10 6 18.5t18 8.5h62q10 0 17 -5t7 -18v-935q0 -12 -5 -17.5t-23 -5.5h-54q-16 0 -22 3.5t-6 19.5zM1522 1245v115q0 12 5 19t23 7h54q29 0 28 -26v-115q0 -12 -5 -17t-23 -5h-54q-16 0 -22 3t-6 19zM736 895v59q0 27 26 27h129v86q0 80 25 142.5t69 105.5 t103 65.5t129 22.5h8l150 -47q18 -5 18 -21q0 -5 -2 -12l-18 -57q-6 -20 -27 -15l-129 41h-7q-86 0 -140 -51q-57 -53 -68 -149v-111h231q25 0 25 -23v-65q0 -23 -23 -23h-233v-847q0 -23 -23 -23h-65q-23 0 -23 23v847h-129q-26 0 -26 25zM74 895v59q0 27 26 27h129v86 q0 80 25 142.5t69 105.5t103 65.5t129 22.5h8l150 -47q18 -5 18 -21q0 -5 -2 -12l-18 -57q-6 -20 -27 -15l-129 41h-7q-86 0 -140 -51q-57 -53 -68 -149v-111h231q25 0 25 -23v-65q0 -23 -23 -23h-233v-847q0 -23 -23 -23h-65q-23 0 -23 23v847h-129q-26 0 -26 25z" />
<glyph unicode="&#xfb04;" horiz-adv-x="1830" d="M1522 23v1337q0 12 5 19t23 7h54q29 0 28 -26v-1337q0 -12 -5 -17.5t-23 -5.5h-54q-16 0 -22 3.5t-6 19.5zM736 895v59q0 27 26 27h129v86q0 80 25 142.5t69 105.5t103 65.5t129 22.5h8l150 -47q18 -5 18 -21q0 -5 -2 -12l-18 -57q-6 -20 -27 -15l-129 41h-7 q-86 0 -140 -51q-57 -53 -68 -149v-111h231q25 0 25 -23v-65q0 -23 -23 -23h-233v-847q0 -23 -23 -23h-65q-23 0 -23 23v847h-129q-26 0 -26 25zM74 895v59q0 27 26 27h129v86q0 80 25 142.5t69 105.5t103 65.5t129 22.5h8l150 -47q18 -5 18 -21q0 -5 -2 -12l-18 -57 q-6 -20 -27 -15l-129 41h-7q-86 0 -140 -51q-57 -53 -68 -149v-111h231q25 0 25 -23v-65q0 -23 -23 -23h-233v-847q0 -23 -23 -23h-65q-23 0 -23 23v847h-129q-26 0 -26 25z" />
</font>
</defs>
</svg>
