<?xml version="1.0" standalone="no"?>
<!DOCTYPE svg PUBLIC "-//W3C//DTD SVG 1.1//EN" "http://www.w3.org/Graphics/SVG/1.1/DTD/svg11.dtd" >
<svg xmlns="http://www.w3.org/2000/svg">
<metadata>
This is a custom SVG webfont generated by Font Squirrel.
Copyright   : Original Typeface drawn by Daniel Drnemann at loyalkaspar and Digitized by Alan Greene with FontShop
Foundry     : Daniel Drnemann loyalkaspar
</metadata>
<defs>
<font id="XDRAHeavyRegular" horiz-adv-x="540" >
<font-face units-per-em="2048" ascent="1536" descent="-512" />
<missing-glyph horiz-adv-x="471" />
<glyph unicode=" "  horiz-adv-x="471" />
<glyph unicode="&#x09;" horiz-adv-x="471" />
<glyph unicode="&#xa0;" horiz-adv-x="471" />
<glyph unicode="!" horiz-adv-x="622" d="M174 27v217q0 12 7 19t18 7h225q12 0 18.5 -8t6.5 -18v-217q0 -12 -7.5 -19.5t-17.5 -7.5h-225q-12 0 -18.5 8.5t-6.5 18.5zM174 434v926q0 12 7 19t18 7h225q12 0 18.5 -8t6.5 -18v-926q0 -12 -7.5 -19t-17.5 -7h-225q-12 0 -18.5 8t-6.5 18z" />
<glyph unicode="&#x22;" horiz-adv-x="950" d="M123 885v475q0 27 27 26h221q27 0 26 -26v-475q0 -25 -26 -25h-221q-27 0 -27 25zM553 885v475q0 27 27 26h221q27 0 26 -26v-475q0 -25 -26 -25h-221q-27 0 -27 25z" />
<glyph unicode="#" horiz-adv-x="1277" d="M119 319v222q0 27 24 26h160l55 221h-133q-25 0 -24 27v221q0 27 24 27h205l76 297q6 27 22 26h185q25 0 18 -26l-76 -297h144l75 297q6 27 23 26h184q25 0 19 -26l-76 -297h88q27 0 27 -25v-225q0 -25 -25 -25h-162l-55 -221h133q27 0 27 -24v-226q0 -25 -25 -24h-207 l-67 -268q-6 -25 -29 -25h-176q-27 0 -21 25l68 268h-143l-68 -268q-6 -25 -29 -25h-176q-27 0 -20 25l67 268h-88q-24 -1 -24 26zM528 567h144l55 221h-143z" />
<glyph unicode="$" horiz-adv-x="1148" d="M119 387q-14 27 10 37l195 104q25 14 34 -10q80 -182 234 -182q72 0 110.5 33.5t38.5 85.5q0 41 -21.5 69.5t-57.5 40.5l-488 166v96q0 98 22.5 177t61.5 137.5t87 98.5t101 60v224q0 12 7.5 19t17.5 7h225q12 0 18.5 -8t6.5 -18v-244l223 -74q25 -8 19 -32l-66 -216 q-8 -23 -33 -16l-311 107q-29 -10 -58.5 -42t-37.5 -83l295 -99q139 -47 201.5 -143t62.5 -225q0 -78 -22.5 -141.5t-62.5 -110.5t-93.5 -80t-116.5 -49v-213q0 -12 -7 -19.5t-18 -7.5h-225q-12 0 -18.5 8.5t-6.5 18.5v217q-113 33 -194.5 111.5t-132.5 195.5z" />
<glyph unicode="%" horiz-adv-x="1705" d="M102 963v151q0 68 24 121t64.5 92t96 59.5t121.5 20.5t121 -20.5t96 -59.5t64.5 -92t23.5 -121v-151q0 -66 -23.5 -120.5t-64.5 -92t-96.5 -58t-120.5 -20.5q-66 0 -121.5 20.5t-96 58t-64.5 92t-24 120.5zM254 25l922 1335q18 27 32 26h236q14 0 15 -8t-7 -18 l-922 -1335q-16 -25 -38 -25h-226q-30 0 -12 25zM328 967q0 -33 20.5 -55.5t59.5 -22.5t59 22.5t20 55.5v147q0 31 -20.5 53.5t-58.5 22.5q-39 0 -59.5 -22.5t-20.5 -53.5v-147zM993 270v152q0 68 23.5 121t64.5 92t96.5 59.5t120.5 20.5q66 0 121.5 -20.5t96 -59.5 t64.5 -92.5t24 -120.5v-152q0 -66 -24 -120t-64.5 -92t-96 -58t-121.5 -20t-121 20t-96 58t-64.5 92t-23.5 120zM1219 274q0 -33 20.5 -55t58.5 -22q39 0 59.5 22.5t20.5 54.5v148q0 31 -20.5 53.5t-59.5 22.5t-59 -22.5t-20 -53.5v-148z" />
<glyph unicode="&#x26;" horiz-adv-x="1286" d="M102 406q0 109 50.5 197.5t128.5 148.5l-88 82q-14 12 -19 28q-4 16 -7 43t-3 49q0 98 33.5 181.5t92 143.5t136.5 94t166 34h31l372 -111q25 -6 19 -32l-66 -215q-8 -23 -33 -17l-331 101q-66 -2 -103 -46.5t-45 -103.5l828 -764q12 -12 12 -35v-159q0 -25 -25 -25h-137 q-20 0 -35 14l-147 140q-59 -76 -157.5 -125t-219.5 -49q-104 0 -187 29.5t-142.5 85t-91.5 134.5t-32 177zM381 406q0 -72 47 -112t127 -40q59 0 102 25.5t60 68.5l-244 227q-41 -29 -66.5 -70.5t-25.5 -98.5z" />
<glyph unicode="'" horiz-adv-x="520" d="M123 885v475q0 27 27 26h221q27 0 26 -26v-475q0 -25 -26 -25h-221q-27 0 -27 25z" />
<glyph unicode="(" horiz-adv-x="755" d="M102 590q0 147 35 275t94 245l258 489q14 23 35 15l195 -96q25 -14 12 -37l-233 -447q-55 -106 -85 -211.5t-30 -232.5t29.5 -233.5t85.5 -213.5l233 -446q12 -23 -12 -37l-195 -96q-20 -8 -35 14l-258 490q-59 117 -94 246t-35 276z" />
<glyph unicode=")" horiz-adv-x="755" d="M25 -303l233 446q55 106 85 213t30 234t-30 232.5t-85 211.5l-233 447q-12 23 12 37l194 96q20 8 35 -15l258 -489q59 -117 94 -245t35 -275t-34.5 -276.5t-94.5 -245.5l-258 -490q-14 -23 -35 -14l-194 96q-24 14 -12 37z" />
<glyph unicode="*" horiz-adv-x="1007" d="M106 846q-10 20 11 35l170 98l-168 96q-23 12 -8 37l82 141q12 23 34 11l168 -99v195q0 27 25 26h168q25 0 24 -24v-197l168 99q23 12 35 -11l82 -141q14 -25 -8 -37l-168 -96l170 -98q20 -14 10 -35l-84 -146q-12 -18 -35 -8l-170 99v-197q0 -25 -26 -25h-164 q-27 0 -27 25v197l-170 -99q-23 -10 -35 8z" />
<glyph unicode="+" horiz-adv-x="1347" d="M205 567v221q0 27 24 27h308v305q0 27 24 27h225q25 0 25 -25v-307h305q27 0 27 -24v-226q0 -25 -25 -24h-307v-308q0 -25 -27 -24h-221q-27 0 -26 24v308h-308q-24 -1 -24 26z" />
<glyph unicode="," d="M31 -260l102 274v271q0 12 7 19t18 7h225q12 0 18.5 -8t6.5 -18v-246q0 -25 -11 -51l-92 -248q-10 -27 -33 -27h-225q-26 0 -16 27z" />
<glyph unicode="-" horiz-adv-x="581" d="M61 532v156q0 18 17 25l135 59q16 8 29 8h254q25 0 24 -24v-224q0 -27 -24 -26h-412q-23 -1 -23 26z" />
<glyph unicode="." d="M133 27v258q0 12 7 19t18 7h225q12 0 18.5 -8t6.5 -18v-258q0 -12 -7.5 -19.5t-17.5 -7.5h-225q-12 0 -18.5 8.5t-6.5 18.5z" />
<glyph unicode="/" horiz-adv-x="761" d="M-78 -221l615 1581q12 27 26 26h225q25 0 15 -26l-615 -1581q-10 -25 -32 -25h-215q-29 0 -19 25z" />
<glyph unicode="0" horiz-adv-x="1247" d="M154 446v492q0 102 37.5 188t102 148.5t149.5 97.5t180 35q94 0 180 -35t150.5 -97.5t102.5 -148.5t38 -188v-492q0 -102 -38 -187t-102.5 -147.5t-150.5 -97t-180 -34.5t-179.5 34.5t-150 97t-102 147.5t-37.5 187zM428 459q0 -92 54.5 -150.5t140.5 -58.5t141 58.5 t55 150.5v469q0 92 -55 150.5t-141 58.5t-140.5 -58.5t-54.5 -150.5v-469z" />
<glyph unicode="1" horiz-adv-x="983" d="M82 1253q-8 27 16 33l377 121q10 0 27 -8l153 -78q16 -8 17 -25v-1022h223q27 0 27 -24v-225q0 -25 -25 -25h-747q-25 0 -25 27v221q0 27 25 26h247v818l-219 -70q-20 -6 -26 14z" />
<glyph unicode="2" horiz-adv-x="1138" d="M70 178l561 578q51 53 76.5 102t25.5 103q0 74 -43 123t-127 49q-86 0 -140 -48.5t-95 -130.5q-12 -23 -35 -10l-184 98q-20 8 -11 37q66 154 190 241t277 87q102 0 184 -32t139.5 -91t88.5 -142t31 -184q0 -111 -49.5 -207t-133.5 -180l-295 -297h457q23 0 23 -22v-229 q0 -23 -27 -23h-764q-6 0 -14 2t-12 6l-121 135q-16 19 -2 35z" />
<glyph unicode="3" horiz-adv-x="1120" d="M104 123l62 215q6 25 33 16l333 -100q90 0 138.5 46t48.5 124q0 61 -44 109.5t-120 56.5l-174 -58q-23 -6 -31 19l-67 211q-8 25 14 31l377 125q20 8 20 53q0 70 -40 116t-117 46q-127 0 -197 -132q-12 -23 -35 -10l-184 99q-25 10 -10 36q66 135 179 208t249 73 q205 0 317.5 -115.5t112.5 -310.5q0 -100 -28 -164.5t-54 -75.5l-41 -14q72 -43 111.5 -125t39.5 -178q0 -106 -33.5 -189t-95 -139.5t-148.5 -86t-192 -29.5h-32l-375 112q-23 6 -17 31z" />
<glyph unicode="4" horiz-adv-x="1159" d="M84 473l217 889q6 25 29 24h225q27 0 18 -26l-174 -719h312v719q0 27 26 26h224q25 0 24 -26v-1335q0 -25 -24 -25h-226q-10 0 -17 7t-7 18v342h-449q-14 0 -31 8l-137 69q-16 9 -10 29z" />
<glyph unicode="5" horiz-adv-x="1138" d="M125 121l61 215q6 25 33 16l328 -98q90 0 138 54t48 138t-42 142.5t-120 62.5l-245 -78l-162 50q-23 8 -21 26l86 709q4 29 33 28h676q25 0 25 -24v-225q0 -25 -27 -25h-457q-18 0 -20 -18l-25 -209l119 41h31q100 0 180 -36t136 -99.5t86 -151.5t30 -193 q0 -111 -35 -196.5t-97.5 -146t-149.5 -92t-191 -31.5h-33l-369 110q-22 6 -16 31z" />
<glyph unicode="6" horiz-adv-x="1185" d="M154 444v519q0 100 34.5 182t97 140t148.5 90t189 32h32l369 -111q23 -6 16 -30l-61 -215q-6 -25 -33 -17l-328 99q-90 0 -140 -50.5t-50 -119.5v-127l152 51h38q102 0 184.5 -33t140.5 -93.5t89 -145.5t31 -189q0 -98 -32 -180t-91 -141.5t-143 -92t-191 -32.5 q-98 0 -181 33.5t-143.5 94t-94 146.5t-33.5 190zM428 444q0 -37 11.5 -71.5t34 -62t55 -44t77.5 -16.5q80 0 129 52t49 124q0 78 -44 131t-126 55l-186 -61v-107z" />
<glyph unicode="7" horiz-adv-x="923" d="M66 1137v223q0 27 26 26h567q10 0 27 -8l172 -86q16 -8 10 -28l-407 -1239q-6 -25 -29 -25h-244q-12 0 -17 8t-1 19l367 1085h-445q-26 0 -26 25z" />
<glyph unicode="8" horiz-adv-x="1171" d="M133 416q0 82 33 156.5t88 123.5l-39 19q-14 6 -20 22q-14 41 -25.5 111t-11.5 139q0 98 33.5 176t92 132.5t136.5 83t166 28.5t165.5 -28.5t136 -83t92.5 -132.5t34 -176q0 -72 -25.5 -138.5t-75.5 -113.5l52 -20q14 -6 22 -21q23 -45 37 -120.5t14 -157.5 q0 -98 -31.5 -178t-91 -137.5t-142.5 -89t-187 -31.5t-187.5 31.5t-142.5 89t-91 137.5t-32 178zM412 416q0 -72 47 -118t127 -46t127 46t47 118q0 41 -7.5 67.5t-23.5 32.5l-229 80q-39 -35 -63.5 -82t-24.5 -98zM430 989q0 -29 5 -55.5t16 -30.5l211 -76q35 23 57 66 t22 96q0 59 -38.5 101.5t-116.5 42.5t-117 -42.5t-39 -101.5z" />
<glyph unicode="9" horiz-adv-x="1185" d="M123 940q0 106 31.5 192.5t91 147.5t143.5 94t191 33q102 0 185 -34t142.5 -94t92 -146t32.5 -191v-518q0 -100 -34.5 -182t-97 -140.5t-148.5 -90t-189 -31.5h-33l-368 110q-23 6 -17 31l62 215q6 25 33 16l327 -98q90 0 140.5 50t50.5 120v86l-152 -51h-39 q-102 0 -184 32.5t-140.5 95t-89 151.5t-30.5 202zM401 940q0 -92 44 -148.5t126 -58.5l187 62v127q0 94 -44 154.5t-134 60.5q-80 0 -129.5 -52.5t-49.5 -144.5z" />
<glyph unicode=":" d="M133 27v258q0 12 7 19t18 7h225q12 0 18.5 -8t6.5 -18v-258q0 -12 -7.5 -19.5t-17.5 -7.5h-225q-12 0 -18.5 8.5t-6.5 18.5zM133 696v258q0 12 7 19.5t18 7.5h225q12 0 18.5 -8t6.5 -19v-258q0 -12 -7.5 -19t-17.5 -7h-225q-12 0 -18.5 8t-6.5 18z" />
<glyph unicode=";" d="M31 -260l102 274v271q0 12 7 19t18 7h225q12 0 18.5 -8t6.5 -18v-246q0 -25 -11 -51l-92 -248q-10 -27 -33 -27h-225q-26 0 -16 27zM133 696v258q0 12 7 19.5t18 7.5h225q12 0 18.5 -8t6.5 -19v-258q0 -12 -7.5 -19t-17.5 -7h-225q-12 0 -18.5 8t-6.5 18z" />
<glyph unicode="&#x3c;" horiz-adv-x="1222" d="M109 592q-10 10 0 20l446 447l12 8q6 4 17 4h164q14 0 14 -12v-133q0 -10 -1 -16.5t-9 -14.5l-168 -164h491q14 0 15 -14v-230q0 -14 -15 -14h-491l168 -162q8 -8 9 -15t1 -15v-134q0 -14 -14 -14h-164q-10 0 -16.5 4t-12.5 10z" />
<glyph unicode="=" horiz-adv-x="1347" d="M205 319v222q0 27 24 26h887q27 0 27 -24v-226q0 -25 -25 -24h-889q-24 -1 -24 26zM205 815v221q0 27 24 27h887q27 0 27 -25v-225q0 -25 -25 -25h-889q-24 0 -24 27z" />
<glyph unicode="&#x3e;" horiz-adv-x="1222" d="M133 487v230q0 14 14 14h492l-168 164q-8 8 -9 14t-1 17v133q0 12 14 12h164q10 0 16 -4l13 -8l446 -447q10 -10 0 -20l-446 -445q-6 -6 -12.5 -10t-16.5 -4h-164q-14 0 -14 14v134q0 8 1 15t9 15l168 162h-492q-14 0 -14 14z" />
<glyph unicode="?" horiz-adv-x="1007" d="M59 1167q78 106 196 173t255 67q92 0 170 -26.5t135 -79t89 -127t32 -173.5q0 -117 -52.5 -199.5t-154.5 -152.5l-111 -76v-141q0 -25 -24 -24h-225q-25 0 -25 24v275l217 149q51 35 73.5 68.5t22.5 76.5q0 61 -39.5 96.5t-109.5 35.5t-136.5 -35t-115.5 -94 q-16 -18 -35 -5l-158 131q-18 17 -4 37zM344 27v217q0 12 7 19t18 7h225q12 0 18 -8t6 -18v-217q0 -12 -7 -19.5t-17 -7.5h-225q-12 0 -18.5 8.5t-6.5 18.5z" />
<glyph unicode="@" horiz-adv-x="1843" d="M145 608q25 186 95.5 334t181 251t258 158.5t328.5 55.5q190 0 333.5 -60.5t233.5 -171t124 -265t9 -341.5q-27 -193 -129 -317.5t-279 -171.5l-208 90l-232 -90h-26q-76 0 -138.5 28.5t-105.5 79t-61.5 116t-4.5 138.5l47 252q14 80 53.5 142.5t96.5 106.5t128 67.5 t148 23.5q78 0 144.5 -27.5t112.5 -77.5t65.5 -121t3.5 -157l-53 -291l53 -22q59 31 98 94.5t54 165.5q16 121 -0.5 227.5t-71.5 185.5t-153.5 124t-241.5 45q-135 0 -244 -42t-187.5 -119t-129 -188.5t-68.5 -248.5q-18 -135 2 -251t83.5 -202t170 -136t264.5 -54l229 79 q16 6 25 -12l61 -176q6 -20 -12 -27l-262 -92h-31q-219 0 -374.5 68.5t-251 188.5t-129.5 285t-9 355zM782 449q-10 -53 7.5 -82t52.5 -33l180 65l49 269q10 51 -14.5 87t-83.5 36q-66 0 -105 -41t-49 -101z" />
<glyph unicode="A" horiz-adv-x="1202" d="M23 11q-2 6 -2.5 11.5t2.5 10.5l456 1335q6 18 23 18h207q18 0 24 -18l447 -1335q2 -8 2 -14q0 -19 -25 -19h-248q-29 0 -35 29l-75 233h-205l-215 -65l-51 -168q-10 -29 -37 -29h-248q-16 0 -20 11zM483 514l64 18q20 6 44.5 9.5t47.5 3.5h74l-109 346z" />
<glyph unicode="B" horiz-adv-x="1259" d="M174 27v1333q0 12 7 19t18 7h555q80 0 145.5 -32.5t113.5 -88t74.5 -127t26.5 -151.5q0 -86 -38 -160.5t-95 -128.5l154 -157q23 -27 22 -56q0 -92 -29.5 -180t-85 -155.5t-133.5 -108.5t-174 -41h-536q-12 0 -18.5 8.5t-6.5 18.5zM457 283h278q49 0 86 43t45 96 l-168 168h-241v-307zM457 872h280q39 0 63.5 35t24.5 80q0 49 -23.5 83t-64.5 34h-280v-232z" />
<glyph unicode="C" horiz-adv-x="1247" d="M133 481v424q0 102 41 193.5t108.5 160t154.5 108.5t177 40h19l452 -139q23 -6 17 -31l-66 -223q-4 -10 -11 -15.5t-21 -1.5l-408 129q-35 -6 -67.5 -28.5t-57.5 -56t-40 -73.5t-15 -81v-385q0 -41 13 -80t34.5 -69.5t50.5 -50t61 -19.5h156q63 0 97 36.5t34 81.5 q0 25 25 25h233q25 0 25 -25q0 -92 -33 -166.5t-87 -127t-126 -80t-149 -27.5h-191q-84 0 -162 38t-136 104.5t-93 153.5t-35 185z" />
<glyph unicode="D" horiz-adv-x="1331" d="M174 27v1245q0 14 16 24l164 82q16 8 27 8h391q84 0 162 -37.5t136 -104t93 -153.5t35 -186v-424q0 -98 -35 -185t-93 -153.5t-136 -104.5t-162 -38h-573q-12 0 -18.5 8.5t-6.5 18.5zM457 283h295q33 0 62.5 19.5t52 50t35.5 69.5t13 80v383q0 39 -13 79t-35.5 70.5 t-52.5 50t-62 19.5h-295v-821z" />
<glyph unicode="E" horiz-adv-x="1148" d="M174 27v1333q0 10 6 18t19 8h751q10 0 18.5 -6t8.5 -18v-234q0 -10 -7 -17t-20 -7h-493v-266l78 24q20 6 44.5 9t47.5 3h250q10 0 18 -6t8 -18v-234q0 -10 -7 -17t-19 -7h-267l-153 -45v-264h532q12 0 19.5 -7.5t7.5 -17.5v-233q0 -12 -8.5 -18.5t-18.5 -6.5h-790 q-12 0 -18.5 8.5t-6.5 18.5z" />
<glyph unicode="F" horiz-adv-x="1058" d="M174 27v1333q0 10 6 18t19 8h741q10 0 18.5 -6t8.5 -18v-234q0 -10 -7.5 -17t-19.5 -7h-483v-266l78 24q20 6 44.5 9t47.5 3h250q10 0 18 -6t8 -18v-234q0 -10 -7 -17t-19 -7h-267l-153 -45v-522q0 -12 -8.5 -18.5t-18.5 -6.5h-231q-12 0 -18.5 8.5t-6.5 18.5z" />
<glyph unicode="G" horiz-adv-x="1277" d="M133 481v424q0 102 41 193.5t108.5 160t154.5 108.5t177 40h19l452 -139q23 -6 17 -31l-66 -223q-4 -10 -11 -15.5t-21 -1.5l-408 129q-35 -6 -67.5 -28.5t-57.5 -56t-40 -73.5t-15 -81v-385q0 -41 13 -80t34.5 -69.5t50.5 -50t61 -19.5h156q63 0 97 36.5t34 81.5v103 h-182q-27 0 -27 24v232q0 27 27 26h438q27 0 27 -26v-361q0 -92 -33 -166.5t-87 -126t-126 -79t-149 -27.5h-191q-84 0 -162 38t-136 104.5t-93 153.5t-35 185z" />
<glyph unicode="H" horiz-adv-x="1392" d="M174 27v1333q0 12 7 19t18 7h233q12 0 18.5 -8t6.5 -18v-520l65 20q20 6 45 9t47 3h322v488q0 12 7 19t18 7h233q12 0 18.5 -8t6.5 -18v-1333q0 -12 -7.5 -19.5t-17.5 -7.5h-233q-12 0 -18.5 8t-6.5 19v563h-338l-141 -41v-522q0 -12 -7.5 -19.5t-17.5 -7.5h-233 q-12 0 -18.5 8.5t-6.5 18.5z" />
<glyph unicode="I" horiz-adv-x="630" d="M174 27v1333q0 12 7 19t18 7h233q12 0 18.5 -8t6.5 -18v-1333q0 -12 -7.5 -19.5t-17.5 -7.5h-233q-12 0 -18.5 8.5t-6.5 18.5z" />
<glyph unicode="J" horiz-adv-x="927" d="M43 96l66 219q8 25 30 19l242 -74q45 2 67.5 28.5t22.5 61.5v1010q0 12 7 19t18 7h233q12 0 18.5 -8t6.5 -18v-1026q0 -72 -28 -136.5t-76 -112.5t-115.5 -76.5t-147.5 -28.5h-22l-304 86q-20 5 -19 21q0 4 1 9z" />
<glyph unicode="K" horiz-adv-x="1257" d="M174 27v1333q0 12 7 19t18 7h233q12 0 18.5 -8t6.5 -18v-461l506 506q8 8 17 8t19 -8l160 -158q8 -8 8 -19t-8 -20l-360 -358l362 -637q14 -23 15 -43v-147q0 -23 -23 -23h-180q-18 0 -31 20l-356 627l-129 -129v-491q0 -12 -7.5 -19.5t-17.5 -7.5h-233q-12 0 -18.5 8.5 t-6.5 18.5z" />
<glyph unicode="L" horiz-adv-x="1054" d="M174 27v1333q0 12 7 19t18 7h233q12 0 18.5 -8t6.5 -18v-1077h499q12 0 19.5 -7.5t7.5 -17.5v-233q0 -12 -8 -18.5t-19 -6.5h-757q-12 0 -18.5 8.5t-6.5 18.5z" />
<glyph unicode="M" horiz-adv-x="1505" d="M174 27v1269q0 16 16 23l199 96q8 4 15 4q13 0 20 -16l328 -662l317 629q8 16 23 16h215q12 0 18 -8t6 -18v-1333q0 -12 -7 -19.5t-17 -7.5h-234q-12 0 -18 8t-6 19v716l-275 -530q-10 -16 -26 -16t-25 16l-266 528v-714q0 -12 -7.5 -19.5t-17.5 -7.5h-233 q-12 0 -18.5 8.5t-6.5 18.5z" />
<glyph unicode="N" horiz-adv-x="1378" d="M174 27v1245q0 18 10 24l195 123q10 6 17 6q12 0 20 -14l506 -803v752q0 12 7 19t17 7h234q12 0 18 -8t6 -18v-1335q0 -25 -26 -25h-168q-41 0 -66 37l-487 770v-780q0 -12 -7.5 -19.5t-17.5 -7.5h-233q-12 0 -18.5 8.5t-6.5 18.5z" />
<glyph unicode="O" horiz-adv-x="1329" d="M133 481v424q0 98 35 185.5t94.5 154t136 104t160.5 37.5h270q33 0 58 -24l287 -285q23 -23 22 -55v-541q0 -98 -35 -185t-94 -153.5t-136 -104.5t-161 -38h-211q-84 0 -160.5 38t-136 104.5t-94.5 153.5t-35 185zM416 502q0 -41 13 -80t34.5 -69.5t51.5 -50t63 -19.5 h174q33 0 62.5 19.5t51 50t34.5 69.5t13 80v440l-161 162h-174q-33 0 -63 -19.5t-51.5 -50t-34.5 -70.5t-13 -79v-383z" />
<glyph unicode="P" horiz-adv-x="1179" d="M174 27v1245q0 14 16 24l164 82q16 8 27 8h326q90 0 165.5 -33.5t130 -94t85 -142.5t30.5 -178t-30.5 -178t-85 -142.5t-130 -94.5t-165.5 -34h-250v-462q0 -12 -7.5 -19.5t-17.5 -7.5h-233q-12 0 -18.5 8.5t-6.5 18.5zM457 772h229q68 0 102.5 47t34.5 119t-34.5 119 t-102.5 47h-229v-332z" />
<glyph unicode="Q" horiz-adv-x="1339" d="M133 481v424q0 98 35 185.5t94.5 154t136 104t160.5 37.5h211q84 0 161 -37.5t136 -104t94 -153.5t35 -186v-561q0 -33 -22 -55l-41 -41l124 -127q8 -9 8.5 -18t-8.5 -17l-147 -139q-10 -8 -19.5 -8t-17.5 8l-121 123l-45 -45q-25 -25 -57 -25h-291q-84 0 -160.5 38 t-136 104.5t-94.5 153.5t-35 185zM416 502q0 -41 13 -80t34.5 -69.5t51.5 -50t63 -19.5h149l-106 104q-18 16 0 35l141 143q16 16 35 0l116 -114v434q0 39 -13 79t-34.5 70.5t-51.5 50t-62 19.5h-174q-33 0 -63 -19.5t-51.5 -50t-34.5 -70.5t-13 -79v-383z" />
<glyph unicode="R" horiz-adv-x="1255" d="M174 27v1333q0 12 7 19t18 7h508q90 0 165.5 -33.5t131 -94t86 -142.5t30.5 -178q0 -129 -49 -227.5t-131 -153.5l199 -344q14 -25 14 -43v-147q0 -23 -23 -23h-180q-18 0 -30 20l-277 484l-186 37v-514q0 -12 -7.5 -19.5t-17.5 -7.5h-233q-12 0 -18.5 8.5t-6.5 18.5z M457 825l260 -55q51 16 81.5 61.5t30.5 106.5q0 72 -35.5 119t-101.5 47h-235v-279z" />
<glyph unicode="S" horiz-adv-x="1140" d="M78 266q-6 10 -6 18q0 11 12 19l188 131q25 16 37 -6q53 -92 118 -129t151 -37q90 0 142 45t52 111q0 29 -16.5 53.5t-46.5 38.5l-598 268v90q0 133 43 233.5t107.5 168t142 102.5t147.5 35h22l406 -123q25 -6 18 -33l-65 -223q-8 -23 -33 -16l-360 112q-41 -10 -80 -53 t-56 -115l424 -188q117 -53 172.5 -140t55.5 -208q0 -106 -38 -188t-102.5 -138.5t-150.5 -85t-184 -28.5q-174 0 -300 78.5t-202 207.5z" />
<glyph unicode="T" horiz-adv-x="991" d="M41 1128v234q0 12 8 18t19 6h856q10 0 18 -6t8 -18v-234q0 -10 -7 -17t-19 -7h-287v-1077q0 -12 -7 -19.5t-18 -7.5h-233q-12 0 -18.5 8t-6.5 19v1077h-286q-12 0 -19.5 7t-7.5 17z" />
<glyph unicode="U" horiz-adv-x="1318" d="M154 481v879q0 12 7 19t17 7h234q12 0 18 -8t6 -18v-858q0 -41 13.5 -80t35 -69.5t51 -50t62.5 -19.5h123q33 0 62.5 19.5t51 50t35 69.5t13.5 80v858q0 12 7 19t17 7h234q12 0 18 -8t6 -18v-879q0 -98 -34.5 -185t-94 -153.5t-136.5 -104.5t-161 -38h-159q-84 0 -162 38 t-136.5 104.5t-93 153.5t-34.5 185z" />
<glyph unicode="V" horiz-adv-x="1183" d="M23 1354q-2 8 -3 13q0 19 25 19h244q16 0 23 -7t12 -21l266 -860l268 860q10 29 39 28h240q25 0 25 -19q0 -6 -3 -13l-436 -1336q-6 -18 -25 -18h-223q-18 0 -24 18z" />
<glyph unicode="W" horiz-adv-x="1474" d="M43 1356q-1 6 -1 10q0 20 21 20h232q29 0 35 -28l159 -772l119 393q6 18 25 18h207q18 0 24 -18l113 -399l168 778q6 29 33 28h233q16 0 21 -10q2 -5 2 -10t-2 -10l-291 -1329q-6 -27 -27 -27h-209q-29 0 -37 27l-139 479l-141 -477q-10 -29 -37 -29h-201q-20 0 -22 18z " />
<glyph unicode="X" horiz-adv-x="1107" d="M32 15q0 6 3 14l336 714l-310 615q-4 10 0.5 19t16.5 9h262q20 0 29 -20l196 -403l215 446q9 17 23 17q6 0 12 -3l197 -104q23 -12 10 -37l-289 -571l344 -680q2 -5 3 -11q0 -4 -2 -9q-3 -11 -17 -11h-256q-23 0 -29 14l-233 457l-211 -455q-6 -16 -25 -16h-258 q-17 0 -17 15z" />
<glyph unicode="Y" horiz-adv-x="1028" d="M-6 1288q-4 8 -4 14q0 13 16 23l209 98q7 3 12 3q14 0 23 -17l266 -543l262 539q12 27 37 14l207 -96q15 -8 15 -21q0 -7 -5 -16l-377 -739v-520q0 -27 -26 -27h-230q-27 0 -26 27v520z" />
<glyph unicode="Z" horiz-adv-x="1013" d="M35 129l526 975h-432q-25 0 -25 26v230q0 27 27 26h641q10 0 27 -8l155 -86q15 -8 15 -21q0 -7 -4 -16l-525 -972h480q27 0 26 -27v-229q0 -27 -26 -27h-695q-10 0 -26 8l-154 84q-15 8 -15 21q1 7 5 16z" />
<glyph unicode="[" horiz-adv-x="696" d="M154 -379v1935q0 27 26 27h449q27 0 26 -27v-223q0 -25 -26 -24h-201v-1440h201q27 0 26 -25v-223q0 -27 -26 -27h-449q-26 0 -26 27z" />
<glyph unicode="\" horiz-adv-x="761" d="M-41 1360q-10 27 14 26h226q14 0 26 -26l615 -1581q10 -25 -19 -25h-215q-23 0 -33 25z" />
<glyph unicode="]" horiz-adv-x="753" d="M98 -156q0 25 27 25h201v1440h-201q-27 0 -27 24v223q0 27 27 27h448q27 0 27 -27v-1935q0 -27 -27 -27h-448q-27 0 -27 27v223z" />
<glyph unicode="^" horiz-adv-x="1220" d="M145 586l326 782q6 18 25 18h229q18 0 25 -18l325 -782q10 -33 -22 -33h-234q-16 0 -23.5 7t-11.5 22l-174 456l-174 -456q-4 -14 -11 -21.5t-24 -7.5h-233q-33 0 -23 33z" />
<glyph unicode="_" horiz-adv-x="1019" d="M41 -88q0 27 25 27h886q27 0 27 -25v-205q0 -25 -25 -24h-888q-25 0 -25 26v201z" />
<glyph unicode="`" horiz-adv-x="944" d="M209 1239l82 184q12 23 35 15l399 -178q10 -4 12 -13.5t-2 -19.5l-53 -121q-6 -16 -27 -16h-147q-20 0 -33 6l-254 110q-22 10 -12 33z" />
<glyph unicode="a" horiz-adv-x="952" d="M72 293q0 92 44 153.5t122 88.5l317 106q-10 47 -39 72.5t-82 25.5l-233 -69q-27 -8 -33 18l-59 199q-6 25 16 33l266 77h60q80 0 149.5 -24.5t119.5 -72.5t79.5 -117.5t29.5 -157.5v-396l52 -131q2 -6 2 -10q0 -15 -19 -22l-200 -80q-8 -3 -15 -3q-3 0 -5 1q-7 2 -13 18 l-21 49l-166 -67h-49q-70 0 -129 23.5t-102 64.5t-67.5 97t-24.5 124zM348 340q-3 -16 -3 -31q0 -34 16 -59q24 -37 77 -37l117 47v150z" />
<glyph unicode="b" horiz-adv-x="1048" d="M82 90l51 131v1143q0 23 25 22h229q20 0 21 -22v-412l133 45h47q82 0 150.5 -27.5t116.5 -76.5t74.5 -115.5t26.5 -144.5v-268q0 -86 -29.5 -157t-81.5 -121t-124 -76.5t-156 -26.5q-55 0 -109.5 17t-97.5 54l-24 -61q-6 -16 -13 -19q-2 -1 -6 0q-6 0 -14 2l-203 80 q-18 8 -18 23q0 4 2 10zM408 420q0 -78 32.5 -124t104.5 -46q61 0 99 38t38 99v217q0 53 -34 86t-85 33l-155 -51v-252z" />
<glyph unicode="c" horiz-adv-x="886" d="M92 362v256q0 86 31 157t84 120t126 75.5t156 26.5q66 0 151 -19.5t169 -51.5q18 -6 12 -25l-67 -217q-6 -20 -27 -14q-160 59 -238 59q-59 0 -90.5 -35t-31.5 -84v-239q0 -59 31.5 -89t72.5 -30l277 78q23 6 30 -19l66 -207q2 -7 2 -12q0 -16 -19 -20l-319 -88h-19 q-84 0 -156.5 26.5t-125.5 75.5t-84 119.5t-31 156.5z" />
<glyph unicode="d" horiz-adv-x="1048" d="M92 348v268q0 86 30 157t82 121t123.5 76.5t155.5 26.5q45 0 84 -8t74 -24v399q0 23 21 22h229q25 0 24 -22v-1143l52 -131q2 -6 2 -10q0 -15 -19 -23l-202 -80q-8 -3 -15 -2h-5q-7 2 -13 19l-21 53l-186 -63h-47q-84 0 -151.5 27.5t-116 76.5t-75 115.5t-26.5 144.5z M367 377q0 -53 33.5 -86t84.5 -33l156 51v252q0 78 -33 124t-104 46q-61 0 -99 -38t-38 -99v-217z" />
<glyph unicode="e" horiz-adv-x="958" d="M92 362v254q0 86 32 157t87 121t130 76.5t159 26.5t155.5 -26.5t122.5 -76.5t80 -121t29 -157v-43l-51 -172q-6 -18 -25 -18h-444v-27q0 -55 30.5 -83.5t73.5 -28.5l299 55q23 4 29 -20l43 -203q4 -27 -19 -33l-315 -59h-19q-84 0 -156.5 26.5t-125.5 75.5t-84 119.5 t-31 156.5zM367 596h266v25q0 49 -37 83.5t-96 34.5t-96 -34.5t-37 -83.5v-25z" />
<glyph unicode="f" horiz-adv-x="675" d="M37 731v223q0 27 26 27h101v57q0 88 31.5 156t86 114t126 70.5t151.5 24.5h21l204 -64q14 -5 14 -16q0 -4 -1 -8l-66 -219q-6 -20 -26 -15l-173 52q-39 -2 -61 -24t-33 -58v-70h187q25 0 24 -23v-229q0 -23 -22 -22h-189v-684q0 -23 -22 -23h-230q-23 0 -22 23v684h-101 q-26 -1 -26 24z" />
<glyph unicode="g" horiz-adv-x="1048" d="M92 365v268q0 78 26.5 144.5t75 115.5t116 76.5t151.5 27.5h47l186 -63l21 53q6 16 13 19q2 1 5 0q6 0 15 -2l202 -80q18 -8 19 -23q0 -5 -2 -10l-52 -131v-809q0 -90 -29.5 -158.5t-79.5 -117t-120 -73t-149 -24.5h-60l-327 98q-23 8 -17 33l64 211q6 27 32 19l291 -91 q53 0 82 26t39 73v98l-133 -45h-47q-84 0 -151.5 27.5t-116 77t-75 116t-26.5 144.5zM367 393q0 -53 33.5 -86t84.5 -33l156 52v346l-156 51q-51 0 -84.5 -33t-33.5 -86v-211z" />
<glyph unicode="h" horiz-adv-x="1079" d="M133 23v1337q0 12 7 19t18 7h225q12 0 18.5 -8t6.5 -18v-414l155 51h41q82 0 147.5 -27.5t110.5 -76.5t69.5 -115.5t24.5 -144.5v-610q0 -23 -20 -23h-229q-25 0 -25 23v581q0 53 -33 84t-74 35l-167 -51v-649q0 -23 -21 -23h-229q-25 0 -25 23z" />
<glyph unicode="i" d="M133 27v927q0 12 7 19.5t18 7.5h225q12 0 18.5 -8t6.5 -19v-927q0 -12 -7.5 -19.5t-17.5 -7.5h-225q-12 0 -18.5 8.5t-6.5 18.5zM133 1139v221q0 12 7 19t18 7h225q12 0 18.5 -8t6.5 -18v-221q0 -12 -7.5 -19.5t-17.5 -7.5h-225q-12 0 -18.5 8.5t-6.5 18.5z" />
<glyph unicode="j" horiz-adv-x="561" d="M-178 -332l63 209q6 27 33 19l156 -48q29 0 49 21.5t31 56.5v1028q0 12 7 19.5t17 7.5h225q12 0 18.5 -8t6.5 -19v-1013q0 -90 -27.5 -158t-76 -113t-114 -68.5t-140.5 -23.5h-41l-191 57q-18 6 -17 23q0 5 1 10zM154 1139v221q0 12 7 19t17 7h225q12 0 18.5 -8t6.5 -18 v-221q0 -12 -7 -19.5t-18 -7.5h-225q-12 0 -18 8.5t-6 18.5z" />
<glyph unicode="k" horiz-adv-x="1069" d="M133 27v1333q0 27 27 26h221q27 0 27 -26v-662l352 306q18 14 37 2l184 -140q23 -14 -6 -37l-277 -237l285 -414q14 -23 14 -43v-112q0 -23 -22 -23h-191q-16 0 -30 20l-267 398l-79 -70v-317q0 -31 -27 -31h-221q-27 0 -27 27z" />
<glyph unicode="l" d="M133 27v1333q0 12 7 19t18 7h225q12 0 18.5 -8t6.5 -18v-1333q0 -12 -7.5 -19.5t-17.5 -7.5h-225q-12 0 -18.5 8.5t-6.5 18.5z" />
<glyph unicode="m" horiz-adv-x="1628" d="M82 891q-2 6 -2 10q0 15 18 23l203 80q8 3 14 2h6q7 -2 13 -19l22 -57l207 67h41q74 0 135.5 -23.5t106.5 -64.5l266 88h41q82 0 147.5 -27.5t110.5 -76.5t69.5 -115.5t24.5 -144.5v-610q0 -23 -20 -23h-230q-25 0 -24 23v581q0 53 -33 84t-74 35l-170 -51q0 -10 1 -19.5 t1 -19.5v-610q0 -23 -20 -23h-229q-25 0 -25 23v581q0 53 -33 84t-74 35l-167 -51v-649q0 -23 -21 -23h-229q-25 0 -25 23v737z" />
<glyph unicode="n" horiz-adv-x="1079" d="M82 891q-2 6 -2 10q0 15 18 23l203 80q8 3 14 2h6q7 -2 13 -19l22 -57l207 67h41q82 0 147.5 -27.5t110.5 -76.5t69.5 -115.5t24.5 -144.5v-610q0 -23 -20 -23h-229q-25 0 -25 23v581q0 53 -33 84t-74 35l-167 -51v-649q0 -23 -21 -23h-229q-25 0 -25 23v737z" />
<glyph unicode="o" horiz-adv-x="999" d="M92 365v251q0 86 32 157t87 121t130 76.5t159 26.5t158.5 -26.5t130 -76.5t87 -121t31.5 -157v-251q0 -86 -31.5 -157t-87 -121t-130 -76.5t-158.5 -26.5t-159 26.5t-130 76.5t-87 121t-32 157zM367 369q0 -49 36.5 -84t96.5 -35q59 0 96 34.5t37 84.5v243q0 49 -37 84 t-96 35t-96 -34.5t-37 -84.5v-243z" />
<glyph unicode="p" horiz-adv-x="1048" d="M82 891q-2 6 -2 10q0 15 18 23l203 80q8 3 14 2h6q7 -2 13 -19l20 -53l187 63h47q82 0 150.5 -27.5t116.5 -76.5t74.5 -115.5t26.5 -144.5v-268q0 -86 -29.5 -157t-81.5 -121t-124 -76.5t-156 -26.5q-45 0 -84 8t-73 24v-399q0 -23 -21 -23h-229q-25 0 -25 23v1143z M408 420q0 -78 32.5 -124t104.5 -46q61 0 99 38t38 99v217q0 53 -34 86t-85 33l-155 -51v-252z" />
<glyph unicode="q" horiz-adv-x="1048" d="M92 348v268q0 86 30 157t82 121t123.5 76.5t155.5 26.5q55 0 109.5 -17t97.5 -54l25 61q6 16 13 19q2 1 5 0q6 0 15 -2l202 -80q18 -8 19 -23q0 -5 -2 -10l-52 -131v-1143q0 -23 -24 -23h-229q-20 0 -21 23v412l-133 -45h-47q-84 0 -151.5 27.5t-116 76.5t-75 115.5 t-26.5 144.5zM367 377q0 -53 33.5 -86t84.5 -33l156 51v252q0 78 -33 124t-104 46q-61 0 -99 -38t-38 -99v-217z" />
<glyph unicode="r" horiz-adv-x="735" d="M82 891q-2 6 -2 10q0 15 18 23l203 80q8 3 14 2h6q7 -2 13 -19l26 -67q51 33 106.5 55t108.5 22h15l145 -45q18 -5 19 -20q0 -5 -2 -12l-68 -215q-6 -20 -27 -15l-116 37q-31 -6 -67 -23.5t-66 -44.5v-636q0 -23 -21 -23h-229q-25 0 -25 23v737z" />
<glyph unicode="s" horiz-adv-x="870" d="M66 207q-3 5 -3 10q0 6 5 10l176 123q12 10 22 -4q41 -59 92.5 -84.5t98.5 -25.5q41 0 60.5 17t19.5 40q0 27 -45 47l-402 152v118q0 90 31 162t79 122t108.5 76.5t119.5 26.5h21l325 -96q14 -4 10 -16l-61 -209q-6 -12 -21 -10l-294 86q-23 -10 -38.5 -33t-19.5 -49 l271 -103q98 -37 143 -104.5t45 -151.5q0 -150 -98.5 -238.5t-261.5 -88.5q-106 0 -207.5 53t-175.5 170z" />
<glyph unicode="t" horiz-adv-x="757" d="M31 731v223q0 27 26 27h127v236q0 27 27 26h221q27 0 27 -26v-236h180q27 0 27 -27v-223q0 -25 -27 -24h-180v-342q0 -39 23.5 -66t58.5 -27l86 25q27 8 32 -16l66 -222q1 -4 1 -7q0 -14 -19 -19l-189 -49q-70 0 -130 21.5t-105 62.5t-72 100t-27 137v402h-127 q-26 -1 -26 24z" />
<glyph unicode="u" horiz-adv-x="1079" d="M123 348v610q0 23 20 23h230q25 0 24 -23v-581q0 -53 33 -84t74 -35l168 51v649q0 23 20 23h230q25 0 24 -23v-737l51 -131q2 -6 2 -10q0 -15 -18 -23l-203 -80q-8 -3 -14 -2h-5q-7 2 -14 19l-22 57l-207 -67h-41q-82 0 -147.5 27.5t-110.5 76.5t-69.5 115.5t-24.5 144.5 z" />
<glyph unicode="v" horiz-adv-x="944" d="M12 948q-2 8 -2 14q0 19 25 19h233q16 0 23.5 -7t11.5 -22l170 -493l166 493q6 12 14.5 20.5t24.5 8.5h229q25 0 25 -19q0 -6 -2 -14l-330 -930q-6 -18 -25 -18h-215q-18 0 -24 18z" />
<glyph unicode="w" horiz-adv-x="1288" d="M35 950q-1 6 -1 11q0 20 21 20h217q29 0 35 -29l107 -477l112 402q6 18 25 18h188q18 0 25 -18l119 -402l100 477q6 29 33 29h217q16 0 20 -10q2 -5 2 -10.5t-2 -10.5l-213 -923q-6 -27 -26 -27h-221q-29 0 -37 27l-121 417l-121 -415q-10 -29 -37 -29h-207q-20 0 -22 18 z" />
<glyph unicode="x" horiz-adv-x="919" d="M3 9q-1 3 -1 6q0 6 4 14l285 489l-271 434q-6 10 -0.5 19.5t17.5 9.5h270q10 0 17.5 -6t11.5 -14l135 -234l160 264q9 16 24 16q4 0 9 -1l223 -66q20 -6 8 -29l-258 -413l285 -467q4 -6 3 -13q0 -4 -1 -8q-4 -10 -19 -10h-266q-20 0 -29 14l-153 269l-154 -267 q-10 -16 -24 -16h-259q-14 0 -17 9z" />
<glyph unicode="y" horiz-adv-x="944" d="M4 918q-3 7 -3 12q0 16 22 20l223 60q4 1 8 1q16 0 22 -22l203 -536l162 499q10 29 39 29h227q25 0 25 -19q0 -6 -2 -14l-373 -1048q-25 -72 -55.5 -126.5t-70.5 -93t-91 -64.5t-121 -38q-4 -1 -8 -1q-20 0 -25 20l-65 210q-6 27 16 33q61 12 105.5 44t68.5 96l31 79z " />
<glyph unicode="z" horiz-adv-x="880" d="M51 127l361 580h-306q-25 0 -24 26v221q0 27 27 27h553q14 0 24 -8l117 -82q15 -11 14 -23q0 -7 -4 -14l-356 -580h319q27 0 27 -26v-221q0 -27 -27 -27h-573q-14 0 -25 8l-117 82q-15 11 -14 23q0 7 4 14z" />
<glyph unicode="{" horiz-adv-x="847" d="M61 492v155q0 18 17 25l135 59q16 8 29 8h67v441q0 94 30 169.5t82 127t122.5 79t150.5 27.5h66q27 0 26 -24v-224q0 -27 -26 -26h-31q-145 0 -145 -166v-1108q0 -166 145 -166h31q27 0 26 -27v-223q0 -25 -26 -25h-66q-80 0 -150.5 28t-122.5 79t-82 126t-30 171v467 h-225q-23 0 -23 27z" />
<glyph unicode="|" horiz-adv-x="909" d="M317 -379v1935q0 12 7.5 19.5t17.5 7.5h225q12 0 18.5 -8t6.5 -19v-1935q0 -12 -7 -19.5t-18 -7.5h-225q-12 0 -18.5 8.5t-6.5 18.5z" />
<glyph unicode="}" horiz-adv-x="847" d="M61 -158q0 27 27 27h31q145 0 145 166v1108q0 166 -145 166h-31q-27 0 -27 26v224q0 25 27 24h66q80 0 149.5 -27.5t121.5 -79t83 -127t31 -169.5v-441h225q23 0 22 -26v-156q0 -18 -16 -25l-135 -59q-16 -8 -29 -8h-67v-467q0 -96 -31 -171t-83 -126t-122 -79t-149 -28 h-66q-27 0 -27 25v223z" />
<glyph unicode="~" horiz-adv-x="1265" d="M205 522v223q0 23 24 39q59 39 129 55.5t129 16.5l291 -82q66 0 132.5 17.5t125.5 54.5q10 8 17.5 3t7.5 -15v-224q0 -23 -25 -39q-59 -39 -128.5 -55t-129.5 -16l-291 82q-66 0 -132 -17.5t-126 -54.5q-10 -8 -17 -3t-7 15z" />
<glyph unicode="&#xa1;" horiz-adv-x="622" d="M174 -379v926q0 12 7 19t18 7h225q12 0 18.5 -8t6.5 -18v-926q0 -12 -7.5 -19.5t-17.5 -7.5h-225q-12 0 -18.5 8.5t-6.5 18.5zM174 737v217q0 12 7 19.5t18 7.5h225q12 0 18.5 -8t6.5 -19v-217q0 -12 -7.5 -19t-17.5 -7h-225q-12 0 -18.5 8t-6.5 18z" />
<glyph unicode="&#xa2;" horiz-adv-x="987" d="M127 565v256q0 137 72.5 230.5t189.5 128.5v241q0 12 7 19.5t18 7.5h225q12 0 18.5 -8t6.5 -19v-237q43 -10 89 -24.5t91 -31.5q18 -6 12 -24l-68 -217q-6 -20 -26 -15q-160 59 -238 60q-59 0 -91 -35t-32 -84v-240q0 -59 32 -88.5t73 -29.5l276 77q23 6 31 -18l66 -207 q8 -27 -17 -33l-198 -55v-254q0 -12 -7.5 -19t-17.5 -7h-225q-12 0 -19.5 8t-5.5 18v240q-117 35 -189.5 129t-72.5 231z" />
<glyph unicode="&#xa3;" horiz-adv-x="1228" d="M82 598v221q0 27 24 27h130v59q0 102 40.5 193.5t108.5 160t155 108.5t177 40h18l346 -107q23 -6 17 -30l-66 -223q-4 -10 -11 -15.5t-22 -1.5l-301 96q-35 -6 -67.5 -28.5t-58 -56t-41 -73.5t-15.5 -81v-41h272q27 0 27 -25v-225q0 -25 -24 -25h-275v-213l215 -75 q63 0 98 36.5t35 81.5q0 25 25 25h231q25 0 25 -25q0 -92 -33 -168.5t-87 -132t-125 -86t-148 -30.5h-2l-285 100l-37 -90q-6 -16 -13 -18.5t-20 1.5l-202 80q-25 10 -17 33l60 152v329h-130q-24 0 -24 27z" />
<glyph unicode="&#xa4;" horiz-adv-x="1247" d="M154 651v82q0 102 37.5 188.5t102 149t149.5 97t180 34.5q94 0 180 -34.5t150.5 -97t102.5 -148.5t38 -189v-82q0 -102 -38 -187t-102.5 -147.5t-150.5 -97.5t-180 -35t-179.5 35t-150 97.5t-102 147.5t-37.5 187zM428 664q0 -92 54.5 -150.5t140.5 -58.5t141 58t55 151 v59q0 92 -55 150.5t-141 58.5t-140.5 -58.5t-54.5 -150.5v-59z" />
<glyph unicode="&#xa5;" horiz-adv-x="1273" d="M117 1288q-12 23 12 37l209 98q23 10 35 -14l266 -543l262 539q12 27 37 14l207 -96q23 -12 10 -37l-176 -346h121q27 0 26 -25v-225q0 -25 -24 -24h-264l-60 -119v-41h322q27 0 26 -25v-225q0 -25 -24 -25h-324v-204q0 -27 -26 -27h-230q-27 0 -26 27v204h-324 q-25 0 -25 27v221q0 27 25 27h324v41l-62 119h-262q-25 0 -25 26v221q0 27 25 27h123z" />
<glyph unicode="&#xa6;" horiz-adv-x="909" d="M317 254q0 12 7.5 19.5t17.5 7.5h225q12 0 18.5 -8.5t6.5 -18.5v-633q0 -12 -7 -19.5t-18 -7.5h-225q-12 0 -18.5 8.5t-6.5 18.5v633zM317 727v633q0 12 7.5 19t17.5 7h225q12 0 18.5 -8t6.5 -18v-633q0 -12 -7 -19.5t-18 -7.5h-225q-12 0 -18.5 8.5t-6.5 18.5z" />
<glyph unicode="&#xa7;" horiz-adv-x="933" d="M92 207q-6 12 2 20l176 123q12 10 23 -4q41 -59 92 -84.5t98 -25.5q41 0 60.5 17t19.5 40q0 27 -45 47l-401 152v118q0 78 22.5 142.5t61.5 111.5l-84 33v119q0 90 30.5 161.5t78.5 122t108.5 77t120.5 26.5h20l326 -96q14 -4 10 -17l-66 -225q-6 -12 -20 -10l-295 86 q-16 -6 -30.5 -24.5t-18.5 -35.5l270 -102q98 -37 141.5 -107.5t43.5 -154.5q0 -127 -76 -213q41 -41 58.5 -90t17.5 -103q0 -150 -98.5 -238.5t-262.5 -88.5q-106 0 -207.5 53t-175.5 170zM381 676l119 -47q29 10 46 29.5t17 39.5q0 27 -45 47l-61 23q-33 -10 -52.5 -34.5 t-23.5 -57.5z" />
<glyph unicode="&#xa8;" horiz-adv-x="1134" d="M205 1139v221q0 12 7 19t17 7h226q12 0 18 -8t6 -18v-221q0 -12 -7 -19.5t-17 -7.5h-226q-12 0 -18 8.5t-6 18.5zM655 1139v221q0 12 7.5 19t17.5 7h225q12 0 18.5 -8t6.5 -18v-221q0 -12 -7.5 -19.5t-17.5 -7.5h-225q-12 0 -18.5 8.5t-6.5 18.5z" />
<glyph unicode="&#xa9;" horiz-adv-x="1755" d="M162 692q0 156 54 287t149.5 226t226.5 148.5t285 53.5q156 0 286.5 -53.5t226 -148.5t148.5 -226t53 -287q0 -154 -53 -285t-148.5 -226t-226.5 -148t-286 -53q-154 0 -285 53t-226.5 148t-149.5 226t-54 285zM324 692q0 -121 41 -222t114.5 -174t175 -114t222.5 -41 t222 41t175 114t115 174t41 222q0 119 -41 220.5t-115 175t-175.5 115.5t-221.5 42q-121 0 -222.5 -42t-175 -115.5t-114.5 -175t-41 -220.5zM532 606v156q0 78 31 143.5t82 112.5t115.5 73.5t132.5 26.5h18l263 -80q18 -6 12 -24l-49 -164q-4 -18 -25 -12l-242 73 q-53 -12 -91 -56t-38 -103v-154q0 -59 32 -91t75 -32h53q41 0 66.5 28.5t25.5 71.5q0 18 19 19h172q18 0 18 -19q0 -78 -24.5 -136t-66.5 -97t-96 -57.5t-114 -18.5h-65q-57 0 -111.5 25.5t-97.5 71t-69 107.5t-26 136z" />
<glyph unicode="&#xaa;" horiz-adv-x="856" d="M63 805q0 78 40 130t110 75l287 90q-18 84 -109 84l-211 -60q-23 -8 -28 17l-54 168q-6 20 15 28l239 66h54q72 0 134 -21.5t108 -61.5t71.5 -99.5t25.5 -135.5v-335l48 -111q8 -18 -15 -29l-180 -67q-20 -8 -31 14l-18 41l-150 -57h-43q-63 0 -116.5 19.5t-92 55 t-61.5 84t-23 105.5zM313 844q-8 -45 13.5 -77t68.5 -32l105 41v127z" />
<glyph unicode="&#xab;" horiz-adv-x="1376" d="M68 522q-10 10 0 21l426 426q12 12 28 12h164q14 0 14 -12v-146q0 -20 -10 -30l-268 -261l268 -258q10 -10 10 -30v-146q0 -14 -14 -14h-164q-14 0 -28 14zM600 522q-10 10 0 21l426 426q12 12 29 12h164q14 0 14 -12v-146q0 -20 -10 -30l-269 -261l269 -258 q10 -10 10 -30v-146q0 -14 -14 -14h-164q-14 0 -29 14z" />
<glyph unicode="&#xac;" horiz-adv-x="1490" d="M205 813v225q0 12 8 18.5t18 6.5h848q10 0 27 -8l164 -82q16 -10 16 -25v-629q0 -10 -6 -18t-18 -8h-224q-27 0 -26 29v466h-781q-12 0 -19 7.5t-7 17.5z" />
<glyph unicode="&#xad;" horiz-adv-x="581" d="M61 532v156q0 18 17 25l135 59q16 8 29 8h254q25 0 24 -24v-224q0 -27 -24 -26h-412q-23 -1 -23 26z" />
<glyph unicode="&#xae;" horiz-adv-x="1462" d="M168 1081q0 117 45 220.5t122 180.5t180 122t220 45t220.5 -45t180 -122t122 -180.5t45.5 -220.5t-45.5 -220t-122 -180t-180 -122t-220.5 -45t-220 45t-180 122t-122 180t-45 220zM295 1081q0 -92 35 -172t94 -139t139 -94t172 -35t172 35t140.5 94t94.5 139t34 172 t-34 172t-94.5 140.5t-140.5 94.5t-172 34t-172 -34t-139 -94.5t-94 -140.5t-35 -172zM479 795v573q0 16 15 16h305q113 0 172 -65.5t59 -159.5q0 -66 -28.5 -109.5t-73.5 -74.5l92 -105q8 -8 8 -26v-51q0 -14 -12 -15h-129q-12 0 -19 13l-114 133l-103 16v-145 q0 -16 -12 -17h-145q-15 1 -15 17zM651 1094l146 -23q25 10 42 29.5t17 48.5q0 35 -20.5 55.5t-59.5 20.5h-125v-131z" />
<glyph unicode="&#xaf;" horiz-adv-x="999" d="M205 1114v186q0 27 26 27h537q27 0 27 -27v-186q0 -25 -27 -24h-537q-26 -1 -26 24z" />
<glyph unicode="&#xb0;" horiz-adv-x="929" d="M133 1073q0 70 26.5 130.5t71.5 105.5t105.5 71.5t128.5 26.5t128 -26.5t105 -71.5t72 -105.5t27 -130.5q0 -68 -27 -128t-72 -105t-105.5 -72t-127.5 -27q-68 0 -128.5 27t-105.5 72t-71.5 105t-26.5 128zM375 1073q0 -37 26.5 -63.5t63.5 -26.5t63.5 26.5t26.5 63.5 q0 39 -26.5 64.5t-63.5 25.5t-63.5 -25.5t-26.5 -64.5z" />
<glyph unicode="&#xb1;" horiz-adv-x="1347" d="M205 27v221q0 27 24 26h887q27 0 27 -24v-225q0 -25 -25 -25h-889q-24 0 -24 27zM205 649v221q0 27 24 27h308v223q0 27 24 27h225q25 0 25 -25v-225h305q27 0 27 -25v-225q0 -25 -25 -24h-307v-226q0 -25 -27 -24h-221q-27 0 -26 24v226h-308q-24 -1 -24 26z" />
<glyph unicode="&#xb2;" horiz-adv-x="1138" d="M70 178l561 578q51 53 76.5 102t25.5 103q0 74 -43 123t-127 49q-86 0 -140 -48.5t-95 -130.5q-12 -23 -35 -10l-184 98q-20 8 -11 37q66 154 190 241t277 87q102 0 184 -32t139.5 -91t88.5 -142t31 -184q0 -111 -49.5 -207t-133.5 -180l-295 -297h457q23 0 23 -22v-229 q0 -23 -27 -23h-764q-6 0 -14 2t-12 6l-121 135q-16 19 -2 35z" />
<glyph unicode="&#xb3;" horiz-adv-x="1120" d="M104 123l62 215q6 25 33 16l333 -100q90 0 138.5 46t48.5 124q0 61 -44 109.5t-120 56.5l-174 -58q-23 -6 -31 19l-67 211q-8 25 14 31l377 125q20 8 20 53q0 70 -40 116t-117 46q-127 0 -197 -132q-12 -23 -35 -10l-184 99q-25 10 -10 36q66 135 179 208t249 73 q205 0 317.5 -115.5t112.5 -310.5q0 -100 -28 -164.5t-54 -75.5l-41 -14q72 -43 111.5 -125t39.5 -178q0 -106 -33.5 -189t-95 -139.5t-148.5 -86t-192 -29.5h-32l-375 112q-23 6 -17 31z" />
<glyph unicode="&#xb4;" horiz-adv-x="944" d="M207 1246q2 9 12 14l399 178q23 8 35 -15l82 -184q10 -23 -12 -33l-254 -110q-12 -6 -33 -6h-147q-20 0 -27 16l-53 121q-4 10 -2 19z" />
<glyph unicode="&#xb5;" horiz-adv-x="1089" d="M133 -383v1341q0 23 21 23h229q25 0 25 -23v-581q0 -53 32.5 -84t73.5 -35l168 51v649q0 23 20 23h230q25 0 24 -23v-737l52 -131q8 -23 -17 -33l-203 -80q-12 -4 -19 -2t-13 19l-23 57l-207 -67h-41q-23 0 -42 7t-35 17v-391q0 -23 -21 -23h-229q-25 0 -25 23z" />
<glyph unicode="&#x3bc;" horiz-adv-x="1089" d="M133 -383v1341q0 23 21 23h229q25 0 25 -23v-581q0 -53 32.5 -84t73.5 -35l168 51v649q0 23 20 23h230q25 0 24 -23v-737l52 -131q8 -23 -17 -33l-203 -80q-12 -4 -19 -2t-13 19l-23 57l-207 -67h-41q-23 0 -42 7t-35 17v-391q0 -23 -21 -23h-229q-25 0 -25 23z" />
<glyph unicode="&#xb6;" horiz-adv-x="1572" d="M20 954q0 100 36 180t98.5 136.5t145.5 86t177 29.5h273q51 0 92 -12l450 -139q25 -8 25 -31v-1583q0 -10 -6 -18.5t-19 -8.5h-233q-10 0 -17.5 7.5t-7.5 19.5v1403l-274 80v-1483q0 -10 -6 -18.5t-19 -8.5h-233q-10 0 -17.5 7.5t-7.5 19.5v897q-94 0 -177 30t-145.5 86 t-98.5 137t-36 183z" />
<glyph unicode="&#xb7;" d="M133 598v258q0 12 7 19.5t18 7.5h225q12 0 18.5 -8.5t6.5 -18.5v-258q0 -12 -7.5 -19.5t-17.5 -7.5h-225q-12 0 -18.5 8.5t-6.5 18.5z" />
<glyph unicode="&#xb8;" horiz-adv-x="718" d="M205 -248q0 18 6 31l43 92q8 20 33 21h207q12 0 16 -9.5t0 -19.5l-113 -254q-8 -18 -24 -19h-152q-16 0 -16 19v139z" />
<glyph unicode="&#xb9;" horiz-adv-x="983" d="M82 1253q-8 27 16 33l377 121q10 0 27 -8l153 -78q16 -8 17 -25v-1022h223q27 0 27 -24v-225q0 -25 -25 -25h-747q-25 0 -25 27v221q0 27 25 26h247v818l-219 -70q-20 -6 -26 14z" />
<glyph unicode="&#xba;" horiz-adv-x="899" d="M82 864v215q0 74 28.5 133.5t79 102.5t118 65.5t143.5 22.5t142 -22.5t116.5 -65.5t79 -102.5t28.5 -133.5v-215q0 -74 -28.5 -133t-79 -102t-117 -65.5t-141.5 -22.5q-76 0 -143.5 22.5t-118 65.5t-79 102t-28.5 133zM330 868q0 -41 32.5 -70.5t88.5 -29.5 q53 0 85.5 29.5t32.5 70.5v207q0 41 -32.5 71t-85.5 30q-55 0 -88 -30t-33 -71v-207z" />
<glyph unicode="&#xbb;" horiz-adv-x="1376" d="M143 96v146q0 20 11 30l268 260l-268 259q-10 10 -11 30v146q0 14 15 14h164q14 0 28 -14l426 -424q10 -10 0 -21l-426 -426q-12 -12 -28 -12h-164q-15 0 -15 12zM676 96v146q0 20 10 30l268 260l-268 259q-10 10 -10 30v146q0 14 14 14h164q14 0 29 -14l426 -424 q10 -10 0 -21l-426 -426q-12 -12 -29 -12h-164q-14 0 -14 12z" />
<glyph unicode="&#xbc;" horiz-adv-x="536" d="M-342 25l922 1335q18 27 32 26h236q14 0 15 -8t-7 -18l-922 -1335q-16 -25 -38 -25h-226q-30 0 -12 25z" />
<glyph unicode="&#xbd;" horiz-adv-x="536" d="M-342 25l922 1335q18 27 32 26h236q14 0 15 -8t-7 -18l-922 -1335q-16 -25 -38 -25h-226q-30 0 -12 25z" />
<glyph unicode="&#xbe;" horiz-adv-x="536" d="M-342 25l922 1335q18 27 32 26h236q14 0 15 -8t-7 -18l-922 -1335q-16 -25 -38 -25h-226q-30 0 -12 25z" />
<glyph unicode="&#xbf;" horiz-adv-x="1007" d="M72 -20q0 117 52 199.5t155 152.5l110 76v141q0 25 25 24h225q25 0 25 -24v-275l-218 -149q-51 -35 -73.5 -68.5t-22.5 -76.5q0 -61 40 -96.5t110 -35.5t136 35t116 94q16 18 34 5l158 -132q18 -16 4 -36q-78 -106 -195.5 -173t-254.5 -67q-92 0 -170 26.5t-135.5 79 t-89 127.5t-31.5 173zM389 737v217q0 12 7 19.5t18 7.5h225q12 0 18.5 -8t6.5 -19v-217q0 -12 -7.5 -19t-17.5 -7h-225q-12 0 -18.5 8t-6.5 18z" />
<glyph unicode="&#xc0;" horiz-adv-x="1202" d="M22.5 11.5q-4.5 11.5 0.5 21.5l456 1335q6 18 23 18h207q18 0 24 -18l447 -1335q10 -33 -23 -33h-248q-29 0 -35 29l-75 233h-205l-215 -65l-51 -168q-10 -29 -37 -29h-248q-16 0 -20.5 11.5zM276 1645l82 184q12 23 35 14l400 -178q10 -4 12 -13.5t-2 -19.5l-53 -121 q-6 -16 -27 -16h-148q-20 0 -32 6l-254 111q-23 10 -13 33zM483 514l64 18q20 6 44.5 9.5t47.5 3.5h74l-109 346z" />
<glyph unicode="&#xc1;" horiz-adv-x="1202" d="M22.5 11.5q-4.5 11.5 0.5 21.5l456 1335q6 18 23 18h207q18 0 24 -18l447 -1335q10 -33 -23 -33h-248q-29 0 -35 29l-75 233h-205l-215 -65l-51 -168q-10 -29 -37 -29h-248q-16 0 -20.5 11.5zM397 1651.5q2 9.5 13 13.5l399 178q23 8 35 -14l82 -184q10 -23 -13 -33 l-254 -111q-12 -6 -32 -6h-148q-20 0 -26 16l-54 121q-4 10 -2 19.5zM483 514l64 18q20 6 44.5 9.5t47.5 3.5h74l-109 346z" />
<glyph unicode="&#xc2;" horiz-adv-x="1202" d="M22.5 11.5q-4.5 11.5 0.5 21.5l456 1335q6 18 23 18h207q18 0 24 -18l447 -1335q10 -33 -23 -33h-248q-29 0 -35 29l-75 233h-205l-215 -65l-51 -168q-10 -29 -37 -29h-248q-16 0 -20.5 11.5zM258 1503q-4 8 6 19l320 303q18 18 37 0l319 -303q10 -10 6 -18.5t-14 -8.5 h-223q-12 0 -23 10l-84 82l-84 -82q-10 -10 -22 -10h-224q-10 0 -14 8zM483 514l64 18q20 6 44.5 9.5t47.5 3.5h74l-109 346z" />
<glyph unicode="&#xc3;" horiz-adv-x="1202" d="M22.5 11.5q-4.5 11.5 0.5 21.5l456 1335q6 18 23 18h207q18 0 24 -18l447 -1335q10 -33 -23 -33h-248q-29 0 -35 29l-75 233h-205l-215 -65l-51 -168q-10 -29 -37 -29h-248q-16 0 -20.5 11.5zM274 1520v192q0 20 25 37q39 23 82 37t84 14l270 -61q41 0 83 14t83 37 q10 4 17.5 0t7.5 -14v-193q0 -23 -25 -37q-39 -23 -82 -37t-84 -14l-270 61q-41 0 -83 -14t-83 -37q-10 -4 -17.5 0.5t-7.5 14.5zM483 514l64 18q20 6 44.5 9.5t47.5 3.5h74l-109 346z" />
<glyph unicode="&#xc4;" horiz-adv-x="1202" d="M22.5 11.5q-4.5 11.5 0.5 21.5l456 1335q6 18 23 18h207q18 0 24 -18l447 -1335q10 -33 -23 -33h-248q-29 0 -35 29l-75 233h-205l-215 -65l-51 -168q-10 -29 -37 -29h-248q-16 0 -20.5 11.5zM238 1544v221q0 12 7 19.5t17 7.5h225q12 0 18.5 -8t6.5 -19v-221 q0 -12 -7 -19t-18 -7h-225q-12 0 -18 8t-6 18zM483 514l64 18q20 6 44.5 9.5t47.5 3.5h74l-109 346zM688 1544v221q0 12 7 19.5t18 7.5h225q12 0 18.5 -8t6.5 -19v-221q0 -12 -7.5 -19t-17.5 -7h-225q-12 0 -18.5 8t-6.5 18z" />
<glyph unicode="&#xc5;" horiz-adv-x="1202" d="M22.5 11.5q-4.5 11.5 0.5 21.5l456 1335q6 18 23 18h207q18 0 24 -18l447 -1335q10 -33 -23 -33h-248q-29 0 -35 29l-75 233h-205l-215 -65l-51 -168q-10 -29 -37 -29h-248q-16 0 -20.5 11.5zM381 1673q0 45 17.5 86t46 70t68.5 46t87 17q45 0 86 -17t69.5 -46t46 -70 t17.5 -86q0 -47 -17.5 -87t-46 -68.5t-69.5 -46t-86 -17.5q-47 0 -87 17.5t-68.5 46t-46 68.5t-17.5 87zM483 514l64 18q20 6 44.5 9.5t47.5 3.5h74l-109 346zM528 1673q0 -29 21.5 -50t50.5 -21t50.5 21.5t21.5 49.5q0 29 -21.5 50.5t-50.5 21.5t-50.5 -21.5t-21.5 -50.5z " />
<glyph unicode="&#xc6;" horiz-adv-x="1763" d="M-4 11.5q-4 11.5 0 21.5l522 1335q6 18 23 18h1024q10 0 18 -6t8 -18v-234q0 -10 -7 -17t-19 -7h-494v-266l78 24q20 6 45 9t47 3h250q10 0 18.5 -6t8.5 -18v-234q0 -10 -7.5 -17t-19.5 -7h-266l-154 -47v-262h533q12 0 19 -7.5t7 -17.5v-233q0 -12 -8 -18.5t-18 -6.5 h-791q-12 0 -18.5 8t-6.5 19v432l-100 -31q-41 -12 -92 -12h-158l-151 -387q-10 -29 -37 -29h-234q-16 0 -20 11.5zM549 698h63l176 54v352h-79z" />
<glyph unicode="&#xc7;" horiz-adv-x="1247" d="M133 481v424q0 102 41 193.5t108.5 160t154.5 108.5t177 40h19l452 -139q23 -6 17 -31l-66 -223q-4 -10 -11 -15.5t-21 -1.5l-408 129q-35 -6 -67.5 -28.5t-57.5 -56t-40 -73.5t-15 -81v-385q0 -41 13 -80t34.5 -69.5t50.5 -50t61 -19.5h156q63 0 97 36.5t34 81.5 q0 25 25 25h233q25 0 25 -25q0 -92 -33 -166.5t-87 -127t-126 -80t-149 -27.5h-191q-84 0 -162 38t-136 104.5t-93 153.5t-35 185zM467 -248q0 18 6 31l43 92q8 20 33 21h207q12 0 16 -9.5t0 -19.5l-113 -254q-8 -18 -24 -19h-152q-16 0 -16 19v139z" />
<glyph unicode="&#xc8;" horiz-adv-x="1148" d="M174 27v1333q0 10 6 18t19 8h751q10 0 18.5 -6t8.5 -18v-234q0 -10 -7 -17t-20 -7h-493v-266l78 24q20 6 44.5 9t47.5 3h250q10 0 18 -6t8 -18v-234q0 -10 -7 -17t-19 -7h-267l-153 -45v-264h532q12 0 19.5 -7.5t7.5 -17.5v-233q0 -12 -8.5 -18.5t-18.5 -6.5h-790 q-12 0 -18.5 8.5t-6.5 18.5zM270 1645l82 184q12 23 35 14l399 -178q10 -4 12.5 -13.5t-1.5 -19.5l-54 -121q-6 -16 -26 -16h-148q-20 0 -32 6l-254 111q-23 10 -13 33z" />
<glyph unicode="&#xc9;" horiz-adv-x="1148" d="M174 27v1333q0 10 6 18t19 8h751q10 0 18.5 -6t8.5 -18v-234q0 -10 -7 -17t-20 -7h-493v-266l78 24q20 6 44.5 9t47.5 3h250q10 0 18 -6t8 -18v-234q0 -10 -7 -17t-19 -7h-267l-153 -45v-264h532q12 0 19.5 -7.5t7.5 -17.5v-233q0 -12 -8.5 -18.5t-18.5 -6.5h-790 q-12 0 -18.5 8.5t-6.5 18.5zM371 1651.5q2 9.5 12 13.5l399 178q23 8 35 -14l82 -184q10 -23 -12 -33l-254 -111q-12 -6 -33 -6h-147q-20 0 -27 16l-53 121q-4 10 -2 19.5z" />
<glyph unicode="&#xca;" horiz-adv-x="1148" d="M174 27v1333q0 10 6 18t19 8h751q10 0 18.5 -6t8.5 -18v-234q0 -10 -7 -17t-20 -7h-493v-266l78 24q20 6 44.5 9t47.5 3h250q10 0 18 -6t8 -18v-234q0 -10 -7 -17t-19 -7h-267l-153 -45v-264h532q12 0 19.5 -7.5t7.5 -17.5v-233q0 -12 -8.5 -18.5t-18.5 -6.5h-790 q-12 0 -18.5 8.5t-6.5 18.5zM246 1503q-4 8 6 19l319 303q18 18 37 0l320 -303q10 -10 6 -18.5t-14 -8.5h-224q-12 0 -22 10l-84 82l-84 -82q-10 -10 -23 -10h-223q-10 0 -14 8z" />
<glyph unicode="&#xcb;" horiz-adv-x="1148" d="M174 27v1333q0 10 6 18t19 8h751q10 0 18.5 -6t8.5 -18v-234q0 -10 -7 -17t-20 -7h-493v-266l78 24q20 6 44.5 9t47.5 3h250q10 0 18 -6t8 -18v-234q0 -10 -7 -17t-19 -7h-267l-153 -45v-264h532q12 0 19.5 -7.5t7.5 -17.5v-233q0 -12 -8.5 -18.5t-18.5 -6.5h-790 q-12 0 -18.5 8.5t-6.5 18.5zM231 1544v221q0 12 7.5 19.5t17.5 7.5h225q12 0 18.5 -8t6.5 -19v-221q0 -12 -7 -19t-18 -7h-225q-12 0 -18.5 8t-6.5 18zM682 1544v221q0 12 7 19.5t18 7.5h225q12 0 18 -8t6 -19v-221q0 -12 -7 -19t-17 -7h-225q-12 0 -18.5 8t-6.5 18z" />
<glyph unicode="&#xcc;" horiz-adv-x="630" d="M-8 1645l82 184q12 23 35 14l399 -178q10 -4 12 -13.5t-2 -19.5l-53 -121q-6 -16 -27 -16h-147q-20 0 -33 6l-254 111q-22 10 -12 33zM174 27v1333q0 12 7 19t18 7h233q12 0 18.5 -8t6.5 -18v-1333q0 -12 -7.5 -19.5t-17.5 -7.5h-233q-12 0 -18.5 8.5t-6.5 18.5z" />
<glyph unicode="&#xcd;" horiz-adv-x="630" d="M113 1651.5q2 9.5 12 13.5l399 178q23 8 35 -14l82 -184q10 -23 -12 -33l-254 -111q-12 -6 -33 -6h-147q-20 0 -27 16l-53 121q-4 10 -2 19.5zM174 27v1333q0 12 7 19t18 7h233q12 0 18.5 -8t6.5 -18v-1333q0 -12 -7.5 -19.5t-17.5 -7.5h-233q-12 0 -18.5 8.5t-6.5 18.5z " />
<glyph unicode="&#xce;" horiz-adv-x="630" d="M-29 1503q-4 8 6 19l320 303q18 18 37 0l319 -303q10 -10 6 -18.5t-14 -8.5h-223q-12 0 -23 10l-84 82l-84 -82q-10 -10 -22 -10h-223q-11 0 -15 8zM174 27v1333q0 12 7 19t18 7h233q12 0 18.5 -8t6.5 -18v-1333q0 -12 -7.5 -19.5t-17.5 -7.5h-233q-12 0 -18.5 8.5 t-6.5 18.5z" />
<glyph unicode="&#xcf;" horiz-adv-x="630" d="M-47 1544v221q0 12 7 19.5t17 7.5h226q12 0 18 -8t6 -19v-221q0 -12 -7 -19t-17 -7h-226q-12 0 -18 8t-6 18zM174 27v1333q0 12 7 19t18 7h233q12 0 18.5 -8t6.5 -18v-1333q0 -12 -7.5 -19.5t-17.5 -7.5h-233q-12 0 -18.5 8.5t-6.5 18.5zM403 1544v221q0 12 7.5 19.5 t17.5 7.5h225q12 0 18.5 -8t6.5 -19v-221q0 -12 -7 -19t-18 -7h-225q-12 0 -18.5 8t-6.5 18z" />
<glyph unicode="&#xd0;" horiz-adv-x="1361" d="M20 616v234q0 25 27 24h168v398q0 14 16 24l164 82q16 8 27 8h391q84 0 162 -37.5t136 -104t93 -153.5t35 -186v-424q0 -98 -35 -185t-93 -153.5t-136 -104.5t-162 -38h-573q-12 0 -18.5 8t-6.5 19v565h-170q-25 -1 -25 24zM498 283h295q33 0 62.5 19.5t52 50t35.5 69.5 t13 80v383q0 39 -13 79t-35.5 70.5t-52.5 50t-62 19.5h-295v-230h65q6 0 17.5 -2t21.5 -6l176 -59q16 -6 17 -25v-164q0 -27 -25 -26h-272v-309z" />
<glyph unicode="&#xd1;" horiz-adv-x="1378" d="M174 27v1245q0 18 10 24l195 123q25 14 37 -8l506 -803v752q0 12 7 19t17 7h234q12 0 18 -8t6 -18v-1335q0 -25 -26 -25h-168q-41 0 -66 37l-487 770v-780q0 -12 -7.5 -19.5t-17.5 -7.5h-233q-12 0 -18.5 8.5t-6.5 18.5zM362 1520v192q0 20 25 37q39 23 82 37t84 14 l270 -61q41 0 83 14t83 37q10 4 17.5 0t7.5 -14v-193q0 -23 -25 -37q-39 -23 -82 -37t-84 -14l-270 61q-41 0 -83 -14t-83 -37q-10 -4 -17.5 0.5t-7.5 14.5z" />
<glyph unicode="&#xd2;" horiz-adv-x="1329" d="M133 481v424q0 98 35 185.5t94.5 154t136 104t160.5 37.5h270q33 0 58 -24l287 -285q23 -23 22 -55v-541q0 -98 -35 -185t-94 -153.5t-136 -104.5t-161 -38h-211q-84 0 -160.5 38t-136 104.5t-94.5 153.5t-35 185zM340 1645l82 184q12 23 35 14l399 -178q10 -4 12 -13.5 t-2 -19.5l-53 -121q-6 -16 -27 -16h-147q-20 0 -33 6l-254 111q-22 10 -12 33zM416 502q0 -41 13 -80t34.5 -69.5t51.5 -50t63 -19.5h174q33 0 62.5 19.5t51 50t34.5 69.5t13 80v440l-161 162h-174q-33 0 -63 -19.5t-51.5 -50t-34.5 -70.5t-13 -79v-383z" />
<glyph unicode="&#xd3;" horiz-adv-x="1329" d="M133 481v424q0 98 35 185.5t94.5 154t136 104t160.5 37.5h270q33 0 58 -24l287 -285q23 -23 22 -55v-541q0 -98 -35 -185t-94 -153.5t-136 -104.5t-161 -38h-211q-84 0 -160.5 38t-136 104.5t-94.5 153.5t-35 185zM416 502q0 -41 13 -80t34.5 -69.5t51.5 -50t63 -19.5 h174q33 0 62.5 19.5t51 50t34.5 69.5t13 80v440l-161 162h-174q-33 0 -63 -19.5t-51.5 -50t-34.5 -70.5t-13 -79v-383zM461 1651.5q2 9.5 12 13.5l399 178q23 8 35 -14l82 -184q10 -23 -12 -33l-254 -111q-12 -6 -33 -6h-147q-20 0 -27 16l-53 121q-4 10 -2 19.5z" />
<glyph unicode="&#xd4;" horiz-adv-x="1329" d="M133 481v424q0 98 35 185.5t94.5 154t136 104t160.5 37.5h270q33 0 58 -24l287 -285q23 -23 22 -55v-541q0 -98 -35 -185t-94 -153.5t-136 -104.5t-161 -38h-211q-84 0 -160.5 38t-136 104.5t-94.5 153.5t-35 185zM319.5 1503q-4.5 8 6.5 19l319 303q18 18 37 0l319 -303 q10 -10 6.5 -18.5t-14.5 -8.5h-223q-12 0 -22 10l-84 82l-84 -82q-10 -10 -23 -10h-223q-10 0 -14.5 8zM416 502q0 -41 13 -80t34.5 -69.5t51.5 -50t63 -19.5h174q33 0 62.5 19.5t51 50t34.5 69.5t13 80v440l-161 162h-174q-33 0 -63 -19.5t-51.5 -50t-34.5 -70.5t-13 -79 v-383z" />
<glyph unicode="&#xd5;" horiz-adv-x="1329" d="M133 481v424q0 98 35 185.5t94.5 154t136 104t160.5 37.5h270q33 0 58 -24l287 -285q23 -23 22 -55v-541q0 -98 -35 -185t-94 -153.5t-136 -104.5t-161 -38h-211q-84 0 -160.5 38t-136 104.5t-94.5 153.5t-35 185zM338 1520v192q0 20 24 37q39 23 82 37t84 14l271 -61 q41 0 83 14t83 37q10 4 17 0t7 -14v-193q0 -23 -24 -37q-39 -23 -82 -37t-84 -14l-271 61q-41 0 -83 -14t-83 -37q-10 -4 -17 0.5t-7 14.5zM416 502q0 -41 13 -80t34.5 -69.5t51.5 -50t63 -19.5h174q33 0 62.5 19.5t51 50t34.5 69.5t13 80v440l-161 162h-174 q-33 0 -63 -19.5t-51.5 -50t-34.5 -70.5t-13 -79v-383z" />
<glyph unicode="&#xd6;" horiz-adv-x="1329" d="M133 481v424q0 98 35 185.5t94.5 154t136 104t160.5 37.5h270q33 0 58 -24l287 -285q23 -23 22 -55v-541q0 -98 -35 -185t-94 -153.5t-136 -104.5t-161 -38h-211q-84 0 -160.5 38t-136 104.5t-94.5 153.5t-35 185zM301 1544v221q0 12 7 19.5t18 7.5h225q12 0 18 -8t6 -19 v-221q0 -12 -7 -19t-17 -7h-225q-12 0 -18.5 8t-6.5 18zM416 502q0 -41 13 -80t34.5 -69.5t51.5 -50t63 -19.5h174q33 0 62.5 19.5t51 50t34.5 69.5t13 80v440l-161 162h-174q-33 0 -63 -19.5t-51.5 -50t-34.5 -70.5t-13 -79v-383zM752 1544v221q0 12 7 19.5t17 7.5h225 q12 0 18.5 -8t6.5 -19v-221q0 -12 -7 -19t-18 -7h-225q-12 0 -18 8t-6 18z" />
<glyph unicode="&#xd7;" horiz-adv-x="1347" d="M219 422l256 256l-254 256q-16 16 -2 35l164 164q16 14 35 0l256 -259l256 256q16 16 35 3l163 -164q14 -18 0 -35l-256 -256l256 -256q16 -18 -2 -37l-159 -160q-18 -18 -37 -2l-256 256l-256 -256q-18 -16 -37 2l-160 160q-18 19 -2 37z" />
<glyph unicode="&#xd8;" horiz-adv-x="1329" d="M133 481v424q0 98 35 185.5t94.5 154t136 104t160.5 37.5h240l35 97q10 27 26 26h197q25 0 14 -26l-82 -223l185 -183q23 -23 22 -55v-541q0 -98 -35 -185t-94 -153.5t-136 -104.5t-161 -38h-238l-34 -98q-10 -25 -33 -25h-186q-29 0 -19 25l66 180q-86 66 -139.5 171 t-53.5 228zM416 502q0 -55 22 -107l258 709h-118q-33 0 -63 -19.5t-51.5 -50t-34.5 -70.5t-13 -79v-383zM635 283h117q33 0 62.5 19.5t51 50t34.5 69.5t13 80v440l-28 27z" />
<glyph unicode="&#xd9;" horiz-adv-x="1318" d="M154 481v879q0 12 7 19t17 7h234q12 0 18 -8t6 -18v-858q0 -41 13.5 -80t35 -69.5t51 -50t62.5 -19.5h123q33 0 62.5 19.5t51 50t35 69.5t13.5 80v858q0 12 7 19t17 7h234q12 0 18 -8t6 -18v-879q0 -98 -34.5 -185t-94 -153.5t-136.5 -104.5t-161 -38h-159q-84 0 -162 38 t-136.5 104.5t-93 153.5t-34.5 185zM334 1645l82 184q12 23 35 14l399 -178q10 -4 12 -13.5t-2 -19.5l-53 -121q-6 -16 -27 -16h-147q-20 0 -33 6l-254 111q-22 10 -12 33z" />
<glyph unicode="&#xda;" horiz-adv-x="1318" d="M154 481v879q0 12 7 19t17 7h234q12 0 18 -8t6 -18v-858q0 -41 13.5 -80t35 -69.5t51 -50t62.5 -19.5h123q33 0 62.5 19.5t51 50t35 69.5t13.5 80v858q0 12 7 19t17 7h234q12 0 18 -8t6 -18v-879q0 -98 -34.5 -185t-94 -153.5t-136.5 -104.5t-161 -38h-159q-84 0 -162 38 t-136.5 104.5t-93 153.5t-34.5 185zM455 1651.5q2 9.5 12 13.5l399 178q23 8 35 -14l82 -184q10 -23 -12 -33l-254 -111q-12 -6 -33 -6h-147q-20 0 -27 16l-53 121q-4 10 -2 19.5z" />
<glyph unicode="&#xdb;" horiz-adv-x="1318" d="M154 481v879q0 12 7 19t17 7h234q12 0 18 -8t6 -18v-858q0 -41 13.5 -80t35 -69.5t51 -50t62.5 -19.5h123q33 0 62.5 19.5t51 50t35 69.5t13.5 80v858q0 12 7 19t17 7h234q12 0 18 -8t6 -18v-879q0 -98 -34.5 -185t-94 -153.5t-136.5 -104.5t-161 -38h-159q-84 0 -162 38 t-136.5 104.5t-93 153.5t-34.5 185zM315 1503q-4 8 7 19l319 303q18 18 37 0l319 -303q10 -10 6 -18.5t-14 -8.5h-223q-12 0 -23 10l-84 82l-84 -82q-10 -10 -22 -10h-223q-11 0 -15 8z" />
<glyph unicode="&#xdc;" horiz-adv-x="1318" d="M154 481v879q0 12 7 19t17 7h234q12 0 18 -8t6 -18v-858q0 -41 13.5 -80t35 -69.5t51 -50t62.5 -19.5h123q33 0 62.5 19.5t51 50t35 69.5t13.5 80v858q0 12 7 19t17 7h234q12 0 18 -8t6 -18v-879q0 -98 -34.5 -185t-94 -153.5t-136.5 -104.5t-161 -38h-159q-84 0 -162 38 t-136.5 104.5t-93 153.5t-34.5 185zM297 1544v221q0 12 7 19.5t18 7.5h225q12 0 18 -8t6 -19v-221q0 -12 -7 -19t-17 -7h-225q-12 0 -18.5 8t-6.5 18zM748 1544v221q0 12 7 19.5t17 7.5h225q12 0 18.5 -8t6.5 -19v-221q0 -12 -7 -19t-18 -7h-225q-12 0 -18 8t-6 18z" />
<glyph unicode="&#xdd;" horiz-adv-x="1028" d="M-6 1288q-12 23 12 37l209 98q23 10 35 -14l266 -543l262 539q12 27 37 14l207 -96q23 -12 10 -37l-377 -739v-520q0 -27 -26 -27h-230q-27 0 -26 27v520zM336 1651.5q2 9.5 12 13.5l400 178q23 8 34 -14l82 -184q10 -23 -12 -33l-254 -111q-12 -6 -33 -6h-147 q-20 0 -27 16l-53 121q-4 10 -2 19.5z" />
<glyph unicode="&#xde;" horiz-adv-x="1189" d="M174 27v1333q0 12 7 19t18 7h233q12 0 18.5 -8t6.5 -18v-232l65 21q20 6 45 9t47 3h93q90 0 165.5 -33.5t130 -94t85 -142.5t30.5 -178t-30.5 -178t-85 -142.5t-130 -94.5t-165.5 -34h-250v-237q0 -12 -7.5 -19.5t-17.5 -7.5h-233q-12 0 -18.5 8.5t-6.5 18.5zM457 547 h229q68 0 102.5 47t34.5 119t-34.5 119t-102.5 47h-88l-141 -41v-291z" />
<glyph unicode="&#xdf;" horiz-adv-x="1249" d="M133 23v1015q0 88 32 156t88 114t132 70.5t164 24.5q96 0 173 -30t130 -82t82 -125.5t29 -161.5v-144q0 -20 -17 -22q-53 -6 -92 -38t-49 -73l211 -117q92 -51 132 -125.5t40 -173.5q0 -150 -98.5 -238.5t-262.5 -88.5q-170 0 -327 147q-8 6 -2 21l139 163q8 12 22 2 q41 -39 88.5 -60t88.5 -21t60 17t19 40q0 43 -43 69l-342 191v119q0 117 50.5 201.5t121.5 132.5q-4 55 -44 91t-109 36q-59 0 -95 -23t-46 -59v-1028q0 -23 -23 -23h-229q-23 0 -23 23z" />
<glyph unicode="&#xe0;" horiz-adv-x="952" d="M72 293q0 92 44 153.5t122 88.5l317 106q-10 47 -39 72.5t-82 25.5l-233 -69q-27 -8 -33 18l-59 199q-6 25 16 33l266 77h60q80 0 149.5 -24.5t119.5 -72.5t79.5 -117.5t29.5 -157.5v-396l52 -131q8 -23 -17 -32l-200 -80q-12 -4 -19.5 -2t-13.5 18l-21 49l-166 -67h-49 q-70 0 -129 23.5t-102 64.5t-67.5 97t-24.5 124zM152 1239l81 184q12 23 35 15l400 -178q10 -4 12 -13.5t-2 -19.5l-53 -121q-6 -16 -27 -16h-147q-20 0 -33 6l-254 110q-22 10 -12 33zM348 340q-10 -53 13.5 -90t76.5 -37l117 47v150z" />
<glyph unicode="&#xe1;" horiz-adv-x="952" d="M72 293q0 92 44 153.5t122 88.5l317 106q-10 47 -39 72.5t-82 25.5l-233 -69q-27 -8 -33 18l-59 199q-6 25 16 33l266 77h60q80 0 149.5 -24.5t119.5 -72.5t79.5 -117.5t29.5 -157.5v-396l52 -131q8 -23 -17 -32l-200 -80q-12 -4 -19.5 -2t-13.5 18l-21 49l-166 -67h-49 q-70 0 -129 23.5t-102 64.5t-67.5 97t-24.5 124zM252 1246q2 9 12 14l400 178q23 8 34 -15l82 -184q10 -23 -12 -33l-254 -110q-12 -6 -33 -6h-147q-20 0 -27 16l-53 121q-4 10 -2 19zM348 340q-10 -53 13.5 -90t76.5 -37l117 47v150z" />
<glyph unicode="&#xe2;" horiz-adv-x="952" d="M72 293q0 92 44 153.5t122 88.5l317 106q-10 47 -39 72.5t-82 25.5l-233 -69q-27 -8 -33 18l-59 199q-6 25 16 33l266 77h60q80 0 149.5 -24.5t119.5 -72.5t79.5 -117.5t29.5 -157.5v-396l52 -131q8 -23 -17 -32l-200 -80q-12 -4 -19.5 -2t-13.5 18l-21 49l-166 -67h-49 q-70 0 -129 23.5t-102 64.5t-67.5 97t-24.5 124zM131 1098q-4 8 6 18l320 303q18 18 37 0l319 -303q10 -10 6 -18t-14 -8h-223q-12 0 -23 10l-84 82l-84 -82q-10 -10 -22 -10h-224q-10 0 -14 8zM348 340q-10 -53 13.5 -90t76.5 -37l117 47v150z" />
<glyph unicode="&#xe3;" horiz-adv-x="952" d="M72 293q0 92 44 153.5t122 88.5l317 106q-10 47 -39 72.5t-82 25.5l-233 -69q-27 -8 -33 18l-59 199q-6 25 16 33l266 77h60q80 0 149.5 -24.5t119.5 -72.5t79.5 -117.5t29.5 -157.5v-396l52 -131q8 -23 -17 -32l-200 -80q-12 -4 -19.5 -2t-13.5 18l-21 49l-166 -67h-49 q-70 0 -129 23.5t-102 64.5t-67.5 97t-24.5 124zM152 1114v193q0 20 24 36q39 23 82 37.5t84 14.5l270 -62q41 0 83 14.5t83 36.5q10 4 17.5 0t7.5 -14v-192q0 -23 -25 -37q-39 -23 -82 -37t-84 -14l-270 61q-41 0 -83 -14.5t-83 -36.5q-10 -4 -17 0t-7 14zM348 340 q-10 -53 13.5 -90t76.5 -37l117 47v150z" />
<glyph unicode="&#xe4;" horiz-adv-x="952" d="M72 293q0 92 44 153.5t122 88.5l317 106q-10 47 -39 72.5t-82 25.5l-233 -69q-27 -8 -33 18l-59 199q-6 25 16 33l266 77h60q80 0 149.5 -24.5t119.5 -72.5t79.5 -117.5t29.5 -157.5v-396l52 -131q8 -23 -17 -32l-200 -80q-12 -4 -19.5 -2t-13.5 18l-21 49l-166 -67h-49 q-70 0 -129 23.5t-102 64.5t-67.5 97t-24.5 124zM115 1139v221q0 12 7 19t17 7h226q12 0 18 -8t6 -18v-221q0 -12 -7 -19.5t-17 -7.5h-226q-12 0 -18 8.5t-6 18.5zM348 340q-10 -53 13.5 -90t76.5 -37l117 47v150zM565 1139v221q0 12 7.5 19t17.5 7h225q12 0 18.5 -8 t6.5 -18v-221q0 -12 -7.5 -19.5t-17.5 -7.5h-225q-12 0 -18.5 8.5t-6.5 18.5z" />
<glyph unicode="&#xe5;" horiz-adv-x="952" d="M72 293q0 92 44 153.5t122 88.5l317 106q-10 47 -39 72.5t-82 25.5l-233 -69q-27 -8 -33 18l-59 199q-6 25 16 33l266 77h60q80 0 149.5 -24.5t119.5 -72.5t79.5 -117.5t29.5 -157.5v-396l52 -131q8 -23 -17 -32l-200 -80q-12 -4 -19.5 -2t-13.5 18l-21 49l-166 -67h-49 q-70 0 -129 23.5t-102 64.5t-67.5 97t-24.5 124zM256 1268q0 45 17.5 86t46 69.5t68.5 46t87 17.5q45 0 86 -17.5t69.5 -46t46 -69.5t17.5 -86q0 -47 -17.5 -87t-46 -69t-69.5 -46t-86 -17q-47 0 -87 17t-68.5 46t-46 69t-17.5 87zM348 340q-10 -53 13.5 -90t76.5 -37 l117 47v150zM403 1268q0 -29 21.5 -50.5t50.5 -21.5t50.5 21.5t21.5 50.5t-21.5 50t-50.5 21t-50.5 -21t-21.5 -50z" />
<glyph unicode="&#xe6;" horiz-adv-x="1421" d="M72 293q0 92 44 153.5t122 88.5l317 106q-10 47 -39 72.5t-82 25.5l-233 -69q-27 -8 -33 18l-59 199q-6 25 16 33l266 77h60q156 0 249 -90q51 43 118 66.5t145 23.5q84 0 155.5 -26.5t122.5 -76.5t80 -121t29 -157v-43l-52 -172q-6 -18 -24 -18h-445v-27q0 -55 31 -83.5 t74 -28.5l299 55q23 4 29 -20l43 -203q4 -27 -19 -33l-315 -59h-19q-168 0 -274 94l-234 -94h-49q-70 0 -129 23.5t-102 64.5t-67.5 97t-24.5 124zM348 340q-10 -53 13.5 -90t76.5 -37l127 51q-10 51 -10 98v48zM829 596h267v25q0 49 -37 83.5t-96 34.5t-96.5 -34.5 t-37.5 -83.5v-25z" />
<glyph unicode="&#xe7;" horiz-adv-x="886" d="M92 362v256q0 86 31 157t84 120t126 75.5t156 26.5q66 0 151 -19.5t169 -51.5q18 -6 12 -25l-67 -217q-6 -20 -27 -14q-160 59 -238 59q-59 0 -90.5 -35t-31.5 -84v-239q0 -59 31.5 -89t72.5 -30l277 78q23 6 30 -19l66 -207q8 -27 -17 -32l-319 -88h-19 q-84 0 -156.5 26.5t-125.5 75.5t-84 119.5t-31 156.5zM287 -248q0 18 6 31l43 92q8 20 33 21h206q12 0 16.5 -9.5t0.5 -19.5l-113 -254q-8 -18 -24 -19h-152q-16 0 -16 19v139z" />
<glyph unicode="&#xe8;" horiz-adv-x="958" d="M92 362v254q0 86 32 157t87 121t130 76.5t159 26.5t155.5 -26.5t122.5 -76.5t80 -121t29 -157v-43l-51 -172q-6 -18 -25 -18h-444v-27q0 -55 30.5 -83.5t73.5 -28.5l299 55q23 4 29 -20l43 -203q4 -27 -19 -33l-315 -59h-19q-84 0 -156.5 26.5t-125.5 75.5t-84 119.5 t-31 156.5zM170 1239l82 184q12 23 35 15l399 -178q10 -4 12 -13.5t-2 -19.5l-53 -121q-6 -16 -27 -16h-147q-20 0 -33 6l-254 110q-22 10 -12 33zM367 596h266v25q0 49 -37 83.5t-96 34.5t-96 -34.5t-37 -83.5v-25z" />
<glyph unicode="&#xe9;" horiz-adv-x="958" d="M92 362v254q0 86 32 157t87 121t130 76.5t159 26.5t155.5 -26.5t122.5 -76.5t80 -121t29 -157v-43l-51 -172q-6 -18 -25 -18h-444v-27q0 -55 30.5 -83.5t73.5 -28.5l299 55q23 4 29 -20l43 -203q4 -27 -19 -33l-315 -59h-19q-84 0 -156.5 26.5t-125.5 75.5t-84 119.5 t-31 156.5zM270 1246q2 9 13 14l399 178q23 8 35 -15l82 -184q10 -23 -13 -33l-254 -110q-12 -6 -32 -6h-148q-20 0 -26 16l-54 121q-4 10 -2 19zM367 596h266v25q0 49 -37 83.5t-96 34.5t-96 -34.5t-37 -83.5v-25z" />
<glyph unicode="&#xea;" horiz-adv-x="958" d="M92 362v254q0 86 32 157t87 121t130 76.5t159 26.5t155.5 -26.5t122.5 -76.5t80 -121t29 -157v-43l-51 -172q-6 -18 -25 -18h-444v-27q0 -55 30.5 -83.5t73.5 -28.5l299 55q23 4 29 -20l43 -203q4 -27 -19 -33l-315 -59h-19q-84 0 -156.5 26.5t-125.5 75.5t-84 119.5 t-31 156.5zM151.5 1098q-4.5 8 6.5 18l319 303q18 18 37 0l320 -303q10 -10 6 -18t-15 -8h-223q-12 0 -22 10l-84 82l-84 -82q-10 -10 -23 -10h-223q-10 0 -14.5 8zM367 596h266v25q0 49 -37 83.5t-96 34.5t-96 -34.5t-37 -83.5v-25z" />
<glyph unicode="&#xeb;" horiz-adv-x="958" d="M92 362v254q0 86 32 157t87 121t130 76.5t159 26.5t155.5 -26.5t122.5 -76.5t80 -121t29 -157v-43l-51 -172q-6 -18 -25 -18h-444v-27q0 -55 30.5 -83.5t73.5 -28.5l299 55q23 4 29 -20l43 -203q4 -27 -19 -33l-315 -59h-19q-84 0 -156.5 26.5t-125.5 75.5t-84 119.5 t-31 156.5zM133 1139v221q0 12 7 19t18 7h225q12 0 18.5 -8t6.5 -18v-221q0 -12 -7.5 -19.5t-17.5 -7.5h-225q-12 0 -18.5 8.5t-6.5 18.5zM367 596h266v25q0 49 -37 83.5t-96 34.5t-96 -34.5t-37 -83.5v-25zM584 1139v221q0 12 7 19t17 7h226q12 0 18 -8t6 -18v-221 q0 -12 -7 -19.5t-17 -7.5h-226q-12 0 -18 8.5t-6 18.5z" />
<glyph unicode="&#xec;" d="M-53 1239l82 184q12 23 34 15l400 -178q10 -4 12 -13.5t-2 -19.5l-53 -121q-6 -16 -27 -16h-147q-20 0 -33 6l-254 110q-22 10 -12 33zM133 27v927q0 12 7 19.5t18 7.5h225q12 0 18.5 -8t6.5 -19v-927q0 -12 -7.5 -19.5t-17.5 -7.5h-225q-12 0 -18.5 8.5t-6.5 18.5z" />
<glyph unicode="&#xed;" d="M68 1246q2 9 12 14l399 178q23 8 35 -15l82 -184q10 -23 -12 -33l-254 -110q-12 -6 -33 -6h-147q-20 0 -27 16l-53 121q-4 10 -2 19zM133 27v927q0 12 7 19.5t18 7.5h225q12 0 18.5 -8t6.5 -19v-927q0 -12 -7.5 -19.5t-17.5 -7.5h-225q-12 0 -18.5 8.5t-6.5 18.5z" />
<glyph unicode="&#xee;" d="M-74 1098q-4 8 6 18l320 303q18 18 37 0l319 -303q10 -10 6 -18t-14 -8h-223q-12 0 -23 10l-84 82l-84 -82q-10 -10 -22 -10h-223q-11 0 -15 8zM133 27v927q0 12 7 19.5t18 7.5h225q12 0 18.5 -8t6.5 -19v-927q0 -12 -7.5 -19.5t-17.5 -7.5h-225q-12 0 -18.5 8.5 t-6.5 18.5z" />
<glyph unicode="&#xef;" d="M-92 1139v221q0 12 7 19t17 7h226q12 0 18 -8t6 -18v-221q0 -12 -7 -19.5t-17 -7.5h-226q-12 0 -18 8.5t-6 18.5zM133 27v927q0 12 7 19.5t18 7.5h225q12 0 18.5 -8t6.5 -19v-927q0 -12 -7.5 -19.5t-17.5 -7.5h-225q-12 0 -18.5 8.5t-6.5 18.5zM358 1139v221q0 12 7.5 19 t17.5 7h225q12 0 18.5 -8t6.5 -18v-221q0 -12 -7.5 -19.5t-17.5 -7.5h-225q-12 0 -18.5 8.5t-6.5 18.5z" />
<glyph unicode="&#xf0;" horiz-adv-x="999" d="M92 365v251q0 145 85 235.5t214 117.5l-63 61h-176q-16 0 -23 19l-18 55q-8 25 14 33l61 24l-51 49q-23 18 2 39l154 150q18 18 37 0l123 -127l176 74q23 8 30 -17l62 -155q6 -23 -19 -33l-88 -33l142 -145q84 -86 118.5 -171t34.5 -176v-251q0 -86 -31.5 -157t-87 -121 t-130 -76.5t-158.5 -26.5t-159 26.5t-130 76.5t-87 121t-32 157zM367 369q0 -49 36.5 -84t96.5 -35q59 0 96 34.5t37 84.5v243q0 49 -37 84t-96 35t-96 -34.5t-37 -84.5v-243z" />
<glyph unicode="&#xf1;" horiz-adv-x="1079" d="M82 891q-8 23 16 33l203 80q12 4 19.5 2t13.5 -19l22 -57l207 67h41q82 0 147.5 -27.5t110.5 -76.5t69.5 -115.5t24.5 -144.5v-610q0 -23 -20 -23h-229q-25 0 -25 23v581q0 53 -33 84t-74 35l-167 -51v-649q0 -23 -21 -23h-229q-25 0 -25 23v737zM219 1114v193 q0 20 25 36q39 23 82 37.5t84 14.5l270 -62q41 0 83 14.5t83 36.5q10 4 17 0t7 -14v-192q0 -23 -24 -37q-39 -23 -82 -37t-84 -14l-270 61q-41 0 -83 -14.5t-83 -36.5q-10 -4 -17.5 0t-7.5 14z" />
<glyph unicode="&#xf2;" horiz-adv-x="999" d="M92 365v251q0 86 32 157t87 121t130 76.5t159 26.5t158.5 -26.5t130 -76.5t87 -121t31.5 -157v-251q0 -86 -31.5 -157t-87 -121t-130 -76.5t-158.5 -26.5t-159 26.5t-130 76.5t-87 121t-32 157zM174 1239l82 184q12 23 35 15l399 -178q10 -4 12.5 -13.5t-2.5 -19.5 l-53 -121q-6 -16 -26 -16h-148q-20 0 -33 6l-254 110q-22 10 -12 33zM367 369q0 -49 36.5 -84t96.5 -35q59 0 96 34.5t37 84.5v243q0 49 -37 84t-96 35t-96 -34.5t-37 -84.5v-243z" />
<glyph unicode="&#xf3;" horiz-adv-x="999" d="M92 365v251q0 86 32 157t87 121t130 76.5t159 26.5t158.5 -26.5t130 -76.5t87 -121t31.5 -157v-251q0 -86 -31.5 -157t-87 -121t-130 -76.5t-158.5 -26.5t-159 26.5t-130 76.5t-87 121t-32 157zM295 1246q2 9 12 14l400 178q23 8 34 -15l82 -184q10 -23 -12 -33 l-254 -110q-12 -6 -33 -6h-147q-20 0 -27 16l-53 121q-4 10 -2 19zM367 369q0 -49 36.5 -84t96.5 -35q59 0 96 34.5t37 84.5v243q0 49 -37 84t-96 35t-96 -34.5t-37 -84.5v-243z" />
<glyph unicode="&#xf4;" horiz-adv-x="999" d="M92 365v251q0 86 32 157t87 121t130 76.5t159 26.5t158.5 -26.5t130 -76.5t87 -121t31.5 -157v-251q0 -86 -31.5 -157t-87 -121t-130 -76.5t-158.5 -26.5t-159 26.5t-130 76.5t-87 121t-32 157zM156 1098q-4 8 6 18l319 303q18 18 37 0l320 -303q10 -10 6 -18t-15 -8 h-223q-12 0 -22 10l-84 82l-84 -82q-10 -10 -23 -10h-223q-10 0 -14 8zM367 369q0 -49 36.5 -84t96.5 -35q59 0 96 34.5t37 84.5v243q0 49 -37 84t-96 35t-96 -34.5t-37 -84.5v-243z" />
<glyph unicode="&#xf5;" horiz-adv-x="999" d="M92 365v251q0 86 32 157t87 121t130 76.5t159 26.5t158.5 -26.5t130 -76.5t87 -121t31.5 -157v-251q0 -86 -31.5 -157t-87 -121t-130 -76.5t-158.5 -26.5t-159 26.5t-130 76.5t-87 121t-32 157zM174 1114v193q0 20 25 36q39 23 82 37.5t84 14.5l270 -62q41 0 83 14.5 t83 36.5q10 4 17 0t7 -14v-192q0 -23 -24 -37q-39 -23 -82 -37t-84 -14l-270 61q-41 0 -83 -14.5t-83 -36.5q-10 -4 -17.5 0t-7.5 14zM367 369q0 -49 36.5 -84t96.5 -35q59 0 96 34.5t37 84.5v243q0 49 -37 84t-96 35t-96 -34.5t-37 -84.5v-243z" />
<glyph unicode="&#xf6;" horiz-adv-x="999" d="M92 365v251q0 86 32 157t87 121t130 76.5t159 26.5t158.5 -26.5t130 -76.5t87 -121t31.5 -157v-251q0 -86 -31.5 -157t-87 -121t-130 -76.5t-158.5 -26.5t-159 26.5t-130 76.5t-87 121t-32 157zM137 1139v221q0 12 7.5 19t17.5 7h225q12 0 18.5 -8t6.5 -18v-221 q0 -12 -7.5 -19.5t-17.5 -7.5h-225q-12 0 -18.5 8.5t-6.5 18.5zM367 369q0 -49 36.5 -84t96.5 -35q59 0 96 34.5t37 84.5v243q0 49 -37 84t-96 35t-96 -34.5t-37 -84.5v-243zM588 1139v221q0 12 7 19t17 7h226q12 0 18 -8t6 -18v-221q0 -12 -7 -19.5t-17 -7.5h-226 q-12 0 -18 8.5t-6 18.5z" />
<glyph unicode="&#xf7;" horiz-adv-x="1347" d="M205 567v221q0 27 24 27h887q27 0 27 -24v-226q0 -25 -25 -24h-889q-24 -1 -24 26zM537 150v221q0 12 7 19t17 7h225q12 0 18.5 -8t6.5 -18v-221q0 -12 -7 -19.5t-18 -7.5h-225q-12 0 -18 8.5t-6 18.5zM537 985v221q0 12 7 19.5t17 7.5h225q12 0 18.5 -8t6.5 -19v-221 q0 -12 -7 -19.5t-18 -7.5h-225q-12 0 -18 8.5t-6 18.5z" />
<glyph unicode="&#xf8;" horiz-adv-x="999" d="M92 365v251q0 86 32 157t87 121t130 76.5t159 26.5q55 0 108 -12l41 92q12 27 27 27h176q25 0 14 -27l-80 -182q55 -49 88 -119.5t33 -159.5v-251q0 -86 -31.5 -157t-87 -121t-130 -76.5t-158.5 -26.5q-59 0 -111 12l-41 -94q-10 -25 -33 -25h-165q-29 0 -19 25l82 184 q-55 51 -88 121t-33 158zM346 389l150 342q-74 -2 -112 -41t-38 -86v-215zM502 250q74 0 112.5 39t38.5 88v217z" />
<glyph unicode="&#xf9;" horiz-adv-x="1079" d="M123 348v610q0 23 20 23h230q25 0 24 -23v-581q0 -53 33 -84t74 -35l168 51v649q0 23 20 23h230q25 0 24 -23v-737l51 -131q8 -23 -16 -33l-203 -80q-12 -4 -19 -2t-14 19l-22 57l-207 -67h-41q-82 0 -147.5 27.5t-110.5 76.5t-69.5 115.5t-24.5 144.5zM215 1239l82 184 q12 23 35 15l399 -178q10 -4 12 -13.5t-2 -19.5l-53 -121q-6 -16 -26 -16h-148q-20 0 -33 6l-254 110q-22 10 -12 33z" />
<glyph unicode="&#xfa;" horiz-adv-x="1079" d="M123 348v610q0 23 20 23h230q25 0 24 -23v-581q0 -53 33 -84t74 -35l168 51v649q0 23 20 23h230q25 0 24 -23v-737l51 -131q8 -23 -16 -33l-203 -80q-12 -4 -19 -2t-14 19l-22 57l-207 -67h-41q-82 0 -147.5 27.5t-110.5 76.5t-69.5 115.5t-24.5 144.5zM336 1246 q2 9 12 14l400 178q23 8 34 -15l82 -184q10 -23 -12 -33l-254 -110q-12 -6 -33 -6h-147q-20 0 -27 16l-53 121q-4 10 -2 19z" />
<glyph unicode="&#xfb;" horiz-adv-x="1079" d="M123 348v610q0 23 20 23h230q25 0 24 -23v-581q0 -53 33 -84t74 -35l168 51v649q0 23 20 23h230q25 0 24 -23v-737l51 -131q8 -23 -16 -33l-203 -80q-12 -4 -19 -2t-14 19l-22 57l-207 -67h-41q-82 0 -147.5 27.5t-110.5 76.5t-69.5 115.5t-24.5 144.5zM194.5 1098 q-4.5 8 6.5 18l319 303q18 18 37 0l320 -303q10 -10 6 -18t-15 -8h-223q-12 0 -22 10l-84 82l-84 -82q-10 -10 -23 -10h-223q-10 0 -14.5 8z" />
<glyph unicode="&#xfc;" horiz-adv-x="1079" d="M123 348v610q0 23 20 23h230q25 0 24 -23v-581q0 -53 33 -84t74 -35l168 51v649q0 23 20 23h230q25 0 24 -23v-737l51 -131q8 -23 -16 -33l-203 -80q-12 -4 -19 -2t-14 19l-22 57l-207 -67h-41q-82 0 -147.5 27.5t-110.5 76.5t-69.5 115.5t-24.5 144.5zM178 1139v221 q0 12 7.5 19t17.5 7h225q12 0 18.5 -8t6.5 -18v-221q0 -12 -7.5 -19.5t-17.5 -7.5h-225q-12 0 -18.5 8.5t-6.5 18.5zM629 1139v221q0 12 7 19t17 7h226q12 0 18 -8t6 -18v-221q0 -12 -7 -19.5t-17 -7.5h-226q-12 0 -18 8.5t-6 18.5z" />
<glyph unicode="&#xfd;" horiz-adv-x="944" d="M4 918q-10 27 19 32l223 60q23 6 30 -21l203 -536l162 499q10 29 39 29h227q33 0 23 -33l-373 -1048q-25 -72 -55.5 -126.5t-70.5 -93t-91 -64.5t-121 -38q-27 -4 -33 19l-65 210q-6 27 16 33q61 12 105.5 44t68.5 96l31 79zM299 1246q2 9 12 14l400 178q23 8 34 -15 l82 -184q10 -23 -12 -33l-254 -110q-12 -6 -33 -6h-147q-20 0 -27 16l-53 121q-4 10 -2 19z" />
<glyph unicode="&#xfe;" horiz-adv-x="1048" d="M133 -383v1743q0 12 7 19t18 7h225q12 0 18.5 -8t6.5 -18v-408l133 45h47q82 0 150.5 -27.5t116.5 -76.5t74.5 -115.5t26.5 -144.5v-268q0 -86 -29.5 -157t-81.5 -121t-124 -76.5t-156 -26.5q-45 0 -84 8t-73 24v-399q0 -23 -21 -23h-229q-25 0 -25 23zM408 420 q0 -78 32.5 -124t104.5 -46q61 0 99 38t38 99v217q0 53 -34 86t-85 33l-155 -51v-252z" />
<glyph unicode="&#xff;" horiz-adv-x="944" d="M4 918q-10 27 19 32l223 60q23 6 30 -21l203 -536l162 499q10 29 39 29h227q33 0 23 -33l-373 -1048q-25 -72 -55.5 -126.5t-70.5 -93t-91 -64.5t-121 -38q-27 -4 -33 19l-65 210q-6 27 16 33q61 12 105.5 44t68.5 96l31 79zM111 1139v221q0 12 7 19t17 7h225 q12 0 18.5 -8t6.5 -18v-221q0 -12 -7 -19.5t-18 -7.5h-225q-12 0 -18 8.5t-6 18.5zM561 1139v221q0 12 7 19t18 7h225q12 0 18.5 -8t6.5 -18v-221q0 -12 -7.5 -19.5t-17.5 -7.5h-225q-12 0 -18.5 8.5t-6.5 18.5z" />
<glyph unicode="&#x152;" horiz-adv-x="1888" d="M133 481v424q0 98 35 185.5t94.5 154t136 104t160.5 37.5h229q33 0 58 -24l67 -68v66q0 10 6.5 18t18.5 8h752q10 0 18 -6t8 -18v-234q0 -10 -7 -17t-19 -7h-494v-266l78 24q20 6 44.5 9t47.5 3h250q10 0 18 -6t8 -18v-234q0 -10 -7 -17t-19 -7h-266l-154 -45v-264h533 q12 0 19 -7.5t7 -17.5v-233q0 -12 -8 -18.5t-18 -6.5h-791q-12 0 -18.5 8t-6.5 19v14q-70 -41 -143 -41h-211q-84 0 -160.5 38t-136 104.5t-94.5 153.5t-35 185zM416 502q0 -41 13 -80t34.5 -69.5t51.5 -50t63 -19.5h174q33 0 62.5 19.5t51 50t34.5 69.5t13 80v420l-182 182 h-153q-33 0 -63 -19.5t-51.5 -50t-34.5 -70.5t-13 -79v-383z" />
<glyph unicode="&#x153;" horiz-adv-x="1499" d="M92 365v251q0 86 32 157t87 121t130 76.5t159 26.5q82 0 150.5 -24.5t119.5 -71.5q51 47 119.5 71.5t150.5 24.5q84 0 156 -26.5t123 -76.5t79.5 -121t28.5 -157v-43l-51 -172q-6 -18 -24 -18h-445v-27q0 -55 31 -83.5t74 -28.5l299 55q23 4 28 -20l43 -203 q4 -27 -18 -33l-315 -59h-19q-162 0 -264 92q-104 -92 -266 -92q-84 0 -159 26.5t-130 76.5t-87 121t-32 157zM367 369q0 -49 36.5 -84t96.5 -35q59 0 96 34.5t37 84.5v243q0 49 -37 84t-96 35t-96 -34.5t-37 -84.5v-243zM907 596h267v25q0 49 -37 83.5t-97 34.5 q-59 0 -96 -34.5t-37 -83.5v-25z" />
<glyph unicode="&#x178;" horiz-adv-x="1028" d="M-6 1288q-12 23 12 37l209 98q23 10 35 -14l266 -543l262 539q12 27 37 14l207 -96q23 -12 10 -37l-377 -739v-520q0 -27 -26 -27h-230q-27 0 -26 27v520zM152 1544v221q0 12 7 19.5t17 7.5h225q12 0 18.5 -8t6.5 -19v-221q0 -12 -7 -19t-18 -7h-225q-12 0 -18 8t-6 18z M602 1544v221q0 12 7 19.5t18 7.5h225q12 0 18.5 -8t6.5 -19v-221q0 -12 -7.5 -19t-17.5 -7h-225q-12 0 -18.5 8t-6.5 18z" />
<glyph unicode="&#x2c6;" horiz-adv-x="1101" d="M207 1098q-4 8 6 18l319 303q18 18 37 0l320 -303q10 -10 6 -18t-14 -8h-224q-12 0 -22 10l-84 82l-84 -82q-10 -10 -23 -10h-223q-10 0 -14 8z" />
<glyph unicode="&#x2dc;" horiz-adv-x="1060" d="M205 1114v193q0 20 24 36q39 23 82 37.5t84 14.5l271 -62q41 0 83 14.5t82 36.5q10 4 17.5 0t7.5 -14v-192q0 -23 -25 -37q-39 -23 -81.5 -37t-83.5 -14l-271 61q-41 0 -83 -14.5t-83 -36.5q-10 -4 -17 0t-7 14z" />
<glyph unicode="&#x2000;" horiz-adv-x="946" />
<glyph unicode="&#x2001;" horiz-adv-x="1892" />
<glyph unicode="&#x2002;" horiz-adv-x="946" />
<glyph unicode="&#x2003;" horiz-adv-x="1892" />
<glyph unicode="&#x2004;" horiz-adv-x="630" />
<glyph unicode="&#x2005;" horiz-adv-x="473" />
<glyph unicode="&#x2006;" horiz-adv-x="315" />
<glyph unicode="&#x2007;" horiz-adv-x="315" />
<glyph unicode="&#x2008;" horiz-adv-x="235" />
<glyph unicode="&#x2009;" horiz-adv-x="376" />
<glyph unicode="&#x200a;" horiz-adv-x="104" />
<glyph unicode="&#x2010;" horiz-adv-x="581" d="M61 532v156q0 18 17 25l135 59q16 8 29 8h254q25 0 24 -24v-224q0 -27 -24 -26h-412q-23 -1 -23 26z" />
<glyph unicode="&#x2011;" horiz-adv-x="581" d="M61 532v156q0 18 17 25l135 59q16 8 29 8h254q25 0 24 -24v-224q0 -27 -24 -26h-412q-23 -1 -23 26z" />
<glyph unicode="&#x2012;" horiz-adv-x="581" d="M61 532v156q0 18 17 25l135 59q16 8 29 8h254q25 0 24 -24v-224q0 -27 -24 -26h-412q-23 -1 -23 26z" />
<glyph unicode="&#x2013;" horiz-adv-x="1122" d="M92 532v156q0 18 17 25l176 59q10 4 21 6t18 2h680q27 0 26 -24v-226q0 -25 -24 -24h-889q-25 -1 -25 26z" />
<glyph unicode="&#x2014;" horiz-adv-x="1552" d="M92 532v156q0 18 17 25l176 59q10 4 21 6t18 2h1110q27 0 26 -24v-226q0 -25 -24 -24h-1319q-25 -1 -25 26z" />
<glyph unicode="&#x2018;" horiz-adv-x="575" d="M113 815v246q0 25 10 51l92 248q10 27 33 26h225q27 0 16 -26l-102 -275v-270q0 -12 -7 -19.5t-18 -7.5h-225q-12 0 -18 8.5t-6 18.5z" />
<glyph unicode="&#x2019;" horiz-adv-x="575" d="M86 815l102 275v270q0 12 7.5 19t17.5 7h225q12 0 18.5 -8t6.5 -18v-246q0 -25 -10 -51l-93 -248q-10 -27 -32 -27h-226q-26 0 -16 27z" />
<glyph unicode="&#x201a;" horiz-adv-x="575" d="M86 -260l102 274v271q0 12 7.5 19t17.5 7h225q12 0 18.5 -8t6.5 -18v-246q0 -25 -10 -51l-93 -248q-10 -27 -32 -27h-226q-26 0 -16 27z" />
<glyph unicode="&#x201c;" horiz-adv-x="1026" d="M113 815v246q0 25 10 51l92 248q10 27 33 26h225q27 0 16 -26l-102 -275v-270q0 -12 -7 -19.5t-18 -7.5h-225q-12 0 -18 8.5t-6 18.5zM563 815v246q0 25 10 51l93 248q10 27 32 26h226q27 0 16 -26l-102 -275v-270q0 -12 -7.5 -19.5t-17.5 -7.5h-225q-12 0 -18.5 8.5 t-6.5 18.5z" />
<glyph unicode="&#x201d;" horiz-adv-x="1026" d="M86 815l102 275v270q0 12 7.5 19t17.5 7h225q12 0 18.5 -8t6.5 -18v-246q0 -25 -10 -51l-93 -248q-10 -27 -32 -27h-226q-26 0 -16 27zM537 815l102 275v270q0 12 7 19t18 7h225q12 0 18 -8t6 -18v-246q0 -25 -10 -51l-92 -248q-10 -27 -33 -27h-225q-26 0 -16 27z" />
<glyph unicode="&#x201e;" horiz-adv-x="1026" d="M86 -260l102 274v271q0 12 7.5 19t17.5 7h225q12 0 18.5 -8t6.5 -18v-246q0 -25 -10 -51l-93 -248q-10 -27 -32 -27h-226q-26 0 -16 27zM537 -260l102 274v271q0 12 7 19t18 7h225q12 0 18 -8t6 -18v-246q0 -25 -10 -51l-92 -248q-10 -27 -33 -27h-225q-26 0 -16 27z" />
<glyph unicode="&#x2022;" horiz-adv-x="917" d="M143 733q0 66 25 123t68 100t100 68t123 25t123 -25t100 -68t67.5 -100t24.5 -123t-24.5 -123t-67.5 -100t-100.5 -67.5t-122.5 -24.5q-66 0 -123 24.5t-100 67.5t-68 100t-25 123z" />
<glyph unicode="&#x2026;" horiz-adv-x="1622" d="M133 27v258q0 12 7 19t18 7h225q12 0 18.5 -8t6.5 -18v-258q0 -12 -7.5 -19.5t-17.5 -7.5h-225q-12 0 -18.5 8.5t-6.5 18.5zM674 27v258q0 12 7 19t17 7h226q12 0 18 -8t6 -18v-258q0 -12 -7 -19.5t-17 -7.5h-226q-12 0 -18 8.5t-6 18.5zM1214 27v258q0 12 7.5 19t17.5 7 h225q12 0 18.5 -8t6.5 -18v-258q0 -12 -7 -19.5t-18 -7.5h-225q-12 0 -18.5 8.5t-6.5 18.5z" />
<glyph unicode="&#x202f;" horiz-adv-x="376" />
<glyph unicode="&#x2039;" horiz-adv-x="843" d="M68 522q-10 10 0 21l426 426q12 12 28 12h164q14 0 14 -12v-146q0 -20 -10 -30l-268 -261l268 -258q10 -10 10 -30v-146q0 -14 -14 -14h-164q-14 0 -28 14z" />
<glyph unicode="&#x203a;" horiz-adv-x="843" d="M143 96v146q0 20 11 30l268 260l-268 259q-10 10 -11 30v146q0 14 15 14h164q14 0 28 -14l426 -424q10 -10 0 -21l-426 -426q-12 -12 -28 -12h-164q-15 0 -15 12z" />
<glyph unicode="&#x205f;" horiz-adv-x="473" />
<glyph unicode="&#x20ac;" horiz-adv-x="1228" d="M82 430v180q0 27 24 27h130v111h-130q-25 0 -24 26v180q0 27 24 27h136q14 88 59 166t110.5 136t144.5 91t161 33h18l350 -109q23 -6 17 -30l-66 -224q-4 -10 -11 -15t-21 -1l-306 98q-53 -10 -100 -50t-70 -95h301q27 0 27 -25v-184q0 -25 -25 -24h-313v-111h311 q27 0 27 -25v-184q0 -25 -25 -25h-303q23 -57 70 -95t100 -48l306 96q14 4 21 -1t11 -15l66 -223q6 -25 -17 -31l-350 -106h-18q-82 0 -161 32.5t-144.5 90t-110.5 134t-59 166.5h-136q-24 0 -24 27z" />
<glyph unicode="&#x2122;" horiz-adv-x="1660" d="M123 1243v127q0 16 16 16h498q16 0 16 -16v-127q0 -16 -16 -16h-170v-430q0 -16 -14 -17h-131q-14 0 -15 17v430h-170q-14 0 -14 16zM786 797v536q0 10 11 15l112 55q14 6 21 -8l213 -316l198 297q6 10 15 10h125q16 0 16 -16v-573q0 -16 -16 -17h-127q-16 0 -17 17v295 l-180 -269q-6 -10 -16 -10q-8 0 -15 10l-180 269v-295q0 -16 -16 -17h-127q-17 1 -17 17z" />
<glyph unicode="&#xe000;" horiz-adv-x="1004" d="M0 1005h1005v-1005h-1005v1005z" />
<glyph unicode="&#xfb01;" horiz-adv-x="1216" d="M37 731v223q0 27 26 27h101v57q0 88 31.5 156t86 114t126 70.5t151.5 24.5h21l51 -14q18 -6 18 -27v-240q0 -23 -20 -16l-97 27q-39 -2 -61 -24t-33 -58v-70h187q25 0 24 -23v-229q0 -23 -22 -22h-189v-684q0 -23 -22 -23h-230q-23 0 -22 23v684h-101q-26 -1 -26 24z M809 27v927q0 12 7 19.5t18 7.5h225q12 0 18 -8t6 -19v-927q0 -12 -7 -19.5t-17 -7.5h-225q-12 0 -18.5 8.5t-6.5 18.5zM809 1139v221q0 12 7 19t18 7h225q12 0 18 -8t6 -18v-221q0 -12 -7 -19.5t-17 -7.5h-225q-12 0 -18.5 8.5t-6.5 18.5z" />
<glyph unicode="&#xfb02;" horiz-adv-x="1216" d="M37 731v223q0 27 26 27h101v57q0 88 31.5 156t86 114t126 70.5t151.5 24.5h21l51 -14q18 -6 18 -27v-240q0 -23 -20 -16l-97 27q-39 -2 -61 -24t-33 -58v-70h187q25 0 24 -23v-229q0 -23 -22 -22h-189v-684q0 -23 -22 -23h-230q-23 0 -22 23v684h-101q-26 -1 -26 24z M809 27v1333q0 12 7 19t18 7h225q12 0 18 -8t6 -18v-1333q0 -12 -7 -19.5t-17 -7.5h-225q-12 0 -18.5 8.5t-6.5 18.5z" />
<glyph unicode="&#xfb03;" horiz-adv-x="1892" d="M1485 27v927q0 12 7 19.5t18 7.5h225q12 0 18.5 -8t6.5 -19v-927q0 -12 -7.5 -19.5t-17.5 -7.5h-225q-12 0 -18.5 8.5t-6.5 18.5zM1485 1139v221q0 12 7 19t18 7h225q12 0 18.5 -8t6.5 -18v-221q0 -12 -7.5 -19.5t-17.5 -7.5h-225q-12 0 -18.5 8.5t-6.5 18.5zM713 731 v223q0 27 26 27h101v57q0 88 31.5 156t86 114t126 70.5t151.5 24.5h21l204 -64q14 -5 14 -16q0 -4 -1 -8l-66 -219q-6 -20 -26 -15l-173 52q-39 -2 -61 -24t-33 -58v-70h187q25 0 24 -23v-229q0 -23 -22 -22h-189v-684q0 -23 -22 -23h-230q-23 0 -22 23v684h-101 q-26 -1 -26 24zM37 731v223q0 27 26 27h101v57q0 88 31.5 156t86 114t126 70.5t151.5 24.5h21l204 -64q14 -5 14 -16q0 -4 -1 -8l-66 -219q-6 -20 -26 -15l-173 52q-39 -2 -61 -24t-33 -58v-70h187q25 0 24 -23v-229q0 -23 -22 -22h-189v-684q0 -23 -22 -23h-230 q-23 0 -22 23v684h-101q-26 -1 -26 24z" />
<glyph unicode="&#xfb04;" horiz-adv-x="1892" d="M1485 27v1333q0 12 7 19t18 7h225q12 0 18.5 -8t6.5 -18v-1333q0 -12 -7.5 -19.5t-17.5 -7.5h-225q-12 0 -18.5 8.5t-6.5 18.5zM713 731v223q0 27 26 27h101v57q0 88 31.5 156t86 114t126 70.5t151.5 24.5h21l204 -64q14 -5 14 -16q0 -4 -1 -8l-66 -219q-6 -20 -26 -15 l-173 52q-39 -2 -61 -24t-33 -58v-70h187q25 0 24 -23v-229q0 -23 -22 -22h-189v-684q0 -23 -22 -23h-230q-23 0 -22 23v684h-101q-26 -1 -26 24zM37 731v223q0 27 26 27h101v57q0 88 31.5 156t86 114t126 70.5t151.5 24.5h21l204 -64q14 -5 14 -16q0 -4 -1 -8l-66 -219 q-6 -20 -26 -15l-173 52q-39 -2 -61 -24t-33 -58v-70h187q25 0 24 -23v-229q0 -23 -22 -22h-189v-684q0 -23 -22 -23h-230q-23 0 -22 23v684h-101q-26 -1 -26 24z" />
</font>
</defs>
</svg>
