<?xml version="1.0" standalone="no"?>
<!DOCTYPE svg PUBLIC "-//W3C//DTD SVG 1.1//EN" "http://www.w3.org/Graphics/SVG/1.1/DTD/svg11.dtd" >
<svg xmlns="http://www.w3.org/2000/svg">
<metadata>
This is a custom SVG webfont generated by Font Squirrel.
Copyright   : Copyright c 2009 by Jos Buivenga All rights reserved
Designer    : Jos Buivenga
Foundry     : Jos Buivenga
Foundry URL : httpwwwexljbriscom
</metadata>
<defs>
<font id="MuseoSlab300" horiz-adv-x="1118" >
<font-face units-per-em="2048" ascent="1536" descent="-512" />
<missing-glyph horiz-adv-x="512" />
<glyph unicode=" "  horiz-adv-x="512" />
<glyph unicode="&#x09;" horiz-adv-x="512" />
<glyph unicode="&#xa0;" horiz-adv-x="512" />
<glyph unicode="!" horiz-adv-x="479" d="M160 0v162h162v-162h-162zM168 1440h143l-6 -1063h-131z" />
<glyph unicode="&#x22;" horiz-adv-x="651" d="M141 1049v411h121v-411h-121zM389 1049v411h121v-411h-121z" />
<glyph unicode="#" horiz-adv-x="1482" d="M96 399l19 115h291l71 401h-291l21 115h289l71 410h125l-71 -410h354l72 410h124l-71 -410h289l-21 -115h-287l-71 -401h286l-20 -115h-285l-71 -399h-125l69 399h-352l-72 -399h-125l72 399h-291zM530 514h355l71 401h-354z" />
<glyph unicode="$" horiz-adv-x="1083" d="M94 190l84 105l18 -17q11 -11 50 -38t80 -47.5t103.5 -38t125.5 -17.5q123 0 206 68.5t83 181.5q0 88 -75 149.5t-181.5 102.5t-213 87t-181 132t-74.5 209q0 139 103.5 239.5t273.5 120.5v226h114v-221q201 -10 332 -129l10 -9l-67 -112q-14 14 -41 33.5t-110 53.5 t-165 34q-137 0 -221 -67t-84 -165q0 -80 53.5 -139.5t134.5 -91.5l174 -73q93 -40 174 -80t134 -115.5t53 -178.5q0 -152 -102.5 -259t-274.5 -124v-221h-114v221q-115 8 -215.5 53.5t-143.5 86.5z" />

<glyph unicode="%" horiz-adv-x="1462" d="M98 1180q0 117 84 200.5t203 83.5t204 -84t85 -200q0 -119 -84 -202t-205 -83q-119 0 -203 83t-84 202zM111 0l1097 1440h146l-1096 -1440h-147zM221 1180q0 -72 47 -121t117 -49t119 49t49 121q0 70 -49 120t-119 50t-117 -50t-47 -120zM791 258q0 119 83.5 203 t202.5 84t204 -84t85 -203q0 -117 -85 -200t-204 -83t-202.5 83t-83.5 200zM913 260q0 -72 47.5 -121t117 -49t118.5 49t49 121q0 70 -49 120t-118.5 50t-117 -50t-47.5 -120z" />
<glyph unicode="&#x26;" horiz-adv-x="1361" d="M113 397q0 129 70.5 235.5t195.5 143.5v4q-8 2 -22.5 8.5t-49.5 31t-61.5 57t-49 92t-22.5 131.5q0 166 123 265t328 99q33 0 74.5 -5t66.5 -9l25 -6l-41 -119q-68 14 -119 14q-133 0 -221 -67.5t-88 -179.5q0 -45 11 -84t42 -83t98.5 -70t163.5 -26h338v205h141v-205 h195v-122h-195v-213q0 -252 -133 -385.5t-365 -133.5q-223 0 -364 120t-141 302zM258 408q0 -129 98.5 -215.5t264 -86.5t260 95.5t94.5 296.5v209h-344q-182 0 -277.5 -80t-95.5 -219z" />
<glyph unicode="'" horiz-adv-x="403" d="M141 1049v411h121v-411h-121z" />
<glyph unicode="(" horiz-adv-x="616" d="M154 690q0 426 229 805h131q-231 -387 -231 -805q0 -473 231 -885h-131q-229 400 -229 885z" />
<glyph unicode=")" horiz-adv-x="616" d="M102 -195q231 416 232 885q0 414 -232 805h129q231 -377 232 -805q0 -487 -232 -885h-129z" />
<glyph unicode="*" horiz-adv-x="983" d="M96 1104l41 129l295 -109l-12 316h139l-12 -316l297 107l43 -125l-303 -88v-4l190 -246l-106 -80l-176 260h-5l-174 -258l-108 78l192 246v4z" />
<glyph unicode="+" horiz-adv-x="1241" d="M86 522v119h473v522h125v-522h471v-119h-471v-522h-125v522h-473z" />
<glyph unicode="," horiz-adv-x="503" d="M49 -264l139 432h160l-178 -432h-121z" />
<glyph unicode="-" horiz-adv-x="1005" d="M213 518v127h580v-127h-580z" />
<glyph unicode="." horiz-adv-x="497" d="M166 0v170h166v-170h-166z" />
<glyph unicode="/" horiz-adv-x="839" d="M94 -86l520 1606h131l-520 -1606h-131z" />
<glyph unicode="0" horiz-adv-x="1263" d="M135 721q0 743 496 743q180 0 294.5 -102t158.5 -262t44 -379q0 -745 -497 -746q-496 1 -496 746zM283 721q0 -614 348 -615q100 0 169.5 46.5t108.5 133.5t55.5 192.5t16.5 242.5q0 612 -350 612q-348 0 -348 -612z" />
<glyph unicode="1" horiz-adv-x="927" d="M102 0v123h322v1061l2 80h-4q-14 -31 -72 -86l-153 -152l-91 90l326 324h133v-1317h316v-123h-779z" />
<glyph unicode="2" horiz-adv-x="1179" d="M109 92q0 119 55 219.5t137 167t179 135.5l179 128q82 58 137.5 140.5t55.5 174.5q0 121 -83 198.5t-216 77.5q-59 0 -114.5 -20.5t-92.5 -50t-64.5 -58t-39.5 -49.5l-15 -20l-102 69l16 28q10 17 49 62t85.5 80t123 62.5t162.5 27.5q199 0 318.5 -114.5t119.5 -288.5 q0 -133 -75.5 -241.5t-184.5 -184.5l-216 -149q-108 -73 -184.5 -165t-76.5 -198h674v201h131v-324h-950q-8 43 -8 92z" />
<glyph unicode="3" horiz-adv-x="1148" d="M92 172l86 104q16 -18 47 -46.5t127.5 -76t194.5 -47.5q133 0 231.5 90.5t98.5 225.5q0 143 -103.5 225t-251.5 82q-20 0 -41.5 -1t-34.5 -3h-14l-37 86l389 461l50 45v4q-41 -4 -68 -4h-481v-197h-131v320h852v-101l-426 -493q74 -4 145.5 -26.5t142 -68.5t113.5 -130 t43 -195q0 -186 -136 -318.5t-339 -132.5q-80 0 -156 20.5t-128 49.5t-93 57.5t-61 49.5z" />
<glyph unicode="4" horiz-adv-x="1200" d="M57 399v93l707 948h154v-920h204v-121h-204v-399h-142v399h-719zM225 520h551v649l8 95h-6q-20 -43 -47 -80l-506 -660v-4z" />
<glyph unicode="5" horiz-adv-x="1136" d="M96 162l86 100q4 -6 13.5 -16t41 -38t67.5 -48.5t94.5 -37t119.5 -16.5q152 0 257.5 99.5t105.5 236.5q0 154 -100.5 249t-260.5 95q-154 -2 -270 -81l-90 32l78 703h702v-320h-129v197h-451l-47 -406l-10 -57h4q94 55 234 55q209 0 348 -131t139 -325 q0 -199 -146.5 -338.5t-359.5 -139.5q-242 0 -401 158z" />

<glyph unicode="6" horiz-adv-x="1206" d="M127 647q0 113 22.5 225.5t72.5 220t123 189.5t180.5 132t236.5 50q70 0 135.5 -15t97.5 -30l31 -14l-53 -123q-90 51 -211 51q-143 0 -251 -88t-162 -215t-66 -276h4q53 78 153.5 123t214.5 45q195 0 322 -130t127 -335q0 -219 -131 -350.5t-326 -131.5 q-236 0 -378 189.5t-142 482.5zM281 541q0 -152 104 -293.5t260 -141.5q143 0 227 97.5t84 253.5q0 154 -90 247t-241 93q-139 0 -241.5 -80t-102.5 -176z" />
<glyph unicode="7" horiz-adv-x="1089" d="M84 1120v320h965v-99l-668 -1341h-148l619 1253l39 64v4q-35 -4 -76 -4h-602v-197h-129z" />
<glyph unicode="8" horiz-adv-x="1218" d="M123 406q0 86 29.5 160.5t79 125.5t76 73.5t54.5 41.5q-182 119 -182 293q0 152 114 258t322 106q199 0 320 -102t121 -268q0 -94 -45 -192.5t-76 -136.5t-57 -65q211 -121 211 -311q0 -170 -136.5 -292t-341.5 -122q-203 0 -346 120.5t-143 310.5zM268 416 q0 -137 102.5 -224.5t239.5 -87.5q131 0 231.5 81t100.5 200q0 47 -19.5 87t-46 67.5t-79 57.5t-92.5 47l-113 48l-117 51q-207 -137 -207 -327zM324 1100q0 -45 20.5 -86t45 -66.5t77.5 -56.5t86 -46.5t105 -45.5l104 -43q154 154 153 323q0 119 -82.5 187.5t-216.5 68.5 q-135 0 -213.5 -67.5t-78.5 -167.5z" />
<glyph unicode="9" horiz-adv-x="1206" d="M102 983q0 219 131.5 350t325.5 131q233 0 376.5 -189.5t143.5 -481.5q0 -143 -37.5 -282.5t-110.5 -261.5t-200 -198t-289 -76q-154 0 -262 60l53 123q90 -51 209 -52q211 0 336 173.5t146 408.5h-4q-53 -74 -154.5 -119t-214.5 -45q-197 0 -323 129t-126 330zM250 983 q0 -150 90 -242t240 -92q139 0 242.5 79t103.5 173q0 152 -106.5 292t-258.5 140q-143 0 -227 -98t-84 -252z" />
<glyph unicode=":" horiz-adv-x="610" d="M221 0v170h168v-170h-168zM221 860v170h168v-170h-168z" />
<glyph unicode=";" horiz-adv-x="608" d="M113 -264l120 432h160l-160 -432h-120zM225 860v170h164v-170h-164z" />
<glyph unicode="&#x3c;" horiz-adv-x="1241" d="M135 530v103l926 414v-138l-754 -325v-4l754 -326v-137z" />
<glyph unicode="=" horiz-adv-x="1241" d="M143 344v119h955v-119h-955zM143 700v119h955v-119h-955z" />
<glyph unicode="&#x3e;" horiz-adv-x="1241" d="M178 117v137l754 326v4l-754 325v138l926 -414v-103z" />
<glyph unicode="?" horiz-adv-x="925" d="M96 1350q14 12 41 31.5t113 52t176 32.5q178 0 294 -101t116 -261q0 -94 -38 -170t-92 -126l-108 -97q-53 -47 -91 -109.5t-38 -136.5v-88h-137v92q0 90 37 164t89 125l105 99q53 48 90 109.5t37 131.5q0 100 -75.5 167.5t-192.5 67.5q-61 0 -123.5 -21.5t-93.5 -41.5 l-31 -23zM319 0v162h162v-162h-162z" />
<glyph unicode="@" horiz-adv-x="1574" d="M98 497.5q0 315.5 214 532.5t540 217q233 0 355 -112.5t122 -274.5v-645h144v-115h-549q-176 0 -293 116t-117 277.5t117 277.5t293 116h266q-4 100 -92 170.5t-250 70.5q-260 0 -433 -185t-173 -449q0 -262 173 -443.5t433 -181.5v-123q-317 0 -533.5 218t-216.5 533.5z M657 494q0 -115 81 -197t198 -82h254v563h-250q-121 0 -202 -82.5t-81 -201.5z" />
<glyph unicode="A" horiz-adv-x="1468" d="M23 0v119h147l485 1321h158l485 -1321h148v-119h-461v119h166l-137 370h-561l-136 -370h166v-119h-460zM492 610h483l-215 590l-23 92h-6q-4 -45 -20 -92z" />
<glyph unicode="B" horiz-adv-x="1372" d="M111 0v119h188v1202h-188v119h649q152 0 248 -49q80 -39 128 -123t48 -193q0 -219 -185 -311v-4q111 -33 176.5 -129t65.5 -225q0 -131 -67.5 -232.5t-176.5 -142.5q-82 -31 -215 -31h-671zM442 123h344q94 0 150 22q74 31 116 100.5t42 162.5q0 129 -79 206.5t-206 77.5 h-367v-569zM442 815h351q109 0 176 69.5t67 182.5q0 147 -104 213q-61 37 -172 37h-318v-502z" />
<glyph unicode="C" horiz-adv-x="1519" d="M111 729q0 313 209.5 524t519.5 211q74 0 158.5 -14t173 -45t146.5 -90.5t58 -136.5v-154h-137v115q0 66 -69.5 112.5t-155.5 65t-168 18.5q-252 0 -419 -171t-167 -431q0 -270 169 -449.5t425 -179.5q51 0 114.5 10.5t132 31t115 61.5t46.5 94v113h137v-154 q0 -74 -56.5 -132t-144.5 -90t-177 -47.5t-171 -15.5q-319 0 -529 218.5t-210 535.5z" />
<glyph unicode="D" horiz-adv-x="1589" d="M111 0v119h188v1202h-188v119h608q184 0 307 -37q207 -68 325.5 -247t118.5 -437q0 -262 -122.5 -440.5t-339.5 -243.5q-109 -35 -289 -35h-608zM442 123h265q152 0 256 35q168 55 263 200.5t95 360.5q0 213 -92 360.5t-256 204.5q-96 33 -266 33h-265v-1194z" />
<glyph unicode="E" horiz-adv-x="1282" d="M111 0v119h188v1202h-188v119h1017v-299h-131v176h-555v-531h545v-122h-545v-541h594v186h129v-309h-1054z" />
<glyph unicode="F" horiz-adv-x="1161" d="M111 0v119h188v1202h-188v119h968v-307h-129v180h-508v-543h527v-123h-527v-528h201v-119h-532z" />

<glyph unicode="G" horiz-adv-x="1570" d="M113 720.5q0 321.5 207.5 532.5t539.5 211q129 0 251 -31.5t207 -98t85 -152.5v-158h-137v109q0 94 -125 148t-279 54q-272 0 -436 -172t-164 -440t166 -443.5t432 -175.5q61 0 131 10.5t142.5 32t119.5 65.5t47 101v226h-301v118h437v-376q0 -104 -102.5 -177 t-227.5 -101t-248 -28q-328 0 -536.5 212t-208.5 533.5z" />
<glyph unicode="H" horiz-adv-x="1718" d="M111 0v119h188v1202h-188v119h520v-119h-189v-539h834v539h-189v119h521v-119h-189v-1202h189v-119h-521v119h189v540h-834v-540h189v-119h-520z" />
<glyph unicode="I" horiz-adv-x="741" d="M111 0v119h188v1202h-188v119h520v-119h-189v-1202h189v-119h-520z" />
<glyph unicode="J" d="M59 393v68h142v-51q0 -131 66.5 -217.5t193.5 -86.5q109 0 184.5 74t75.5 230v911h-219v119h530v-119h-168v-924q0 -213 -118.5 -317.5t-284.5 -104.5t-284 102.5t-118 315.5z" />
<glyph unicode="K" horiz-adv-x="1370" d="M111 0v119h188v1202h-188v119h510v-119h-179v-508h211l353 508h-142v119h447v-119h-146l-397 -559v-4q33 -16 70 -84l295 -498q35 -57 106 -57h72v-119h-109q-86 0 -123 21.5t-75 87.5l-302 518q-37 63 -114 63h-146v-571h187v-119h-518z" />
<glyph unicode="L" horiz-adv-x="1212" d="M111 0v119h188v1198h-188v123h520v-123h-189v-1194h576v239h131v-362h-1038z" />
<glyph unicode="M" horiz-adv-x="1927" d="M74 0v119h188l96 1202h-190v119h346l418 -942l29 -84h4q10 37 30 84l418 942h344v-119h-188l94 -1202h188v-119h-514v119h185l-78 993l4 102h-4q-16 -61 -31 -96l-383 -844h-133l-385 844l-29 96h-6l4 -102l-78 -993h185v-119h-514z" />
<glyph unicode="N" horiz-adv-x="1705" d="M111 0v119h188v1202h-188v119h327l807 -1137l43 -88h4l-6 100v1006h-190v119h522v-119h-188v-1321h-140l-807 1137l-43 88h-4l6 -99v-1007h191v-119h-522z" />
<glyph unicode="O" horiz-adv-x="1689" d="M111 729q0 309 213 522t520 213t521 -213t214 -522q0 -315 -214 -534.5t-521 -219.5q-305 0 -519 219.5t-214 534.5zM260 729q0 -262 171 -442.5t413 -180.5q244 0 415 180.5t171 442.5q0 256 -171.5 430t-415 174t-413.5 -174t-170 -430z" />
<glyph unicode="P" horiz-adv-x="1314" d="M111 0v119h188v1202h-188v119h655q162 0 246 -41q106 -49 168.5 -151.5t62.5 -239.5q0 -147 -70.5 -257t-191.5 -153q-86 -29 -213 -29h-326v-450h189v-119h-520zM442 692h312q104 0 174 29q170 70 170 287q0 197 -150 274q-80 35 -194 35h-312v-625z" />
<glyph unicode="Q" horiz-adv-x="1689" d="M111 727q0 311 212 524t519 213q311 0 524 -210t213 -521q0 -291 -180 -500l178 -178l-86 -88l-176 178q-199 -170 -473 -170q-307 0 -519 219.5t-212 532.5zM260 727q0 -262 168 -441.5t414 -179.5q221 0 375 136l-220 223l84 88l219 -223q133 174 134 399 q0 258 -170 431t-422 173q-248 0 -415 -173t-167 -433z" />
<glyph unicode="R" horiz-adv-x="1404" d="M111 119h188v1202h-188v119h616q158 0 256 -33q233 -84 234 -360q0 -162 -86.5 -271.5t-233.5 -136.5v-4q27 -18 49 -60l240 -409q16 -29 37.5 -38t64.5 -9h41v-119h-78q-92 0 -125.5 19.5t-72.5 89.5l-242 413q-29 53 -60.5 70.5t-101.5 17.5h-207v-491h187v-119h-518 v119zM442 733h338q131 0 211 83t80 220q0 193 -158 254q-72 27 -190 27h-281v-584z" />
<glyph unicode="S" horiz-adv-x="1159" d="M121 264v137h137v-104q0 -88 92 -139.5t223 -51.5q143 0 232.5 69t89.5 192q0 55 -21.5 100t-49 74.5t-84 59.5t-94.5 46.5t-111 42.5l-96 38q-34 13 -87 41t-82.5 54.5t-60.5 65.5t-45 89t-14 112q0 180 124.5 277t313.5 97q166 0 291 -61.5t125 -163.5v-154h-138v107 q0 66 -86 103.5t-192 37.5q-129 0 -210 -61.5t-81 -171.5q0 -51 20.5 -92t43 -67t78 -55.5t84 -42t104.5 -40.5q82 -31 126 -49.5t108.5 -56.5t97 -76.5t58 -101t25.5 -138.5q0 -186 -132 -296t-337 -110q-174 0 -313 76t-139 213z" />
<glyph unicode="T" horiz-adv-x="1339" d="M66 1083v357h1208v-357h-131v234h-402v-1198h189v-119h-520v119h188v1198h-403v-234h-129z" />
<glyph unicode="U" horiz-adv-x="1617" d="M68 1321v119h520v-119h-189v-789q0 -164 64 -264q104 -162 346 -162q248 0 346 168q63 109 64 263v784h-189v119h520v-119h-188v-791q0 -207 -92 -340q-70 -104 -191 -159.5t-270 -55.5q-152 0 -273.5 56.5t-191.5 161.5q-88 129 -88 337v791h-188z" />
<glyph unicode="V" horiz-adv-x="1443" d="M25 1321v119h464v-119h-165l372 -1067l23 -94h6q8 49 23 94l372 1067h-164v119h465v-119h-149l-471 -1321h-158l-471 1321h-147z" />
<glyph unicode="W" horiz-adv-x="2048" d="M35 1321v119h465v-119h-172l258 -1059l14 -94h8q6 49 19 94l329 1178h134l331 -1178l19 -94h8q4 49 14 94l258 1059h-172v119h465v-119h-147l-334 -1321h-170l-318 1133l-16 94h-8q-4 -51 -16 -94l-320 -1133h-168l-336 1321h-145z" />

<glyph unicode="X" horiz-adv-x="1320" d="M57 119h144l374 608l-372 594h-140v119h459v-119h-164l279 -451l33 -53h4l2 6q4 6 12 20.5t17 26.5l268 451h-158v119h449v-119h-142l-381 -610l375 -592h144v-119h-457v119h158l-277 448l-33 56h-4q-12 -27 -31 -56l-268 -448h160v-119h-451v119z" />
<glyph unicode="Y" horiz-adv-x="1318" d="M23 1321v119h454v-119h-160l312 -524l28 -56h5q12 29 28 56l314 524h-160v119h452v-119h-141l-424 -703v-499h189v-119h-521v119h189v499l-424 703h-141z" />
<glyph unicode="Z" horiz-adv-x="1275" d="M117 0v100l790 1149l58 68v4q-39 -4 -80 -4h-629v-234h-129v357h1012v-101l-791 -1149l-57 -67v-4q39 4 80 4h657v239h129v-362h-1040z" />
<glyph unicode="[" horiz-adv-x="608" d="M211 -195v1690h276v-115h-147v-1460h147v-115h-276z" />
<glyph unicode="\" horiz-adv-x="837" d="M94 1520h131l518 -1606h-131z" />
<glyph unicode="]" horiz-adv-x="606" d="M117 -80h149v1460h-149v115h278v-1690h-278v115z" />
<glyph unicode="^" horiz-adv-x="1241" d="M150 512l405 928h96l408 -928h-135l-320 758l-319 -758h-135z" />
<glyph unicode="_" d="M31 0h1056v-119h-1056v119z" />
<glyph unicode="`" horiz-adv-x="1032" d="M322 1784h178l200 -244h-147z" />
<glyph unicode="a" d="M78 283q0 348 620 348h68v43q0 260 -248 260q-164 0 -295 -96l-4 -4l-65 104q16 12 45.5 31.5t126 52.5t200.5 33q379 0 379 -387v-508q0 -45 45 -45h113v-115h-168q-123 0 -123 113v18l6 80h-4q-4 -10 -11 -25.5t-37 -56.5t-65.5 -71.5t-100 -56.5t-138.5 -26 q-139 0 -241.5 80.5t-102.5 227.5zM221 297q0 -84 59.5 -145.5t161.5 -61.5q145 0 234.5 120t89.5 267v49h-59q-486 0 -486 -229z" />
<glyph unicode="b" horiz-adv-x="1220" d="M0 1325v115h324v-508l-7 -86h5l11 22q7 14 36.5 50t66.5 64t100.5 50.5t137.5 22.5q205 0 326.5 -149.5t121.5 -391.5t-130 -390.5t-335 -148.5q-70 0 -130 21.5t-97 53.5t-63.5 62.5t-38.5 51.5l-11 22h-4q6 -37 6 -86v-100h-135v1325h-184zM319 512q0 -168 86.5 -290 t241.5 -122q141 0 237.5 112t96.5 302q0 186 -91 300t-237 114q-141 0 -237.5 -104.5t-96.5 -311.5z" />
<glyph unicode="c" horiz-adv-x="1126" d="M94 512q0 238 156 390.5t383 152.5q53 0 114.5 -11.5t124 -36t102.5 -70.5t40 -106v-112h-129v76q0 63 -82 99t-168 36q-172 0 -284.5 -115t-112.5 -299q0 -186 116.5 -301t286.5 -115q41 0 81 7.5t71.5 18.5t58.5 24.5t49 29.5l37 28q14 11 26.5 22.5t14.5 11.5l59 -107 q-176 -160 -401 -160q-227 0 -385 148.5t-158 388.5z" />
<glyph unicode="d" horiz-adv-x="1265" d="M98 514q0 244 129 392.5t336 148.5q70 0 129.5 -20.5t96 -50.5t62.5 -59.5t38 -50.5l10 -20h4q-6 35 -6 80v391h-184v115h323v-1280q0 -45 45 -45h115v-115h-170q-123 0 -123 113v18l8 64h-4l-11 -24q-7 -15 -37 -53t-67.5 -66.5t-103 -52.5t-143.5 -24 q-205 0 -326 148.5t-121 390.5zM242 514q0 -188 90 -301t235 -113q141 0 237.5 104.5t96.5 309.5q0 170 -85 292t-241 122q-143 0 -238 -112t-95 -302z" />
<glyph unicode="e" horiz-adv-x="1130" d="M96 514q0 246 146.5 393.5t361.5 147.5q205 0 318.5 -136.5t113.5 -338.5l-6 -66h-790q4 -193 118.5 -303.5t280.5 -110.5q172 0 305 115l8 8l64 -104q-16 -16 -47 -40t-130.5 -64t-203.5 -40q-231 0 -385 151.5t-154 387.5zM246 616h645q-6 156 -88 239t-203 83 q-133 0 -231 -85t-123 -237z" />
<glyph unicode="f" horiz-adv-x="727" d="M84 915v115h184v53q0 115 36 194t94.5 113.5t106.5 47t99 12.5l84 -6v-121q-27 6 -70 6q-33 0 -63.5 -8t-67 -30.5t-58 -75t-21.5 -130.5v-55h262v-115h-262v-800h204v-115h-518v115h174v800h-184z" />
<glyph unicode="g" horiz-adv-x="1253" d="M100 534.5q0 233.5 121 377t326 143.5q117 0 212 -46t134 -137h4q-4 14 -4 46q0 57 26.5 84.5t92.5 27.5h184v-115h-127q-45 0 -45 -43v-847q0 -229 -142.5 -342t-353.5 -113q-176 0 -335 82l53 112q127 -72 278 -71q162 0 261.5 80t99.5 245v103l6 74h-4 q-100 -188 -328 -189q-207 0 -333 147.5t-126 381zM244 536.5q0 -184.5 92 -295t244 -110.5q137 0 222 95.5t85 308.5q0 395 -326 395q-150 0 -233.5 -104.5t-83.5 -289z" />
<glyph unicode="h" horiz-adv-x="1347" d="M51 1325v115h324v-566l-8 -83h4q41 94 149.5 179t263.5 85q184 0 264 -100.5t80 -299.5v-540h177v-115h-316v618q0 145 -44 225.5t-179 80.5q-166 0 -278.5 -123t-112.5 -307v-379h174v-115h-488v115h175v1210h-185z" />

<glyph unicode="i" horiz-adv-x="643" d="M84 915v115h324v-915h174v-115h-488v115h174v800h-184zM260 1266v174h158v-174h-158z" />
<glyph unicode="j" horiz-adv-x="561" d="M-43 -297q18 -4 45 -4q37 0 72 9t74.5 34t64.5 82t25 141v950h-185v115h324v-1067q0 -98 -26.5 -171t-65.5 -112.5t-92.5 -63.5t-93.5 -31t-83 -7l-59 6v119zM227 1266v174h158v-174h-158z" />
<glyph unicode="k" horiz-adv-x="1146" d="M51 1325v115h324v-811h162l243 286h-147v115h442v-115h-143l-283 -327v-4q2 0 10.5 -5.5t25.5 -26t36 -50.5l205 -344q16 -27 33.5 -35t60.5 -8h70v-115h-115q-76 0 -108.5 19.5t-69.5 82.5l-219 371q-29 43 -101 43h-102v-401h164v-115h-478v115h175v1210h-185z" />
<glyph unicode="l" horiz-adv-x="555" d="M0 1325v115h322v-1172q0 -154 116 -153l58 4v-119q-39 -6 -80 -6q-233 0 -234 264v1067h-182z" />
<glyph unicode="m" horiz-adv-x="2039" d="M84 915v115h197q125 0 125 -115v-59l-9 -74h4q41 109 153 191t230 82q270 0 314 -262h4q45 109 150.5 185.5t230.5 76.5q180 0 260 -100.5t80 -299.5v-540h174v-115h-314v621q0 145 -46 226t-175 81q-150 0 -248 -133t-98 -301v-379h174v-115h-313v621q0 68 -7 114.5 t-27.5 95t-67 73t-115.5 24.5q-152 0 -252 -134.5t-100 -304.5v-374h174v-115h-488v115h174v755q0 45 -45 45h-139z" />
<glyph unicode="n" horiz-adv-x="1380" d="M84 915v115h197q125 0 125 -115v-59l-9 -74h4q12 35 43 77t80 88t128 77t169 31q184 0 263 -100.5t79 -299.5v-540h174v-115h-313v618q0 145 -45 225.5t-180 80.5q-168 0 -279.5 -127t-111.5 -301v-381h174v-115h-488v115h174v755q0 45 -45 45h-139z" />
<glyph unicode="o" horiz-adv-x="1271" d="M92 520q0 227 159 381t384 154q227 0 386 -153.5t159 -381.5q0 -231 -159 -388t-386 -157q-225 0 -384 157t-159 388zM236 520q0 -178 116.5 -299t282.5 -121q168 0 284.5 121t116.5 299q0 174 -116.5 292t-284.5 118q-166 0 -282.5 -118t-116.5 -292z" />
<glyph unicode="p" horiz-adv-x="1275" d="M53 915v115h195q123 0 123 -108v-9l-6 -71h4l11 22q7 14 36.5 51t66.5 66t102.5 51.5t143.5 22.5q205 0 327 -149.5t122 -391.5t-130 -390.5t-333 -148.5q-70 0 -130.5 21.5t-97 51.5t-63.5 59.5t-39 52.5l-10 20h-4q6 -37 6 -90v-385h174v-115h-488v115h175v1165 q0 45 -45 45h-140zM375 512q0 -166 88 -289t237 -123q141 0 237.5 112t96.5 302q0 186 -91 300t-236 114q-141 0 -236.5 -104.5t-95.5 -311.5z" />
<glyph unicode="q" horiz-adv-x="1220" d="M98 516q0 242 129 390.5t334 148.5q41 0 80 -8.5t68.5 -20.5t57.5 -30.5t47.5 -36t36.5 -37t26.5 -31.5t17.5 -27l8 -12h4q-6 33 -6 76v102h135v-1325h174v-115h-487v115h174v389l8 90h-4l-11 -22q-7 -14 -37 -50t-66.5 -64t-101 -50.5t-138.5 -22.5q-205 0 -327 149.5 t-122 391.5zM242 516.5q0 -188.5 90 -302.5t235 -114q141 0 237.5 104.5t96.5 311.5q0 170 -86 292t-242 122q-141 0 -236 -112.5t-95 -301z" />
<glyph unicode="r" horiz-adv-x="817" d="M80 915v115h194q125 0 125 -117v-69l-4 -78h4q41 123 126 198.5t200 75.5l57 -6v-137q-27 4 -53 4q-109 0 -185.5 -75.5t-108.5 -177t-32 -212.5v-321h160v-115h-459v115h160v755q0 45 -45 45h-139z" />
<glyph unicode="s" horiz-adv-x="962" d="M92 319h127v-73q0 -72 83 -111t185.5 -39t172 43t69.5 119q0 53 -40 93t-80 58.5t-132 53.5q-18 6 -26 10q-72 27 -118 48.5t-98.5 58t-78 87t-25.5 113.5q0 133 106.5 204t249.5 71q125 0 233.5 -52.5t108.5 -148.5v-119h-127v76q0 55 -62 89t-148 34q-92 0 -155 -39 t-63 -111q0 -53 42 -95t86 -61.5t133 -52.5l98 -36q37 -14 88 -43t78.5 -57.5t49 -74t21.5 -98.5q0 -133 -107.5 -212t-281.5 -79q-154 0 -271.5 65.5t-117.5 178.5v100z" />
<glyph unicode="t" horiz-adv-x="694" d="M37 915v115h186v285h137v-285h261v-115h-261v-528q0 -86 25 -144.5t63.5 -84t73.5 -35.5t72 -10l47 4v-121q-25 -4 -59 -4q-43 0 -84 6t-93.5 29.5t-91.5 62.5t-65.5 112.5t-26.5 172.5v540h-184z" />
<glyph unicode="u" horiz-adv-x="1333" d="M35 915v115h323v-620q0 -70 7.5 -118t30 -94t69.5 -70t119 -24q168 0 273.5 130.5t105.5 306.5v374h-185v115h324v-872q0 -45 45 -45h117v-113h-174q-123 0 -123 115v51l2 74h-4q-12 -35 -41 -75t-77 -85t-124 -75t-166 -30q-176 0 -257 98.5t-81 301.5v540h-184z" />
<glyph unicode="v" horiz-adv-x="1153" d="M16 915v115h426v-115h-147l258 -690l20 -80h7q6 43 20 80l258 690h-147v115h426v-115h-136l-350 -915h-149l-350 915h-136z" />
<glyph unicode="w" horiz-adv-x="1742" d="M20 915v115h426v-115h-153l215 -692q12 -37 16 -80h4q6 43 17 80l258 803h137l258 -803l16 -80h5q4 43 14 80l217 692h-154v115h426v-115h-133l-293 -915h-149l-254 772l-19 82h-6q-6 -45 -18 -82l-254 -772h-152l-292 915h-132z" />
<glyph unicode="x" horiz-adv-x="1132" d="M59 0v115h164l264 420l-241 380h-176v115h260l207 -340l32 -59h4q14 31 33 61l211 338h250v-115h-170l-244 -380l269 -420h155v-115h-241l-232 379l-35 59h-4q-12 -31 -33 -61l-229 -377h-244z" />
<glyph unicode="y" horiz-adv-x="1175" d="M16 915v115h433v-115h-150l270 -702l17 -74h6q6 35 20 74l271 702h-150v115h426v-115h-135l-438 -1105q-45 -113 -127 -176.5t-189 -63.5q-51 0 -100 15.5t-72 29.5l-22 16l53 111q59 -49 137 -49q125 0 197 164l57 137l-368 921h-136z" />

<glyph unicode="z" horiz-adv-x="1054" d="M100 0v98l613 758l53 57v5q-37 -2 -78 -3h-446v-182h-127v297h827v-100l-612 -756l-54 -57v-4q39 2 80 2h465v182h127v-297h-848z" />
<glyph unicode="{" horiz-adv-x="655" d="M74 598v127q6 0 18 3t42 18.5t53.5 38t42 69.5t18.5 107v167q0 96 24.5 168t58.5 108t80 58.5t77.5 27.5t62.5 5h33v-115h-21q-27 0 -51.5 -7t-59 -30.5t-55 -79t-20.5 -139.5v-200q0 -55 -16.5 -103.5t-41 -76t-49 -47t-41.5 -25.5l-16 -8v-5q6 -2 17.5 -7t40 -24.5 t50 -46t39 -74.5t17.5 -108v-225q0 -84 20.5 -139t55 -79t59.5 -31t51 -7h21v-115q-12 -2 -33 -2q-31 0 -62.5 5.5t-77.5 28t-80 59t-58.5 108.5t-24.5 168v195q0 94 -44 152.5t-87 68.5z" />
<glyph unicode="|" horiz-adv-x="538" d="M205 -322v1936h129v-1936h-129z" />
<glyph unicode="}" horiz-adv-x="655" d="M70 -82h20q27 0 52.5 7t59.5 31t55.5 79t21.5 139v225q0 59 16 107.5t40.5 75t49.5 46t41 25.5l16 6v5q-6 2 -17 7t-40 26.5t-50.5 48t-38.5 74.5t-17 104v200q0 84 -21.5 139.5t-55.5 79t-59.5 30.5t-52.5 7h-20v115h32q33 0 65 -5t78 -26.5t79.5 -58.5t58.5 -108.5 t25 -168.5v-167q0 -174 137 -226l37 -10v-127q-6 0 -18.5 -3t-42 -18.5t-53.5 -38t-42 -68.5t-18 -105v-195q0 -96 -25 -168t-58.5 -108.5t-79.5 -59t-78 -28t-65 -5.5l-32 2v115z" />
<glyph unicode="~" horiz-adv-x="1232" d="M154 428q0 162 68.5 239.5t189.5 77.5q76 0 134 -32.5t90 -73.5t80 -74t105 -33q82 0 114 63.5t32 141.5h118q0 -162 -68.5 -239.5t-189.5 -77.5q-76 0 -134 33.5t-90 72.5t-80 73t-105 34q-82 0 -114 -63.5t-32 -141.5h-118z" />
<glyph unicode="&#xa1;" horiz-adv-x="458" d="M147 868v162h160v-162h-160zM158 -410l6 1063h131l6 -1063h-143z" />
<glyph unicode="&#xa2;" horiz-adv-x="1124" d="M96 721q0 231 113 390t317 181v172h115v-172q258 -29 383 -303l-131 -49q-102 221 -303 221q-170 0 -260 -123t-90 -317q0 -197 89 -318.5t261 -121.5q203 0 303 219l131 -49q-131 -281 -383 -304v-174h-115v174q-205 23 -317.5 182t-112.5 392z" />
<glyph unicode="&#xa3;" horiz-adv-x="1245" d="M92 121h180v547h-135v112h135v305q0 162 120 270.5t304 108.5q176 0 312 -108l8 -6l-84 -103q-102 86 -236 86q-131 0 -205.5 -73.5t-74.5 -182.5v-297h389v-112h-389v-545h600v239h131v-362h-1055v121z" />
<glyph unicode="&#xa5;" horiz-adv-x="1277" d="M94 1440h162l293 -512l88 -183h4q45 100 88 183l295 512h162l-361 -619h215v-104h-272l-55 -101v-79h327v-105h-327v-432h-144v432h-333v105h333v79l-57 101h-276v104h217z" />
<glyph unicode="&#xa7;" horiz-adv-x="825" d="M106 -41l70 98q72 -61 168 -61t159.5 60.5t63.5 162.5q0 43 -6 66l-135 878h123l139 -889q8 -35 8 -71q0 -143 -98 -236.5t-256 -93.5q-136 2 -236 86zM131 1135q0 143 98.5 236t255.5 93q137 -2 238 -86l-74 -96q-70 59 -164 59q-98 0 -162.5 -58t-64.5 -161 q0 -20 8 -61l135 -887h-120l-142 889q-8 49 -8 72z" />
<glyph unicode="&#xa8;" horiz-adv-x="1032" d="M258 1608v176h141v-176h-141zM633 1608v176h141v-176h-141z" />
<glyph unicode="&#xa9;" horiz-adv-x="1658" d="M102 721q0 309 212 526t511 217q305 0 519.5 -217t214.5 -526q0 -313 -213 -529.5t-521 -216.5q-301 0 -512 217.5t-211 528.5zM223 721q0 -268 174 -451.5t428 -183.5q260 0 437.5 183.5t177.5 451.5q0 266 -177.5 449.5t-437.5 183.5q-254 0 -428 -183.5t-174 -449.5z M424 717q0 172 114.5 297t307.5 125q63 0 120.5 -19.5t94.5 -47.5t65.5 -56.5t40.5 -48.5l13 -19l-95 -63l-10 15q-6 9 -28.5 33.5t-48 43t-65.5 34t-83 15.5q-141 0 -223 -90t-82 -217t81 -217t224 -90q135 0 225 127l10 14l95 -64q-4 -8 -13.5 -20t-40 -45t-66.5 -58.5 t-93.5 -46t-120.5 -20.5q-195 0 -308.5 124t-113.5 294z" />
<glyph unicode="&#xaa;" horiz-adv-x="878" d="M168 541v96h539v-96h-539zM170 977q0 227 393 227h25v8q0 152 -144 152q-94 0 -174 -59l-51 79q88 76 236 76q121 0 183 -64.5t62 -187.5v-413h-108v100h-4q-6 -12 -19.5 -30.5t-63.5 -50.5t-110 -32q-90 0 -157.5 51.5t-67.5 143.5zM287 987q0 -45 32.5 -75.5 t92.5 -30.5q78 0 127 66.5t49 148.5v18h-27q-274 0 -274 -127z" />
<glyph unicode="&#xab;" horiz-adv-x="1079" d="M100 578l336 421h152l-336 -421l336 -420h-152zM469 578l336 421h151l-335 -421l335 -420h-151z" />
<glyph unicode="&#xac;" horiz-adv-x="1220" d="M119 700v119h954v-495h-123v376h-831z" />
<glyph unicode="&#xad;" horiz-adv-x="1005" d="M213 518v127h580v-127h-580z" />
<glyph unicode="&#xae;" horiz-adv-x="1658" d="M102 721q0 309 212 526t511 217q305 0 519.5 -217t214.5 -526q0 -313 -213 -529.5t-521 -216.5q-301 0 -512 217.5t-211 528.5zM223 721q0 -268 174 -451.5t428 -183.5q260 0 437.5 183.5t177.5 451.5q0 266 -177.5 449.5t-437.5 183.5q-254 0 -428 -183.5t-174 -449.5z M584 1120h284q106 0 173 -65.5t67 -171.5q0 -84 -44 -140.5t-106 -70.5v-4q8 -10 27 -45l154 -301h-127l-160 323h-154v-323h-114v798zM698 735h150q66 0 103.5 39t37.5 109q0 68 -38 104.5t-103 36.5h-150v-289z" />

<glyph unicode="&#xaf;" horiz-adv-x="1032" d="M264 1608v112h504v-112h-504z" />
<glyph unicode="&#xb0;" horiz-adv-x="776" d="M100 1178q0 117 84 200.5t203 83.5t204 -84t85 -200q0 -119 -84 -202t-205 -83q-119 0 -203 83t-84 202zM221 1178q0 -72 48 -121t118 -49t118 49t48 121q0 70 -48 120t-118 50t-118 -50t-48 -120z" />
<glyph unicode="&#xb1;" horiz-adv-x="1241" d="M86 522v119h473v522h125v-522h471v-119h-471v-522h-125v522h-473zM123 -213h995v-119h-995v119z" />
<glyph unicode="&#xb2;" horiz-adv-x="856" d="M133 940q0 88 46 158.5t112 118.5l130 89q65 42 111 95t46 115q0 66 -47.5 111.5t-118.5 45.5q-49 0 -95.5 -25.5t-66.5 -50.5l-23 -24l-73 72q10 14 30.5 36.5t89 59.5t144.5 37q127 0 201.5 -73t74.5 -183q0 -84 -45 -149.5t-109 -109.5l-129 -84q-65 -40 -112 -94.5 t-49 -119.5h360v112h101v-211h-572q-6 45 -6 74z" />
<glyph unicode="&#xb3;" horiz-adv-x="815" d="M109 981l71 76q8 -12 23.5 -29.5t73 -47.5t122.5 -30q74 0 132.5 52.5t58.5 130t-60.5 125t-140.5 47.5h-65l-29 63l215 254l43 41v4q-25 -6 -57 -6h-248v-113h-103v209h549v-74l-248 -288q102 -10 180.5 -75t78.5 -185q0 -119 -88.5 -204t-217.5 -85q-88 0 -160.5 33.5 t-101.5 66.5z" />
<glyph unicode="&#xb4;" horiz-adv-x="1032" d="M332 1540l200 244h179l-232 -244h-147z" />
<glyph unicode="&#xb5;" horiz-adv-x="1193" d="M156 -410v1440h139v-618q0 -145 45 -225.5t180 -80.5q168 0 273.5 128t105.5 303v493h139v-1030h-135v156l4 80h-4q-4 -10 -13 -28t-43 -63t-75 -79.5t-113.5 -62.5t-156.5 -28q-76 0 -133.5 21.5t-75.5 44.5l-19 20h-4q14 -104 15 -155v-316h-129z" />
<glyph unicode="&#x3bc;" horiz-adv-x="1193" d="M156 -410v1440h139v-618q0 -145 45 -225.5t180 -80.5q168 0 273.5 128t105.5 303v493h139v-1030h-135v156l4 80h-4q-4 -10 -13 -28t-43 -63t-75 -79.5t-113.5 -62.5t-156.5 -28q-76 0 -133.5 21.5t-75.5 44.5l-19 20h-4q14 -104 15 -155v-316h-129z" />
<glyph unicode="&#xb6;" horiz-adv-x="1169" d="M82 968.5q0 198.5 142.5 335t342.5 136.5h492v-127h-371v-1415h-119v596q-201 0 -344 138t-143 336.5zM815 -102v1292h117v-1292h-117z" />
<glyph unicode="&#xb7;" horiz-adv-x="565" d="M201 506v170h164v-170h-164z" />
<glyph unicode="&#xb8;" horiz-adv-x="1032" d="M362 -328q39 -10 89 -10q104 0 104 72q0 74 -121 73h-31l58 240l88 -14v-17l-29 -135q63 -6 106.5 -47t43.5 -100q0 -84 -59.5 -124t-147.5 -40l-101 10v92z" />
<glyph unicode="&#xb9;" horiz-adv-x="815" d="M135 1536l225 221h107v-792h209v-99h-537v99h213v579l6 64h-4q-10 -16 -32 -39l-113 -109z" />
<glyph unicode="&#xba;" horiz-adv-x="972" d="M143 1126q0 141 100.5 238.5t242 97.5t241.5 -97t100 -239q0 -145 -99 -243.5t-242.5 -98.5t-243 98.5t-99.5 243.5zM178 541v96h621v-96h-621zM256 1126q0 -102 66.5 -169.5t163 -67.5t163 67.5t66.5 169.5q0 100 -66.5 167t-163 67t-163 -67t-66.5 -167z" />
<glyph unicode="&#xbb;" horiz-adv-x="1079" d="M123 158l336 420l-336 421h151l336 -421l-336 -420h-151zM492 158l335 420l-335 421h151l336 -421l-336 -420h-151z" />
<glyph unicode="&#xbc;" horiz-adv-x="1916" d="M117 1219l225 221h107v-793h208v-98h-536v98h213v580l6 63h-4q-10 -16 -33 -39l-113 -108zM541 0l688 1440h119l-686 -1440h-121zM1159 236v75l434 580h111v-559h133v-96h-133v-236h-113v236h-432zM1290 332h301v330l8 88h-6q-18 -41 -43 -74l-260 -340v-4z" />
<glyph unicode="&#xbd;" horiz-adv-x="1875" d="M102 1219l226 221h106v-793h209v-98h-537v98h213v580l7 63h-4q-10 -16 -33 -39l-113 -108zM526 0l688 1440h119l-686 -1440h-121zM1200 74q0 88 46 158.5t110.5 117.5t130 89t112 95.5t46.5 114.5q0 66 -47.5 112t-118.5 46q-49 0 -95.5 -24.5t-68.5 -49.5l-21 -26 l-73 71q10 14 30.5 37t89 59.5t144.5 36.5q127 0 201.5 -72.5t74.5 -183.5q0 -84 -45 -149.5t-109 -109.5l-129 -84q-65 -40 -112 -94t-49 -120h360v113h101v-211h-572q-6 45 -6 74z" />
<glyph unicode="&#xbe;" horiz-adv-x="1953" d="M104 664l72 75q8 -12 23.5 -29.5t73 -47t122.5 -29.5q74 0 132.5 52t58.5 130t-60.5 125t-140.5 47h-66l-28 64l215 254l43 41v4q-25 -6 -57 -7h-248v-112h-103v209h549v-74l-248 -289q102 -10 180 -74.5t78 -185.5q0 -119 -88 -204t-217 -85q-88 0 -160.5 34t-101.5 69z M571 0l689 1440h118l-686 -1440h-121zM1190 236v75l434 580h111v-559h133v-96h-133v-236h-113v236h-432zM1321 332h301v330l8 88h-6q-18 -41 -43 -74l-260 -340v-4z" />

<glyph unicode="&#xbf;" horiz-adv-x="929" d="M109 -68q0 94 37.5 169t91 126.5t107.5 98.5t92 109.5t38 135.5v82h137v-88q0 -90 -36.5 -163.5t-89.5 -123.5l-105 -99q-53 -48 -90 -109.5t-37 -130.5q0 -100 76 -168t194 -68q61 0 123 21.5t92 42.5l31 22l78 -102q-14 -12 -41 -32t-113 -52.5t-176 -32.5 q-178 0 -293.5 101t-115.5 261zM463 868v162h162v-162h-162z" />
<glyph unicode="&#xc0;" horiz-adv-x="1468" d="M23 0v119h147l485 1321h158l485 -1321h148v-119h-461v119h166l-137 370h-561l-136 -370h166v-119h-460zM451 1784h178l200 -244h-147zM492 610h483l-215 590l-23 92h-6q-4 -45 -20 -92z" />
<glyph unicode="&#xc1;" horiz-adv-x="1468" d="M23 0v119h147l485 1321h158l485 -1321h148v-119h-461v119h166l-137 370h-561l-136 -370h166v-119h-460zM492 610h483l-215 590l-23 92h-6q-4 -45 -20 -92zM635 1540l201 244h178l-232 -244h-147z" />
<glyph unicode="&#xc2;" horiz-adv-x="1468" d="M23 0v119h147l485 1321h158l485 -1321h148v-119h-461v119h166l-137 370h-561l-136 -370h166v-119h-460zM477 1540l172 244h168l170 -244h-141l-111 166h-4l-110 -166h-144zM492 610h483l-215 590l-23 92h-6q-4 -45 -20 -92z" />
<glyph unicode="&#xc3;" horiz-adv-x="1468" d="M23 0v119h147l485 1321h158l485 -1321h148v-119h-461v119h166l-137 370h-561l-136 -370h166v-119h-460zM410 1546q0 240 190 240q63 0 110.5 -36t81 -72t68.5 -36q84 0 84 138h117q0 -240 -191 -240q-51 0 -91 22.5t-61.5 48t-50 48t-57.5 22.5q-82 0 -82 -135h-118z M492 610h483l-215 590l-23 92h-6q-4 -45 -20 -92z" />
<glyph unicode="&#xc4;" horiz-adv-x="1468" d="M23 0v119h147l485 1321h158l485 -1321h148v-119h-461v119h166l-137 370h-561l-136 -370h166v-119h-460zM477 1608v176h141v-176h-141zM492 610h483l-215 590l-23 92h-6q-4 -45 -20 -92zM852 1608v176h141v-176h-141z" />
<glyph unicode="&#xc5;" horiz-adv-x="1468" d="M23 0v119h147l485 1321h158l485 -1321h148v-119h-461v119h166l-137 370h-561l-136 -370h166v-119h-460zM492 610h483l-215 590l-23 92h-6q-4 -45 -20 -92zM565 1663q0 72 49.5 117t118.5 45q74 0 124 -45t50 -117q0 -68 -51 -112t-123 -44q-70 0 -119 44t-49 112z M662 1663q0 -33 19 -53.5t52 -20.5q35 0 56.5 20.5t21.5 53.5q0 37 -21.5 58.5t-56.5 21.5q-33 0 -52 -21.5t-19 -58.5z" />
<glyph unicode="&#xc6;" horiz-adv-x="1888" d="M23 0v119h135l495 1202h-164v119h1246v-299h-125v176h-557v-531h540v-122h-540v-541h594v178h127v-301h-1045v119h180v547h-379l-225 -547h162v-119h-444zM578 784h331v533h-114z" />
<glyph unicode="&#xc7;" horiz-adv-x="1519" d="M111 729q0 313 209.5 524t519.5 211q74 0 158.5 -14t173 -45t146.5 -90.5t58 -136.5v-154h-137v115q0 66 -69.5 112.5t-155.5 65t-168 18.5q-252 0 -419 -171t-167 -431q0 -270 169 -449.5t425 -179.5q51 0 114.5 10.5t132 31t115 61.5t46.5 94v113h137v-154 q0 -94 -94.5 -161.5t-208 -94.5t-228.5 -29l-20 -94q66 -6 108.5 -47t42.5 -100q0 -84 -59 -124t-147 -40l-101 10v92q39 -10 88 -10q104 0 105 72q0 74 -121 73h-31l41 173q-291 27 -477 238.5t-186 510.5z" />
<glyph unicode="&#xc8;" horiz-adv-x="1282" d="M111 0v119h188v1202h-188v119h1017v-299h-131v176h-555v-531h545v-122h-545v-541h594v186h129v-309h-1054zM375 1784h178l201 -244h-148z" />
<glyph unicode="&#xc9;" horiz-adv-x="1282" d="M111 0v119h188v1202h-188v119h1017v-299h-131v176h-555v-531h545v-122h-545v-541h594v186h129v-309h-1054zM557 1540l201 244h178l-231 -244h-148z" />
<glyph unicode="&#xca;" horiz-adv-x="1282" d="M111 0v119h188v1202h-188v119h1017v-299h-131v176h-555v-531h545v-122h-545v-541h594v186h129v-309h-1054zM399 1540l172 244h168l170 -244h-141l-111 166h-4l-110 -166h-144z" />
<glyph unicode="&#xcb;" horiz-adv-x="1282" d="M111 0v119h188v1202h-188v119h1017v-299h-131v176h-555v-531h545v-122h-545v-541h594v186h129v-309h-1054zM399 1608v176h142v-176h-142zM774 1608v176h141v-176h-141z" />
<glyph unicode="&#xcc;" horiz-adv-x="741" d="M90 1784h178l201 -244h-147zM111 0v119h188v1202h-188v119h520v-119h-189v-1202h189v-119h-520z" />
<glyph unicode="&#xcd;" horiz-adv-x="741" d="M111 0v119h188v1202h-188v119h520v-119h-189v-1202h189v-119h-520zM272 1540l201 244h178l-231 -244h-148z" />
<glyph unicode="&#xce;" horiz-adv-x="741" d="M111 0v119h188v1202h-188v119h520v-119h-189v-1202h189v-119h-520zM115 1540l172 244h168l170 -244h-142l-110 166h-4l-111 -166h-143z" />
<glyph unicode="&#xcf;" horiz-adv-x="741" d="M111 0v119h188v1202h-188v119h520v-119h-189v-1202h189v-119h-520zM115 1608v176h141v-176h-141zM489 1608v176h142v-176h-142z" />

<glyph unicode="&#xd0;" horiz-adv-x="1607" d="M111 0v119h188v543h-160v122h160v537h-188v119h655q328 0 525.5 -191.5t197.5 -527.5q0 -340 -196.5 -530.5t-526.5 -190.5h-655zM442 123h310q270 0 428.5 155.5t158.5 442.5q0 285 -159.5 440.5t-427.5 155.5h-310v-533h349v-122h-349v-539z" />
<glyph unicode="&#xd1;" horiz-adv-x="1705" d="M111 0v119h188v1202h-188v119h327l807 -1137l43 -88h4l-6 100v1006h-190v119h522v-119h-188v-1321h-140l-807 1137l-43 88h-4l6 -99v-1007h191v-119h-522zM539 1546q0 240 190 240q63 0 110.5 -36t81 -72t68.5 -36q84 0 84 138h117q0 -240 -191 -240q-51 0 -91 22.5 t-61.5 48t-50 48t-57.5 22.5q-82 0 -82 -135h-118z" />
<glyph unicode="&#xd2;" horiz-adv-x="1689" d="M111 729q0 309 213 522t520 213t521 -213t214 -522q0 -315 -214 -534.5t-521 -219.5q-305 0 -519 219.5t-214 534.5zM260 729q0 -262 171 -442.5t413 -180.5q244 0 415 180.5t171 442.5q0 256 -171.5 430t-415 174t-413.5 -174t-170 -430zM563 1784h178l201 -244h-147z " />
<glyph unicode="&#xd3;" horiz-adv-x="1689" d="M111 729q0 309 213 522t520 213t521 -213t214 -522q0 -315 -214 -534.5t-521 -219.5q-305 0 -519 219.5t-214 534.5zM260 729q0 -262 171 -442.5t413 -180.5q244 0 415 180.5t171 442.5q0 256 -171.5 430t-415 174t-413.5 -174t-170 -430zM745 1540l201 244h178 l-231 -244h-148z" />
<glyph unicode="&#xd4;" horiz-adv-x="1689" d="M111 729q0 309 213 522t520 213t521 -213t214 -522q0 -315 -214 -534.5t-521 -219.5q-305 0 -519 219.5t-214 534.5zM260 729q0 -262 171 -442.5t413 -180.5q244 0 415 180.5t171 442.5q0 256 -171.5 430t-415 174t-413.5 -174t-170 -430zM590 1540l172 244h168l170 -244 h-142l-110 166h-4l-111 -166h-143z" />
<glyph unicode="&#xd5;" horiz-adv-x="1689" d="M111 729q0 309 213 522t520 213t521 -213t214 -522q0 -315 -214 -534.5t-521 -219.5q-305 0 -519 219.5t-214 534.5zM260 729q0 -262 171 -442.5t413 -180.5q244 0 415 180.5t171 442.5q0 256 -171.5 430t-415 174t-413.5 -174t-170 -430zM520 1546q0 240 191 240 q63 0 110 -36t81 -72t69 -36q84 0 84 138h116q0 -240 -190 -240q-51 0 -91 22.5t-61.5 48t-50 48t-57.5 22.5q-82 0 -82 -135h-119z" />
<glyph unicode="&#xd6;" horiz-adv-x="1689" d="M111 729q0 309 213 522t520 213t521 -213t214 -522q0 -315 -214 -534.5t-521 -219.5q-305 0 -519 219.5t-214 534.5zM260 729q0 -262 171 -442.5t413 -180.5q244 0 415 180.5t171 442.5q0 256 -171.5 430t-415 174t-413.5 -174t-170 -430zM588 1608v176h141v-176h-141z M963 1608v176h141v-176h-141z" />
<glyph unicode="&#xd7;" horiz-adv-x="1241" d="M98 84l441 498l-441 497l84 84l439 -493l438 493l84 -84l-445 -497l445 -498l-84 -84l-438 494l-439 -494z" />
<glyph unicode="&#xd8;" horiz-adv-x="1687" d="M111 729q0 309 213 522t520 213q209 0 387 -110l96 137l86 -61l-98 -136q123 -102 192.5 -248.5t69.5 -316.5q0 -315 -214 -534.5t-519 -219.5q-215 0 -391 115l-101 -139l-86 59l103 142q-121 104 -189.5 253.5t-68.5 323.5zM258 729q0 -281 195 -461l698 975 q-139 88 -307 88q-244 0 -415 -174t-171 -428zM530 201q139 -92 314 -92q246 0 416 179t170 441q0 276 -197 453z" />
<glyph unicode="&#xd9;" horiz-adv-x="1617" d="M68 1321v119h520v-119h-189v-789q0 -164 64 -264q104 -162 346 -162q248 0 346 168q63 109 64 263v784h-189v119h520v-119h-188v-791q0 -207 -92 -340q-70 -104 -191 -159.5t-270 -55.5q-152 0 -273.5 56.5t-191.5 161.5q-88 129 -88 337v791h-188zM526 1784h179 l200 -244h-147z" />
<glyph unicode="&#xda;" horiz-adv-x="1617" d="M68 1321v119h520v-119h-189v-789q0 -164 64 -264q104 -162 346 -162q248 0 346 168q63 109 64 263v784h-189v119h520v-119h-188v-791q0 -207 -92 -340q-70 -104 -191 -159.5t-270 -55.5q-152 0 -273.5 56.5t-191.5 161.5q-88 129 -88 337v791h-188zM709 1540l200 244h178 l-231 -244h-147z" />
<glyph unicode="&#xdb;" horiz-adv-x="1617" d="M68 1321v119h520v-119h-189v-789q0 -164 64 -264q104 -162 346 -162q248 0 346 168q63 109 64 263v784h-189v119h520v-119h-188v-791q0 -207 -92 -340q-70 -104 -191 -159.5t-270 -55.5q-152 0 -273.5 56.5t-191.5 161.5q-88 129 -88 337v791h-188zM553 1540l172 244h168 l170 -244h-141l-111 166h-4l-111 -166h-143z" />
<glyph unicode="&#xdc;" horiz-adv-x="1617" d="M68 1321v119h520v-119h-189v-789q0 -164 64 -264q104 -162 346 -162q248 0 346 168q63 109 64 263v784h-189v119h520v-119h-188v-791q0 -207 -92 -340q-70 -104 -191 -159.5t-270 -55.5q-152 0 -273.5 56.5t-191.5 161.5q-88 129 -88 337v791h-188zM551 1608v176h141 v-176h-141zM926 1608v176h141v-176h-141z" />
<glyph unicode="&#xdd;" horiz-adv-x="1318" d="M23 1321v119h454v-119h-160l312 -524l28 -56h5q12 29 28 56l314 524h-160v119h452v-119h-141l-424 -703v-499h189v-119h-521v119h189v499l-424 703h-141zM563 1540l201 244h178l-231 -244h-148z" />
<glyph unicode="&#xde;" horiz-adv-x="1316" d="M111 0v119h188v1202h-188v119h520v-119h-189v-166h363q197 0 317.5 -109.5t120.5 -297.5q0 -186 -122 -299t-318 -113h-361v-217h189v-119h-520zM442 455h340q145 0 229.5 76.5t84.5 216.5q0 137 -83 212.5t-229 75.5h-342v-581z" />
<glyph unicode="&#xdf;" horiz-adv-x="1239" d="M61 0v115h175v972q0 174 122.5 275.5t288.5 101.5q160 0 259.5 -90t99.5 -215q0 -72 -36 -134t-78 -99t-78 -82t-36 -88q0 -37 41 -77t100.5 -78t119 -81t100.5 -106.5t41 -134.5q0 -139 -97.5 -216t-234.5 -77q-86 0 -162 16t-108 33l-33 16v133q121 -74 293 -73 q86 0 142 43t56 129q0 63 -62.5 123.5t-138 101.5t-138 106.5t-62.5 137.5q0 59 36 114.5t78 92t77.5 90t35.5 108.5q0 72 -58.5 127t-160.5 55q-106 0 -187 -70.5t-81 -191.5v-1077h-314z" />
<glyph unicode="&#xe0;" d="M78 283q0 348 620 348h68v43q0 260 -248 260q-164 0 -295 -96l-4 -4l-65 104q16 12 45.5 31.5t126 52.5t200.5 33q379 0 379 -387v-508q0 -45 45 -45h113v-115h-168q-123 0 -123 113v18l6 80h-4q-4 -10 -11 -25.5t-37 -56.5t-65.5 -71.5t-100 -56.5t-138.5 -26 q-139 0 -241.5 80.5t-102.5 227.5zM221 297q0 -84 59.5 -145.5t161.5 -61.5q145 0 234.5 120t89.5 267v49h-59q-486 0 -486 -229zM248 1440h178l201 -244h-148z" />

<glyph unicode="&#xe1;" d="M78 283q0 348 620 348h68v43q0 260 -248 260q-164 0 -295 -96l-4 -4l-65 104q16 12 45.5 31.5t126 52.5t200.5 33q379 0 379 -387v-508q0 -45 45 -45h113v-115h-168q-123 0 -123 113v18l6 80h-4q-4 -10 -11 -25.5t-37 -56.5t-65.5 -71.5t-100 -56.5t-138.5 -26 q-139 0 -241.5 80.5t-102.5 227.5zM221 297q0 -84 59.5 -145.5t161.5 -61.5q145 0 234.5 120t89.5 267v49h-59q-486 0 -486 -229zM430 1196l201 244h178l-231 -244h-148z" />
<glyph unicode="&#xe2;" d="M78 283q0 348 620 348h68v43q0 260 -248 260q-164 0 -295 -96l-4 -4l-65 104q16 12 45.5 31.5t126 52.5t200.5 33q379 0 379 -387v-508q0 -45 45 -45h113v-115h-168q-123 0 -123 113v18l6 80h-4q-4 -10 -11 -25.5t-37 -56.5t-65.5 -71.5t-100 -56.5t-138.5 -26 q-139 0 -241.5 80.5t-102.5 227.5zM221 297q0 -84 59.5 -145.5t161.5 -61.5q145 0 234.5 120t89.5 267v49h-59q-486 0 -486 -229zM272 1196l172 244h168l170 -244h-141l-111 166h-4l-110 -166h-144z" />
<glyph unicode="&#xe3;" d="M78 283q0 348 620 348h68v43q0 260 -248 260q-164 0 -295 -96l-4 -4l-65 104q16 12 45.5 31.5t126 52.5t200.5 33q379 0 379 -387v-508q0 -45 45 -45h113v-115h-168q-123 0 -123 113v18l6 80h-4q-4 -10 -11 -25.5t-37 -56.5t-65.5 -71.5t-100 -56.5t-138.5 -26 q-139 0 -241.5 80.5t-102.5 227.5zM203 1202q0 240 190 240q63 0 110.5 -36t81 -72t68.5 -36q84 0 84 138h117q0 -240 -190 -240q-51 0 -91.5 22.5t-62 48t-50 48t-57.5 22.5q-82 0 -81 -135h-119zM221 297q0 -84 59.5 -145.5t161.5 -61.5q145 0 234.5 120t89.5 267v49h-59 q-486 0 -486 -229z" />
<glyph unicode="&#xe4;" d="M78 283q0 348 620 348h68v43q0 260 -248 260q-164 0 -295 -96l-4 -4l-65 104q16 12 45.5 31.5t126 52.5t200.5 33q379 0 379 -387v-508q0 -45 45 -45h113v-115h-168q-123 0 -123 113v18l6 80h-4q-4 -10 -11 -25.5t-37 -56.5t-65.5 -71.5t-100 -56.5t-138.5 -26 q-139 0 -241.5 80.5t-102.5 227.5zM221 297q0 -84 59.5 -145.5t161.5 -61.5q145 0 234.5 120t89.5 267v49h-59q-486 0 -486 -229zM270 1264v176h142v-176h-142zM645 1264v176h141v-176h-141z" />
<glyph unicode="&#xe5;" d="M78 283q0 348 620 348h68v43q0 260 -248 260q-164 0 -295 -96l-4 -4l-65 104q16 12 45.5 31.5t126 52.5t200.5 33q379 0 379 -387v-508q0 -45 45 -45h113v-115h-168q-123 0 -123 113v18l6 80h-4q-4 -10 -11 -25.5t-37 -56.5t-65.5 -71.5t-100 -56.5t-138.5 -26 q-139 0 -241.5 80.5t-102.5 227.5zM221 297q0 -84 59.5 -145.5t161.5 -61.5q145 0 234.5 120t89.5 267v49h-59q-486 0 -486 -229zM360 1319q0 72 49.5 117t118.5 45q74 0 124 -45t50 -117q0 -68 -51 -112t-123 -44q-70 0 -119 44t-49 112zM457 1319q0 -33 19.5 -53.5 t51.5 -20.5q35 0 56.5 20.5t21.5 53.5q0 37 -21.5 58.5t-56.5 21.5q-33 0 -52 -21.5t-19 -58.5z" />
<glyph unicode="&#xe6;" horiz-adv-x="1777" d="M80 281q0 68 22.5 122t57.5 89.5t90 61.5t105.5 38t119 20.5t114.5 9.5t107 1h70v41q0 270 -260 270q-76 0 -148.5 -24.5t-107.5 -49.5l-37 -26l-63 104q14 12 43.5 31.5t125 52.5t197.5 33q274 0 346 -213h4q123 213 387 213q201 0 314.5 -134.5t113.5 -334.5l-4 -66 h-774q2 -201 109.5 -311.5t273.5 -110.5q84 0 162 31t113 64l36 30l66 -104q-16 -16 -48 -40t-131.5 -64t-203.5 -40q-158 0 -275.5 76t-177.5 211h-4q-6 -23 -19 -51.5t-46 -72.5t-73 -77.5t-106.5 -59.5t-144.5 -26q-150 0 -252 81.5t-102 224.5zM221 289 q0 -82 61.5 -139.5t168.5 -57.5q141 0 229 120t88 265v41h-121q-80 0 -142.5 -7t-133 -27.5t-110.5 -70.5t-40 -124zM911 623h627q-6 152 -89 232.5t-202 80.5q-131 0 -221 -80.5t-115 -232.5z" />
<glyph unicode="&#xe7;" horiz-adv-x="1126" d="M94 512q0 238 156 390.5t383 152.5q53 0 114.5 -11.5t124 -36t102.5 -70.5t40 -106v-112h-129v76q0 63 -82 99t-168 36q-172 0 -284.5 -115t-112.5 -299q0 -186 116.5 -301t286.5 -115q41 0 81 7.5t71.5 18.5t58.5 24.5t49 29.5l37 28q14 11 26.5 22.5t14.5 11.5l59 -107 q-168 -152 -383 -160l-20 -94q63 -6 106 -47t43 -100q0 -84 -59 -124t-145 -40l-101 10v92q37 -10 86 -10q104 0 105 72q0 74 -121 73h-29l41 175q-201 25 -334 168t-133 362z" />
<glyph unicode="&#xe8;" horiz-adv-x="1130" d="M96 514q0 246 146.5 393.5t361.5 147.5q205 0 318.5 -136.5t113.5 -338.5l-6 -66h-790q4 -193 118.5 -303.5t280.5 -110.5q172 0 305 115l8 8l64 -104q-16 -16 -47 -40t-130.5 -64t-203.5 -40q-231 0 -385 151.5t-154 387.5zM246 616h645q-6 156 -88 239t-203 83 q-133 0 -231 -85t-123 -237zM324 1440h178l200 -244h-147z" />
<glyph unicode="&#xe9;" horiz-adv-x="1130" d="M96 514q0 246 146.5 393.5t361.5 147.5q205 0 318.5 -136.5t113.5 -338.5l-6 -66h-790q4 -193 118.5 -303.5t280.5 -110.5q172 0 305 115l8 8l64 -104q-16 -16 -47 -40t-130.5 -64t-203.5 -40q-231 0 -385 151.5t-154 387.5zM246 616h645q-6 156 -88 239t-203 83 q-133 0 -231 -85t-123 -237zM506 1196l201 244h178l-232 -244h-147z" />
<glyph unicode="&#xea;" horiz-adv-x="1130" d="M96 514q0 246 146.5 393.5t361.5 147.5q205 0 318.5 -136.5t113.5 -338.5l-6 -66h-790q4 -193 118.5 -303.5t280.5 -110.5q172 0 305 115l8 8l64 -104q-16 -16 -47 -40t-130.5 -64t-203.5 -40q-231 0 -385 151.5t-154 387.5zM246 616h645q-6 156 -88 239t-203 83 q-133 0 -231 -85t-123 -237zM350 1196l172 244h168l170 -244h-141l-111 166h-4l-110 -166h-144z" />
<glyph unicode="&#xeb;" horiz-adv-x="1130" d="M96 514q0 246 146.5 393.5t361.5 147.5q205 0 318.5 -136.5t113.5 -338.5l-6 -66h-790q4 -193 118.5 -303.5t280.5 -110.5q172 0 305 115l8 8l64 -104q-16 -16 -47 -40t-130.5 -64t-203.5 -40q-231 0 -385 151.5t-154 387.5zM246 616h645q-6 156 -88 239t-203 83 q-133 0 -231 -85t-123 -237zM348 1264v176h141v-176h-141zM723 1264v176h141v-176h-141z" />
<glyph unicode="&#xec;" horiz-adv-x="622" d="M41 1440h178l201 -244h-148zM94 915v115h299v-915h158v-115h-455v115h158v800h-160z" />
<glyph unicode="&#xed;" horiz-adv-x="622" d="M94 915v115h299v-915h158v-115h-455v115h158v800h-160zM223 1196l201 244h178l-231 -244h-148z" />
<glyph unicode="&#xee;" horiz-adv-x="622" d="M68 1196l172 244h168l170 -244h-142l-110 166h-4l-111 -166h-143zM94 915v115h299v-915h158v-115h-455v115h158v800h-160z" />
<glyph unicode="&#xef;" horiz-adv-x="622" d="M82 1264v176h141v-176h-141zM94 915v115h299v-915h158v-115h-455v115h158v800h-160zM406 1264v176h141v-176h-141z" />
<glyph unicode="&#xf0;" horiz-adv-x="1202" d="M98 475q0 197 130 339t360 142q178 0 286 -102l9 -8h4q-68 197 -256 328l-359 -162l-28 90l282 129q-133 70 -295 108l39 119q240 -59 410 -162l262 121l27 -90l-201 -92q309 -248 309 -676q0 -106 -29.5 -206.5t-88 -186.5t-159 -138.5t-229.5 -52.5q-217 0 -345 149.5 t-128 350.5zM242 473q0 -152 90 -262.5t243 -110.5q174 0 267.5 132.5t93.5 299.5q0 133 -93 219.5t-243 86.5q-174 0 -266 -107.5t-92 -257.5z" />
<glyph unicode="&#xf1;" horiz-adv-x="1380" d="M84 915v115h197q125 0 125 -115v-59l-9 -74h4q12 35 43 77t80 88t128 77t169 31q184 0 263 -100.5t79 -299.5v-540h174v-115h-313v618q0 145 -45 225.5t-180 80.5q-168 0 -279.5 -127t-111.5 -301v-381h174v-115h-488v115h174v755q0 45 -45 45h-139zM412 1202 q0 240 190 240q63 0 110.5 -36t81 -72t68.5 -36q84 0 84 138h117q0 -240 -191 -240q-51 0 -91 22.5t-61.5 48t-50 48t-57.5 22.5q-82 0 -82 -135h-118z" />

<glyph unicode="&#xf2;" horiz-adv-x="1271" d="M92 520q0 227 159 381t384 154q227 0 386 -153.5t159 -381.5q0 -231 -159 -388t-386 -157q-225 0 -384 157t-159 388zM236 520q0 -178 116.5 -299t282.5 -121q168 0 284.5 121t116.5 299q0 174 -116.5 292t-284.5 118q-166 0 -282.5 -118t-116.5 -292zM354 1440h178 l201 -244h-147z" />
<glyph unicode="&#xf3;" horiz-adv-x="1271" d="M92 520q0 227 159 381t384 154q227 0 386 -153.5t159 -381.5q0 -231 -159 -388t-386 -157q-225 0 -384 157t-159 388zM236 520q0 -178 116.5 -299t282.5 -121q168 0 284.5 121t116.5 299q0 174 -116.5 292t-284.5 118q-166 0 -282.5 -118t-116.5 -292zM537 1196l200 244 h178l-231 -244h-147z" />
<glyph unicode="&#xf4;" horiz-adv-x="1271" d="M92 520q0 227 159 381t384 154q227 0 386 -153.5t159 -381.5q0 -231 -159 -388t-386 -157q-225 0 -384 157t-159 388zM236 520q0 -178 116.5 -299t282.5 -121q168 0 284.5 121t116.5 299q0 174 -116.5 292t-284.5 118q-166 0 -282.5 -118t-116.5 -292zM381 1196l172 244 h168l170 -244h-141l-111 166h-4l-111 -166h-143z" />
<glyph unicode="&#xf5;" horiz-adv-x="1271" d="M92 520q0 227 159 381t384 154q227 0 386 -153.5t159 -381.5q0 -231 -159 -388t-386 -157q-225 0 -384 157t-159 388zM236 520q0 -178 116.5 -299t282.5 -121q168 0 284.5 121t116.5 299q0 174 -116.5 292t-284.5 118q-166 0 -282.5 -118t-116.5 -292zM311 1202 q0 240 191 240q63 0 110 -36t81 -72t69 -36q84 0 84 138h117q0 -240 -191 -240q-51 0 -91 22.5t-61.5 48t-50 48t-57.5 22.5q-82 0 -82 -135h-119z" />
<glyph unicode="&#xf6;" horiz-adv-x="1271" d="M92 520q0 227 159 381t384 154q227 0 386 -153.5t159 -381.5q0 -231 -159 -388t-386 -157q-225 0 -384 157t-159 388zM236 520q0 -178 116.5 -299t282.5 -121q168 0 284.5 121t116.5 299q0 174 -116.5 292t-284.5 118q-166 0 -282.5 -118t-116.5 -292zM379 1264v176h141 v-176h-141zM754 1264v176h141v-176h-141z" />
<glyph unicode="&#xf7;" horiz-adv-x="1241" d="M119 522v119h1003v-119h-1003zM543 125v151h153v-151h-153zM543 887v151h153v-151h-153z" />
<glyph unicode="&#xf8;" horiz-adv-x="1271" d="M92 520q0 227 159 381t384 154q156 0 285 -78l79 110l74 -53l-78 -110q184 -160 185 -404q0 -231 -159 -388t-384 -157q-147 0 -268 72l-80 -110l-74 55l76 104q-199 162 -199 424zM236 520q0 -184 133 -313l475 663q-100 59 -207 60q-168 0 -284.5 -118t-116.5 -292z M444 154q96 -53 193 -54q166 0 282.5 121t116.5 299q0 172 -123 291z" />
<glyph unicode="&#xf9;" horiz-adv-x="1333" d="M35 915v115h323v-620q0 -70 7.5 -118t30 -94t69.5 -70t119 -24q168 0 273.5 130.5t105.5 306.5v374h-185v115h324v-872q0 -45 45 -45h117v-113h-174q-123 0 -123 115v51l2 74h-4q-12 -35 -41 -75t-77 -85t-124 -75t-166 -30q-176 0 -257 98.5t-81 301.5v540h-184z M356 1440h179l200 -244h-147z" />
<glyph unicode="&#xfa;" horiz-adv-x="1333" d="M35 915v115h323v-620q0 -70 7.5 -118t30 -94t69.5 -70t119 -24q168 0 273.5 130.5t105.5 306.5v374h-185v115h324v-872q0 -45 45 -45h117v-113h-174q-123 0 -123 115v51l2 74h-4q-12 -35 -41 -75t-77 -85t-124 -75t-166 -30q-176 0 -257 98.5t-81 301.5v540h-184z M539 1196l200 244h179l-232 -244h-147z" />
<glyph unicode="&#xfb;" horiz-adv-x="1333" d="M35 915v115h323v-620q0 -70 7.5 -118t30 -94t69.5 -70t119 -24q168 0 273.5 130.5t105.5 306.5v374h-185v115h324v-872q0 -45 45 -45h117v-113h-174q-123 0 -123 115v51l2 74h-4q-12 -35 -41 -75t-77 -85t-124 -75t-166 -30q-176 0 -257 98.5t-81 301.5v540h-184z M381 1196l172 244h168l170 -244h-141l-111 166h-4l-111 -166h-143z" />
<glyph unicode="&#xfc;" horiz-adv-x="1333" d="M35 915v115h323v-620q0 -70 7.5 -118t30 -94t69.5 -70t119 -24q168 0 273.5 130.5t105.5 306.5v374h-185v115h324v-872q0 -45 45 -45h117v-113h-174q-123 0 -123 115v51l2 74h-4q-12 -35 -41 -75t-77 -85t-124 -75t-166 -30q-176 0 -257 98.5t-81 301.5v540h-184z M381 1264v176h141v-176h-141zM756 1264v176h141v-176h-141z" />
<glyph unicode="&#xfd;" horiz-adv-x="1175" d="M16 915v115h433v-115h-150l270 -702l17 -74h6q6 35 20 74l271 702h-150v115h426v-115h-135l-438 -1105q-45 -113 -127 -176.5t-189 -63.5q-51 0 -100 15.5t-72 29.5l-22 16l53 111q59 -49 137 -49q125 0 197 164l57 137l-368 921h-136zM500 1196l200 244h179l-232 -244 h-147z" />
<glyph unicode="&#xfe;" horiz-adv-x="1220" d="M8 1440h316v-500l-2 -84h4l10 22q6 13 34.5 46.5t64.5 60.5t99.5 48.5t137.5 21.5q207 0 328.5 -149.5t121.5 -389.5q0 -242 -128 -391.5t-330 -149.5q-72 0 -132.5 20.5t-97.5 49.5t-63.5 58.5t-36.5 50.5l-10 20h-5q4 -37 5 -90v-379h174v-115h-488v115h174v1620h-176 v115zM319 514q0 -174 89.5 -294t240.5 -120q141 0 235.5 114t94.5 302q0 184 -90 299t-233.5 115t-240 -104.5t-96.5 -311.5z" />
<glyph unicode="&#xff;" horiz-adv-x="1175" d="M16 915v115h433v-115h-150l270 -702l17 -74h6q6 35 20 74l271 702h-150v115h426v-115h-135l-438 -1105q-45 -113 -127 -176.5t-189 -63.5q-51 0 -100 15.5t-72 29.5l-22 16l53 111q59 -49 137 -49q125 0 197 164l57 137l-368 921h-136zM342 1264v176h141v-176h-141z M717 1264v176h141v-176h-141z" />
<glyph unicode="&#x152;" horiz-adv-x="1970" d="M113 721q0 313 208.5 526t526.5 213q45 0 129 -10t115 -10h727v-299h-127v176h-557v-531h540v-122h-540v-541h596v178h124v-301h-761q-29 0 -115 -10t-131 -10q-317 0 -526 213t-209 528zM260 721q0 -264 164 -439.5t424 -175.5q35 0 70.5 4.5t54.5 8.5l18 4v1194 q-66 16 -143 16q-260 0 -424 -175t-164 -437z" />
<glyph unicode="&#x153;" horiz-adv-x="2070" d="M94 512q0 240 157 391.5t382 151.5q154 0 276.5 -74t188.5 -203h4q61 131 177 204t265 73q205 0 318.5 -136.5t113.5 -338.5l-6 -68h-788q8 -195 121.5 -304.5t277.5 -109.5q82 0 160 31t114 64l37 30l64 -104q-16 -16 -47 -40t-130.5 -64t-203.5 -40q-160 0 -284 75 t-185 206h-4q-66 -131 -188.5 -206t-280.5 -75q-225 0 -382 149.5t-157 387.5zM238 512q0 -182 115.5 -297t281.5 -115q168 0 284.5 116t116.5 304q0 182 -117.5 296t-283.5 114t-281.5 -117t-115.5 -301zM1188 616h645q-6 154 -88 238t-203 84q-133 0 -231 -85t-123 -237z " />
<glyph unicode="&#x178;" horiz-adv-x="1318" d="M23 1321v119h454v-119h-160l312 -524l28 -56h5q12 29 28 56l314 524h-160v119h452v-119h-141l-424 -703v-499h189v-119h-521v119h189v499l-424 703h-141zM403 1608v176h142v-176h-142zM778 1608v176h142v-176h-142z" />

<glyph unicode="&#x2c6;" horiz-adv-x="1032" d="M260 1540l172 244h168l170 -244h-141l-111 166h-4l-111 -166h-143z" />
<glyph unicode="&#x2dc;" horiz-adv-x="1032" d="M190 1546q0 240 191 240q63 0 110.5 -36t81 -72t68.5 -36q84 0 84 138h117q0 -240 -191 -240q-51 0 -91 22.5t-61.5 48t-50 48t-57.5 22.5q-82 0 -82 -135h-119z" />
<glyph unicode="&#x2013;" horiz-adv-x="1462" d="M219 522v119h1024v-119h-1024z" />
<glyph unicode="&#x2014;" horiz-adv-x="1871" d="M219 522v119h1434v-119h-1434z" />
<glyph unicode="&#x2018;" horiz-adv-x="446" d="M111 1042l133 416h110l-96 -416h-147z" />
<glyph unicode="&#x2019;" horiz-adv-x="438" d="M117 1042l96 416h147l-131 -416h-112z" />
<glyph unicode="&#x201a;" horiz-adv-x="481" d="M84 -250l96 418h146l-131 -418h-111z" />
<glyph unicode="&#x201c;" horiz-adv-x="708" d="M111 1042l133 416h110l-96 -416h-147zM373 1042l131 416h112l-96 -416h-147z" />
<glyph unicode="&#x201d;" horiz-adv-x="698" d="M117 1042l96 416h147l-131 -416h-112zM379 1042l94 416h150l-134 -416h-110z" />
<glyph unicode="&#x201e;" horiz-adv-x="739" d="M84 -250l96 418h146l-131 -418h-111zM342 -250l96 418h146l-131 -418h-111z" />
<glyph unicode="&#x2022;" horiz-adv-x="825" d="M121 596q0 121 86 207t207 86t206 -86t85 -207t-85 -207t-206 -86t-207 86t-86 207z" />
<glyph unicode="&#x2026;" horiz-adv-x="1458" d="M166 0v170h164v-170h-164zM647 0v170h164v-170h-164zM1128 0v170h164v-170h-164z" />
<glyph unicode="&#x2039;" horiz-adv-x="710" d="M100 578l336 421h152l-336 -421l336 -420h-152z" />
<glyph unicode="&#x203a;" horiz-adv-x="710" d="M123 158l336 420l-336 421h151l336 -421l-336 -420h-151z" />
<glyph unicode="&#x20ac;" horiz-adv-x="1220" d="M96 526v103h111q-10 117 2 207h-113v102h131q61 233 248 379.5t436 146.5q49 0 97.5 -6t72.5 -12l23 -6l-33 -129q-76 23 -162 22q-195 0 -336 -108.5t-194 -286.5h625l-21 -102h-627q-12 -96 -2 -207h592l-20 -103h-549q49 -188 192.5 -304t341.5 -116q47 0 93.5 7.5 t68.5 13.5l23 8l30 -129q-92 -31 -215 -31q-260 0 -446 154t-242 397h-127z" />
<glyph unicode="&#x2122;" horiz-adv-x="1933" d="M61 1333v107h756v-107h-319v-790h-117v790h-320zM893 543l72 897h104l238 -514l28 -84h4q10 45 29 84l236 514h104l72 -897h-115l-49 608l2 59h-4l-230 -499h-96l-229 499h-4l2 -59l-49 -608h-115z" />
<glyph unicode="&#xe000;" horiz-adv-x="1030" d="M0 1030h1030v-1030h-1030v1030z" />

<glyph unicode="&#xfb01;" horiz-adv-x="1314" d="M84 915v115h184v53q0 115 36 194t94.5 113.5t106.5 47t99 12.5l84 -6v-121q-27 6 -70 6q-33 0 -63.5 -8t-67 -30.5t-58 -75t-21.5 -130.5v-55h675v-915h174v-115h-487v115h174v800h-536v-800h204v-115h-518v115h174v800h-184zM934 1266v174h158v-174h-158z" />
<glyph unicode="&#xfb02;" horiz-adv-x="1271" d="M84 915v115h184v35q0 115 39 198t105.5 125t138.5 61t154 19q88 0 170.5 -11t123.5 -23l39 -13v-1153q0 -74 26 -113.5t99 -39.5l49 4v-119q-39 -6 -77 -6q-236 0 -236 264v1069q-59 25 -197 25q-125 0 -209.5 -65.5t-84.5 -219.5v-37h262v-115h-262v-800h204v-115h-518 v115h174v800h-184z" />
<glyph unicode="&#xfb03;" horiz-adv-x="1988" d="M84 915v115h184v53q0 115 36 194t94.5 113.5t106.5 47t99 12.5l84 -6v-121q-27 6 -70 6q-33 0 -63.5 -8t-67 -30.5t-58 -75t-21.5 -130.5v-55h536v53q0 115 36 194t93 113.5t105.5 47t99.5 12.5l84 -6v-121q-27 6 -70 6q-33 0 -63.5 -8t-66.5 -30.5t-57.5 -75 t-21.5 -130.5v-55h674v-915h174v-115h-487v115h174v800h-535v-800h203v-115h-516v115h174v800h-536v-800h204v-115h-518v115h174v800h-184zM1608 1266v174h157v-174h-157z" />
<glyph unicode="&#xfb04;" horiz-adv-x="1945" d="M84 915v115h184v53q0 115 36 194t94.5 113.5t107.5 47t102 12.5l80 -6v-121q-29 6 -67 6q-35 0 -66 -8t-66.5 -30.5t-58 -75t-22.5 -130.5v-55h536v35q0 115 39 198t104.5 125t137 61t153.5 19q88 0 171 -11t122 -23l41 -13v-1153q0 -74 25.5 -113.5t99.5 -39.5l49 4 v-119q-39 -6 -78 -6q-236 0 -235 264v1069q-59 25 -197 25q-125 0 -209 -65.5t-84 -219.5v-37h260v-115h-260v-800h203v-115h-516v115h174v800h-536v-800h204v-115h-518v115h174v800h-184z" />
</font>
</defs>
</svg>
