<?xml version="1.0" standalone="no"?>
<!DOCTYPE svg PUBLIC "-//W3C//DTD SVG 1.1//EN" "http://www.w3.org/Graphics/SVG/1.1/DTD/svg11.dtd" >
<svg xmlns="http://www.w3.org/2000/svg">
<metadata>
This is a custom SVG webfont generated by Font Squirrel.
Copyright   : Copyright c 2009 by Jos Buivenga All rights reserved
Designer    : Jos Buivenga
Foundry     : Jos Buivenga
Foundry URL : httpwwwexljbriscom
</metadata>
<defs>
<font id="MuseoSlab100" horiz-adv-x="1691" >
<font-face units-per-em="2048" ascent="1536" descent="-512" />
<missing-glyph horiz-adv-x="512" />
<glyph unicode=" "  horiz-adv-x="512" />
<glyph unicode="&#x09;" horiz-adv-x="512" />
<glyph unicode="&#xa0;" horiz-adv-x="512" />
<glyph unicode="!" horiz-adv-x="448" d="M166 0v125h121v-125h-121zM180 358v1076h88v-1076h-88z" />
<glyph unicode="&#x22;" horiz-adv-x="600" d="M150 1061v391h88v-391h-88zM362 1061v391h89v-391h-89z" />
<glyph unicode="#" horiz-adv-x="1488" d="M100 408l15 81h311l80 453h-311l14 82h311l72 410h88l-72 -410h387l72 410h88l-72 -410h306l-15 -82h-305l-80 -453h305l-14 -81h-305l-72 -408h-88l72 408h-387l-72 -408h-88l72 408h-312zM514 489h387l80 453h-387z" />
<glyph unicode="$" horiz-adv-x="1054" d="M100 184l60 68l17 -17q11 -11 49 -39t79 -48.5t106.5 -38t131.5 -17.5q137 0 228 78t91 205q0 72 -41 127t-105.5 91t-144 66.5t-158.5 66.5t-143.5 79t-105.5 112.5t-41 159.5q0 133 102.5 230.5t270.5 115.5v226h88v-224q96 -4 179 -36.5t118 -63.5l37 -31l-48 -73 q-14 14 -39.5 33.5t-108.5 53t-167 33.5q-154 0 -247 -76.5t-93 -185.5q0 -88 54.5 -152.5t137.5 -99.5l178 -75q95 -41 178 -81t137 -115t54 -177q0 -150 -101 -253t-269 -118v-221h-88v221q-115 8 -213.5 52t-139.5 83z" />

<glyph unicode="%" horiz-adv-x="1400" d="M106 0l1088 1434h106l-1087 -1434h-107zM111 1189.5q0 110.5 77.5 189.5t188 79t189.5 -79t79 -189.5t-79 -188t-189.5 -77.5t-188 77.5t-77.5 188zM199 1190q0 -78 51 -131t127 -53t128 53t52 131t-52 132t-128 54t-127 -54t-51 -132zM758 241.5q0 110.5 77.5 189.5 t188.5 79t189.5 -79t78.5 -189.5t-78.5 -188.5t-189.5 -78t-188.5 78t-77.5 188.5zM846 241.5q0 -77.5 51 -131t127 -53.5t128 53.5t52 131t-52 132t-128 54.5t-127 -54.5t-51 -132z" />
<glyph unicode="&#x26;" horiz-adv-x="1347" d="M123 391q0 133 71.5 241.5t198.5 143.5v4q-8 2 -22.5 8.5t-50 30t-62.5 56t-49.5 93t-22.5 134.5q0 158 117 257t322 99q27 0 64.5 -5t62.5 -11l24 -4l-28 -78q-76 16 -130 16q-147 0 -243 -74.5t-96 -197.5q0 -47 12 -90t46 -91.5t109.5 -78t188.5 -29.5h369v209h88 v-209h198v-82h-198v-229q0 -264 -128 -396.5t-350 -132.5q-215 0 -353 118t-138 298zM215 395q0 -143 107.5 -238.5t291.5 -95.5q389 0 390 443v229h-371q-207 0 -312.5 -91t-105.5 -247z" />
<glyph unicode="'" horiz-adv-x="387" d="M150 1061v391h88v-391h-88z" />
<glyph unicode="(" horiz-adv-x="587" d="M164 686q0 426 225 799h90q-231 -389 -231 -801q0 -473 231 -879h-90q-225 396 -225 881z" />
<glyph unicode=")" horiz-adv-x="589" d="M111 -195q231 406 231 879q0 412 -231 801h90q225 -373 225 -799q0 -485 -225 -881h-90z" />
<glyph unicode="*" horiz-adv-x="974" d="M104 1122l27 86l318 -110l-11 336h97l-11 -336l320 108l28 -84l-321 -96v-4l201 -266l-72 -54l-191 275h-4l-190 -272l-74 51l203 266v4z" />
<glyph unicode="+" horiz-adv-x="1228" d="M86 539v82h485v538h88v-538h484v-82h-484v-539h-88v539h-485z" />
<glyph unicode="," horiz-adv-x="493" d="M61 -274l138 399h114l-166 -399h-86z" />
<glyph unicode="-" horiz-adv-x="1081" d="M258 539v82h565v-82h-565z" />
<glyph unicode="." horiz-adv-x="485" d="M180 0v129h125v-129h-125z" />
<glyph unicode="/" horiz-adv-x="806" d="M100 -86l518 1602h91l-519 -1602h-90z" />
<glyph unicode="0" horiz-adv-x="1257" d="M145 716.5q0 741.5 483.5 741.5t483.5 -741.5t-483.5 -741.5t-483.5 741.5zM238 717q0 -147 18 -261t61 -206t122 -141.5t189.5 -49.5t189.5 49.5t122 141.5t61.5 205.5t18.5 261.5q0 657 -391 657t-391 -657z" />
<glyph unicode="1" horiz-adv-x="876" d="M100 0v82h326v1167l2 72h-4q-14 -27 -76 -88l-170 -170l-61 59l309 312h88v-1352h317v-82h-731z" />
<glyph unicode="2" horiz-adv-x="1165" d="M117 76q0 100 42 187t109.5 150.5t149.5 122.5l163 114q81 56 148.5 114.5t109.5 135.5t42 165q0 133 -91.5 221t-242.5 88q-190 0 -324 -172l-24 -35l-66 45l17 27q10 16 48 58t81 75t116.5 59.5t153.5 26.5q201 0 312.5 -114.5t111.5 -278.5q0 -115 -56.5 -213 t-141.5 -164l-183 -136l-183 -132q-85 -61 -141.5 -149.5t-56.5 -188.5h750v207h86v-289h-924q-6 41 -6 76z" />
<glyph unicode="3" horiz-adv-x="1128" d="M98 174l66 66q6 -8 17.5 -19.5t50 -43.5t80.5 -55.5t106.5 -43t130.5 -19.5q141 0 249.5 100.5t108.5 254.5q0 160 -113.5 251t-269.5 91l-96 -4l-27 65l422 494l45 41v4q-39 -4 -61 -4h-555v-207h-86v289h823v-62l-463 -534q55 0 114.5 -10.5t125 -41t117 -76.5t84 -123 t32.5 -173q0 -182 -134 -310.5t-320 -128.5q-231 0 -416 170z" />
<glyph unicode="4" horiz-adv-x="1177" d="M61 410v61l744 963h82v-942h213v-82h-213v-410h-88v410h-738zM184 492h615v722l6 80h-4q-20 -35 -45 -65l-572 -733v-4z" />
<glyph unicode="5" horiz-adv-x="1124" d="M106 162l68 59q4 -6 13.5 -17t40 -39t67.5 -49.5t96.5 -39t124.5 -17.5q166 0 281.5 112t115.5 261q0 174 -110.5 279.5t-280.5 105.5q-74 0 -144.5 -21.5t-105.5 -43.5l-34 -23l-66 23l82 682h666v-289h-86v207h-502l-56 -459l-12 -57h4q106 66 258 65q201 0 340.5 -132 t139.5 -325q0 -195 -143.5 -332t-348.5 -137q-123 0 -224.5 47.5t-142.5 92.5z" />

<glyph unicode="6" horiz-adv-x="1193" d="M137 645q0 139 36 276.5t105.5 260.5t193.5 199.5t282 76.5q147 0 250 -57l-43 -80q-88 53 -211 53q-121 0 -219.5 -58.5t-160 -154.5t-97 -210.5t-44.5 -237.5h4q59 90 169 143t237 53q193 0 316.5 -125t123.5 -331q0 -223 -127 -350.5t-313 -127.5q-231 0 -366.5 192.5 t-135.5 477.5zM238 539q0 -166 114.5 -323t284.5 -157q162 0 256 110t94 284q0 170 -97 271t-255 101q-160 0 -278.5 -92t-118.5 -194z" />
<glyph unicode="7" horiz-adv-x="1069" d="M88 1145v289h940v-62l-680 -1372h-92l635 1294l35 58v4q-31 -4 -68 -4h-684v-207h-86z" />
<glyph unicode="8" horiz-adv-x="1208" d="M133 401q0 90 32 169t83 130.5t78.5 74t54.5 38.5q-190 115 -191 293q0 147 112 249.5t312 102.5q195 0 309.5 -100.5t114.5 -261.5q0 -98 -47 -198.5t-82 -143.5t-57 -62q217 -119 217 -309q0 -170 -134 -289t-327 -119q-190 0 -332.5 116.5t-142.5 309.5zM225 406 q0 -152 115 -249.5t264 -97.5q143 0 258 91.5t115 222.5q0 63 -25.5 113.5t-85 90t-108.5 64.5t-146.5 64.5t-148.5 64.5q-238 -147 -238 -364zM283 1108q0 -51 22.5 -95t52 -74t86 -62.5t97.5 -50.5l114 -48l113 -47q23 18 57.5 59t77.5 129.5t43 172.5q0 131 -93 206.5 t-241 75.5q-152 0 -240.5 -76.5t-88.5 -189.5z" />
<glyph unicode="9" horiz-adv-x="1193" d="M115 981q0 223 127 350t313 127q231 0 366.5 -192.5t135.5 -477.5q0 -139 -36 -276t-105.5 -260t-193.5 -200t-282 -77q-147 0 -250 58l43 80q88 -53 211 -54q121 0 219.5 58.5t160 155t97 211t44.5 237.5h-4q-59 -86 -170 -138.5t-236 -52.5q-190 0 -315 124t-125 327z M207 981q0 -166 98 -266.5t254 -100.5q160 0 278.5 89.5t118.5 191.5q0 166 -114.5 322.5t-284.5 156.5q-162 0 -256 -109.5t-94 -283.5z" />
<glyph unicode=":" horiz-adv-x="620" d="M248 0v129h125v-129h-125zM248 895v129h125v-129h-125z" />
<glyph unicode=";" horiz-adv-x="626" d="M145 -274l117 399h115l-146 -399h-86zM250 895v129h125v-129h-125z" />
<glyph unicode="&#x3c;" horiz-adv-x="1228" d="M141 543v73l899 404v-98l-772 -340v-4l772 -340v-99z" />
<glyph unicode="=" horiz-adv-x="1228" d="M147 375v82h934v-82h-934zM147 702v82h934v-82h-934z" />
<glyph unicode="&#x3e;" horiz-adv-x="1228" d="M186 139v99l772 340v4l-772 340v98l899 -404v-73z" />
<glyph unicode="?" horiz-adv-x="911" d="M90 1356q14 12 39 28.5t104.5 45t161.5 28.5q174 0 283.5 -100.5t109.5 -251.5q0 -80 -27.5 -146.5t-68.5 -109.5l-89 -90l-89 -86q-41 -39 -68.5 -98.5t-27.5 -126.5v-91h-88v91q0 92 38 168.5t91 130.5l107 103q54 50 92 115.5t38 141.5q0 113 -84 188.5t-215 75.5 q-145 -2 -260 -86zM313 0v125h121v-125h-121z" />
<glyph unicode="@" horiz-adv-x="1542" d="M109 500q0 311 208.5 528t524.5 217q221 0 335.5 -106.5t114.5 -255.5v-705h144v-82h-543q-164 0 -279.5 117t-115.5 281q0 166 115.5 283.5t279.5 117.5h307q-4 113 -93 190.5t-265 77.5q-276 0 -458.5 -192.5t-182.5 -472.5q0 -279 181 -470.5t447 -191.5v-86 q-301 0 -510.5 218.5t-209.5 531.5zM590 493.5q0 -131.5 91 -223.5t222 -92h297v635h-293q-133 0 -225 -94t-92 -225.5z" />
<glyph unicode="A" horiz-adv-x="1454" d="M20 0v82h154l506 1352h94l506 -1352h154v-82h-422v82h174l-156 414h-608l-154 -414h174v-82h-422zM453 578h546l-249 669q-14 37 -21 78h-4q-6 -41 -20 -78z" />
<glyph unicode="B" horiz-adv-x="1351" d="M109 82h194v1270h-194v82h639q150 0 243 -54q68 -39 112 -120.5t44 -186.5q0 -221 -186 -311v-4q109 -29 176 -127.5t67 -231.5q0 -125 -61.5 -225t-161.5 -141q-78 -33 -215 -33h-657v82zM391 82h375q109 0 172 27q80 33 127 108.5t47 177.5q0 143 -89 230.5t-228 87.5 h-404v-631zM391 795h391q121 0 197 76.5t76 203.5q0 162 -115 234q-70 43 -192 43h-357v-557z" />
<glyph unicode="C" horiz-adv-x="1515" d="M121 727q0 311 207 521t514 210q102 0 213.5 -23.5t210 -92t98.5 -168.5v-136h-90v115q0 74 -77 126t-170 73.5t-183 21.5q-268 0 -449.5 -185t-181.5 -462q0 -281 182.5 -474.5t454.5 -193.5q55 0 124.5 11.5t145.5 35t126 69.5t50 104v112h90v-133q0 -72 -55 -129 t-140 -89t-173 -48.5t-168 -16.5q-315 0 -522 218.5t-207 533.5z" />
<glyph unicode="D" horiz-adv-x="1576" d="M109 0v82h194v1270h-194v82h598q184 0 309 -39q203 -68 317.5 -246t114.5 -434q0 -266 -124 -443.5t-345 -240.5q-106 -31 -272 -31h-598zM391 82h301q156 0 264 33q186 55 293 211.5t107 390.5q0 225 -100.5 382.5t-278.5 217.5q-102 35 -285 35h-301v-1270z" />
<glyph unicode="E" horiz-adv-x="1261" d="M109 0v82h194v1270h-194v82h989v-267h-86v185h-621v-588h572v-82h-572v-600h662v197h86v-279h-1030z" />
<glyph unicode="F" horiz-adv-x="1136" d="M109 0v82h194v1270h-194v82h938v-277h-86v195h-570v-598h549v-82h-549v-590h205v-82h-487z" />

<glyph unicode="G" horiz-adv-x="1568" d="M123 716.5q0 319.5 204.5 530.5t534.5 211q201 0 366 -77.5t165 -204.5v-138h-90v109q0 72 -72 125t-170 77.5t-203 24.5q-289 0 -466 -187.5t-177 -471.5q0 -283 178 -469.5t459 -186.5q66 0 141.5 11.5t156.5 36t134 73.5t53 115v256h-317v82h405v-348 q0 -80 -56 -142.5t-145 -97.5t-182.5 -52.5t-181.5 -17.5q-326 0 -531.5 211t-205.5 530.5z" />
<glyph unicode="H" d="M109 0v82h194v1270h-194v82h477v-82h-195v-592h909v592h-194v82h477v-82h-194v-1270h194v-82h-477v82h194v596h-909v-596h195v-82h-477z" />
<glyph unicode="I" horiz-adv-x="694" d="M109 0v82h194v1270h-194v82h477v-82h-195v-1270h195v-82h-477z" />
<glyph unicode="J" horiz-adv-x="1095" d="M66 383v53h88v-39q0 -145 77.5 -241.5t217.5 -96.5q123 0 208.5 81t85.5 257v955h-227v82h490v-82h-175v-969q0 -209 -111.5 -308.5t-271 -99.5t-271 99.5t-111.5 308.5z" />
<glyph unicode="K" horiz-adv-x="1323" d="M109 82h194v1270h-194v82h477v-82h-195v-557h232l387 557h-150v82h408v-82h-152l-418 -594v-4q25 -12 60 -72l325 -541q37 -59 113 -59h72v-82h-72q-86 0 -121 20.5t-76 88.5l-321 536q-39 68 -119 68h-168v-631h195v-82h-477v82z" />
<glyph unicode="L" horiz-adv-x="1183" d="M109 0v82h194v1270h-194v82h477v-82h-195v-1270h639v246h86v-328h-1007z" />
<glyph unicode="M" horiz-adv-x="1900" d="M74 0v82h194l101 1270h-197v82h289l461 -996l26 -67h4q10 31 27 67l461 996h289v-82h-197l100 -1270h195v-82h-477v82h194l-88 1110l2 86h-4q-14 -53 -27 -80l-432 -922h-90l-432 922l-27 80h-4l2 -86l-88 -1110h195v-82h-477z" />
<glyph unicode="N" horiz-adv-x="1685" d="M109 0v82h194v1270h-194v82h274l893 -1225l39 -74h4l-6 84v1133h-195v82h477v-82h-194v-1352h-82l-891 1227l-39 73h-4l6 -83v-1135h195v-82h-477z" />
<glyph unicode="O" d="M121 727q0 307 212 519t513 212t513 -212t212 -519q0 -315 -212 -533.5t-513 -218.5t-513 218.5t-212 533.5zM213 727q0 -281 184.5 -474.5t448.5 -193.5t448.5 193.5t184.5 474.5q0 274 -184.5 460.5t-448.5 186.5t-448.5 -186.5t-184.5 -460.5z" />
<glyph unicode="P" horiz-adv-x="1290" d="M109 0v82h194v1270h-194v82h634q160 0 248 -43q102 -49 160.5 -147.5t58.5 -227.5q0 -143 -69.5 -246.5t-188.5 -146.5q-80 -29 -209 -29h-352v-512h195v-82h-477zM391 676h348q109 0 187 26q90 35 141 117t51 197q0 217 -170 299q-80 37 -209 37h-348v-676z" />
<glyph unicode="Q" d="M121 725q0 309 210 521t511 212q305 0 517 -212t212 -521q0 -299 -189 -510l185 -190l-58 -56l-182 189q-201 -182 -485 -183q-299 0 -510 219.5t-211 530.5zM213 725q0 -281 181 -473.5t448 -192.5q115 0 228.5 42t197.5 118l-226 234l58 55l223 -232q156 188 156 449 q0 276 -183.5 462.5t-453.5 186.5q-266 0 -447.5 -186.5t-181.5 -462.5z" />
<glyph unicode="R" horiz-adv-x="1370" d="M109 82h194v1270h-194v82h604q150 0 245 -33q221 -86 222 -348q0 -168 -92.5 -279.5t-249.5 -130.5v-4q20 -16 41 -51l270 -459q18 -29 39.5 -38t64.5 -9h39v-82h-39q-90 0 -121.5 18.5t-74.5 90.5l-256 432q-33 57 -66 75.5t-104 18.5h-240v-553h195v-82h-477v82z M391 717h379q141 0 229 91t88 241q0 209 -176 274q-78 29 -202 29h-318v-635z" />
<glyph unicode="S" horiz-adv-x="1132" d="M129 248v125h90v-105q0 -94 101.5 -151.5t240.5 -57.5q158 0 255 78t97 217q0 76 -27.5 132.5t-88 98.5t-111.5 65.5t-143 58.5l-81 31q-24 9 -75 32t-74.5 40t-59.5 48t-52.5 62.5t-29.5 76.5t-13 97q0 170 118.5 266t296.5 96q158 0 277 -57.5t119 -153.5v-137h-90v109 q0 70 -95.5 112.5t-210.5 42.5q-141 0 -232 -70.5t-91 -197.5q0 -55 21.5 -101.5t45 -74t83 -59t89 -44t109.5 -43.5q84 -33 124 -50t105.5 -55t96 -76t56.5 -99.5t26 -136.5q0 -174 -124 -283t-321 -109q-164 0 -298 72t-134 201z" />
<glyph unicode="T" horiz-adv-x="1316" d="M70 1110v324h1177v-324h-86v242h-459v-1270h195v-82h-477v82h194v1270h-458v-242h-86z" />
<glyph unicode="U" horiz-adv-x="1607" d="M74 1352v82h477v-82h-195v-826q0 -180 70 -288q115 -178 377 -179q129 0 229.5 49.5t151.5 137.5q68 117 67 284v822h-194v82h477v-82h-195v-830q0 -199 -84 -329q-141 -217 -450 -218q-152 0 -271.5 57.5t-187.5 164.5q-78 125 -78 325v830h-194z" />
<glyph unicode="V" horiz-adv-x="1429" d="M25 1352v82h419v-82h-170l418 -1174l21 -78h6q8 41 20 78l418 1174h-170v82h420v-82h-156l-485 -1352h-102l-486 1352h-153z" />
<glyph unicode="W" horiz-adv-x="2025" d="M35 1434h418v-82h-172l288 -1162l15 -77h6q8 41 18 77l357 1244h96l356 -1244l19 -77h6q6 41 14 77l289 1162h-172v82h418v-82h-152l-346 -1352h-111l-352 1227l-14 78h-6q-4 -41 -15 -78l-352 -1227h-111l-346 1352h-151v82z" />

<glyph unicode="X" horiz-adv-x="1277" d="M51 0v82h150l379 639l-381 631h-142v82h418v-82h-174l313 -516l29 -52h4q10 25 27 52l303 516h-168v82h416v-82h-150l-385 -645l381 -625h150v-82h-418v82h166l-310 512l-28 51h-4q-10 -25 -27 -51l-301 -512h168v-82h-416z" />
<glyph unicode="Y" horiz-adv-x="1300" d="M20 1352v82h418v-82h-170l353 -588l26 -51h4q14 29 29 51l354 588h-170v82h416v-82h-145l-441 -729v-541h195v-82h-477v82h194v541l-440 729h-146z" />
<glyph unicode="Z" horiz-adv-x="1253" d="M121 0v70l831 1214l56 68v4q-37 -4 -78 -4h-713v-242h-86v324h983v-70l-831 -1214l-56 -68v-4q37 4 78 4h742v246h86v-328h-1012z" />
<glyph unicode="[" horiz-adv-x="571" d="M219 -195v1680h221v-82h-133v-1516h133v-82h-221z" />
<glyph unicode="\" horiz-adv-x="806" d="M98 1516h90l519 -1602h-91z" />
<glyph unicode="]" horiz-adv-x="571" d="M131 -113h133v1516h-133v82h221v-1680h-221v82z" />
<glyph unicode="^" horiz-adv-x="1228" d="M158 516l403 918h66l403 -918h-94l-342 795l-342 -795h-94z" />
<glyph unicode="_" horiz-adv-x="1097" d="M41 0h1016v-82h-1016v82z" />
<glyph unicode="`" horiz-adv-x="1042" d="M354 1763h131l193 -227h-111z" />
<glyph unicode="a" horiz-adv-x="1093" d="M86 279q0 346 635 346h67v45q0 297 -272 297q-80 0 -155.5 -24.5t-110.5 -49.5l-35 -27l-49 70q14 12 42 30.5t120 50.5t190 32q356 0 356 -377v-547q0 -45 46 -45h122v-80h-135q-63 0 -91 26.5t-28 86.5v22l9 92h-4l-12 -27q-7 -17 -37.5 -60.5t-67.5 -76t-103.5 -60.5 t-142.5 -28q-137 0 -240.5 78.5t-103.5 225.5zM176 289q0 -96 67.5 -165t186.5 -69q166 0 262 133.5t96 300.5v56h-65q-547 0 -547 -256z" />
<glyph unicode="b" horiz-adv-x="1198" d="M0 1354v80h281v-533l-9 -84h4q4 10 11.5 25.5t38 55.5t68.5 70.5t105.5 55.5t147.5 25q203 0 323 -147.5t120 -389.5t-128 -389.5t-331 -147.5q-72 0 -135.5 24t-101.5 57.5t-66.5 68.5t-40.5 59l-11 23h-4q8 -37 9 -90v-117h-86v1354h-195zM279 510q0 -184 93 -317.5 t263 -133.5q156 0 260 122t104 331q0 205 -99 329t-257 124q-156 0 -260 -114t-104 -341z" />
<glyph unicode="c" horiz-adv-x="1114" d="M104 510q0 238 155 388.5t374 150.5q47 0 103.5 -10.5t116.5 -33t100 -67.5t40 -102v-99h-86v80q0 68 -92 108t-182 40q-184 0 -311 -126t-127 -329q0 -201 127 -326t311 -125q199 0 328 131l14 17l45 -72q-6 -6 -16.5 -17.5t-47 -39t-77.5 -48t-107.5 -38t-138.5 -17.5 q-223 0 -376 148.5t-153 386.5z" />
<glyph unicode="d" horiz-adv-x="1239" d="M109 512q0 242 128 389.5t330 147.5q72 0 135.5 -24t101.5 -56.5t66.5 -65.5t38.5 -55l13 -25h4q-8 37 -8 84v447h-195v80h281v-1309q0 -45 45 -45h122v-80h-135q-63 0 -90.5 26.5t-27.5 86.5v22l8 72h-4q-4 -10 -11.5 -25.5t-38 -55.5t-68.5 -70.5t-105.5 -55.5 t-147.5 -25q-203 0 -322.5 147.5t-119.5 389.5zM199 512q0 -205 99 -329t257 -124q156 0 260.5 114t104.5 341q0 184 -93.5 317.5t-263.5 133.5q-156 0 -260 -122t-104 -331z" />
<glyph unicode="e" horiz-adv-x="1124" d="M106 510q0 250 145.5 394.5t352.5 144.5q199 0 308.5 -134.5t109.5 -332.5l-4 -56h-821q0 -215 126 -341t312 -126q88 0 167 33t116 64l34 32l47 -71q-16 -16 -45.5 -40t-125 -63t-193.5 -39q-223 0 -376 148.5t-153 386.5zM203 606h729q-8 178 -100.5 270.5t-229.5 92.5 q-150 0 -261 -95.5t-138 -267.5z" />
<glyph unicode="f" horiz-adv-x="688" d="M82 944v80h194v55q0 113 33 191t85 111.5t96.5 46t89.5 12.5l73 -6v-80q-27 6 -67 6q-35 0 -68 -9.5t-70.5 -36t-61.5 -86t-24 -147.5v-57h273v-80h-273v-864h216v-80h-486v80h184v864h-194z" />
<glyph unicode="g" horiz-adv-x="1222" d="M111 528q0 240 119.5 380.5t320.5 140.5q123 0 220 -49.5t136 -145.5h4q-6 14 -6 51q0 63 26.5 91t92.5 28h152v-80h-140q-45 0 -45 -45v-893q0 -221 -134 -328.5t-335 -107.5q-166 0 -321 80l41 76q127 -72 274 -72q174 0 281.5 87t107.5 265v119l8 84h-4 q-102 -209 -344 -209q-201 0 -327.5 145t-126.5 383zM201 528q0 -205 102 -324.5t268 -119.5q150 0 243 105.5t93 338.5q0 436 -356 437q-166 0 -258 -115t-92 -322z" />
<glyph unicode="h" horiz-adv-x="1318" d="M47 1354v80h281v-590l-8 -84h4q35 98 149.5 193.5t284.5 95.5q188 0 263 -101.5t75 -298.5v-569h184v-80h-270v618q0 61 -4.5 105.5t-18.5 92.5t-40.5 79t-75 50.5t-113.5 19.5q-180 0 -305 -132.5t-125 -332.5v-420h184v-80h-455v80h185v1274h-195z" />

<glyph unicode="i" horiz-adv-x="604" d="M82 944v80h280v-944h185v-80h-455v80h184v864h-194zM264 1284v150h111v-150h-111z" />
<glyph unicode="j" horiz-adv-x="520" d="M-51 -336q18 -4 45 -4q39 0 74.5 10.5t77.5 38t68 92t26 156.5v987h-195v80h281v-1065q0 -119 -35 -201t-91.5 -117.5t-103.5 -48t-96 -12.5l-51 4v80zM227 1284v150h111v-150h-111z" />
<glyph unicode="k" horiz-adv-x="1099" d="M47 1354v80h281v-813h172l276 323h-160v80h416v-80h-145l-307 -354v-4q20 0 67 -78l230 -383q16 -29 34.5 -37t63.5 -8h76v-80h-80q-80 0 -113 19.5t-74 89.5l-233 387q-18 29 -40 37t-65 8h-118v-461h184v-80h-455v80h185v1274h-195z" />
<glyph unicode="l" horiz-adv-x="518" d="M4 1354v80h279v-1201q0 -158 120 -157l62 4l-2 -80q-35 -4 -74 -4q-193 0 -192 229v1129h-193z" />
<glyph unicode="m" horiz-adv-x="2033" d="M82 944v80h162q63 0 91 -26.5t28 -86.5v-67l-9 -84h4q39 115 157 202t237 87q152 0 229.5 -70t93.5 -209h4q45 113 153.5 196t235.5 83q188 0 265 -101.5t77 -298.5v-569h185v-80h-271v618q0 168 -53 259.5t-203 91.5q-162 0 -271.5 -142.5t-109.5 -318.5v-428h185v-80 h-271v618q0 61 -4 105.5t-18 93.5t-41 80t-74 51.5t-112 20.5q-162 0 -276 -142.5t-114 -318.5v-428h185v-80h-455v80h184v819q0 45 -45 45h-149z" />
<glyph unicode="n" horiz-adv-x="1353" d="M82 944v80h162q63 0 91 -26.5t28 -86.5v-67l-9 -84h4q35 98 150 193.5t285 95.5q188 0 263 -101.5t75 -298.5v-569h184v-80h-271v618q0 61 -4 105.5t-18 92.5t-41 79t-75 50.5t-113 19.5q-180 0 -305.5 -134.5t-125.5 -322.5v-428h185v-80h-455v80h184v819q0 45 -45 45 h-149z" />
<glyph unicode="o" horiz-adv-x="1265" d="M102 518q0 223 155 377t376 154t375.5 -154t154.5 -377q0 -227 -154.5 -385t-375.5 -158t-376 158t-155 385zM193 518q0 -195 128 -327t312 -132t312 132.5t128 326.5q0 188 -128 317.5t-312 129.5t-312 -129.5t-128 -317.5z" />
<glyph unicode="p" horiz-adv-x="1245" d="M47 944v80h162q63 0 91 -26.5t28 -86.5v-10l-6 -82h4q4 10 11 25.5t35.5 54.5t66.5 69.5t106.5 55.5t148.5 25q203 0 323 -147.5t120 -389.5t-127 -389.5t-328 -147.5q-74 0 -138.5 24t-103.5 57.5t-66.5 68.5t-37.5 59l-12 23h-5q8 -37 9 -90v-447h184v-80h-455v80h185 v1229q0 45 -45 45h-150zM326 510q0 -182 96 -316.5t260 -134.5q156 0 260.5 122t104.5 331q0 205 -99.5 329t-257.5 124q-156 0 -260 -114t-104 -341z" />
<glyph unicode="q" horiz-adv-x="1198" d="M109 512q0 242 128 389.5t330 147.5q72 0 135.5 -22.5t101.5 -55.5t65.5 -67t39.5 -56l11 -23h4q-6 35 -6 82v117h86v-1354h184v-80h-455v80h185v447l8 90h-4q-4 -10 -11.5 -25.5t-38 -55.5t-68.5 -70.5t-105.5 -55.5t-147.5 -25q-203 0 -322.5 147.5t-119.5 389.5z M199 512q0 -205 99 -329t257 -124q156 0 260.5 114t104.5 341q0 184 -93.5 318.5t-263.5 134.5q-156 0 -260 -123t-104 -332z" />
<glyph unicode="r" horiz-adv-x="763" d="M74 944v80h162q63 0 90.5 -26.5t27.5 -86.5v-71l-4 -84h4q41 125 124 200.5t200 75.5l59 -6v-86q-25 4 -47 4q-113 0 -192.5 -84t-111.5 -193.5t-32 -224.5v-362h164v-80h-414v80h164v819q0 45 -45 45h-149z" />
<glyph unicode="s" horiz-adv-x="942" d="M100 217v88h86v-78q0 -82 94.5 -125t202.5 -43q113 0 191 50.5t78 136.5q0 37 -17.5 68.5t-35 51t-66.5 45t-70 33.5l-86 33q-14 6 -20 8q-74 29 -118 49.5t-96.5 56.5t-77 84t-24.5 109q0 123 99.5 194t232.5 71q119 0 223.5 -51.5t104.5 -143.5v-113h-86v84 q0 61 -72 100.5t-166 39.5q-102 0 -174 -46.5t-72 -127.5q0 -37 17.5 -68t38 -51.5t66.5 -44t73 -34.5l86 -34q78 -31 122 -51.5t100.5 -57t82 -85t25.5 -111.5q0 -125 -100.5 -202t-266.5 -77q-152 0 -263.5 65.5t-111.5 176.5z" />
<glyph unicode="t" horiz-adv-x="647" d="M35 944v80h194v285h86v-285h269v-80h-269v-567q0 -94 26 -159.5t67 -95.5t76.5 -40t74.5 -10l47 4v-80q-20 -4 -51 -4q-39 0 -76 6t-84 29.5t-81.5 62.5t-59.5 111.5t-25 169.5v573h-194z" />
<glyph unicode="u" horiz-adv-x="1312" d="M37 944v80h280v-618q0 -61 4.5 -105.5t18.5 -92.5t41 -79t75 -50.5t113 -19.5q184 0 302 138.5t118 326.5v420h-194v80h280v-901q0 -45 45 -45h123v-78h-135q-63 0 -91 26.5t-28 86.5v57l4 84h-4q-35 -96 -144.5 -187.5t-275.5 -91.5q-182 0 -260 98.5t-78 301.5v569 h-194z" />
<glyph unicode="v" horiz-adv-x="1122" d="M16 944v80h394v-80h-162l293 -766l18 -65h4q6 35 19 65l292 766h-161v80h393v-80h-139l-365 -944h-82l-364 944h-140z" />
<glyph unicode="w" horiz-adv-x="1728" d="M18 944v80h394v-80h-166l250 -772l14 -66h4q6 35 16 66l287 848h94l287 -848l16 -66h5q4 35 14 66l250 772h-166v80h393v-80h-135l-315 -944h-86l-289 842l-19 67h-4q-8 -37 -18 -67l-289 -842h-86l-315 944h-136z" />
<glyph unicode="x" horiz-adv-x="1114" d="M53 0v80h170l279 455l-254 409h-182v80h231l227 -373l31 -53h4q12 27 31 55l229 371h230v-80h-181l-258 -412l283 -452h168v-80h-219l-254 416l-31 53h-4q-12 -27 -31 -55l-252 -414h-217z" />
<glyph unicode="y" horiz-adv-x="1148" d="M16 944v80h396v-80h-162l305 -780l16 -58h4q6 27 19 58l305 780h-162v80h396v-80h-142l-463 -1159q-39 -96 -109.5 -155.5t-162.5 -59.5q-43 0 -85 14.5t-60 26.5l-21 14l39 76q57 -49 127 -49q125 0 203 184l69 168l-372 940h-140z" />

<glyph unicode="z" horiz-adv-x="1036" d="M104 0v70l650 815l51 57v4q-35 -2 -76 -2h-522v-194h-84v274h799v-70l-652 -815l-51 -57v-4q35 2 76 2h543v194h84v-274h-818z" />
<glyph unicode="{" horiz-adv-x="624" d="M80 616v82q6 0 18.5 3.5t42 19.5t53 39.5t42 72t18.5 109.5v166q0 121 32.5 204t84 115.5t88.5 44t73 11.5h19v-80h-12q-27 0 -52.5 -8t-62.5 -35t-59.5 -91.5t-22.5 -158.5v-190q0 -55 -16.5 -102.5t-40 -75t-48 -48t-40.5 -26.5l-17 -9v-4q6 -2 17.5 -7t39 -25.5 t49 -46t39 -74.5t17.5 -107v-217q0 -94 22.5 -158.5t59.5 -91t62.5 -35t52.5 -8.5h12v-80q-6 -2 -19 -2q-27 0 -54 5.5t-70 28t-75 59t-55.5 111.5t-23.5 173v193q0 61 -18.5 109t-43 72t-50 39t-44.5 19z" />
<glyph unicode="|" horiz-adv-x="522" d="M217 -317v1925h88v-1925h-88z" />
<glyph unicode="}" horiz-adv-x="624" d="M74 -115h12q27 0 52.5 8.5t62.5 35t59.5 91t22.5 158.5v217q0 92 41 156.5t82 83.5l38 20v4q-6 2 -17 7.5t-39 27t-49.5 48t-38.5 74.5t-17 104v190q0 94 -22.5 158.5t-59.5 91.5t-62.5 35t-52.5 8h-12v80h18q37 0 74 -11.5t88 -44t84 -115.5t33 -204v-166 q0 -61 18.5 -109.5t43 -72t50 -38.5t43.5 -20l19 -4v-82q-6 0 -18.5 -3t-42 -19t-53 -40t-42 -72t-18.5 -109v-193q0 -98 -23.5 -173t-55.5 -111.5t-75 -59t-70.5 -28t-54.5 -5.5l-18 2v80z" />
<glyph unicode="~" horiz-adv-x="1218" d="M166 436q0 152 64.5 223.5t170.5 71.5q63 0 113.5 -23.5t82.5 -56.5l61 -65q30 -33 72 -56.5t93 -23.5q63 0 100.5 43t45.5 85t8 89h82q0 -152 -64.5 -223.5t-171.5 -71.5q-63 0 -113.5 23.5t-81.5 56.5l-62 65q-30 33 -71.5 56.5t-93.5 23.5q-63 0 -100 -43t-45 -85 t-8 -89h-82z" />
<glyph unicode="&#xa1;" horiz-adv-x="428" d="M152 899v125h120v-125h-120zM170 -410v1076h88v-1076h-88z" />
<glyph unicode="&#xa2;" horiz-adv-x="1110" d="M104 716.5q0 235.5 110 394.5t318 177v170h89v-170q250 -23 378 -291l-84 -32q-113 238 -333 237q-195 0 -290 -135t-95 -350t95 -350.5t290 -135.5q221 0 333 238l84 -33q-131 -270 -378 -291v-172h-89v172q-209 18 -318.5 177t-109.5 394.5z" />
<glyph unicode="&#xa3;" horiz-adv-x="1232" d="M96 0v82h185v600h-134v82h134v332q0 154 114.5 258t288.5 104q82 0 156.5 -26.5t109.5 -51.5l35 -26l-59 -68q-12 10 -33 24.5t-84.5 38t-126.5 23.5q-147 0 -230 -82t-83 -203v-323h405v-82h-405v-600h671v246h86v-328h-1030z" />
<glyph unicode="&#xa5;" horiz-adv-x="1259" d="M100 1434h101l340 -566l88 -161h4q45 92 88 161l340 566h100l-379 -631h222v-82h-271l-57 -98v-86h328v-82h-328v-455h-88v455h-334v82h334v86l-60 98h-274v82h225z" />
<glyph unicode="&#xa7;" horiz-adv-x="768" d="M119 -59l53 65q59 -49 139 -49q98 0 164 63.5t66 167.5q0 29 -2 43l-133 973h86l137 -971q4 -37 4 -51q0 -133 -92 -221t-232 -88q-49 0 -96 16.5t-70 32.5zM139 1149q0 133 91.5 221t232.5 88q49 0 96 -16.5t72 -32.5l22 -18l-53 -66q-59 49 -139 49q-98 0 -165 -63.5 t-67 -167.5q0 -14 4 -43l134 -973h-86l-138 971q-4 33 -4 51z" />
<glyph unicode="&#xa8;" horiz-adv-x="1042" d="M293 1614v149h110v-149h-110zM637 1614v149h111v-149h-111z" />
<glyph unicode="&#xa9;" horiz-adv-x="1665" d="M109 717q0 309 210.5 525t509.5 216q305 0 517.5 -216t212.5 -525q0 -311 -212 -526.5t-518 -215.5q-301 0 -510.5 215.5t-209.5 526.5zM201 717q0 -279 181 -467.5t447 -188.5q270 0 453.5 188.5t183.5 467.5q0 276 -183 465.5t-454 189.5q-266 0 -447 -189.5 t-181 -465.5zM414 715q0 174 116.5 303t323.5 129q59 0 115.5 -18.5t94.5 -45t67.5 -53t44.5 -45.5l12 -18l-68 -60q-10 16 -31.5 42t-90 68t-142.5 42q-166 0 -258 -101.5t-92 -240.5t92 -240.5t258 -101.5q76 0 141.5 38t94.5 74l28 39l68 -59q-4 -8 -14.5 -19.5t-43 -43 t-68.5 -55t-92.5 -43t-115.5 -19.5q-207 0 -323.5 127t-116.5 301z" />
<glyph unicode="&#xaa;" horiz-adv-x="882" d="M180 539v75h518v-75h-518zM186 973q0 227 398 227h28v8q0 170 -155 170q-98 0 -176 -59l-45 61q86 74 223 74q233 0 233 -246v-413h-80v104h-4q-6 -12 -20.5 -31.5t-64.5 -52.5t-109 -33q-92 0 -160 49.5t-68 141.5zM270 981q0 -51 38 -87t108 -36q88 0 142 77t54 171v20 h-26q-316 0 -316 -145z" />
<glyph unicode="&#xab;" horiz-adv-x="1015" d="M111 578l335 421h109l-336 -421l336 -420h-109zM438 578l336 421h109l-336 -421l336 -420h-109z" />
<glyph unicode="&#xac;" horiz-adv-x="1230" d="M147 702v82h934v-448h-86v366h-848z" />
<glyph unicode="&#xad;" horiz-adv-x="1081" d="M258 539v82h565v-82h-565z" />
<glyph unicode="&#xae;" horiz-adv-x="1665" d="M109 717q0 309 210.5 525t509.5 216q305 0 517.5 -216t212.5 -525q0 -311 -212 -526.5t-518 -215.5q-301 0 -510.5 215.5t-209.5 526.5zM201 717q0 -279 181 -467.5t447 -188.5q270 0 453.5 188.5t183.5 467.5q0 276 -183 465.5t-454 189.5q-266 0 -447 -189.5 t-181 -465.5zM592 307v819h272q104 0 171 -65.5t67 -171.5q0 -86 -45 -144.5t-113 -74.5v-4q8 -10 27 -45l162 -314h-101l-174 342h-176v-342h-90zM682 727h172q72 0 114 43t42 119q0 74 -42 114.5t-114 40.5h-172v-317z" />

<glyph unicode="&#xaf;" horiz-adv-x="1042" d="M276 1610v82h490v-82h-490z" />
<glyph unicode="&#xb0;" horiz-adv-x="757" d="M113 1185.5q0 110.5 77.5 189.5t188 79t189.5 -79t79 -189.5t-79 -188t-189.5 -77.5t-188 77.5t-77.5 188zM201 1186q0 -78 51 -131.5t127 -53.5t128 53.5t52 131.5t-52 132t-128 54t-127 -54t-51 -132z" />
<glyph unicode="&#xb1;" horiz-adv-x="1228" d="M86 539v82h485v538h88v-538h484v-82h-484v-539h-88v539h-485zM127 -231h975v-82h-975v82z" />
<glyph unicode="&#xb2;" horiz-adv-x="722" d="M78 932q0 86 47 155.5t113 116.5l132 91q67 44 113.5 102.5t46.5 126.5q0 74 -52 126t-134 52q-109 0 -188 -98l-4 -5l-50 54q10 14 29 34.5t81 54.5t132 34q127 0 196.5 -73t69.5 -179q0 -84 -46 -150.5t-111 -111.5l-132 -87q-67 -42 -114 -101.5t-49 -133.5h393v117 h78v-191h-547q-4 39 -4 66z" />
<glyph unicode="&#xb3;" horiz-adv-x="737" d="M68 979l57 53q8 -12 24.5 -30.5t75 -50t127.5 -31.5q80 0 145.5 60t65.5 146q0 88 -66.5 142.5t-152.5 54.5h-65l-23 49l231 273l41 38v5q-23 -6 -55 -7h-285v-116h-77v190h526v-53l-264 -309q102 -8 186 -73t84 -194q0 -117 -87 -198.5t-206 -81.5q-172 0 -272 121z" />
<glyph unicode="&#xb4;" horiz-adv-x="1042" d="M365 1536l192 227h131l-213 -227h-110z" />
<glyph unicode="&#xb5;" horiz-adv-x="1171" d="M164 1024h86v-618q0 -61 4 -105.5t18.5 -92.5t41 -79t74.5 -50.5t114 -19.5q184 0 302 138.5t118 326.5v500h86v-1024h-86v170l4 84h-4q-4 -12 -13.5 -30.5t-44.5 -66.5t-79 -85t-119.5 -67t-163.5 -30q-180 0 -254 97l-6 8h-4q12 -104 12 -148v-342h-86v1434z" />
<glyph unicode="&#x3bc;" horiz-adv-x="1171" d="M164 1024h86v-618q0 -61 4 -105.5t18.5 -92.5t41 -79t74.5 -50.5t114 -19.5q184 0 302 138.5t118 326.5v500h86v-1024h-86v170l4 84h-4q-4 -12 -13.5 -30.5t-44.5 -66.5t-79 -85t-119.5 -67t-163.5 -30q-180 0 -254 97l-6 8h-4q12 -104 12 -148v-342h-86v1434z" />
<glyph unicode="&#xb6;" horiz-adv-x="1126" d="M92 964.5q0 196.5 144.5 333t345.5 136.5h430v-82h-342v-1454h-86v596q-201 0 -346.5 137t-145.5 333.5zM797 -102v1325h86v-1325h-86z" />
<glyph unicode="&#xb7;" horiz-adv-x="571" d="M223 522v129h125v-129h-125z" />
<glyph unicode="&#xb8;" horiz-adv-x="1042" d="M383 -332q37 -10 84 -10q106 0 106 76q0 78 -122 78h-25l49 233l72 -10v-17l-27 -141q59 -6 99 -45t40 -94q0 -80 -53 -118t-133 -38l-90 8v78z" />
<glyph unicode="&#xb9;" horiz-adv-x="628" d="M80 866v74h217v645l4 64h-2q-10 -16 -35 -39l-125 -123l-53 55l211 213h78v-815h211v-74h-506z" />
<glyph unicode="&#xba;" horiz-adv-x="983" d="M156 1124q0 139 97 235.5t236.5 96.5t236.5 -96t97 -236q0 -143 -97 -241.5t-236.5 -98.5t-236.5 98.5t-97 241.5zM193 539v75h602v-75h-602zM236 1124q0 -113 73.5 -188.5t180 -75.5t180 76t73.5 188q0 111 -73.5 183.5t-180 72.5t-180 -72.5t-73.5 -183.5z" />
<glyph unicode="&#xbb;" horiz-adv-x="1015" d="M133 158l336 420l-336 421h109l336 -421l-336 -420h-109zM461 158l336 420l-336 421h108l336 -421l-336 -420h-108z" />
<glyph unicode="&#xbc;" horiz-adv-x="1878" d="M125 545v73h217v646l4 63h-2q-10 -16 -35 -39l-125 -123l-53 56l211 213h78v-816h211v-73h-506zM530 0l689 1434h88l-686 -1434h-91zM1135 248v53l454 588h64v-567h139v-74h-139v-248h-78v248h-440zM1243 322h332v358l6 84h-4q-18 -37 -45 -70l-289 -368v-4z" />
<glyph unicode="&#xbd;" horiz-adv-x="1832" d="M109 545v73h217v646l4 63h-2q-10 -16 -35 -39l-125 -123l-53 56l211 213h77v-816h211v-73h-505zM514 0l688 1434h88l-686 -1434h-90zM1176 66q0 86 47 155.5t112 116.5l132 91q67 44 114 102.5t47 125.5q0 74 -52 126.5t-134 52.5q-109 0 -189 -99l-4 -4l-49 53 q10 14 28.5 35t81 54.5t132.5 33.5q127 0 196.5 -72.5t69.5 -179.5q0 -84 -46 -150.5t-112 -111.5l-132 -87q-67 -42 -114 -101.5t-49 -132.5h394v116h77v-190h-546q-4 39 -4 66z" />
<glyph unicode="&#xbe;" horiz-adv-x="1921" d="M111 657l57 54q8 -12 24.5 -30.5t75 -50.5t127.5 -32q80 0 145.5 60.5t65.5 146.5q0 88 -66.5 142t-152.5 54h-65l-23 50l231 272l41 39v4q-23 -6 -55 -6h-285v-117h-77v191h526v-54l-264 -309q102 -8 186 -72.5t84 -193.5q0 -117 -87 -199t-206 -82q-172 0 -272 121z M567 0l688 1434h88l-686 -1434h-90zM1171 248v53l455 588h64v-567h139v-74h-139v-248h-78v248h-441zM1280 322h332v358l6 84h-4q-18 -37 -45 -70l-289 -368v-4z" />

<glyph unicode="&#xbf;" horiz-adv-x="899" d="M115 -78q0 80 27.5 146.5t68.5 109.5l89 90l89 86q41 39 68.5 98.5t27.5 127.5v86h88v-86q0 -92 -37.5 -169t-92.5 -130l-107 -104q-53 -50 -91 -115.5t-38 -141.5q0 -113 84 -188.5t215 -75.5q145 2 260 86l47 -70q-14 -12 -38.5 -28.5t-104.5 -45t-162 -28.5 q-174 0 -283.5 100t-109.5 252zM469 899v125h121v-125h-121z" />
<glyph unicode="&#xc0;" horiz-adv-x="1454" d="M20 0v82h154l506 1352h94l506 -1352h154v-82h-422v82h174l-156 414h-608l-154 -414h174v-82h-422zM453 578h546l-249 669q-14 37 -21 78h-4q-6 -41 -20 -78zM479 1763h131l193 -227h-111z" />
<glyph unicode="&#xc1;" horiz-adv-x="1454" d="M20 0v82h154l506 1352h94l506 -1352h154v-82h-422v82h174l-156 414h-608l-154 -414h174v-82h-422zM453 578h546l-249 669q-14 37 -21 78h-4q-6 -41 -20 -78zM649 1536l193 227h131l-213 -227h-111z" />
<glyph unicode="&#xc2;" horiz-adv-x="1454" d="M20 0v82h154l506 1352h94l506 -1352h154v-82h-422v82h174l-156 414h-608l-154 -414h174v-82h-422zM453 578h546l-249 669q-14 37 -21 78h-4q-6 -41 -20 -78zM502 1536l164 227h122l164 -227h-108l-115 164h-4l-115 -164h-108z" />
<glyph unicode="&#xc3;" horiz-adv-x="1454" d="M20 0v82h154l506 1352h94l506 -1352h154v-82h-422v82h174l-156 414h-608l-154 -414h174v-82h-422zM424 1542q0 221 172 221q51 0 92 -23.5t62.5 -50t50 -50t57.5 -23.5q84 0 84 141h90q0 -221 -172 -221q-51 0 -92 22.5t-62.5 51t-50 51t-57.5 22.5q-84 0 -84 -141h-90z M453 578h546l-249 669q-14 37 -21 78h-4q-6 -41 -20 -78z" />
<glyph unicode="&#xc4;" horiz-adv-x="1454" d="M20 0v82h154l506 1352h94l506 -1352h154v-82h-422v82h174l-156 414h-608l-154 -414h174v-82h-422zM453 578h546l-249 669q-14 37 -21 78h-4q-6 -41 -20 -78zM500 1614v149h110v-149h-110zM844 1614v149h110v-149h-110z" />
<glyph unicode="&#xc5;" horiz-adv-x="1454" d="M20 0v82h154l506 1352h94l506 -1352h154v-82h-422v82h174l-156 414h-608l-154 -414h174v-82h-422zM453 578h546l-249 669q-14 37 -21 78h-4q-6 -41 -20 -78zM575 1651q0 66 44.5 109.5t107.5 43.5q66 0 111 -44t45 -109q0 -63 -45 -106.5t-111 -43.5q-63 0 -107.5 43.5 t-44.5 106.5zM655 1651q0 -33 19.5 -53.5t52.5 -20.5q35 0 55.5 20.5t20.5 53.5q0 37 -20.5 58.5t-55.5 21.5q-33 0 -52.5 -21.5t-19.5 -58.5z" />
<glyph unicode="&#xc6;" horiz-adv-x="1849" d="M20 0v82h142l520 1270h-168v82h1174v-267h-86v185h-621v-588h571v-82h-571v-600h661v186h87v-268h-1020v82h184v600h-389l-248 -600h166v-82h-402zM537 764h356v588h-115z" />
<glyph unicode="&#xc7;" horiz-adv-x="1515" d="M121 727q0 311 207 521t514 210q102 0 213.5 -23.5t210 -92t98.5 -168.5v-136h-90v115q0 74 -77 126t-170 73.5t-183 21.5q-268 0 -449.5 -185t-181.5 -462q0 -281 182.5 -474.5t454.5 -193.5q55 0 124.5 11.5t145.5 35t126 69.5t50 104v112h90v-133q0 -94 -92 -160.5 t-204.5 -93.5t-225.5 -29l-18 -98q59 -6 99 -45t40 -94q0 -80 -53 -118t-133 -38l-90 8v78q37 -10 84 -10q106 0 106 76q0 78 -123 78h-24l34 165q-291 23 -478 237t-187 513z" />
<glyph unicode="&#xc8;" horiz-adv-x="1261" d="M109 0v82h194v1270h-194v82h989v-267h-86v185h-621v-588h572v-82h-572v-600h662v197h86v-279h-1030zM391 1763h131l193 -227h-111z" />
<glyph unicode="&#xc9;" horiz-adv-x="1261" d="M109 0v82h194v1270h-194v82h989v-267h-86v185h-621v-588h572v-82h-572v-600h662v197h86v-279h-1030zM561 1536l193 227h131l-213 -227h-111z" />
<glyph unicode="&#xca;" horiz-adv-x="1261" d="M109 0v82h194v1270h-194v82h989v-267h-86v185h-621v-588h572v-82h-572v-600h662v197h86v-279h-1030zM414 1536l164 227h122l164 -227h-108l-115 164h-4l-115 -164h-108z" />
<glyph unicode="&#xcb;" horiz-adv-x="1261" d="M109 0v82h194v1270h-194v82h989v-267h-86v185h-621v-588h572v-82h-572v-600h662v197h86v-279h-1030zM412 1614v149h110v-149h-110zM756 1614v149h110v-149h-110z" />
<glyph unicode="&#xcc;" horiz-adv-x="694" d="M98 1763h131l193 -227h-111zM109 0v82h194v1270h-194v82h477v-82h-195v-1270h195v-82h-477z" />
<glyph unicode="&#xcd;" horiz-adv-x="694" d="M109 0v82h194v1270h-194v82h477v-82h-195v-1270h195v-82h-477zM268 1536l193 227h131l-213 -227h-111z" />
<glyph unicode="&#xce;" horiz-adv-x="694" d="M109 0v82h194v1270h-194v82h477v-82h-195v-1270h195v-82h-477zM121 1536l164 227h123l163 -227h-108l-115 164h-4l-115 -164h-108z" />
<glyph unicode="&#xcf;" horiz-adv-x="694" d="M109 0v82h194v1270h-194v82h477v-82h-195v-1270h195v-82h-477zM119 1614v149h110v-149h-110zM463 1614v149h110v-149h-110z" />

<glyph unicode="&#xd0;" horiz-adv-x="1597" d="M109 0v82h194v600h-164v82h164v588h-194v82h645q324 0 519 -190.5t195 -526.5q0 -338 -194.5 -527.5t-519.5 -189.5h-645zM391 82h348q291 0 464 166t173 469q0 301 -173 468t-464 167h-348v-588h375v-82h-375v-600z" />
<glyph unicode="&#xd1;" horiz-adv-x="1685" d="M109 0v82h194v1270h-194v82h274l893 -1225l39 -74h4l-6 84v1133h-195v82h477v-82h-194v-1352h-82l-891 1227l-39 73h-4l6 -83v-1135h195v-82h-477zM549 1542q0 221 172 221q51 0 92 -23.5t62.5 -50t50 -50t57.5 -23.5q84 0 84 141h90q0 -221 -172 -221q-51 0 -92 22.5 t-62.5 51t-50 51t-57.5 22.5q-84 0 -84 -141h-90z" />
<glyph unicode="&#xd2;" d="M121 727q0 307 212 519t513 212t513 -212t212 -519q0 -315 -212 -533.5t-513 -218.5t-513 218.5t-212 533.5zM213 727q0 -281 184.5 -474.5t448.5 -193.5t448.5 193.5t184.5 474.5q0 274 -184.5 460.5t-448.5 186.5t-448.5 -186.5t-184.5 -460.5zM598 1763h131l193 -227 h-111z" />
<glyph unicode="&#xd3;" d="M121 727q0 307 212 519t513 212t513 -212t212 -519q0 -315 -212 -533.5t-513 -218.5t-513 218.5t-212 533.5zM213 727q0 -281 184.5 -474.5t448.5 -193.5t448.5 193.5t184.5 474.5q0 274 -184.5 460.5t-448.5 186.5t-448.5 -186.5t-184.5 -460.5zM768 1536l193 227h131 l-213 -227h-111z" />
<glyph unicode="&#xd4;" d="M121 727q0 307 212 519t513 212t513 -212t212 -519q0 -315 -212 -533.5t-513 -218.5t-513 218.5t-212 533.5zM213 727q0 -281 184.5 -474.5t448.5 -193.5t448.5 193.5t184.5 474.5q0 274 -184.5 460.5t-448.5 186.5t-448.5 -186.5t-184.5 -460.5zM621 1536l163 227h123 l164 -227h-108l-115 164h-4l-115 -164h-108z" />
<glyph unicode="&#xd5;" d="M121 727q0 307 212 519t513 212t513 -212t212 -519q0 -315 -212 -533.5t-513 -218.5t-513 218.5t-212 533.5zM213 727q0 -281 184.5 -474.5t448.5 -193.5t448.5 193.5t184.5 474.5q0 274 -184.5 460.5t-448.5 186.5t-448.5 -186.5t-184.5 -460.5zM543 1542q0 221 172 221 q51 0 92 -23.5t62.5 -50t50 -50t57.5 -23.5q84 0 84 141h90q0 -221 -172 -221q-51 0 -92 22.5t-62.5 51t-50.5 51t-57 22.5q-84 0 -84 -141h-90z" />
<glyph unicode="&#xd6;" d="M121 727q0 307 212 519t513 212t513 -212t212 -519q0 -315 -212 -533.5t-513 -218.5t-513 218.5t-212 533.5zM213 727q0 -281 184.5 -474.5t448.5 -193.5t448.5 193.5t184.5 474.5q0 274 -184.5 460.5t-448.5 186.5t-448.5 -186.5t-184.5 -460.5zM618 1614v149h111v-149 h-111zM963 1614v149h110v-149h-110z" />
<glyph unicode="&#xd7;" horiz-adv-x="1228" d="M100 57l459 523l-459 522l58 57l456 -518l457 518l57 -57l-460 -522l460 -523l-57 -57l-457 518l-456 -518z" />
<glyph unicode="&#xd8;" d="M121 727q0 307 212 519t513 212q211 0 393 -117l100 142l70 -51l-100 -142q123 -102 192.5 -248.5t69.5 -314.5q0 -315 -212 -533.5t-513 -218.5q-213 0 -393 119l-101 -141l-71 49l102 143q-123 104 -192.5 256t-69.5 326zM213 727q0 -311 221 -510l754 1055 q-154 102 -342 102q-264 0 -448.5 -186.5t-184.5 -460.5zM502 164q152 -104 344 -105q264 0 448.5 193.5t184.5 474.5q0 147 -58.5 275t-163.5 219z" />
<glyph unicode="&#xd9;" horiz-adv-x="1607" d="M74 1352v82h477v-82h-195v-826q0 -180 70 -288q115 -178 377 -179q129 0 229.5 49.5t151.5 137.5q68 117 67 284v822h-194v82h477v-82h-195v-830q0 -199 -84 -329q-141 -217 -450 -218q-152 0 -271.5 57.5t-187.5 164.5q-78 125 -78 325v830h-194zM555 1763h131l193 -227 h-111z" />
<glyph unicode="&#xda;" horiz-adv-x="1607" d="M74 1352v82h477v-82h-195v-826q0 -180 70 -288q115 -178 377 -179q129 0 229.5 49.5t151.5 137.5q68 117 67 284v822h-194v82h477v-82h-195v-830q0 -199 -84 -329q-141 -217 -450 -218q-152 0 -271.5 57.5t-187.5 164.5q-78 125 -78 325v830h-194zM725 1536l193 227h131 l-213 -227h-111z" />
<glyph unicode="&#xdb;" horiz-adv-x="1607" d="M74 1352v82h477v-82h-195v-826q0 -180 70 -288q115 -178 377 -179q129 0 229.5 49.5t151.5 137.5q68 117 67 284v822h-194v82h477v-82h-195v-830q0 -199 -84 -329q-141 -217 -450 -218q-152 0 -271.5 57.5t-187.5 164.5q-78 125 -78 325v830h-194zM578 1536l163 227h123 l164 -227h-108l-115 164h-4l-115 -164h-108z" />
<glyph unicode="&#xdc;" horiz-adv-x="1607" d="M74 1352v82h477v-82h-195v-826q0 -180 70 -288q115 -178 377 -179q129 0 229.5 49.5t151.5 137.5q68 117 67 284v822h-194v82h477v-82h-195v-830q0 -199 -84 -329q-141 -217 -450 -218q-152 0 -271.5 57.5t-187.5 164.5q-78 125 -78 325v830h-194zM575 1614v149h111v-149 h-111zM920 1614v149h110v-149h-110z" />
<glyph unicode="&#xdd;" horiz-adv-x="1300" d="M20 1352v82h418v-82h-170l353 -588l26 -51h4q14 29 29 51l354 588h-170v82h416v-82h-145l-441 -729v-541h195v-82h-477v82h194v541l-440 729h-146zM573 1536l193 227h131l-213 -227h-111z" />
<glyph unicode="&#xde;" horiz-adv-x="1294" d="M109 0v82h194v1270h-194v82h477v-82h-195v-185h383q190 0 313 -113.5t123 -303.5q0 -193 -122.5 -307.5t-317.5 -114.5h-379v-246h195v-82h-477zM391 410h379q160 0 254 90t94 249.5t-94 247.5t-254 88h-379v-675z" />
<glyph unicode="&#xdf;" horiz-adv-x="1206" d="M57 0v80h185v1010q0 170 115.5 269t269.5 99q152 0 240.5 -85t88.5 -197q0 -76 -38.5 -141.5t-85 -103.5t-85 -86t-38.5 -91q0 -49 67.5 -103.5t148.5 -100.5t148.5 -123t67.5 -165q0 -133 -92.5 -204.5t-223.5 -71.5q-88 0 -166.5 18.5t-113.5 36.5l-35 16v95 q129 -82 317 -82q94 0 159 49t65 143q0 59 -44 112.5t-108 93.5l-128 80q-65 40 -109 91t-44 111q0 61 39 118.5t85 95t85 95t39 117.5q0 78 -64.5 138t-178.5 60q-117 0 -206 -78.5t-89 -212.5v-1083h-271z" />
<glyph unicode="&#xe0;" horiz-adv-x="1093" d="M86 279q0 346 635 346h67v45q0 297 -272 297q-80 0 -155.5 -24.5t-110.5 -49.5l-35 -27l-49 70q14 12 42 30.5t120 50.5t190 32q356 0 356 -377v-547q0 -45 46 -45h122v-80h-135q-63 0 -91 26.5t-28 86.5v22l9 92h-4l-12 -27q-7 -17 -37.5 -60.5t-67.5 -76t-103.5 -60.5 t-142.5 -28q-137 0 -240.5 78.5t-103.5 225.5zM176 289q0 -96 67.5 -165t186.5 -69q166 0 262 133.5t96 300.5v56h-65q-547 0 -547 -256zM270 1434h131l193 -228h-111z" />

<glyph unicode="&#xe1;" horiz-adv-x="1093" d="M86 279q0 346 635 346h67v45q0 297 -272 297q-80 0 -155.5 -24.5t-110.5 -49.5l-35 -27l-49 70q14 12 42 30.5t120 50.5t190 32q356 0 356 -377v-547q0 -45 46 -45h122v-80h-135q-63 0 -91 26.5t-28 86.5v22l9 92h-4l-12 -27q-7 -17 -37.5 -60.5t-67.5 -76t-103.5 -60.5 t-142.5 -28q-137 0 -240.5 78.5t-103.5 225.5zM176 289q0 -96 67.5 -165t186.5 -69q166 0 262 133.5t96 300.5v56h-65q-547 0 -547 -256zM440 1206l193 228h131l-213 -228h-111z" />
<glyph unicode="&#xe2;" horiz-adv-x="1093" d="M86 279q0 346 635 346h67v45q0 297 -272 297q-80 0 -155.5 -24.5t-110.5 -49.5l-35 -27l-49 70q14 12 42 30.5t120 50.5t190 32q356 0 356 -377v-547q0 -45 46 -45h122v-80h-135q-63 0 -91 26.5t-28 86.5v22l9 92h-4l-12 -27q-7 -17 -37.5 -60.5t-67.5 -76t-103.5 -60.5 t-142.5 -28q-137 0 -240.5 78.5t-103.5 225.5zM176 289q0 -96 67.5 -165t186.5 -69q166 0 262 133.5t96 300.5v56h-65q-547 0 -547 -256zM293 1206l164 228h123l163 -228h-108l-115 164h-4l-115 -164h-108z" />
<glyph unicode="&#xe3;" horiz-adv-x="1093" d="M86 279q0 346 635 346h67v45q0 297 -272 297q-80 0 -155.5 -24.5t-110.5 -49.5l-35 -27l-49 70q14 12 42 30.5t120 50.5t190 32q356 0 356 -377v-547q0 -45 46 -45h122v-80h-135q-63 0 -91 26.5t-28 86.5v22l9 92h-4l-12 -27q-7 -17 -37.5 -60.5t-67.5 -76t-103.5 -60.5 t-142.5 -28q-137 0 -240.5 78.5t-103.5 225.5zM176 289q0 -96 67.5 -165t186.5 -69q166 0 262 133.5t96 300.5v56h-65q-547 0 -547 -256zM215 1212q0 221 172 222q51 0 92 -22.5t62.5 -51.5t50.5 -51.5t57 -22.5q84 0 84 141h90q0 -221 -172 -221q-51 0 -92 23.5t-62.5 50.5 t-50 50.5t-57.5 23.5q-84 0 -84 -142h-90z" />
<glyph unicode="&#xe4;" horiz-adv-x="1093" d="M86 279q0 346 635 346h67v45q0 297 -272 297q-80 0 -155.5 -24.5t-110.5 -49.5l-35 -27l-49 70q14 12 42 30.5t120 50.5t190 32q356 0 356 -377v-547q0 -45 46 -45h122v-80h-135q-63 0 -91 26.5t-28 86.5v22l9 92h-4l-12 -27q-7 -17 -37.5 -60.5t-67.5 -76t-103.5 -60.5 t-142.5 -28q-137 0 -240.5 78.5t-103.5 225.5zM176 289q0 -96 67.5 -165t186.5 -69q166 0 262 133.5t96 300.5v56h-65q-547 0 -547 -256zM291 1284v150h110v-150h-110zM635 1284v150h110v-150h-110z" />
<glyph unicode="&#xe5;" horiz-adv-x="1093" d="M86 279q0 346 635 346h67v45q0 297 -272 297q-80 0 -155.5 -24.5t-110.5 -49.5l-35 -27l-49 70q14 12 42 30.5t120 50.5t190 32q356 0 356 -377v-547q0 -45 46 -45h122v-80h-135q-63 0 -91 26.5t-28 86.5v22l9 92h-4l-12 -27q-7 -17 -37.5 -60.5t-67.5 -76t-103.5 -60.5 t-142.5 -28q-137 0 -240.5 78.5t-103.5 225.5zM176 289q0 -96 67.5 -165t186.5 -69q166 0 262 133.5t96 300.5v56h-65q-547 0 -547 -256zM367 1321q0 66 44 110t107 44q66 0 111 -44.5t45 -109.5q0 -63 -45 -106.5t-111 -43.5q-63 0 -107 43.5t-44 106.5zM446 1321 q0 -33 19.5 -53.5t52.5 -20.5q35 0 55.5 20.5t20.5 53.5q0 37 -20.5 58.5t-55.5 21.5q-33 0 -52.5 -21.5t-19.5 -58.5z" />
<glyph unicode="&#xe6;" horiz-adv-x="1783" d="M90 272q0 70 22.5 125.5t56.5 90t89 60t103.5 38t120 19.5t115.5 8t112 1h82v45q0 307 -289 308q-80 0 -153 -24.5t-107 -49.5l-33 -27l-49 70q14 12 40.5 30.5t117 50.5t188.5 32q295 0 352 -240h4q61 119 167 179.5t239 60.5q197 0 305 -131.5t108 -325.5l-4 -57h-800 q0 -225 116.5 -351.5t300.5 -126.5q176 0 308 121l10 10l47 -71q-16 -16 -46 -40t-125 -63t-194 -39q-160 0 -282.5 83t-177.5 231h-5q-6 -31 -27.5 -74t-63.5 -101.5t-119.5 -98.5t-176.5 -40q-150 0 -251 78t-101 219zM180 279q0 -92 69.5 -158t192.5 -66 q158 0 253.5 134.5t95.5 299.5v46h-142q-70 0 -122 -3.5t-122.5 -17.5t-114.5 -39.5t-77 -75.5t-33 -120zM885 614h706q-8 176 -102 264.5t-227 88.5q-147 0 -249.5 -90.5t-127.5 -262.5z" />
<glyph unicode="&#xe7;" horiz-adv-x="1114" d="M104 510q0 238 155 388.5t374 150.5q47 0 103.5 -10.5t116.5 -33t100 -67.5t40 -102v-99h-86v80q0 68 -92 108t-182 40q-184 0 -311 -126t-127 -329q0 -201 127 -326t311 -125q199 0 328 131l14 17l45 -72l-15.5 -16t-44 -37t-74.5 -47.5t-103.5 -39t-131.5 -20.5 l-18 -98q59 -6 99 -45t40 -94q0 -80 -53 -118t-133 -38l-90 8v78q37 -10 84 -10q106 0 106 76q0 78 -123 78h-24l34 168q-203 18 -336 163.5t-133 366.5z" />
<glyph unicode="&#xe8;" horiz-adv-x="1124" d="M106 510q0 250 145.5 394.5t352.5 144.5q199 0 308.5 -134.5t109.5 -332.5l-4 -56h-821q0 -215 126 -341t312 -126q88 0 167 33t116 64l34 32l47 -71q-16 -16 -45.5 -40t-125 -63t-193.5 -39q-223 0 -376 148.5t-153 386.5zM203 606h729q-8 178 -100.5 270.5t-229.5 92.5 q-150 0 -261 -95.5t-138 -267.5zM360 1434h132l192 -228h-111z" />
<glyph unicode="&#xe9;" horiz-adv-x="1124" d="M106 510q0 250 145.5 394.5t352.5 144.5q199 0 308.5 -134.5t109.5 -332.5l-4 -56h-821q0 -215 126 -341t312 -126q88 0 167 33t116 64l34 32l47 -71q-16 -16 -45.5 -40t-125 -63t-193.5 -39q-223 0 -376 148.5t-153 386.5zM203 606h729q-8 178 -100.5 270.5t-229.5 92.5 q-150 0 -261 -95.5t-138 -267.5zM530 1206l193 228h131l-213 -228h-111z" />
<glyph unicode="&#xea;" horiz-adv-x="1124" d="M106 510q0 250 145.5 394.5t352.5 144.5q199 0 308.5 -134.5t109.5 -332.5l-4 -56h-821q0 -215 126 -341t312 -126q88 0 167 33t116 64l34 32l47 -71q-16 -16 -45.5 -40t-125 -63t-193.5 -39q-223 0 -376 148.5t-153 386.5zM203 606h729q-8 178 -100.5 270.5t-229.5 92.5 q-150 0 -261 -95.5t-138 -267.5zM383 1206l164 228h123l164 -228h-109l-115 164h-4l-114 -164h-109z" />
<glyph unicode="&#xeb;" horiz-adv-x="1124" d="M106 510q0 250 145.5 394.5t352.5 144.5q199 0 308.5 -134.5t109.5 -332.5l-4 -56h-821q0 -215 126 -341t312 -126q88 0 167 33t116 64l34 32l47 -71q-16 -16 -45.5 -40t-125 -63t-193.5 -39q-223 0 -376 148.5t-153 386.5zM203 606h729q-8 178 -100.5 270.5t-229.5 92.5 q-150 0 -261 -95.5t-138 -267.5zM381 1284v150h111v-150h-111zM725 1284v150h111v-150h-111z" />
<glyph unicode="&#xec;" horiz-adv-x="575" d="M49 1434h131l193 -228h-111zM90 0v80h164v864h-164v80h250v-944h164v-80h-414z" />
<glyph unicode="&#xed;" horiz-adv-x="575" d="M90 0v80h164v864h-164v80h250v-944h164v-80h-414zM219 1206l193 228h131l-213 -228h-111z" />
<glyph unicode="&#xee;" horiz-adv-x="575" d="M72 1206l164 228h122l164 -228h-108l-115 164h-4l-115 -164h-108zM90 0v80h164v864h-164v80h250v-944h164v-80h-414z" />
<glyph unicode="&#xef;" horiz-adv-x="575" d="M86 1284v150h111v-150h-111zM90 0v80h164v864h-164v80h250v-944h164v-80h-414zM381 1284v150h111v-150h-111z" />
<glyph unicode="&#xf0;" horiz-adv-x="1200" d="M109 471q0 199 130 343t363 144q100 0 183 -33.5t116 -68.5l33 -33h4q-74 231 -281 375l-352 -164l-35 76l299 139q-135 72 -313 117l25 78q233 -59 385 -152l252 119l34 -76l-207 -96q319 -244 320 -686q0 -106 -29.5 -205.5t-88 -184.5t-157 -136.5t-221.5 -51.5 q-211 0 -335.5 148.5t-124.5 347.5zM199 471q0 -166 102 -290t272 -124q133 0 227.5 77t134.5 182.5t40 222.5q0 147 -103.5 242.5t-271.5 95.5q-193 0 -297 -120t-104 -286z" />
<glyph unicode="&#xf1;" horiz-adv-x="1353" d="M82 944v80h162q63 0 91 -26.5t28 -86.5v-67l-9 -84h4q35 98 150 193.5t285 95.5q188 0 263 -101.5t75 -298.5v-569h184v-80h-271v618q0 61 -4 105.5t-18 92.5t-41 79t-75 50.5t-113 19.5q-180 0 -305.5 -134.5t-125.5 -322.5v-428h185v-80h-455v80h184v819q0 45 -45 45 h-149zM424 1212q0 221 172 222q51 0 92 -22.5t62.5 -51.5t50 -51.5t57.5 -22.5q84 0 84 141h90q0 -221 -172 -221q-51 0 -92 23.5t-62.5 50.5t-50 50.5t-57.5 23.5q-84 0 -84 -142h-90z" />

<glyph unicode="&#xf2;" horiz-adv-x="1265" d="M102 518q0 223 155 377t376 154t375.5 -154t154.5 -377q0 -227 -154.5 -385t-375.5 -158t-376 158t-155 385zM193 518q0 -195 128 -327t312 -132t312 132.5t128 326.5q0 188 -128 317.5t-312 129.5t-312 -129.5t-128 -317.5zM385 1434h131l193 -228h-111z" />
<glyph unicode="&#xf3;" horiz-adv-x="1265" d="M102 518q0 223 155 377t376 154t375.5 -154t154.5 -377q0 -227 -154.5 -385t-375.5 -158t-376 158t-155 385zM193 518q0 -195 128 -327t312 -132t312 132.5t128 326.5q0 188 -128 317.5t-312 129.5t-312 -129.5t-128 -317.5zM555 1206l193 228h131l-213 -228h-111z" />
<glyph unicode="&#xf4;" horiz-adv-x="1265" d="M102 518q0 223 155 377t376 154t375.5 -154t154.5 -377q0 -227 -154.5 -385t-375.5 -158t-376 158t-155 385zM193 518q0 -195 128 -327t312 -132t312 132.5t128 326.5q0 188 -128 317.5t-312 129.5t-312 -129.5t-128 -317.5zM408 1206l163 228h123l164 -228h-108 l-115 164h-4l-115 -164h-108z" />
<glyph unicode="&#xf5;" horiz-adv-x="1265" d="M102 518q0 223 155 377t376 154t375.5 -154t154.5 -377q0 -227 -154.5 -385t-375.5 -158t-376 158t-155 385zM193 518q0 -195 128 -327t312 -132t312 132.5t128 326.5q0 188 -128 317.5t-312 129.5t-312 -129.5t-128 -317.5zM330 1212q0 221 172 222q51 0 92 -22.5 t62.5 -51.5t50 -51.5t57.5 -22.5q84 0 84 141h90q0 -221 -172 -221q-51 0 -92 23.5t-62.5 50.5t-50.5 50.5t-57 23.5q-84 0 -84 -142h-90z" />
<glyph unicode="&#xf6;" horiz-adv-x="1265" d="M102 518q0 223 155 377t376 154t375.5 -154t154.5 -377q0 -227 -154.5 -385t-375.5 -158t-376 158t-155 385zM193 518q0 -195 128 -327t312 -132t312 132.5t128 326.5q0 188 -128 317.5t-312 129.5t-312 -129.5t-128 -317.5zM406 1284v150h110v-150h-110zM750 1284v150 h110v-150h-110z" />
<glyph unicode="&#xf7;" horiz-adv-x="1228" d="M127 539v82h975v-82h-975zM555 156v120h117v-120h-117zM555 883v121h117v-121h-117z" />
<glyph unicode="&#xf8;" horiz-adv-x="1265" d="M102 518q0 223 155 377t376 154q156 0 287 -82l77 108l62 -47l-78 -108q182 -162 182 -402q0 -227 -154.5 -385t-375.5 -158q-145 0 -271 76l-75 -106l-62 47l74 104q-92 76 -144.5 185.5t-52.5 236.5zM193 518q0 -211 155 -352l522 731q-111 68 -237 68 q-184 0 -312 -129.5t-128 -317.5zM412 121q106 -61 221 -62q184 0 312 132.5t128 326.5q0 197 -143 330z" />
<glyph unicode="&#xf9;" horiz-adv-x="1312" d="M37 944v80h280v-618q0 -61 4.5 -105.5t18.5 -92.5t41 -79t75 -50.5t113 -19.5q184 0 302 138.5t118 326.5v420h-194v80h280v-901q0 -45 45 -45h123v-78h-135q-63 0 -91 26.5t-28 86.5v57l4 84h-4q-35 -96 -144.5 -187.5t-275.5 -91.5q-182 0 -260 98.5t-78 301.5v569 h-194zM385 1434h131l193 -228h-111z" />
<glyph unicode="&#xfa;" horiz-adv-x="1312" d="M37 944v80h280v-618q0 -61 4.5 -105.5t18.5 -92.5t41 -79t75 -50.5t113 -19.5q184 0 302 138.5t118 326.5v420h-194v80h280v-901q0 -45 45 -45h123v-78h-135q-63 0 -91 26.5t-28 86.5v57l4 84h-4q-35 -96 -144.5 -187.5t-275.5 -91.5q-182 0 -260 98.5t-78 301.5v569 h-194zM555 1206l193 228h131l-213 -228h-111z" />
<glyph unicode="&#xfb;" horiz-adv-x="1312" d="M37 944v80h280v-618q0 -61 4.5 -105.5t18.5 -92.5t41 -79t75 -50.5t113 -19.5q184 0 302 138.5t118 326.5v420h-194v80h280v-901q0 -45 45 -45h123v-78h-135q-63 0 -91 26.5t-28 86.5v57l4 84h-4q-35 -96 -144.5 -187.5t-275.5 -91.5q-182 0 -260 98.5t-78 301.5v569 h-194zM408 1206l163 228h123l164 -228h-108l-115 164h-4l-115 -164h-108z" />
<glyph unicode="&#xfc;" horiz-adv-x="1312" d="M37 944v80h280v-618q0 -61 4.5 -105.5t18.5 -92.5t41 -79t75 -50.5t113 -19.5q184 0 302 138.5t118 326.5v420h-194v80h280v-901q0 -45 45 -45h123v-78h-135q-63 0 -91 26.5t-28 86.5v57l4 84h-4q-35 -96 -144.5 -187.5t-275.5 -91.5q-182 0 -260 98.5t-78 301.5v569 h-194zM405 1284v150h111v-150h-111zM750 1284v150h110v-150h-110z" />
<glyph unicode="&#xfd;" horiz-adv-x="1148" d="M16 944v80h396v-80h-162l305 -780l16 -58h4q6 27 19 58l305 780h-162v80h396v-80h-142l-463 -1159q-39 -96 -109.5 -155.5t-162.5 -59.5q-43 0 -85 14.5t-60 26.5l-21 14l39 76q57 -49 127 -49q125 0 203 184l69 168l-372 940h-140zM510 1206l192 228h132l-213 -228h-111 z" />
<glyph unicode="&#xfe;" horiz-adv-x="1198" d="M10 -330h185v1684h-185v80h271v-523l-2 -82h4l11 24q7 15 35.5 53t65.5 66.5t104.5 52.5t147.5 24q203 0 323 -147.5t120 -389.5t-127 -389.5t-328 -147.5q-74 0 -138.5 22.5t-102.5 55.5t-65.5 66t-37.5 55l-10 23h-5q4 -37 5 -91v-436h184v-80h-455v80zM279 510 q0 -182 96 -317.5t260 -135.5q156 0 260 123t104 332q0 205 -99 329t-257 124q-156 0 -260 -114t-104 -341z" />
<glyph unicode="&#xff;" horiz-adv-x="1148" d="M16 944v80h396v-80h-162l305 -780l16 -58h4q6 27 19 58l305 780h-162v80h396v-80h-142l-463 -1159q-39 -96 -109.5 -155.5t-162.5 -59.5q-43 0 -85 14.5t-60 26.5l-21 14l39 76q57 -49 127 -49q125 0 203 184l69 168l-372 940h-140zM360 1284v150h111v-150h-111z M705 1284v150h110v-150h-110z" />
<glyph unicode="&#x152;" horiz-adv-x="1943" d="M123 717q0 313 202.5 525t518.5 212q37 0 123 -10t114 -10h701v-267h-86v185h-621v-588h572v-82h-572v-600h662v186h86v-268h-740q-27 0 -114.5 -10t-124.5 -10q-315 0 -518 211t-203 526zM215 717q0 -283 174 -468.5t455 -185.5q33 0 68.5 4.5t54.5 8.5l20 4v1274 q-68 16 -143 16q-281 0 -455 -186t-174 -467z" />
<glyph unicode="&#x153;" horiz-adv-x="2091" d="M104 510q0 238 155 388.5t374 150.5q158 0 287 -82t192 -224h4q59 145 181 225.5t274 80.5q199 0 308.5 -134.5t109.5 -332.5l-4 -56h-822q6 -221 131 -344t308 -123q88 0 166.5 33t115.5 64l35 32l47 -71q-16 -16 -46 -40t-125 -63t-193 -39q-162 0 -292 82t-192 226h-4 q-63 -143 -192 -225.5t-289 -82.5q-221 0 -375 148.5t-154 386.5zM195 510q0 -201 127 -326t311 -125t312 127t128 334q0 197 -129 321t-311 124q-184 0 -311 -127t-127 -328zM1169 606h729q-8 178 -100 270.5t-229 92.5q-150 0 -261.5 -95.5t-138.5 -267.5z" />
<glyph unicode="&#x178;" horiz-adv-x="1300" d="M20 1352v82h418v-82h-170l353 -588l26 -51h4q14 29 29 51l354 588h-170v82h416v-82h-145l-441 -729v-541h195v-82h-477v82h194v541l-440 729h-146zM424 1614v149h111v-149h-111zM768 1614v149h111v-149h-111z" />

<glyph unicode="&#x2c6;" horiz-adv-x="1040" d="M295 1536l164 227h123l163 -227h-108l-115 164h-4l-115 -164h-108z" />
<glyph unicode="&#x2dc;" horiz-adv-x="1042" d="M217 1542q0 221 172 221q51 0 92 -23.5t62.5 -50t50.5 -50t57 -23.5q84 0 84 141h90q0 -221 -172 -221q-51 0 -92 22.5t-62.5 51t-50 51t-57.5 22.5q-84 0 -84 -141h-90z" />
<glyph unicode="&#x2013;" horiz-adv-x="1490" d="M258 539v82h975v-82h-975z" />
<glyph unicode="&#x2014;" horiz-adv-x="1900" d="M258 539v82h1384v-82h-1384z" />
<glyph unicode="&#x2018;" horiz-adv-x="417" d="M119 1059l119 391h79l-92 -391h-106z" />
<glyph unicode="&#x2019;" horiz-adv-x="409" d="M123 1059l92 391h107l-119 -391h-80z" />
<glyph unicode="&#x201a;" horiz-adv-x="479" d="M100 -266l93 391h106l-119 -391h-80z" />
<glyph unicode="&#x201c;" horiz-adv-x="643" d="M119 1059l119 391h79l-92 -391h-106zM344 1059l119 391h80l-92 -391h-107z" />
<glyph unicode="&#x201d;" horiz-adv-x="634" d="M123 1059l92 391h107l-119 -391h-80zM348 1059l92 391h107l-119 -391h-80z" />
<glyph unicode="&#x201e;" horiz-adv-x="704" d="M100 -266l93 391h106l-119 -391h-80zM326 -266l92 391h106l-118 -391h-80z" />
<glyph unicode="&#x2022;" horiz-adv-x="802" d="M131 596q0 113 79 191.5t191.5 78.5t191.5 -78.5t79 -191.5t-79 -191.5t-191.5 -78.5t-191.5 78.5t-79 191.5z" />
<glyph unicode="&#x2026;" horiz-adv-x="1357" d="M180 0v129h125v-129h-125zM616 0v129h125v-129h-125zM1053 0v129h125v-129h-125z" />
<glyph unicode="&#x2039;" horiz-adv-x="688" d="M111 578l335 421h109l-336 -421l336 -420h-109z" />
<glyph unicode="&#x203a;" horiz-adv-x="688" d="M133 158l336 420l-336 421h109l336 -421l-336 -420h-109z" />
<glyph unicode="&#x20ac;" horiz-adv-x="1214" d="M102 539v82h111q-4 35 -4 107.5t6 115.5h-113v82h127q57 236 242.5 384t435.5 148l183 -22l-21 -86q-74 23 -162 22q-217 0 -372.5 -123t-210.5 -323h669l-16 -82h-670q-14 -100 -4 -223h635l-14 -82h-609q47 -213 207 -345.5t385 -132.5q47 0 92 6.5t66 14.5l22 6 l25 -84q-88 -29 -205 -29q-258 0 -446.5 158t-237.5 406h-121z" />
<glyph unicode="&#x2122;" horiz-adv-x="1914" d="M63 1356v78h738v-78h-330v-815h-80v815h-328zM885 541l71 893h72l258 -553l29 -82h4q10 41 29 82l258 553h71l72 -893h-78l-57 671l2 58h-4l-260 -561h-70l-260 561h-4l2 -58l-57 -671h-78z" />
<glyph unicode="&#xe000;" horiz-adv-x="1025" d="M0 1025h1025v-1025h-1025v1025z" />

<glyph unicode="&#xfb01;" horiz-adv-x="1247" d="M82 944v80h194v55q0 113 33 191t85 111.5t96.5 46t89.5 12.5l73 -6v-80q-27 6 -67 6q-35 0 -68 -9.5t-70.5 -36t-61.5 -86t-24 -147.5v-57h648v-944h184v-80h-455v80h185v864h-562v-864h216v-80h-486v80h184v864h-194zM911 1284v150h111v-150h-111z" />
<glyph unicode="&#xfb02;" horiz-adv-x="1198" d="M82 944v80h194v37q0 115 37 196.5t98.5 123.5t125 59.5t133.5 17.5q178 0 293 -41v-1184q0 -74 26.5 -115.5t104.5 -41.5l51 4l-2 -80q-37 -4 -68 -4q-199 0 -198 229v1129q-57 25 -203 24q-57 0 -108.5 -14t-99.5 -48t-76 -98.5t-28 -154.5v-39h273v-80h-273v-864h216 v-80h-486v80h184v864h-194z" />
<glyph unicode="&#xfb03;" horiz-adv-x="1894" d="M82 944v80h194v55q0 113 33 191t85 111.5t96.5 46t89.5 12.5l73 -6v-80q-27 6 -67 6q-35 0 -68 -9.5t-70.5 -36t-61.5 -86t-24 -147.5v-57h562v55q0 113 32.5 191t85 111.5t96.5 46t89 12.5l73 -6v-80q-27 6 -67 6q-35 0 -67.5 -9.5t-70.5 -36t-61.5 -86t-23.5 -147.5 v-57h647v-944h184v-80h-455v80h185v864h-561v-864h215v-80h-486v80h185v864h-562v-864h216v-80h-486v80h184v864h-194zM1559 1284v150h110v-150h-110z" />
<glyph unicode="&#xfb04;" horiz-adv-x="1845" d="M82 944v80h194v55q0 92 23 161t55.5 105.5t77.5 59t80 29t72 6.5l69 -6v-80q-29 6 -63 6q-37 0 -70 -9.5t-71.5 -36t-62.5 -86t-24 -147.5v-57h562v37q0 115 36.5 196.5t98 123.5t125 59.5t133.5 17.5q178 0 293 -41v-1184q0 -74 26.5 -115.5t104.5 -41.5l51 4l-2 -80 q-37 -4 -68 -4q-199 0 -198 229v1129q-57 25 -203 24q-57 0 -108.5 -14t-99.5 -48t-75.5 -98.5t-27.5 -154.5v-39h272v-80h-272v-864h215v-80h-486v80h185v864h-562v-864h216v-80h-486v80h184v864h-194z" />
</font>
</defs>
</svg>
