<?xml version="1.0" standalone="no"?>
<!DOCTYPE svg PUBLIC "-//W3C//DTD SVG 1.1//EN" "http://www.w3.org/Graphics/SVG/1.1/DTD/svg11.dtd" >
<svg xmlns="http://www.w3.org/2000/svg">
<metadata></metadata>
<defs>
<font id="BryantProRegularRegular" horiz-adv-x="1466" >
<font-face units-per-em="2048" ascent="1536" descent="-512" />
<missing-glyph horiz-adv-x="614" />
<glyph unicode="&#xfb01;" horiz-adv-x="1101" d="M25 838q0 22 14.5 36.5t36.5 14.5h143v127q0 172 79.5 260t248.5 88h43q22 0 36.5 -14.5t14.5 -36.5t-14.5 -36.5t-36.5 -14.5h-37q-109 0 -160 -55.5t-51 -188.5v-129h233q21 0 36.5 -15t15.5 -36t-15.5 -36.5t-36.5 -15.5h-233v-741q0 -26 -17.5 -43.5t-43.5 -17.5 t-44 17.5t-18 43.5v741h-143q-22 0 -36.5 15t-14.5 37zM803 1143q0 31 22.5 53.5t53.5 22.5t53 -22.5t22 -53.5t-22 -53.5t-53 -22.5t-53.5 22.5t-22.5 53.5zM817 45v799q0 26 18 43.5t44 17.5t43.5 -17.5t17.5 -43.5v-799q0 -26 -17.5 -43.5t-43.5 -17.5t-44 17.5t-18 43.5 z" />
<glyph unicode="&#xfb02;" horiz-adv-x="1107" d="M25 838q0 22 14.5 36.5t36.5 14.5h143v127q0 172 79.5 260t248.5 88h43q22 0 36.5 -14.5t14.5 -36.5t-14.5 -36.5t-36.5 -14.5h-37q-109 0 -160 -55.5t-51 -188.5v-129h233q21 0 36.5 -15t15.5 -36t-15.5 -36.5t-36.5 -15.5h-233v-741q0 -26 -17.5 -43.5t-43.5 -17.5 t-44 17.5t-18 43.5v741h-143q-22 0 -36.5 15t-14.5 37zM821 45v1274q0 26 18 43.5t44 17.5t43.5 -17.5t17.5 -43.5v-1274q0 -26 -17.5 -43.5t-43.5 -17.5t-44 17.5t-18 43.5z" />
<glyph horiz-adv-x="0" />
<glyph horiz-adv-x="2048" />
<glyph unicode=" "  horiz-adv-x="614" />
<glyph unicode="&#x09;" horiz-adv-x="614" />
<glyph unicode="&#xa0;" horiz-adv-x="614" />
<glyph unicode="!" horiz-adv-x="573" d="M201 74q0 35 25.5 60.5t60.5 25.5t60.5 -25.5t25.5 -60.5t-25.5 -60.5t-60.5 -25.5t-60.5 25.5t-25.5 60.5zM225 756v563q0 25 17.5 43t44.5 18t44 -18t17 -43v-563l-29 -400q-3 -37 -32 -37q-30 0 -33 37z" />
<glyph unicode="&#x22;" horiz-adv-x="782" d="M154 938v387q0 23 15 39t40 16t40 -16t15 -39v-387q0 -23 -15 -39t-40 -16t-40 16t-15 39zM518 938v387q0 23 15 39t40 16t40.5 -16t15.5 -39v-387q0 -23 -15.5 -39t-40.5 -16t-40 16t-15 39z" />
<glyph unicode="#" d="M123 442q0 24 14.5 38t36.5 14h197l43 395h-195q-19 0 -32 13t-13 32q0 23 14 37t41 14h195l39 344q6 51 55 51q23 0 36.5 -15t10.5 -44l-39 -336h490l39 344q6 51 57 51q25 0 37.5 -15t9.5 -40l-39 -340h193q20 0 33.5 -12t13.5 -33t-14 -36t-37 -15h-199l-43 -395h195 q20 0 32.5 -12.5t12.5 -32.5q0 -21 -14.5 -36.5t-37.5 -15.5h-198l-41 -360q-7 -53 -55 -53q-29 0 -40 17.5t-8 43.5l39 352h-489l-43 -362q-7 -51 -55 -51q-25 0 -37.5 15.5t-10.5 37.5l41 360h-188q-20 0 -33.5 13t-13.5 32zM473 494h490l45 395h-490z" />
<glyph unicode="$" horiz-adv-x="1251" d="M154 219q0 22 14.5 35.5t36.5 13.5q24 0 49 -18q88 -63 175 -96t216 -33q156 0 249 63.5t93 173.5q0 32 -11 60.5t-27 50t-46.5 43.5t-56 37t-70.5 34t-75.5 30t-84.5 30q-244 86 -344 172.5t-100 208.5q0 145 112.5 229.5t309.5 92.5v186q0 22 15.5 37.5t41.5 15.5 q27 0 42.5 -15.5t15.5 -37.5v-189q179 -16 329 -112q29 -19 29 -43q0 -21 -14.5 -37t-40.5 -16q-16 0 -33 10q-174 98 -340 98q-170 0 -258 -55.5t-88 -161.5q0 -34 8 -61t29 -50.5t44 -41.5t66 -39t82.5 -37t104.5 -41q80 -30 129.5 -49.5t106.5 -45.5t90 -47.5t66.5 -49.5 t50.5 -58t27.5 -67t10.5 -81q0 -141 -109.5 -233t-304.5 -109v-184q0 -22 -15.5 -37.5t-41.5 -15.5t-41.5 15.5t-15.5 37.5v186q-231 18 -398 152q-28 25 -28 49z" />
<glyph unicode="%" horiz-adv-x="1734" d="M123 1063q0 136 94.5 231t233.5 95t233 -95t94 -231q0 -137 -94 -231.5t-233 -94.5t-233.5 94.5t-94.5 231.5zM227 1063q0 -99 62.5 -166.5t161.5 -67.5t161 67.5t62 166.5t-62 166t-161 67t-161.5 -67t-62.5 -166zM418 25q0 15 18 45l787 1286q14 26 45 26q21 0 35 -13 t14 -36q0 -16 -10 -33l-797 -1298q-15 -27 -43 -27q-23 0 -36 15t-13 35zM952 301q0 136 94.5 231t233.5 95t233.5 -95t94.5 -231q0 -137 -94.5 -231.5t-233.5 -94.5t-233.5 94.5t-94.5 231.5zM1057 301q0 -99 62 -166t161 -67t161 67t62 166t-62 166.5t-161 67.5 t-161 -67.5t-62 -166.5z" />
<glyph unicode="&#x26;" d="M143 326q0 84 28.5 153.5t84.5 125t119 97t151 84.5q-75 97 -113 177t-38 163q0 116 78.5 189.5t214.5 73.5q128 0 204 -75t76 -190q0 -106 -74.5 -201.5t-199.5 -166.5q63 -96 139.5 -210t122.5 -180l45 -67q16 22 31.5 46t25.5 41.5t23.5 45.5t19.5 41t20 45.5t19 42.5 q14 31 45 31q26 0 41 -14.5t15 -36.5q0 -7 -4 -19q-71 -170 -175 -309q25 -35 35.5 -48.5t32 -37.5t37 -33.5t39 -17.5t49.5 -8q63 0 127 38q10 7 22 7q18 0 29.5 -12.5t11.5 -30.5q0 -19 -14 -33q-27 -29 -79 -45.5t-97 -16.5q-50 0 -87.5 9.5t-69 33t-54 48.5t-57.5 71 q-74 -74 -183.5 -118t-226.5 -44q-199 0 -306.5 100.5t-107.5 250.5zM262 330q0 -117 78 -187.5t223 -70.5q96 0 185 39t159 110q-232 338 -329 484q-63 -35 -102.5 -60t-84.5 -61t-70 -70.5t-42 -82t-17 -101.5zM489 1124q0 -120 134 -290q91 44 153 123.5t62 160.5 q0 77 -45.5 126.5t-128.5 49.5q-80 0 -127.5 -42t-47.5 -128z" />
<glyph unicode="'" horiz-adv-x="417" d="M154 938v387q0 23 15 39t40 16t40 -16t15 -39v-387q0 -23 -15 -39t-40 -16t-40 16t-15 39z" />
<glyph unicode="(" horiz-adv-x="645" d="M184 553q0 223 62.5 435.5t204.5 441.5q17 24 45 24q25 0 41 -16t16 -37q0 -16 -10 -33q-122 -212 -179 -403t-57 -412t57 -412t179 -403q10 -17 10 -33q0 -21 -16 -37t-41 -16q-28 0 -45 24q-142 229 -204.5 441.5t-62.5 435.5z" />
<glyph unicode=")" horiz-adv-x="645" d="M92 -295q0 16 10 33q122 212 179 403t57 412t-57 412t-179 403q-10 17 -10 33q0 21 16.5 37t41.5 16q28 0 45 -24q142 -229 204 -441.5t62 -435.5t-62 -435.5t-204 -441.5q-17 -24 -45 -24q-25 0 -41.5 16t-16.5 37z" />
<glyph unicode="*" horiz-adv-x="839" d="M92 1094q0 15 10 24.5t25 9.5h231l-118 197q-7 14 -7 23q0 13 11 22.5t26 9.5q20 0 31 -16l119 -205l119 205q11 16 30 16q15 0 26 -9.5t11 -22.5q0 -11 -6 -23l-119 -197h232q15 0 25 -9.5t10 -24.5t-10 -25t-25 -10h-232l119 -195q8 -13 8 -24q0 -14 -11.5 -23.5 t-27.5 -9.5q-19 0 -32 22l-117 201l-117 -201q-13 -22 -33 -22q-16 0 -27.5 9.5t-11.5 23.5q0 9 9 24l118 195h-231q-15 0 -25 10t-10 25z" />
<glyph unicode="+" horiz-adv-x="1146" d="M113 662q0 24 17 39.5t42 15.5h342v346q0 25 17 42t42 17t42.5 -17t17.5 -42v-346h342q25 0 42 -15.5t17 -39.5t-17 -40t-42 -16h-342v-346q0 -25 -17.5 -42t-42.5 -17t-42 17t-17 42v346h-342q-25 0 -42 16t-17 40z" />
<glyph unicode="," horiz-adv-x="421" d="M96 -283q0 11 10 41q52 153 52 293v88q0 25 14.5 41.5t40.5 16.5t40.5 -16.5t14.5 -41.5v-88q0 -178 -55 -327q-19 -56 -63 -56q-25 0 -39.5 13.5t-14.5 35.5z" />
<glyph unicode="-" horiz-adv-x="897" d="M143 508q0 24 15.5 37.5t38.5 13.5h503q23 0 38.5 -13.5t15.5 -37.5t-15.5 -37.5t-38.5 -13.5h-503q-23 0 -38.5 13.5t-15.5 37.5z" />
<glyph unicode="." horiz-adv-x="479" d="M154 74q0 35 25.5 60.5t60.5 25.5t60.5 -25.5t25.5 -60.5t-25.5 -60.5t-60.5 -25.5t-60.5 25.5t-25.5 60.5z" />
<glyph unicode="/" horiz-adv-x="921" d="M133 -170q0 9 4 25l545 1591q12 39 55 39q20 0 35.5 -14t15.5 -39q0 -13 -4 -25l-542 -1585q-15 -41 -56 -41q-26 0 -39.5 14t-13.5 35z" />
<glyph unicode="0" horiz-adv-x="1400" d="M123 682q0 143 41 272t114.5 225.5t183 153t238.5 56.5q104 0 196 -36.5t161 -102t119 -154t76 -194.5t26 -220t-26 -220t-76 -194.5t-119 -154t-161 -102t-196 -36.5q-129 0 -238.5 56.5t-183 153t-114.5 225.5t-41 272zM246 682q0 -123 31 -231t87.5 -189.5t143 -128.5 t192.5 -47q140 0 245 81.5t157.5 215.5t52.5 299t-52.5 299t-157.5 215.5t-245 81.5q-106 0 -192.5 -47t-143 -128.5t-87.5 -189.5t-31 -231z" />
<glyph unicode="1" horiz-adv-x="745" d="M57 1210q0 44 47 58l336 104q28 8 41 8q28 0 44 -17t16 -46v-1272q0 -25 -17.5 -43t-44.5 -18t-44 18t-17 43v1200l-281 -86q-16 -4 -22 -4q-23 0 -40.5 15.5t-17.5 39.5z" />
<glyph unicode="2" horiz-adv-x="1284" d="M137 55q0 104 21 186t54.5 139t95 108.5t121 86.5t153.5 80q105 50 169.5 84.5t121 71.5t84.5 70.5t43.5 73t15.5 87.5q0 116 -93.5 177t-263.5 61q-234 0 -407 -131q-16 -12 -33 -12q-23 0 -38 14.5t-15 36.5q0 23 17.5 41.5t58.5 44.5q178 115 426 115q217 0 344 -93 t127 -256q0 -132 -97.5 -232.5t-351.5 -219.5q-120 -56 -194 -100.5t-130 -101t-79 -123.5t-23 -157h834q23 0 38 -15t15 -38q0 -22 -15.5 -37.5t-37.5 -15.5h-905q-23 0 -39.5 16.5t-16.5 38.5z" />
<glyph unicode="3" horiz-adv-x="1284" d="M113 195q0 25 16.5 38t40.5 13q19 0 37 -15q189 -153 424 -153q174 0 285.5 82.5t111.5 226.5q0 134 -103 216.5t-296 82.5h-148q-23 0 -38 16t-15 37q0 22 15 38t38 16h133q149 0 236.5 70.5t87.5 180.5q0 118 -80 179t-225 61q-137 0 -277 -70q-32 -18 -55 -18 q-24 0 -37.5 13.5t-13.5 33.5q0 40 53 66q149 80 338 80q191 0 305.5 -90.5t114.5 -245.5q0 -202 -234 -303q142 -24 233 -121t91 -246q0 -182 -147 -295t-373 -113q-158 0 -275.5 44t-218.5 128q-24 21 -24 48z" />
<glyph unicode="4" horiz-adv-x="1304" d="M61 436q0 20 19 39l788 879q23 26 56 26q28 0 41.5 -18.5t13.5 -46.5v-828h225q22 0 37.5 -14t15.5 -37t-15.5 -37t-37.5 -14h-225v-340q0 -27 -16 -44t-43 -17t-43.5 17t-16.5 44v340h-745q-26 0 -40 13.5t-14 37.5zM229 487h631v703z" />
<glyph unicode="5" horiz-adv-x="1298" d="M133 193q0 24 16.5 38.5t40.5 14.5q18 0 37 -15q94 -80 194 -115.5t230 -35.5q185 0 291.5 94.5t106.5 243.5q0 155 -102.5 243.5t-268.5 88.5q-108 0 -196.5 -32t-174.5 -104q-19 -16 -47 -16q-30 0 -44 18.5t-11 42.5l104 654q9 51 62 51h633q23 0 39 -15t16 -38 q0 -22 -15.5 -38t-39.5 -16h-588l-84 -512q62 53 153.5 81t196.5 28q219 0 354 -115.5t135 -316.5q0 -192 -141 -320.5t-379 -128.5q-305 0 -495 177q-23 23 -23 43z" />
<glyph unicode="6" horiz-adv-x="1288" d="M143 455q0 293 162.5 535.5t435.5 361.5q90 37 127 37q23 0 37.5 -11t14.5 -30q0 -22 -14 -33.5t-48 -24.5q-108 -43 -195.5 -99t-151.5 -118.5t-114.5 -140t-84.5 -158t-62 -178.5q63 119 181 181.5t269 62.5q216 0 348 -119.5t132 -302.5q0 -91 -34 -170.5t-97 -140.5 t-161.5 -96.5t-219.5 -35.5q-255 0 -390 128t-135 352zM270 410q0 -154 99 -244t303 -90q172 0 280.5 94.5t108.5 245.5q0 148 -98.5 235.5t-276.5 87.5q-168 0 -292 -93.5t-124 -235.5z" />
<glyph unicode="7" horiz-adv-x="1136" d="M72 1311q0 22 16 37.5t39 15.5h885q63 0 63 -51q0 -19 -14 -37q-118 -152 -199 -281.5t-146 -279.5t-96.5 -315.5t-31.5 -354.5q0 -27 -16.5 -44t-45.5 -17t-45 17t-16 44q0 187 32 356.5t94 319t140.5 277.5t183.5 259h-788q-23 0 -39 15.5t-16 38.5z" />
<glyph unicode="8" horiz-adv-x="1335" d="M135 379q0 143 90.5 238.5t237.5 134.5q-232 106 -232 299q0 154 123.5 246t313.5 92t313 -92t123 -246q0 -193 -232 -299q147 -39 237.5 -134.5t90.5 -238.5q0 -177 -143.5 -290.5t-388.5 -113.5t-389 113.5t-144 290.5zM256 381q0 -140 110.5 -222.5t301.5 -82.5 t301 82.5t110 222.5q0 98 -57.5 170t-149.5 106.5t-204 34.5t-204 -34.5t-150 -106.5t-58 -170zM348 1044q0 -109 91 -181t229 -72t228.5 72t90.5 181q0 115 -86.5 180.5t-232.5 65.5t-233 -66t-87 -180z" />
<glyph unicode="9" horiz-adv-x="1286" d="M117 946q0 188 137.5 315.5t374.5 127.5q255 0 389.5 -128t134.5 -352q0 -293 -162.5 -535.5t-435.5 -361.5q-90 -37 -127 -37q-23 0 -37 11t-14 30q0 22 13.5 33.5t47.5 24.5q135 54 237 125.5t173 160.5t117.5 187t81.5 221q-63 -119 -181.5 -181.5t-269.5 -62.5 q-223 0 -351 118.5t-128 303.5zM236 948q0 -148 98 -235.5t276 -87.5q168 0 292 93.5t124 235.5q0 154 -98.5 244t-302.5 90q-172 0 -280.5 -94.5t-108.5 -245.5z" />
<glyph unicode=":" horiz-adv-x="479" d="M154 74q0 35 25.5 60.5t60.5 25.5t60.5 -25.5t25.5 -60.5t-25.5 -60.5t-60.5 -25.5t-60.5 25.5t-25.5 60.5zM154 680q0 35 25.5 60.5t60.5 25.5t60.5 -25.5t25.5 -60.5t-25.5 -60.5t-60.5 -25.5t-60.5 25.5t-25.5 60.5z" />
<glyph unicode=";" horiz-adv-x="468" d="M113 -283q0 16 10 41q30 75 39.5 141t9.5 152v86q0 25 15.5 42.5t41.5 17.5t42 -17.5t16 -42.5v-86q0 -170 -58 -327q-9 -27 -22 -41.5t-41 -14.5q-24 0 -38.5 13.5t-14.5 35.5zM143 680q0 35 25.5 60.5t60.5 25.5t60.5 -25.5t25.5 -60.5t-25.5 -60.5t-60.5 -25.5 t-60.5 25.5t-25.5 60.5z" />
<glyph unicode="&#x3c;" horiz-adv-x="1105" d="M102 662q0 27 33 47l742 413q13 8 32 8q24 0 39 -15t15 -36q0 -33 -33 -49l-680 -368l680 -369q33 -17 33 -49q0 -21 -15 -36t-39 -15q-19 0 -32 8l-742 413q-33 20 -33 48z" />
<glyph unicode="=" horiz-adv-x="1126" d="M174 477q0 24 17 38.5t40 14.5h664q23 0 40 -14.5t17 -38.5t-17 -38.5t-40 -14.5h-664q-23 0 -40 14.5t-17 38.5zM174 834q0 24 17 38.5t40 14.5h664q23 0 40 -14.5t17 -38.5t-17 -39t-40 -15h-664q-23 0 -40 15t-17 39z" />
<glyph unicode="&#x3e;" horiz-adv-x="1105" d="M143 244q0 32 33 49l680 369l-680 368q-33 16 -33 49q0 21 15 36t39 15q19 0 32 -8l742 -413q33 -20 33 -47q0 -28 -33 -48l-742 -413q-13 -8 -32 -8q-24 0 -39 15t-15 36z" />
<glyph unicode="?" horiz-adv-x="1007" d="M102 1227q0 19 10 30.5t35 26.5q161 105 373 105q176 0 285.5 -81.5t109.5 -224.5q0 -160 -204 -327q-46 -38 -71.5 -59.5t-50 -47.5t-35 -43.5t-19.5 -45t-11 -54.5t-2 -68v-84q0 -25 -17.5 -41t-45.5 -16q-26 0 -43 16.5t-17 40.5v82q0 31 1 57.5t7 51t8.5 41.5 t14.5 38t16 31.5t23 31t25 28t31.5 29.5t34 29t40.5 34q109 91 151 149.5t42 126.5q0 101 -75 148t-206 47q-88 0 -162 -22t-155 -70q-20 -12 -37 -12q-22 0 -39 15t-17 38zM375 74q0 35 25.5 60.5t60.5 25.5t60.5 -25.5t25.5 -60.5t-25.5 -60.5t-60.5 -25.5t-60.5 25.5 t-25.5 60.5z" />
<glyph unicode="@" horiz-adv-x="1548" d="M119 696q0 147 46 274t130.5 220t211.5 146t281 53q225 0 342 -114t117 -321v-540q0 -23 -13.5 -37.5t-37.5 -14.5t-37.5 14.5t-13.5 37.5v78q-37 -60 -103 -99t-155 -39q-148 0 -245 100.5t-97 250.5t97 250t245 100q89 0 155 -38.5t103 -98.5v57q0 323 -359 323 q-174 0 -304 -80t-195.5 -215.5t-65.5 -306.5q0 -131 45 -244.5t130 -200t218.5 -136t300.5 -49.5q237 0 490 104q8 4 22 4q19 0 29 -12.5t10 -26.5q0 -29 -28 -41q-232 -119 -523 -119q-188 0 -340.5 56.5t-251 154.5t-151.5 228.5t-53 281.5zM649 705q0 -114 67 -187.5 t175 -73.5q110 0 181 72.5t71 188.5t-71 188t-181 72q-108 0 -175 -73t-67 -187z" />
<glyph unicode="A" d="M98 39q0 13 8 29l570 1271q18 41 57 41q40 0 58 -41l569 -1271q8 -16 8 -29q0 -24 -16 -39.5t-43 -15.5q-40 0 -56 39l-168 374h-704l-168 -374q-16 -39 -55 -39q-27 0 -43.5 15.5t-16.5 39.5zM428 506h610l-305 702z" />
<glyph unicode="B" horiz-adv-x="1325" d="M195 61v1242q0 27 16 44t45 17h465q178 0 290.5 -91.5t112.5 -244.5q0 -107 -49.5 -178.5t-161.5 -116.5q140 -23 230 -115.5t90 -242.5q0 -74 -29.5 -140.5t-85.5 -119.5t-146 -84t-202 -31h-514q-26 0 -43.5 18t-17.5 43zM317 106h461q159 0 245.5 79t86.5 202 q0 131 -90 205t-248 74h-455v-560zM317 772h416q124 0 196 71t72 173q0 117 -74 179t-204 62h-406v-485z" />
<glyph unicode="C" horiz-adv-x="1443" d="M119 682q0 195 83 355t240 256t359 96q326 0 524 -259q16 -24 16 -40q0 -25 -16 -40.5t-41 -15.5q-26 0 -43 23q-84 107 -186.5 163t-253.5 56q-129 0 -236 -49t-177 -131.5t-108 -189.5t-38 -224t38 -224t108 -189.5t177 -131.5t236 -49q151 0 253.5 56t186.5 163 q17 23 43 23q25 0 41 -15.5t16 -40.5q0 -17 -16 -41q-198 -258 -524 -258q-202 0 -359 96t-240 256t-83 355z" />
<glyph unicode="D" horiz-adv-x="1417" d="M195 61v1242q0 26 17.5 43.5t43.5 17.5h389q152 0 280.5 -53t215.5 -145t135.5 -217t48.5 -267t-48.5 -267t-135.5 -217t-215.5 -145t-280.5 -53h-389q-27 0 -44 18t-17 43zM317 111h320q260 0 412.5 161.5t152.5 409.5t-152.5 409.5t-412.5 161.5h-320v-1142z" />
<glyph unicode="E" horiz-adv-x="1193" d="M195 61v1242q0 26 17.5 43.5t43.5 17.5h788q23 0 39.5 -16t16.5 -39t-16.5 -39.5t-39.5 -16.5h-727v-493h422q23 0 39.5 -16t16.5 -39t-16.5 -39.5t-39.5 -16.5h-422v-538h730q23 0 39 -16.5t16 -39.5t-16 -39t-39 -16h-791q-26 0 -43.5 17.5t-17.5 43.5z" />
<glyph unicode="F" horiz-adv-x="1140" d="M195 45v1258q0 26 17.5 43.5t43.5 17.5h788q23 0 39.5 -16t16.5 -39t-16.5 -39.5t-39.5 -16.5h-727v-493h422q23 0 39.5 -16t16.5 -39t-16.5 -39.5t-39.5 -16.5h-422v-604q0 -26 -17.5 -43.5t-43.5 -17.5t-43.5 17.5t-17.5 43.5z" />
<glyph unicode="G" horiz-adv-x="1497" d="M119 682q0 197 86.5 358.5t243 255t352.5 93.5q139 0 261.5 -50t209.5 -141q16 -19 16 -43q0 -23 -15 -38t-40 -15q-27 0 -43 16q-164 158 -389 158q-124 0 -229.5 -47.5t-177 -128.5t-112 -189.5t-40.5 -228.5q0 -121 36 -228.5t104.5 -191.5t177.5 -133t245 -49 q131 0 248 46.5t198 127.5v303h-391q-22 0 -37.5 15t-15.5 38t15.5 38.5t37.5 15.5h451q25 0 42 -16t17 -42v-354q0 -28 -16 -47q-90 -101 -234 -165.5t-319 -64.5q-134 0 -247 40t-192 107.5t-134.5 158.5t-82 192.5t-26.5 208.5z" />
<glyph unicode="H" horiz-adv-x="1464" d="M195 45v1274q0 26 17.5 43.5t43.5 17.5t43.5 -17.5t17.5 -43.5v-567h830v567q0 26 17.5 43.5t43.5 17.5t44 -17.5t18 -43.5v-1274q0 -26 -18 -43.5t-44 -17.5t-43.5 17.5t-17.5 43.5v594h-830v-594q0 -26 -17.5 -43.5t-43.5 -17.5t-43.5 17.5t-17.5 43.5z" />
<glyph unicode="I" horiz-adv-x="532" d="M205 45v1274q0 26 17.5 43.5t43.5 17.5t44 -17.5t18 -43.5v-1274q0 -26 -18 -43.5t-44 -17.5t-43.5 17.5t-17.5 43.5z" />
<glyph unicode="J" horiz-adv-x="1210" d="M72 375q0 29 16 44t43 15q46 0 55 -49q69 -301 353 -301q180 0 272 111.5t92 312.5v811q0 26 18 43.5t44 17.5t43.5 -17.5t17.5 -43.5v-807q0 -116 -29.5 -212.5t-87.5 -170t-152 -114t-216 -40.5q-189 0 -306 100t-159 271q-4 16 -4 29z" />
<glyph unicode="K" horiz-adv-x="1353" d="M195 45v1274q0 26 17.5 43.5t43.5 17.5t43.5 -17.5t17.5 -43.5v-735l793 780q16 16 41 16q27 0 43 -16t16 -37q0 -27 -18 -45l-451 -442l488 -764q12 -21 12 -37q0 -23 -16 -39t-43 -16q-34 0 -52 28l-475 746l-338 -332v-381q0 -26 -17.5 -43.5t-43.5 -17.5t-43.5 17.5 t-17.5 43.5z" />
<glyph unicode="L" horiz-adv-x="1177" d="M195 61v1258q0 26 17.5 43.5t43.5 17.5t43.5 -17.5t17.5 -43.5v-1208h734q23 0 39 -16.5t16 -39.5t-16 -39t-39 -16h-795q-26 0 -43.5 17.5t-17.5 43.5z" />
<glyph unicode="M" horiz-adv-x="1732" d="M195 43v1278q0 26 16.5 42.5t42.5 16.5q38 0 57 -39l555 -1185l555 1185q19 39 58 39q26 0 42.5 -16.5t16.5 -42.5v-1278q0 -25 -16 -42t-43 -17q-25 0 -41.5 17t-16.5 42v1044l-497 -1067q-16 -36 -58 -36q-41 0 -57 36l-498 1067v-1044q0 -25 -16 -42t-41 -17 q-27 0 -43 17t-16 42z" />
<glyph unicode="N" horiz-adv-x="1480" d="M195 41v1280q0 26 16.5 42.5t44.5 16.5t47 -26l866 -1147v1114q0 26 17 42.5t43 16.5t41.5 -17t15.5 -42v-1280q0 -24 -15.5 -40.5t-43.5 -16.5q-27 0 -47 26l-869 1145v-1114q0 -24 -16.5 -40.5t-40.5 -16.5q-26 0 -42.5 16.5t-16.5 40.5z" />
<glyph unicode="O" horiz-adv-x="1585" d="M106 682q0 190 85.5 351t244.5 258.5t359 97.5q150 0 279 -57t217 -153.5t138 -225.5t50 -271t-50 -271t-138 -225.5t-217 -153.5t-279 -57q-200 0 -359 97.5t-244.5 258.5t-85.5 351zM229 682q0 -118 39.5 -225.5t111 -190.5t179.5 -132.5t236 -49.5t235.5 49.5 t177.5 132.5t109 190.5t39 225.5t-39 225.5t-109 190.5t-177.5 132.5t-235.5 49.5t-236 -49.5t-179.5 -132.5t-111 -190.5t-39.5 -225.5z" />
<glyph unicode="P" horiz-adv-x="1284" d="M195 45v1258q0 26 18 43.5t43 17.5h547q197 0 308.5 -107.5t111.5 -275.5t-111.5 -275.5t-308.5 -107.5h-486v-553q0 -27 -17 -44t-44 -17q-26 0 -43.5 17.5t-17.5 43.5zM317 709h510q125 0 199 76.5t74 195.5t-74 195.5t-199 76.5h-510v-544z" />
<glyph unicode="Q" horiz-adv-x="1585" d="M106 682q0 190 85.5 351t244.5 258.5t359 97.5q150 0 279 -57t217 -153.5t138 -225.5t50 -271q0 -178 -75.5 -331.5t-209.5 -250.5l147 -252q9 -18 9 -26q0 -23 -16 -37t-40 -14q-30 0 -47 28l-145 246q-140 -70 -307 -70q-200 0 -359 97.5t-244.5 258.5t-85.5 351z M229 682q0 -118 39.5 -225.5t111 -190.5t179.5 -132.5t236 -49.5q136 0 252 55l-115 197q-12 24 -12 35q0 24 16 37.5t39 13.5q30 0 45 -27l117 -198q105 84 162 211.5t57 273.5q0 118 -39 225.5t-109 190.5t-177.5 132.5t-235.5 49.5t-236 -49.5t-179.5 -132.5t-111 -190.5 t-39.5 -225.5z" />
<glyph unicode="R" horiz-adv-x="1402" d="M195 45v1258q0 26 18 43.5t43 17.5h588q197 0 308.5 -105.5t111.5 -273.5q0 -143 -81 -242.5t-229 -126.5l267 -544q8 -16 8 -29q0 -24 -17 -41.5t-43 -17.5q-39 0 -57 34l-289 588h-506v-561q0 -27 -17 -44t-44 -17q-26 0 -43.5 17.5t-17.5 43.5zM317 717h551 q126 0 199.5 74.5t73.5 193.5t-73.5 193.5t-199.5 74.5h-551v-536z" />
<glyph unicode="S" horiz-adv-x="1298" d="M133 197q0 22 14.5 35.5t36.5 13.5t49 -19q205 -145 443 -145q182 0 284.5 68t102.5 184q0 46 -18.5 84.5t-49.5 67t-84 55.5t-107.5 46.5t-133.5 43.5q-120 36 -208.5 74.5t-145.5 76.5t-92 81t-48.5 85t-13.5 92q0 87 41 154.5t111.5 109.5t161 63.5t194.5 21.5 q246 0 440 -132q29 -19 29 -43q0 -21 -15 -37t-41 -16q-15 0 -32 10q-181 111 -383 111q-171 0 -277 -60.5t-106 -181.5q0 -101 86.5 -165t300.5 -134q72 -24 115 -39t100 -36.5t90 -39t72 -41.5t60 -48t41 -54.5t28 -66.5t8 -78q0 -165 -136.5 -264t-371.5 -99 q-147 0 -281.5 46.5t-234.5 123.5q-29 26 -29 52z" />
<glyph unicode="T" horiz-adv-x="1191" d="M37 1309q0 23 16 39t39 16h1008q23 0 39 -16t16 -39t-16 -39.5t-39 -16.5h-443v-1208q0 -26 -17.5 -43.5t-43.5 -17.5t-43.5 17.5t-17.5 43.5v1208h-443q-23 0 -39 16.5t-16 39.5z" />
<glyph unicode="U" horiz-adv-x="1511" d="M180 537v782q0 26 18 43.5t44 17.5t43.5 -17.5t17.5 -43.5v-791q0 -208 112.5 -326t340.5 -118t340 118t112 326v791q0 26 18 43.5t44 17.5t43.5 -17.5t17.5 -43.5v-782q0 -258 -154.5 -410t-420.5 -152t-421 152.5t-155 409.5z" />
<glyph unicode="V" horiz-adv-x="1249" d="M20 1327q0 23 17 38t41 15q37 0 51 -32l496 -1168l495 1168q14 32 51 32q24 0 41 -15t17 -38q0 -14 -6 -29l-543 -1275q-17 -39 -55 -39q-39 0 -56 39l-542 1275q-7 18 -7 29z" />
<glyph unicode="W" horiz-adv-x="1933" d="M41 1325q0 25 16.5 40t40.5 15q41 0 54 -43l374 -1130l385 1130q13 43 56 43q42 0 55 -43l385 -1130l375 1130q13 43 53 43q24 0 40.5 -15t16.5 -40q0 -9 -4 -25l-426 -1277q-14 -39 -55 -39q-43 0 -55 39l-385 1134l-385 -1134q-12 -39 -56 -39q-41 0 -55 39l-426 1277 q-4 16 -4 25z" />
<glyph unicode="X" horiz-adv-x="1310" d="M102 35q0 17 13 37l473 614l-467 606q-12 18 -12 35q0 23 16 38t39 15q28 0 47 -22l444 -576l445 576q19 22 47 22q23 0 39 -15t16 -38q0 -17 -12 -35l-467 -606l473 -614q12 -18 12 -37q0 -24 -14.5 -37.5t-36.5 -13.5q-33 0 -51 22l-451 584l-450 -584q-18 -22 -51 -22 q-23 0 -37.5 13.5t-14.5 37.5z" />
<glyph unicode="Y" horiz-adv-x="1130" d="M10 1325q0 25 16 40t40 15q33 0 53 -28l446 -639l447 639q20 28 53 28q24 0 39.5 -14.5t15.5 -40.5q0 -17 -12 -35l-481 -692v-553q0 -26 -18 -43.5t-44 -17.5t-43.5 17.5t-17.5 43.5v553l-481 692q-13 20 -13 35z" />
<glyph unicode="Z" horiz-adv-x="1304" d="M164 53q0 18 14 39l821 1165h-770q-23 0 -39 15.5t-16 38.5t16 38t39 15h875q26 0 41.5 -14t15.5 -39q0 -22 -16 -41l-815 -1164h792q22 0 39 -15t17 -38t-16 -38t-40 -15h-899q-25 0 -42 14.5t-17 38.5z" />
<glyph unicode="[" horiz-adv-x="700" d="M215 -246v1589q0 28 16.5 45t40.5 17h263q22 0 37.5 -15t15.5 -38t-15.5 -38.5t-37.5 -15.5h-197v-1497h197q22 0 37.5 -15t15.5 -38t-15.5 -38t-37.5 -15h-263q-27 0 -42 16.5t-15 42.5z" />
<glyph unicode="\" horiz-adv-x="921" d="M133 1432q0 25 16 39t37 14q42 0 56 -43l542 -1587q4 -16 4 -25q0 -20 -14.5 -34.5t-38.5 -14.5q-40 0 -55 41l-543 1585q-4 12 -4 25z" />
<glyph unicode="]" horiz-adv-x="700" d="M113 -252q0 23 15.5 38t37.5 15h196v1497h-196q-22 0 -37.5 15.5t-15.5 38.5t15.5 38t37.5 15h262q24 0 40.5 -17t16.5 -45v-1589q0 -26 -15 -42.5t-42 -16.5h-262q-22 0 -37.5 15t-15.5 38z" />
<glyph unicode="^" horiz-adv-x="958" d="M113 772q0 13 8 29l311 549q18 30 47 30t47 -30l312 -549q8 -16 8 -29q0 -22 -13.5 -35.5t-39.5 -13.5q-27 0 -45 29l-269 479l-268 -479q-18 -29 -45 -29q-26 0 -39.5 13.5t-13.5 35.5z" />
<glyph unicode="_" horiz-adv-x="897" d="M-2 -27h901v-63h-901v63z" />
<glyph unicode="`" horiz-adv-x="673" d="M205 1315q0 21 15 34t36 13q28 0 43 -23l147 -209q13 -20 13 -32q0 -20 -14.5 -34.5t-34.5 -14.5q-31 0 -52 32l-141 199q-12 16 -12 35z" />
<glyph unicode="a" horiz-adv-x="1056" d="M117 244q0 123 103.5 197.5t273.5 74.5q94 0 170.5 -32.5t115.5 -77.5v120q0 146 -73 214.5t-224 68.5q-124 0 -252 -53q-18 -6 -28 -6q-53 0 -53 51q0 30 30 45q131 67 314 67q195 0 302 -100t107 -285v-483q0 -26 -16.5 -43.5t-44.5 -17.5t-45 17.5t-17 43.5v45 q-103 -115 -305 -115q-162 0 -260 76t-98 193zM240 244q0 -82 69.5 -130t184.5 -48q117 0 201.5 49.5t84.5 128.5q0 81 -83.5 130.5t-194.5 49.5q-120 0 -191 -49t-71 -131z" />
<glyph unicode="b" horiz-adv-x="1208" d="M164 45v1274q0 26 17.5 43.5t43.5 17.5t44 -17.5t18 -43.5v-594q125 188 366 188q189 0 319 -133.5t130 -335.5t-130 -335.5t-319 -133.5q-240 0 -366 189v-119q0 -26 -18 -43.5t-44 -17.5t-43.5 17.5t-17.5 43.5zM287 444q0 -153 96.5 -258.5t251.5 -105.5 q153 0 248.5 102t95.5 262q0 161 -95.5 263t-248.5 102q-155 0 -251.5 -106t-96.5 -259z" />
<glyph unicode="c" horiz-adv-x="1038" d="M109 444q0 201 134 335t335 134q120 0 215.5 -49t144.5 -123q12 -18 12 -36q0 -23 -17 -37.5t-42 -14.5q-22 0 -43 25q-57 68 -119 98.5t-151 30.5q-149 0 -248 -105.5t-99 -257.5t99 -257t248 -105q89 0 151 30.5t119 98.5q21 25 43 25q25 0 42 -14.5t17 -37.5 q0 -19 -12 -37q-49 -74 -144.5 -123t-215.5 -49q-201 0 -335 134t-134 335z" />
<glyph unicode="d" horiz-adv-x="1208" d="M106 444q0 202 130 335.5t319 133.5q121 0 214 -49t153 -139v594q0 26 17.5 43.5t43.5 17.5t43.5 -17.5t17.5 -43.5v-1274q0 -26 -17.5 -43.5t-43.5 -17.5t-43.5 17.5t-17.5 43.5v119q-60 -90 -153.5 -139.5t-213.5 -49.5q-189 0 -319 133.5t-130 335.5zM229 444 q0 -160 95.5 -262t248.5 -102q155 0 252 105.5t97 258.5t-97 259t-252 106q-153 0 -248.5 -102t-95.5 -263z" />
<glyph unicode="e" horiz-adv-x="1101" d="M106 444q0 125 57 232t163 172t237 65q188 0 309 -130t121 -328q0 -21 -15.5 -36.5t-35.5 -15.5h-711q5 -131 98 -227t246 -96q171 0 279 129q22 27 47 27q24 0 37.5 -15.5t13.5 -36.5q0 -19 -12 -37q-55 -76 -151.5 -124t-213.5 -48q-142 0 -250.5 66t-163.5 171.5 t-55 231.5zM236 506h645q-12 131 -100 218t-218 87q-132 0 -223.5 -88t-103.5 -217z" />
<glyph unicode="f" horiz-adv-x="657" d="M25 838q0 22 14.5 36.5t36.5 14.5h143v127q0 172 79.5 260t248.5 88h43q22 0 36.5 -14.5t14.5 -36.5t-14.5 -36.5t-36.5 -14.5h-37q-109 0 -160 -55.5t-51 -188.5v-129h233q21 0 36.5 -15t15.5 -36t-15.5 -36.5t-36.5 -15.5h-233v-741q0 -26 -17.5 -43.5t-43.5 -17.5 t-44 17.5t-18 43.5v741h-143q-22 0 -36.5 15t-14.5 37z" />
<glyph unicode="g" horiz-adv-x="1208" d="M106 459q0 202 131.5 328t323.5 126q126 0 220.5 -56t140.5 -132v119q0 26 17.5 43.5t43.5 17.5t43.5 -17.5t17.5 -43.5v-772q0 -217 -117 -344t-354 -127q-214 0 -364 92q-37 21 -37 53q0 21 13 33t34 12t53 -16q138 -74 301 -74q181 0 265 97.5t84 264.5v130 q-53 -87 -152 -138t-209 -51q-125 0 -228.5 55.5t-165 160.5t-61.5 239zM227 459q0 -160 95.5 -257.5t250.5 -97.5q147 0 248 104.5t101 250.5t-101 250t-248 104q-155 0 -250.5 -97t-95.5 -257z" />
<glyph unicode="h" horiz-adv-x="1157" d="M164 45v1274q0 26 17.5 43.5t43.5 17.5t44 -17.5t18 -43.5v-582q50 85 136 130.5t198 45.5q176 0 279.5 -114.5t103.5 -296.5v-457q0 -26 -18 -43.5t-44 -17.5t-43.5 17.5t-17.5 43.5v455q0 141 -73.5 221t-213.5 80q-133 0 -220 -90t-87 -238v-428q0 -26 -18 -43.5 t-44 -17.5t-43.5 17.5t-17.5 43.5z" />
<glyph unicode="i" horiz-adv-x="450" d="M147 1159q0 32 23 55t55 23t55 -23t23 -55t-23 -55t-55 -23t-55 23t-23 55zM164 45v799q0 26 17.5 43.5t43.5 17.5t44 -17.5t18 -43.5v-799q0 -26 -18 -43.5t-44 -17.5t-43.5 17.5t-17.5 43.5z" />
<glyph unicode="j" horiz-adv-x="450" d="M-88 -348q0 22 14.5 36.5t36.5 14.5h25q57 0 92.5 11.5t53.5 40t24 63.5t6 94v932q0 26 17.5 43.5t43.5 17.5t44 -17.5t18 -43.5v-940q0 -159 -64.5 -231t-224.5 -72h-35q-22 0 -36.5 14.5t-14.5 36.5zM147 1159q0 32 23 55t55 23t55 -23t23 -55t-23 -55t-55 -23t-55 23 t-23 55z" />
<glyph unicode="k" horiz-adv-x="983" d="M164 45v1274q0 26 17.5 43.5t43.5 17.5t44 -17.5t18 -43.5v-827l499 397q19 16 41 16q24 0 40 -17t16 -38q0 -24 -29 -47l-342 -271l373 -454q16 -21 16 -39q0 -23 -17.5 -39t-43.5 -16q-22 0 -43 24l-373 455l-137 -111v-307q0 -26 -18 -43.5t-44 -17.5t-43.5 17.5 t-17.5 43.5z" />
<glyph unicode="l" horiz-adv-x="450" d="M164 45v1274q0 26 17.5 43.5t43.5 17.5t44 -17.5t18 -43.5v-1274q0 -26 -18 -43.5t-44 -17.5t-43.5 17.5t-17.5 43.5z" />
<glyph unicode="m" horiz-adv-x="1849" d="M164 45v799q0 26 17.5 43.5t43.5 17.5t44 -17.5t18 -43.5v-107q103 176 325 176q119 0 208 -56.5t132 -149.5q63 109 152.5 157.5t212.5 48.5q175 0 277 -114.5t102 -296.5v-457q0 -26 -18 -43.5t-44 -17.5t-43.5 17.5t-17.5 43.5v455q0 141 -72 221t-211 80 q-132 0 -215.5 -89.5t-83.5 -238.5v-428q0 -26 -17.5 -43.5t-43.5 -17.5t-44 17.5t-18 43.5v455q0 142 -71.5 221.5t-210.5 79.5q-132 0 -215.5 -89.5t-83.5 -238.5v-428q0 -26 -18 -43.5t-44 -17.5t-43.5 17.5t-17.5 43.5z" />
<glyph unicode="n" horiz-adv-x="1157" d="M164 45v799q0 26 17.5 43.5t43.5 17.5t44 -17.5t18 -43.5v-107q50 85 136 130.5t198 45.5q176 0 279.5 -114.5t103.5 -296.5v-457q0 -26 -18 -43.5t-44 -17.5t-43.5 17.5t-17.5 43.5v455q0 141 -73.5 221t-213.5 80q-133 0 -220 -90t-87 -238v-428q0 -26 -18 -43.5 t-44 -17.5t-43.5 17.5t-17.5 43.5z" />
<glyph unicode="o" horiz-adv-x="1146" d="M106 444q0 129 59 236t166.5 170t241.5 63t241.5 -63t166.5 -170t59 -236t-59 -236t-166.5 -170t-241.5 -63t-241.5 63t-166.5 170t-59 236zM229 444q0 -156 99 -259t245 -103t245.5 103t99.5 259t-99.5 259.5t-245.5 103.5t-245 -103.5t-99 -259.5z" />
<glyph unicode="p" horiz-adv-x="1208" d="M164 -338v1182q0 26 17.5 43.5t43.5 17.5t44 -17.5t18 -43.5v-119q125 188 366 188q189 0 319 -133.5t130 -335.5t-130 -335.5t-319 -133.5q-240 0 -366 189v-502q0 -26 -18 -43.5t-44 -17.5t-43.5 17.5t-17.5 43.5zM287 444q0 -153 96.5 -258.5t251.5 -105.5 q153 0 248.5 102t95.5 262q0 161 -95.5 263t-248.5 102q-155 0 -251.5 -106t-96.5 -259z" />
<glyph unicode="q" horiz-adv-x="1208" d="M106 444q0 202 130 335.5t319 133.5q121 0 214 -49t153 -139v119q0 26 17.5 43.5t43.5 17.5t43.5 -17.5t17.5 -43.5v-1182q0 -26 -17.5 -43.5t-43.5 -17.5t-43.5 17.5t-17.5 43.5v502q-60 -90 -153.5 -139.5t-213.5 -49.5q-189 0 -319 133.5t-130 335.5zM229 444 q0 -160 95.5 -262t248.5 -102q155 0 252 105.5t97 258.5t-97 259t-252 106q-153 0 -248.5 -102t-95.5 -263z" />
<glyph unicode="r" horiz-adv-x="673" d="M164 45v799q0 27 17 44t44 17t44.5 -17.5t17.5 -43.5v-144q30 90 109.5 147.5t185.5 57.5q27 0 44 -14.5t17 -38.5q0 -27 -17.5 -41t-43.5 -14q-131 0 -213 -112.5t-82 -285.5v-354q0 -25 -18 -43t-44 -18q-25 0 -43 18t-18 43z" />
<glyph unicode="s" horiz-adv-x="958" d="M133 139q0 20 13.5 32.5t33.5 12.5q25 0 47 -18q123 -96 281 -96q107 0 168 39.5t61 107.5q0 30 -13 53.5t-30.5 39t-53.5 31t-62 24t-76 22.5q-199 56 -279 122.5t-80 166.5q0 117 95 177t258 60q146 0 276 -71q55 -27 55 -62q0 -21 -13.5 -34t-37.5 -13q-15 0 -49 19 q-115 61 -233 61q-106 0 -169 -33t-63 -100q0 -63 53 -102t197 -80q70 -20 115 -36t93 -39.5t74.5 -50t44 -64.5t17.5 -85q0 -110 -94 -179t-260 -69q-205 0 -344 117q-25 19 -25 47z" />
<glyph unicode="t" horiz-adv-x="661" d="M37 838q0 22 14.5 36.5t36.5 14.5h182v287q0 26 18 43.5t44 17.5t43.5 -17.5t17.5 -43.5v-287h207q21 0 36 -15t15 -36q0 -22 -15.5 -37t-35.5 -15h-207v-741q0 -26 -17.5 -43.5t-43.5 -17.5t-44 17.5t-18 43.5v741h-182q-22 0 -36.5 15t-14.5 37z" />
<glyph unicode="u" horiz-adv-x="1157" d="M154 387v457q0 26 17.5 43.5t43.5 17.5t43.5 -17.5t17.5 -43.5v-455q0 -141 73.5 -221t213.5 -80q133 0 220 90t87 238v428q0 26 18 43.5t44 17.5t43.5 -17.5t17.5 -43.5v-799q0 -26 -17.5 -43.5t-43.5 -17.5t-44 17.5t-18 43.5v107q-50 -85 -135.5 -131t-197.5 -46 q-176 0 -279.5 115t-103.5 297z" />
<glyph unicode="v" horiz-adv-x="897" d="M31 850q0 24 15.5 39.5t41.5 15.5q38 0 53 -37l308 -694l307 694q15 37 53 37q26 0 41.5 -15.5t15.5 -39.5q0 -15 -8 -31l-358 -801q-17 -34 -51 -34q-35 0 -52 34l-358 801q-8 16 -8 31z" />
<glyph unicode="w" horiz-adv-x="1318" d="M37 852q0 24 16 38.5t41 14.5q38 0 51 -41l224 -682l239 684q14 39 51 39q38 0 52 -39l239 -684l224 682q13 41 51 41q25 0 41 -14.5t16 -38.5q0 -9 -4 -25l-270 -807q-13 -36 -56 -36t-55 39l-238 675l-237 -675q-12 -39 -55 -39t-56 36l-270 807q-4 16 -4 25z" />
<glyph unicode="x" horiz-adv-x="958" d="M92 37q0 19 12 37l306 372l-299 369q-15 22 -15 37q0 23 16 38t42 15t43 -22l282 -355l283 355q16 22 43 22q26 0 41.5 -14.5t15.5 -38.5q0 -16 -14 -37l-299 -369l305 -372q12 -18 12 -37q0 -23 -16 -38t-39 -15q-26 0 -43 20l-289 361l-289 -361q-17 -20 -43 -20 q-23 0 -39 15t-16 38z" />
<glyph unicode="y" horiz-adv-x="886" d="M27 850q0 24 15.5 39.5t41.5 15.5q37 0 53 -39l309 -729l304 733q14 35 51 35q26 0 40.5 -15.5t14.5 -39.5q0 -12 -6 -27q-201 -491 -301 -729q-64 -153 -162.5 -279t-228.5 -204q-17 -10 -37 -10q-24 0 -38.5 14.5t-14.5 36.5q0 31 36 51q88 61 154 131t125 172 l-348 813q-8 20 -8 31z" />
<glyph unicode="z" horiz-adv-x="956" d="M123 49q0 18 14 39l559 703h-520q-21 0 -36 14t-15 35q0 22 15 35.5t36 13.5h631q23 0 37 -13.5t14 -35.5q0 -19 -12 -37l-561 -705h528q22 0 36.5 -13.5t14.5 -35.5q0 -23 -14.5 -36t-36.5 -13h-639q-20 0 -35.5 14.5t-15.5 34.5z" />
<glyph unicode="{" horiz-adv-x="710" d="M92 543q0 23 16 38t39 15h17q78 0 111.5 35t33.5 110v476q0 188 180 188h89q21 0 36 -15t15 -38t-15 -38.5t-36 -15.5h-70q-42 0 -59 -17.5t-17 -61.5v-455q0 -102 -39 -156.5t-135 -64.5q96 -10 135 -64.5t39 -156.5v-455q0 -44 17.5 -62t58.5 -18h70q21 0 36 -15 t15 -38t-15 -38t-36 -15h-89q-180 0 -180 188v475q0 75 -33.5 110t-111.5 35h-17q-23 0 -39 15.5t-16 38.5z" />
<glyph unicode="|" horiz-adv-x="569" d="M236 -356v1812q0 21 13 35t36 14t36 -14t13 -35v-1812q0 -21 -13.5 -35.5t-35.5 -14.5t-35.5 14.5t-13.5 35.5z" />
<glyph unicode="}" horiz-adv-x="710" d="M82 -266q0 23 15 38t36 15h70q41 0 58.5 18t17.5 62v455q0 102 39 156.5t135 64.5q-96 10 -135 64.5t-39 156.5v455q0 44 -17 61.5t-59 17.5h-70q-21 0 -36 15.5t-15 38.5t15 38t36 15h88q180 0 180 -188v-476q0 -75 34 -110t112 -35h16q23 0 39 -15t16 -38t-16 -38.5 t-39 -15.5h-16q-78 0 -112 -35t-34 -110v-475q0 -188 -180 -188h-88q-21 0 -36 15t-15 38z" />
<glyph unicode="~" horiz-adv-x="1040" d="M123 469q0 16 8 29q91 153 229 153q44 0 83 -13t104 -48q10 -5 30 -16t27 -15t21.5 -11t22 -10t18.5 -6.5t20 -4.5t19 -1q43 0 73 22.5t74 78.5q17 24 41 24q20 0 32.5 -12.5t12.5 -30.5q0 -17 -8 -28q-102 -154 -232 -154q-15 0 -30 2.5t-26.5 5.5t-30 11t-28.5 12.5 t-35 17.5t-38 19q-10 5 -27.5 13.5t-24.5 12t-20 9.5t-19 8t-15.5 6t-16 5t-14 2t-15.5 1q-39 0 -70.5 -20t-78.5 -80q-18 -25 -41 -25q-20 0 -32.5 12.5t-12.5 30.5z" />
<glyph unicode="&#xa1;" horiz-adv-x="573" d="M201 827q0 35 25.5 60.5t60.5 25.5t60.5 -25.5t25.5 -60.5t-25.5 -60.5t-60.5 -25.5t-60.5 25.5t-25.5 60.5zM225 156l29 399q3 37 33 37q29 0 32 -37l29 -399v-494q0 -25 -17 -43t-44 -18t-44.5 18t-17.5 43v494z" />
<glyph unicode="&#xa2;" horiz-adv-x="1159" d="M164 682q0 185 114 315t293 150v188q0 22 16 38t42 16t41.5 -16t15.5 -38v-188q101 -10 182 -56.5t125 -111.5q13 -20 13 -37q0 -23 -17.5 -37t-42.5 -14q-23 0 -43 24q-57 68 -119 98.5t-151 30.5q-149 0 -247.5 -105t-98.5 -257t98.5 -257.5t247.5 -105.5 q88 0 150.5 31t119.5 99q20 24 43 24q25 0 42.5 -14t17.5 -37q0 -18 -13 -37q-44 -65 -125 -112.5t-182 -57.5v-186q0 -22 -15.5 -38t-41.5 -16t-42 16t-16 38v186q-179 22 -293 152t-114 315z" />
<glyph unicode="&#xa3;" horiz-adv-x="1306" d="M123 53q0 25 17 39t42 14h303v547h-264q-24 0 -41.5 14t-17.5 40t17.5 39.5t41.5 13.5h264v194q0 213 109.5 324t308.5 111q142 0 234 -39q47 -19 47 -56q0 -51 -51 -51q-14 0 -29 6q-86 29 -197 29q-155 0 -227 -81.5t-72 -244.5v-192h457q23 0 40 -14t17 -39t-17 -39.5 t-40 -14.5h-457v-547h520q22 0 39 -15t17 -38q0 -24 -16.5 -38.5t-39.5 -14.5h-946q-25 0 -42 14t-17 39z" />
<glyph unicode="&#xa4;" horiz-adv-x="1343" d="M154 201q0 17 14 35l154 151q-105 120 -105 295q0 169 102 293l-151 151q-14 14 -14 33q0 21 14 35t35 14q17 0 33 -16l151 -152q125 97 285 97q159 0 282 -99l152 154q19 16 35 16q21 0 35 -14t14 -35q0 -19 -14 -33l-154 -151q104 -126 104 -293t-106 -295l156 -151 q14 -14 14 -35q0 -20 -14.5 -33.5t-34.5 -13.5q-18 0 -35 14l-154 156q-118 -97 -280 -97q-165 0 -283 97l-153 -156q-14 -14 -33 -14q-20 0 -34.5 13.5t-14.5 33.5zM332 682q0 -148 97 -250t243 -102q145 0 241.5 102t96.5 250t-96.5 250t-241.5 102q-146 0 -243 -102 t-97 -250z" />
<glyph unicode="&#xa5;" horiz-adv-x="1191" d="M102 1325q0 24 16 39.5t40 15.5q33 0 51 -30l387 -641l387 641q18 30 51 30q24 0 40 -15.5t16 -39.5q0 -15 -13 -35l-303 -499h225q22 0 38 -13.5t16 -34.5t-15.5 -34t-38.5 -13h-282l-60 -98v-135h342q23 0 38.5 -13t15.5 -34t-15.5 -34t-38.5 -13h-342v-324 q0 -26 -17.5 -43.5t-43.5 -17.5t-43.5 17.5t-17.5 43.5v324h-342q-23 0 -38.5 13t-15.5 34t15.5 34t38.5 13h342v135l-60 98h-282q-23 0 -38.5 13t-15.5 34t16 34.5t38 13.5h225l-303 499q-13 20 -13 35z" />
<glyph unicode="&#xa6;" horiz-adv-x="569" d="M236 -356v727q0 21 13 35t36 14t36 -14t13 -35v-727q0 -21 -13.5 -35.5t-35.5 -14.5t-35.5 14.5t-13.5 35.5zM236 729v727q0 21 13 35t36 14t36 -14t13 -35v-727q0 -21 -13 -35t-36 -14t-36 14t-13 35z" />
<glyph unicode="&#xa7;" horiz-adv-x="1263" d="M174 -29q0 20 13.5 32.5t35.5 12.5q29 0 56 -20q70 -56 166 -88.5t200 -32.5q126 0 204.5 49t78.5 131t-88 140q-56 36 -234 105l-1 1h-1l-1 1h-1h-1l-1 1h-1l-1 1h-1h-1l-1 1h-1l-1 1h-1h-1l-1 1h-1h-1l-1 1h-1l-2 1q-112 44 -181 78t-123 75t-77 87.5t-23 105.5 q0 164 189 256q-63 51 -87 97t-24 112q0 131 113 200t307 69q202 0 342 -82q37 -19 37 -52q0 -21 -14 -36t-37 -15q-16 0 -54 21q-120 63 -280 63q-84 0 -146.5 -15t-103.5 -53.5t-41 -97.5q0 -22 5.5 -41.5t12.5 -35.5t24.5 -32.5t29 -27.5t40 -25.5t43.5 -22.5t52.5 -23.5 t54.5 -22t62 -23.5q221 -83 308 -153.5t87 -190.5q0 -161 -166 -260q60 -42 88.5 -91t28.5 -116q0 -120 -113.5 -201t-298.5 -81q-115 0 -236 40t-200 103q-29 23 -29 53zM299 664q0 -29 8.5 -53.5t31 -47t44.5 -39t66.5 -38t78.5 -36t97 -40.5q24 -10 219 -91 q61 32 99 85.5t38 107.5q0 36 -13.5 65t-36 52t-67 48t-91 45.5t-124.5 51.5q-22 9 -64.5 25.5t-72 29t-53.5 25.5q-73 -33 -116.5 -77.5t-43.5 -112.5z" />
<glyph unicode="&#xa8;" horiz-adv-x="749" d="M123 1157q0 34 24 58t58 24t58 -24t24 -58t-24 -58t-58 -24t-58 24t-24 58zM463 1157q0 34 24 58t58 24t58 -24t24 -58t-24 -58t-58 -24t-58 24t-24 58z" />
<glyph unicode="&#xa9;" horiz-adv-x="1650" d="M119 682q0 193 90 354.5t252.5 257t363.5 95.5q151 0 283 -56t224.5 -151.5t146 -225.5t53.5 -274t-53.5 -274t-146 -225.5t-224.5 -151.5t-283 -56q-201 0 -363.5 95.5t-252.5 257t-90 354.5zM217 682q0 -168 74.5 -308.5t214.5 -225.5t319 -85t319.5 85t215 225.5 t74.5 308.5q0 125 -44 238t-122 197t-193.5 133.5t-249.5 49.5q-179 0 -319 -84.5t-214.5 -225t-74.5 -308.5zM508 682q0 150 94 249t252 99q82 0 151.5 -35.5t114.5 -93.5q13 -16 13 -35q0 -22 -15 -34.5t-35 -12.5q-25 0 -45 23q-74 92 -184 92q-111 0 -175.5 -72 t-64.5 -180t64.5 -180t175.5 -72q110 0 184 92q20 23 45 23q20 0 35 -12.5t15 -34.5q0 -19 -13 -35q-45 -58 -114.5 -93.5t-151.5 -35.5q-158 0 -252 99t-94 249z" />
<glyph unicode="&#xaa;" horiz-adv-x="849" d="M154 938q0 83 69.5 129.5t179.5 46.5q59 0 112.5 -17t86.5 -48v84q0 172 -188 172q-93 0 -172 -37q-8 -4 -19 -4q-41 0 -41 39q0 29 49 51q74 35 189 35q133 0 204.5 -67.5t71.5 -193.5v-311q0 -22 -12.5 -35.5t-34.5 -13.5q-21 0 -33 13.5t-12 35.5v19 q-30 -33 -84.5 -53.5t-118.5 -20.5q-110 0 -178.5 46t-68.5 130zM248 938q0 -52 45 -79.5t117 -27.5q78 0 135 29.5t57 77.5q0 49 -55.5 77.5t-126.5 28.5q-73 0 -122.5 -26t-49.5 -80z" />
<glyph unicode="&#xab;" horiz-adv-x="1165" d="M123 436q0 21 16 37l324 311q20 17 39 17q23 0 39 -14.5t16 -34.5q0 -23 -20 -43l-289 -273l289 -272q20 -20 20 -43q0 -20 -16 -34.5t-39 -14.5q-20 0 -39 16l-324 311q-16 16 -16 37zM588 436q0 21 16 37l324 311q20 17 39 17q23 0 39 -14.5t16 -34.5q0 -22 -21 -43 l-288 -273l288 -272q21 -21 21 -43q0 -20 -16 -34.5t-39 -14.5q-20 0 -39 16l-324 311q-16 16 -16 37z" />
<glyph unicode="&#xac;" horiz-adv-x="1280" d="M154 616q0 24 17 40t42 16h803q25 0 42 -16t17 -40v-401q0 -25 -17 -42t-42 -17t-42.5 17t-17.5 42v346h-743q-25 0 -42 15.5t-17 39.5z" />
<glyph unicode="&#xad;" horiz-adv-x="897" d="M143 508q0 24 15.5 37.5t38.5 13.5h503q23 0 38.5 -13.5t15.5 -37.5t-15.5 -37.5t-38.5 -13.5h-503q-23 0 -38.5 13.5t-15.5 37.5z" />
<glyph unicode="&#xae;" horiz-adv-x="851" d="M82 1049q0 144 97.5 242t246.5 98t246.5 -98t97.5 -242q0 -143 -97.5 -241.5t-246.5 -98.5t-246.5 98.5t-97.5 241.5zM143 1049q0 -120 77 -201.5t206 -81.5t206 81.5t77 201.5t-77 201t-206 81t-206 -81t-77 -201zM319 899v305q0 12 9.5 21.5t21.5 9.5h88q60 0 93.5 -30 t33.5 -81q0 -76 -63 -102l65 -104q4 -8 4 -17t-9 -18t-21 -9q-18 0 -29 19l-70 119h-63v-113q0 -9 -8.5 -18t-20.5 -9t-21.5 9t-9.5 18zM379 1067h65q28 0 44 16.5t16 40.5q0 25 -15.5 40.5t-44.5 15.5h-65v-113z" />
<glyph unicode="&#xaf;" horiz-adv-x="796" d="M123 1147q0 20 13.5 32.5t31.5 12.5h461q18 0 31.5 -12.5t13.5 -32.5t-13.5 -32.5t-31.5 -12.5h-461q-18 0 -31.5 12.5t-13.5 32.5z" />
<glyph unicode="&#xb0;" horiz-adv-x="622" d="M82 1157q0 97 62.5 164.5t166.5 67.5t167 -67.5t63 -164.5t-63 -163t-167 -66t-166.5 66t-62.5 163zM168 1157q0 -68 38.5 -110.5t104.5 -42.5t105 43t39 110q0 68 -39 112t-105 44t-104.5 -44t-38.5 -112z" />
<glyph unicode="&#xb1;" horiz-adv-x="1187" d="M133 55q0 24 17.5 39t42.5 15h802q25 0 42.5 -15t17.5 -39t-17.5 -39.5t-42.5 -15.5h-802q-25 0 -42.5 15.5t-17.5 39.5zM133 682q0 24 17.5 39.5t42.5 15.5h342v326q0 25 17 42t42 17t42 -17t17 -42v-326h342q25 0 42.5 -15.5t17.5 -39.5t-17.5 -39.5t-42.5 -15.5h-342 v-326q0 -25 -17 -42t-42 -17t-42 17t-17 42v326h-342q-25 0 -42.5 15.5t-17.5 39.5z" />
<glyph unicode="&#xb2;" horiz-adv-x="968" d="M184 596q0 71 19 125t67 98.5t82 68t111 67.5q2 1 3 2t3 2l4 2q13 8 44.5 25.5t44 25t37.5 23t35.5 24.5t26 24t22 27t12 28t5.5 33q0 119 -184 119q-101 0 -199 -53q-38 -18 -62 -6t-24 39q0 31 33 51q115 68 254 68q135 0 212 -56.5t77 -161.5q0 -39 -14.5 -73 t-33.5 -58t-60 -53.5t-71 -47t-89 -50.5q-129 -71 -181 -121.5t-59 -128.5h467q21 0 35 -12.5t14 -32.5q0 -21 -14 -35t-35 -14h-533q-22 0 -35.5 14.5t-13.5 36.5z" />
<glyph unicode="&#xb3;" horiz-adv-x="919" d="M133 668q0 31 28.5 42t63.5 -14q100 -71 221 -71q101 0 159.5 44.5t58.5 118.5q0 79 -59 117.5t-163 38.5h-73q-21 0 -36.5 13t-15.5 34q0 20 15 32.5t37 12.5h73q83 0 131 40t48 98q0 59 -44.5 90.5t-115.5 31.5q-85 0 -172 -34q-32 -11 -53 1t-21 35q0 33 37 48 q93 43 209 43q121 0 191.5 -55.5t70.5 -155.5q0 -130 -137 -183q84 -14 132 -69.5t48 -139.5q0 -110 -85.5 -182t-231.5 -72q-167 0 -289 91q-27 18 -27 45z" />
<glyph unicode="&#xb4;" horiz-adv-x="673" d="M215 1098q0 14 12 32l148 209q15 23 43 23q21 0 36 -12.5t15 -34.5q0 -19 -12 -35l-142 -199q-24 -32 -51 -32q-20 0 -34.5 14.5t-14.5 34.5z" />
<glyph unicode="&#xb5;" horiz-adv-x="1157" d="M154 -338v1182q0 26 17.5 43.5t43.5 17.5t43.5 -17.5t17.5 -43.5v-455q0 -150 68.5 -225.5t218.5 -75.5q133 0 220 90t87 238v428q0 26 18 43.5t44 17.5t43.5 -17.5t17.5 -43.5v-799q0 -26 -17.5 -43.5t-43.5 -17.5t-44 17.5t-18 43.5v107q-50 -85 -135.5 -131 t-197.5 -46q-157 0 -261 97v-410q0 -26 -17.5 -43.5t-43.5 -17.5t-43.5 17.5t-17.5 43.5z" />
<glyph unicode="&#xb6;" horiz-adv-x="1234" d="M123 981q0 124 60 212.5t155 129.5t213 41h422q24 0 40.5 -15t16.5 -42v-1266q0 -23 -17 -40t-40 -17t-40.5 17t-17.5 40v1223h-221v-1606q0 -23 -17 -40t-40 -17t-40 17t-17 40v942h-29q-118 0 -214 43t-155 131t-59 207zM242 981q0 -135 83.5 -210t223.5 -75h31v568 h-33q-136 0 -220.5 -72t-84.5 -211z" />
<glyph unicode="&#xb7;" horiz-adv-x="479" d="M154 553q0 35 25.5 60.5t60.5 25.5t60.5 -25.5t25.5 -60.5t-25.5 -60.5t-60.5 -25.5t-60.5 25.5t-25.5 60.5z" />
<glyph unicode="&#xb8;" horiz-adv-x="620" d="M133 -336q0 20 16 32.5t39 4.5q64 -23 115 -23q54 0 82.5 19t28.5 53q0 29 -22.5 46.5t-67.5 17.5q-25 0 -58 -7.5t-49 -7.5q-18 0 -28.5 11t-10.5 24q0 12 8 31l60 137h84l-54 -129q32 16 76 16q71 0 113.5 -36.5t42.5 -100.5q0 -67 -52.5 -109t-150.5 -42 q-20 0 -44.5 2.5t-55.5 8t-51.5 19.5t-20.5 33z" />
<glyph unicode="&#xb9;" horiz-adv-x="712" d="M143 1255q0 36 41 48l193 65q36 12 55 12q55 0 55 -55v-731q0 -22 -15 -37.5t-38 -15.5t-38 15.5t-15 37.5v678l-174 -58q-28 -7 -46 6t-18 35z" />
<glyph unicode="&#xba;" horiz-adv-x="847" d="M113 1077q0 133 85 222.5t226 89.5t226 -90t85 -222t-85.5 -223.5t-225.5 -91.5q-141 0 -226 91t-85 224zM207 1077q0 -101 58.5 -166t158.5 -65t158.5 65t58.5 166q0 100 -58 163t-159 63t-159 -63t-58 -163z" />
<glyph unicode="&#xbb;" horiz-adv-x="1165" d="M143 121q0 22 21 43l289 272l-289 273q-21 21 -21 43q0 20 16.5 34.5t39.5 14.5q19 0 39 -17l323 -311q17 -17 17 -37t-17 -37l-323 -311q-19 -16 -39 -16q-23 0 -39.5 14.5t-16.5 34.5zM608 121q0 22 21 43l289 272l-289 273q-21 21 -21 43q0 20 16.5 34.5t39.5 14.5 q18 0 38 -17l324 -311q16 -16 16 -37t-16 -37l-324 -311q-19 -16 -38 -16q-23 0 -39.5 14.5t-16.5 34.5z" />
<glyph unicode="&#xbc;" horiz-adv-x="1824" d="M164 1255q0 36 41 48l192 65q36 12 56 12q55 0 55 -55v-731q0 -22 -15 -37.5t-38 -15.5t-38.5 15.5t-15.5 37.5v678l-174 -58q-28 -7 -45.5 6t-17.5 35zM377 20q0 14 10 31l868 1309q17 29 48 29q20 0 34.5 -12t14.5 -34q0 -13 -13 -32l-868 -1309q-18 -27 -45 -27 q-21 0 -35 12.5t-14 32.5zM952 272q0 22 19 41l463 500q20 23 49 23q49 0 49 -54v-465h110q50 0 50 -43q0 -19 -13.5 -31t-36.5 -12h-110v-186q0 -22 -15 -37.5t-38 -15.5t-38.5 15.5t-15.5 37.5v186h-426q-22 0 -34.5 11t-12.5 30zM1094 317h331v359z" />
<glyph unicode="&#xbd;" horiz-adv-x="1925" d="M164 1255q0 36 41 48l192 65q36 12 56 12q55 0 55 -55v-731q0 -22 -15 -37.5t-38 -15.5t-38.5 15.5t-15.5 37.5v678l-174 -58q-28 -7 -45.5 6t-17.5 35zM377 20q0 14 10 31l868 1309q17 29 48 29q20 0 34.5 -12t14.5 -34q0 -13 -13 -32l-868 -1309q-18 -27 -45 -27 q-21 0 -35 12.5t-14 32.5zM1141 51q0 71 19 125t67 98.5t82 68t111 67.5q7 4 10 6q13 7 40 22.5t39.5 22.5t34.5 20.5t32.5 22t26.5 21t23.5 23t16 23.5t11.5 27t3 29q0 118 -184 118q-101 0 -199 -53q-38 -18 -62 -6t-24 39q0 31 33 51q115 68 254 68q135 0 211.5 -56 t76.5 -161q0 -33 -8 -61t-27.5 -53t-39 -44.5t-56 -43t-62.5 -39t-75 -42.5q-129 -71 -181 -121.5t-59 -128.5h467q21 0 35.5 -12.5t14.5 -32.5q0 -21 -14.5 -35t-35.5 -14h-532q-22 0 -35.5 14.5t-13.5 36.5z" />
<glyph unicode="&#xbe;" horiz-adv-x="1970" d="M133 668q0 31 28.5 42t63.5 -14q100 -71 221 -71q101 0 159.5 44.5t58.5 118.5q0 79 -59 117.5t-163 38.5h-73q-21 0 -36.5 13t-15.5 34q0 20 15 32.5t37 12.5h73q83 0 131 40t48 98q0 59 -44.5 90.5t-115.5 31.5q-85 0 -172 -34q-32 -11 -53 1t-21 35q0 33 37 48 q93 43 209 43q121 0 191.5 -55.5t70.5 -155.5q0 -130 -137 -183q84 -14 132 -69.5t48 -139.5q0 -110 -85.5 -182t-231.5 -72q-167 0 -289 91q-27 18 -27 45zM522 20q0 14 10 31l869 1309q17 29 47 29q20 0 34.5 -12t14.5 -34q0 -14 -12 -32l-869 -1309q-18 -27 -45 -27 q-21 0 -35 12.5t-14 32.5zM1098 272q0 23 18 41l463 500q20 23 49 23q49 0 49 -54v-465h111q49 0 49 -43q0 -19 -13 -31t-36 -12h-111v-186q0 -22 -15 -37.5t-38 -15.5t-38 15.5t-15 37.5v186h-426q-22 0 -34.5 11t-12.5 30zM1239 317h332v359z" />
<glyph unicode="&#xbf;" horiz-adv-x="987" d="M102 -115q0 84 42 151t155 157q54 43 77.5 63t51 48.5t37 51t16 53t6.5 72.5v62q0 25 18 41t46 16q26 0 42.5 -16.5t16.5 -40.5v-60q0 -52 -8.5 -92t-20 -68.5t-41.5 -61.5t-54 -55t-76 -65q-78 -66 -112 -100t-53.5 -72t-19.5 -86q0 -91 76 -133.5t205 -42.5 q87 0 161 22.5t156 71.5q22 13 41 13q22 0 36.5 -15t14.5 -37q0 -19 -10 -30.5t-35 -26.5q-159 -104 -372 -104q-180 0 -288 71.5t-108 212.5zM463 827q0 35 25.5 60.5t60.5 25.5t60.5 -25.5t25.5 -60.5t-25.5 -60.5t-60.5 -25.5t-60.5 25.5t-25.5 60.5z" />
<glyph unicode="&#xc0;" d="M98 39q0 13 8 29l570 1271q18 41 57 41q40 0 58 -41l569 -1271q8 -16 8 -29q0 -24 -16 -39.5t-43 -15.5q-40 0 -56 39l-168 374h-704l-168 -374q-16 -39 -55 -39q-27 0 -43.5 15.5t-16.5 39.5zM428 506h610l-305 702zM543 1671q0 18 14.5 32.5t36.5 14.5q29 0 49 -24 l113 -127q16 -19 16 -39q0 -19 -15 -33t-36 -14q-24 0 -49 28l-113 121q-16 19 -16 41z" />
<glyph unicode="&#xc1;" d="M98 39q0 13 8 29l570 1271q18 41 57 41q40 0 58 -41l569 -1271q8 -16 8 -29q0 -24 -16 -39.5t-43 -15.5q-40 0 -56 39l-168 374h-704l-168 -374q-16 -39 -55 -39q-27 0 -43.5 15.5t-16.5 39.5zM428 506h610l-305 702zM676 1528q0 20 16 39l113 127q20 24 49 24 q22 0 36.5 -14.5t14.5 -32.5q0 -22 -16 -41l-113 -121q-25 -28 -49 -28q-21 0 -36 14t-15 33z" />
<glyph unicode="&#xc2;" d="M98 39q0 13 8 29l570 1271q18 41 57 41q40 0 58 -41l569 -1271q8 -16 8 -29q0 -24 -16 -39.5t-43 -15.5q-40 0 -56 39l-168 374h-704l-168 -374q-16 -39 -55 -39q-27 0 -43.5 15.5t-16.5 39.5zM428 506h610l-305 702zM487 1522q0 20 19 39l186 141q22 16 39 16t39 -16 l186 -141q19 -19 19 -39q0 -17 -14 -29t-33 -12q-18 0 -33 12l-164 117l-164 -117q-15 -12 -32 -12q-19 0 -33.5 12t-14.5 29z" />
<glyph unicode="&#xc3;" d="M98 39q0 13 8 29l570 1271q18 41 57 41q40 0 58 -41l569 -1271q8 -16 8 -29q0 -24 -16 -39.5t-43 -15.5q-40 0 -56 39l-168 374h-704l-168 -374q-16 -39 -55 -39q-27 0 -43.5 15.5t-16.5 39.5zM428 506h610l-305 702zM453 1530q0 7 2 13.5t6 13.5t6.5 11t9 11.5t8.5 9.5 q61 76 152 76q50 0 104 -29q12 -6 33 -18.5t30.5 -17.5t23 -10t24.5 -5q20 0 33 8.5t39 34.5l20 21q18 18 39 18q18 0 32.5 -11.5t14.5 -29.5q0 -11 -4 -21t-8 -15.5t-13 -15t-12 -13.5q-65 -72 -139 -72q-31 0 -55 9.5t-66 33.5q-5 3 -14.5 8.5t-13 7.5t-11.5 6t-11.5 5.5 t-10 4t-11.5 3t-11.5 1.5t-12.5 1q-42 0 -76 -39l-22 -25q-18 -18 -39 -18q-18 0 -32.5 12.5t-14.5 30.5z" />
<glyph unicode="&#xc4;" d="M98 39q0 13 8 29l570 1271q18 41 57 41q40 0 58 -41l569 -1271q8 -16 8 -29q0 -24 -16 -39.5t-43 -15.5q-40 0 -56 39l-168 374h-704l-168 -374q-16 -39 -55 -39q-27 0 -43.5 15.5t-16.5 39.5zM428 506h610l-305 702zM451 1608q0 34 23.5 58t57.5 24t58 -24t24 -58 t-24 -58t-58 -24t-57.5 24t-23.5 58zM852 1608q0 34 24 58t58 24t58 -24t24 -58t-24 -58t-58 -24t-58 24t-24 58z" />
<glyph unicode="&#xc5;" d="M98 39q0 13 8 29l566 1263q-39 18 -62.5 53t-23.5 80q0 62 42 104t105 42t105.5 -42t42.5 -104q0 -45 -23.5 -80t-62.5 -53l565 -1263q8 -16 8 -29q0 -24 -16 -39.5t-43 -15.5q-40 0 -56 39l-168 374h-704l-168 -374q-16 -39 -55 -39q-27 0 -43.5 15.5t-16.5 39.5z M428 506h610l-305 702zM655 1464q0 -35 22 -59.5t56 -24.5t56 24.5t22 59.5t-22 59.5t-56 24.5t-56 -24.5t-22 -59.5z" />
<glyph unicode="&#xc6;" horiz-adv-x="1925" d="M98 39q0 13 8 29l570 1255q18 41 61 41h1039q23 0 39 -16t16 -39t-16 -39.5t-39 -16.5h-955l223 -493h426q23 0 39.5 -16t16.5 -39t-16.5 -39.5t-39.5 -16.5h-374l243 -538h439q23 0 39 -16.5t16 -39.5t-16 -39t-39 -16h-475q-42 0 -58 39l-160 358h-704l-168 -374 q-16 -39 -55 -39q-27 0 -43.5 15.5t-16.5 39.5zM428 506h610l-305 692z" />
<glyph unicode="&#xc7;" horiz-adv-x="1443" d="M119 682q0 195 83 355t240 256t359 96q326 0 524 -259q16 -24 16 -40q0 -25 -16 -40.5t-41 -15.5q-26 0 -43 23q-84 107 -186.5 163t-253.5 56q-129 0 -236 -49t-177 -131.5t-108 -189.5t-38 -224t38 -224t108 -189.5t177 -131.5t236 -49q151 0 253.5 56t186.5 163 q17 23 43 23q25 0 41 -15.5t16 -40.5q0 -17 -16 -41q-185 -242 -489 -256l-43 -104q32 16 75 16q71 0 113.5 -36.5t42.5 -100.5q0 -67 -52.5 -109t-150.5 -42q-20 0 -44.5 2.5t-55.5 8t-51.5 19.5t-20.5 33q0 20 16.5 33t39.5 4q64 -23 114 -23q54 0 82.5 19t28.5 53 q0 29 -22.5 46.5t-67.5 17.5q-25 0 -58 -7.5t-49 -7.5q-18 0 -28.5 11t-10.5 24q0 12 8 31l48 112q-188 12 -333 110t-221.5 253t-76.5 342z" />
<glyph unicode="&#xc8;" horiz-adv-x="1193" d="M195 61v1242q0 26 17.5 43.5t43.5 17.5h788q23 0 39.5 -16t16.5 -39t-16.5 -39.5t-39.5 -16.5h-727v-493h422q23 0 39.5 -16t16.5 -39t-16.5 -39.5t-39.5 -16.5h-422v-538h730q23 0 39 -16.5t16 -39.5t-16 -39t-39 -16h-791q-26 0 -43.5 17.5t-17.5 43.5zM489 1671 q0 18 15 32.5t37 14.5q29 0 49 -24l112 -127q17 -20 17 -39t-15 -33t-36 -14q-25 0 -50 28l-112 121q-17 20 -17 41z" />
<glyph unicode="&#xc9;" horiz-adv-x="1193" d="M195 61v1242q0 26 17.5 43.5t43.5 17.5h788q23 0 39.5 -16t16.5 -39t-16.5 -39.5t-39.5 -16.5h-727v-493h422q23 0 39.5 -16t16.5 -39t-16.5 -39.5t-39.5 -16.5h-422v-538h730q23 0 39 -16.5t16 -39.5t-16 -39t-39 -16h-791q-26 0 -43.5 17.5t-17.5 43.5zM569 1528 q0 19 17 39l112 127q20 24 50 24q22 0 36.5 -14.5t14.5 -32.5q0 -21 -17 -41l-112 -121q-25 -28 -49 -28q-22 0 -37 14t-15 33z" />
<glyph unicode="&#xca;" horiz-adv-x="1193" d="M195 61v1242q0 26 17.5 43.5t43.5 17.5h788q23 0 39.5 -16t16.5 -39t-16.5 -39.5t-39.5 -16.5h-727v-493h422q23 0 39.5 -16t16.5 -39t-16.5 -39.5t-39.5 -16.5h-422v-538h730q23 0 39 -16.5t16 -39.5t-16 -39t-39 -16h-791q-26 0 -43.5 17.5t-17.5 43.5zM408 1522 q0 21 18 39l186 141q22 16 39 16t39 -16l187 -141q18 -18 18 -39q0 -17 -14 -29t-33 -12q-18 0 -33 12l-164 117l-164 -117q-15 -12 -32 -12q-19 0 -33 12t-14 29z" />
<glyph unicode="&#xcb;" horiz-adv-x="1193" d="M195 61v1242q0 26 17.5 43.5t43.5 17.5h788q23 0 39.5 -16t16.5 -39t-16.5 -39.5t-39.5 -16.5h-727v-493h422q23 0 39.5 -16t16.5 -39t-16.5 -39.5t-39.5 -16.5h-422v-538h730q23 0 39 -16.5t16 -39.5t-16 -39t-39 -16h-791q-26 0 -43.5 17.5t-17.5 43.5zM373 1608 q0 34 24 58t58 24t58 -24t24 -58t-24 -58t-58 -24t-58 24t-24 58zM774 1608q0 34 24 58t58 24t58 -24t24 -58t-24 -58t-58 -24t-58 24t-24 58z" />
<glyph unicode="&#xcc;" horiz-adv-x="532" d="M98 1671q0 18 15 32.5t37 14.5q29 0 49 -24l112 -127q17 -20 17 -39t-15 -33t-37 -14q-24 0 -49 28l-112 121q-17 20 -17 41zM205 45v1274q0 26 17.5 43.5t43.5 17.5t44 -17.5t18 -43.5v-1274q0 -26 -18 -43.5t-44 -17.5t-43.5 17.5t-17.5 43.5z" />
<glyph unicode="&#xcd;" horiz-adv-x="532" d="M203 1528q0 20 16 39l113 127q20 24 49 24q22 0 36.5 -14.5t14.5 -32.5q0 -22 -16 -41l-113 -121q-25 -28 -49 -28q-21 0 -36 14t-15 33zM205 45v1274q0 26 17.5 43.5t43.5 17.5t44 -17.5t18 -43.5v-1274q0 -26 -18 -43.5t-44 -17.5t-43.5 17.5t-17.5 43.5z" />
<glyph unicode="&#xce;" horiz-adv-x="532" d="M23 1522q0 21 18 39l186 141q22 16 39 16t39 -16l187 -141q18 -18 18 -39q0 -17 -14 -29t-33 -12q-18 0 -33 12l-164 117l-164 -117q-15 -12 -32 -12q-19 0 -33 12t-14 29zM205 45v1274q0 26 17.5 43.5t43.5 17.5t44 -17.5t18 -43.5v-1274q0 -26 -18 -43.5t-44 -17.5 t-43.5 17.5t-17.5 43.5z" />
<glyph unicode="&#xcf;" horiz-adv-x="532" d="M-16 1608q0 34 24 58t58 24t57.5 -24t23.5 -58t-23.5 -58t-57.5 -24t-58 24t-24 58zM205 45v1274q0 26 17.5 43.5t43.5 17.5t44 -17.5t18 -43.5v-1274q0 -26 -18 -43.5t-44 -17.5t-43.5 17.5t-17.5 43.5zM385 1608q0 34 24 58t58 24t58 -24t24 -58t-24 -58t-58 -24 t-58 24t-24 58z" />
<glyph unicode="&#xd0;" horiz-adv-x="1529" d="M78 682q0 24 17 38.5t40 14.5h158v568q0 26 17.5 43.5t43.5 17.5h389q152 0 280.5 -53t215.5 -145t135.5 -217t48.5 -267t-48.5 -267t-135.5 -217t-215.5 -145t-280.5 -53h-389q-27 0 -44 18t-17 43v568h-158q-23 0 -40 14.5t-17 38.5zM416 111h319q260 0 412.5 161.5 t152.5 409.5t-152.5 409.5t-412.5 161.5h-319v-518h327q23 0 40.5 -14.5t17.5 -38.5t-17.5 -38.5t-40.5 -14.5h-327v-518z" />
<glyph unicode="&#xd1;" horiz-adv-x="1480" d="M195 41v1280q0 26 16.5 42.5t44.5 16.5t47 -26l866 -1147v1114q0 26 17 42.5t43 16.5t41.5 -17t15.5 -42v-1280q0 -24 -15.5 -40.5t-43.5 -16.5q-27 0 -47 26l-869 1145v-1114q0 -24 -16.5 -40.5t-40.5 -16.5q-26 0 -42.5 16.5t-16.5 40.5zM457 1530q0 7 2 13.5t6 13.5 t6.5 11t9 11.5t8.5 9.5q61 76 152 76q50 0 104 -29q12 -6 33 -18.5t30.5 -17.5t23 -10t24.5 -5q20 0 33 8.5t39 34.5l20 21q18 18 39 18q18 0 32.5 -11.5t14.5 -29.5q0 -11 -4 -21t-8 -15.5t-13 -15t-12 -13.5q-65 -72 -139 -72q-31 0 -55 9.5t-66 33.5q-5 3 -14.5 8.5 t-13 7.5t-11.5 6t-11.5 5.5t-10 4t-11.5 3t-11.5 1.5t-12.5 1q-42 0 -76 -39l-22 -25q-18 -18 -39 -18q-18 0 -32.5 12.5t-14.5 30.5z" />
<glyph unicode="&#xd2;" horiz-adv-x="1609" d="M119 682q0 142 50.5 271t139 225.5t218.5 153.5t280 57t279 -57t217 -153.5t138 -225.5t50 -271t-50 -271t-138 -225.5t-217 -153.5t-279 -57t-280 57t-218.5 153.5t-139 225.5t-50.5 271zM242 682q0 -118 39.5 -225.5t110.5 -190.5t179 -132.5t236 -49.5t235.5 49.5 t177.5 132.5t109 190.5t39 225.5t-39 225.5t-109 190.5t-177.5 132.5t-235.5 49.5t-236 -49.5t-179 -132.5t-110.5 -190.5t-39.5 -225.5zM637 1671q0 18 14.5 32.5t36.5 14.5q29 0 49 -24l113 -127q16 -19 16 -39q0 -19 -15 -33t-36 -14q-24 0 -49 28l-113 121 q-16 19 -16 41z" />
<glyph unicode="&#xd3;" horiz-adv-x="1585" d="M106 682q0 190 85.5 351t244.5 258.5t359 97.5q150 0 279 -57t217 -153.5t138 -225.5t50 -271t-50 -271t-138 -225.5t-217 -153.5t-279 -57q-200 0 -359 97.5t-244.5 258.5t-85.5 351zM229 682q0 -118 39.5 -225.5t111 -190.5t179.5 -132.5t236 -49.5t235.5 49.5 t177.5 132.5t109 190.5t39 225.5t-39 225.5t-109 190.5t-177.5 132.5t-235.5 49.5t-236 -49.5t-179.5 -132.5t-111 -190.5t-39.5 -225.5zM729 1528q0 20 16 39l113 127q20 24 49 24q22 0 36.5 -14.5t14.5 -32.5q0 -22 -16 -41l-113 -121q-25 -28 -49 -28q-21 0 -36 14 t-15 33z" />
<glyph unicode="&#xd4;" horiz-adv-x="1585" d="M106 682q0 190 85.5 351t244.5 258.5t359 97.5q150 0 279 -57t217 -153.5t138 -225.5t50 -271t-50 -271t-138 -225.5t-217 -153.5t-279 -57q-200 0 -359 97.5t-244.5 258.5t-85.5 351zM229 682q0 -118 39.5 -225.5t111 -190.5t179.5 -132.5t236 -49.5t235.5 49.5 t177.5 132.5t109 190.5t39 225.5t-39 225.5t-109 190.5t-177.5 132.5t-235.5 49.5t-236 -49.5t-179.5 -132.5t-111 -190.5t-39.5 -225.5zM551 1522q0 21 18 39l187 141q22 16 39 16t39 -16l186 -141q18 -18 18 -39q0 -17 -14 -29t-33 -12q-18 0 -33 12l-163 117l-164 -117 q-15 -12 -33 -12q-19 0 -33 12t-14 29z" />
<glyph unicode="&#xd5;" horiz-adv-x="1585" d="M106 682q0 190 85.5 351t244.5 258.5t359 97.5q150 0 279 -57t217 -153.5t138 -225.5t50 -271t-50 -271t-138 -225.5t-217 -153.5t-279 -57q-200 0 -359 97.5t-244.5 258.5t-85.5 351zM229 682q0 -118 39.5 -225.5t111 -190.5t179.5 -132.5t236 -49.5t235.5 49.5 t177.5 132.5t109 190.5t39 225.5t-39 225.5t-109 190.5t-177.5 132.5t-235.5 49.5t-236 -49.5t-179.5 -132.5t-111 -190.5t-39.5 -225.5zM510 1530q0 9 4 18.5t7 14t11.5 14.5t10.5 12q32 40 66.5 58t84.5 18q51 0 105 -29q12 -7 32.5 -19t30 -17.5t23 -10t24.5 -4.5 q20 0 33 8.5t39 34.5l20 21q18 18 39 18q18 0 32.5 -11.5t14.5 -29.5q0 -10 -4 -20.5t-7.5 -15.5t-13 -15.5t-11.5 -13.5q-65 -72 -140 -72q-31 0 -54.5 9.5t-65.5 33.5q-3 2 -14 8t-13.5 7.5t-11.5 6t-12 5.5t-10.5 4t-12 3.5t-11 1.5t-12.5 1q-42 0 -76 -39l-22 -25 q-18 -18 -39 -18q-18 0 -32.5 12.5t-14.5 30.5z" />
<glyph unicode="&#xd6;" horiz-adv-x="1585" d="M106 682q0 190 85.5 351t244.5 258.5t359 97.5q150 0 279 -57t217 -153.5t138 -225.5t50 -271t-50 -271t-138 -225.5t-217 -153.5t-279 -57q-200 0 -359 97.5t-244.5 258.5t-85.5 351zM229 682q0 -118 39.5 -225.5t111 -190.5t179.5 -132.5t236 -49.5t235.5 49.5 t177.5 132.5t109 190.5t39 225.5t-39 225.5t-109 190.5t-177.5 132.5t-235.5 49.5t-236 -49.5t-179.5 -132.5t-111 -190.5t-39.5 -225.5zM512 1608q0 34 24 58t58 24t58 -24t24 -58t-24 -58t-58 -24t-58 24t-24 58zM913 1608q0 34 24 58t58 24t58 -24t24 -58t-24 -58 t-58 -24t-58 24t-24 58z" />
<glyph unicode="&#xd7;" horiz-adv-x="1034" d="M174 379q0 25 16 41l242 242l-242 241q-16 19 -16 43q0 26 17 42t42 16q24 0 41 -17l242 -242l242 242q17 17 43 17q25 0 41 -17t16 -41q0 -27 -16 -43l-242 -241l240 -240q20 -20 20 -43q0 -25 -18 -42.5t-41 -17.5t-43 17l-242 242l-242 -242q-17 -17 -41 -17 q-26 0 -42.5 17t-16.5 43z" />
<glyph unicode="&#xd8;" horiz-adv-x="1585" d="M106 -84q0 14 15 33l188 223q-97 99 -150 231t-53 279q0 190 85.5 351t244.5 258.5t359 97.5q234 0 415 -140l189 226q16 16 35 16q22 0 33.5 -13t11.5 -32q0 -14 -11 -29l-190 -227q96 -97 148.5 -229t52.5 -279q0 -142 -50 -271t-138 -225.5t-217 -153.5t-279 -57 q-240 0 -420 140l-185 -221q-18 -21 -38 -21q-18 0 -32 13t-14 30zM229 682q0 -121 39.5 -230t114.5 -192l756 903q-142 117 -344 117q-128 0 -236 -49.5t-179.5 -132.5t-111 -190.5t-39.5 -225.5zM446 201q145 -117 349 -117q128 0 235.5 49.5t177.5 132.5t109 190.5 t39 225.5q0 119 -39.5 228t-112.5 192z" />
<glyph unicode="&#xd9;" horiz-adv-x="1523" d="M186 537v782q0 26 18 43.5t44 17.5t43.5 -17.5t17.5 -43.5v-791q0 -208 112.5 -326t340.5 -118t340 118t112 326v791q0 26 18 43.5t44 17.5t43.5 -17.5t17.5 -43.5v-782q0 -258 -154.5 -410t-420.5 -152t-421 152.5t-155 409.5zM608 1671q0 18 14.5 32.5t36.5 14.5 q30 0 50 -24l112 -127q17 -20 17 -39t-15 -33t-37 -14q-24 0 -49 28l-112 121q-17 20 -17 41z" />
<glyph unicode="&#xda;" horiz-adv-x="1523" d="M186 537v782q0 26 18 43.5t44 17.5t43.5 -17.5t17.5 -43.5v-791q0 -208 112.5 -326t340.5 -118t340 118t112 326v791q0 26 18 43.5t44 17.5t43.5 -17.5t17.5 -43.5v-782q0 -258 -154.5 -410t-420.5 -152t-421 152.5t-155 409.5zM680 1528q0 20 16 39l113 127q20 24 49 24 q22 0 36.5 -14.5t14.5 -32.5q0 -22 -16 -41l-113 -121q-25 -28 -49 -28q-21 0 -36 14t-15 33z" />
<glyph unicode="&#xdb;" horiz-adv-x="1523" d="M186 537v782q0 26 18 43.5t44 17.5t43.5 -17.5t17.5 -43.5v-791q0 -208 112.5 -326t340.5 -118t340 118t112 326v791q0 26 18 43.5t44 17.5t43.5 -17.5t17.5 -43.5v-782q0 -258 -154.5 -410t-420.5 -152t-421 152.5t-155 409.5zM516 1522q0 20 19 39l186 141q22 16 39 16 t39 -16l186 -141q19 -19 19 -39q0 -17 -14.5 -29t-33.5 -12q-17 0 -32 12l-164 117l-164 -117q-15 -12 -33 -12q-19 0 -33 12t-14 29z" />
<glyph unicode="&#xdc;" horiz-adv-x="1523" d="M186 537v782q0 26 18 43.5t44 17.5t43.5 -17.5t17.5 -43.5v-791q0 -208 112.5 -326t340.5 -118t340 118t112 326v791q0 26 18 43.5t44 17.5t43.5 -17.5t17.5 -43.5v-782q0 -258 -154.5 -410t-420.5 -152t-421 152.5t-155 409.5zM477 1608q0 34 24 58t58 24t58 -24t24 -58 t-24 -58t-58 -24t-58 24t-24 58zM879 1608q0 34 24 58t58 24t57.5 -24t23.5 -58t-23.5 -58t-57.5 -24t-58 24t-24 58z" />
<glyph unicode="&#xdd;" horiz-adv-x="1130" d="M10 1325q0 25 16 40t40 15q33 0 53 -28l446 -639l447 639q20 28 53 28q24 0 39.5 -14.5t15.5 -40.5q0 -17 -12 -35l-481 -692v-553q0 -26 -18 -43.5t-44 -17.5t-43.5 17.5t-17.5 43.5v553l-481 692q-13 20 -13 35zM510 1528q0 20 16 39l113 127q20 24 49 24 q22 0 36.5 -14.5t14.5 -32.5q0 -22 -16 -41l-113 -121q-25 -28 -49 -28q-21 0 -36 14t-15 33z" />
<glyph unicode="&#xde;" horiz-adv-x="1294" d="M195 45v1274q0 26 17.5 43.5t43.5 17.5t43.5 -17.5t17.5 -43.5v-248h486q197 0 308.5 -107.5t111.5 -275.5t-111.5 -275.5t-308.5 -107.5h-486v-260q0 -27 -17 -44t-44 -17q-26 0 -43.5 17.5t-17.5 43.5zM317 416h510q125 0 199 76.5t74 195.5q0 120 -74 196.5t-199 76.5 h-510v-545z" />
<glyph unicode="&#xdf;" horiz-adv-x="1282" d="M174 45v944q0 191 100.5 295.5t298.5 104.5q174 0 281 -83.5t107 -222.5q0 -46 -17 -89.5t-37.5 -72t-62.5 -79.5q-14 -17 -40.5 -48t-35.5 -42.5t-22 -31.5t-17 -36t-4 -35q0 -52 37.5 -83.5t157.5 -76.5q135 -50 202.5 -112.5t67.5 -161.5q0 -106 -88 -173t-244 -67 q-77 0 -156.5 24.5t-138.5 68.5q-28 21 -28 45q0 22 13.5 35.5t35.5 13.5q18 0 45 -19q112 -73 233 -73q100 0 154.5 37.5t54.5 99.5q0 37 -13 64.5t-43.5 49.5t-63.5 38t-89 38q-142 55 -201 108t-59 140q0 41 16 79t35 63t66 79q7 8 27 31.5t26.5 31.5t21.5 27.5t21 31 t14 28.5t10.5 33t2.5 34q0 99 -78 150t-191 51q-276 0 -276 -291v-948q0 -25 -17 -43t-44 -18t-44.5 18t-17.5 43z" />
<glyph unicode="&#xe0;" horiz-adv-x="1056" d="M117 244q0 123 103.5 197.5t273.5 74.5q94 0 170.5 -32.5t115.5 -77.5v120q0 146 -73 214.5t-224 68.5q-124 0 -252 -53q-18 -6 -28 -6q-53 0 -53 51q0 30 30 45q131 67 314 67q195 0 302 -100t107 -285v-483q0 -26 -16.5 -43.5t-44.5 -17.5t-45 17.5t-17 43.5v45 q-103 -115 -305 -115q-162 0 -260 76t-98 193zM240 244q0 -82 69.5 -130t184.5 -48q117 0 201.5 49.5t84.5 128.5q0 81 -83.5 130.5t-194.5 49.5q-120 0 -191 -49t-71 -131zM332 1315q0 21 15 34t36 13q28 0 43 -23l147 -209q13 -20 13 -32q0 -20 -14.5 -34.5t-34.5 -14.5 q-31 0 -52 32l-141 199q-12 16 -12 35z" />
<glyph unicode="&#xe1;" horiz-adv-x="1056" d="M117 244q0 123 103.5 197.5t273.5 74.5q94 0 170.5 -32.5t115.5 -77.5v120q0 146 -73 214.5t-224 68.5q-124 0 -252 -53q-18 -6 -28 -6q-53 0 -53 51q0 30 30 45q131 67 314 67q195 0 302 -100t107 -285v-483q0 -26 -16.5 -43.5t-44.5 -17.5t-45 17.5t-17 43.5v45 q-103 -115 -305 -115q-162 0 -260 76t-98 193zM240 244q0 -82 69.5 -130t184.5 -48q117 0 201.5 49.5t84.5 128.5q0 81 -83.5 130.5t-194.5 49.5q-120 0 -191 -49t-71 -131zM442 1098q0 12 13 32l147 209q15 23 43 23q21 0 36 -12.5t15 -34.5q0 -19 -12 -35l-141 -199 q-24 -32 -51 -32q-20 0 -35 14.5t-15 34.5z" />
<glyph unicode="&#xe2;" horiz-adv-x="1056" d="M117 244q0 123 103.5 197.5t273.5 74.5q94 0 170.5 -32.5t115.5 -77.5v120q0 146 -73 214.5t-224 68.5q-124 0 -252 -53q-18 -6 -28 -6q-53 0 -53 51q0 30 30 45q131 67 314 67q195 0 302 -100t107 -285v-483q0 -26 -16.5 -43.5t-44.5 -17.5t-45 17.5t-17 43.5v45 q-103 -115 -305 -115q-162 0 -260 76t-98 193zM240 244q0 -82 69.5 -130t184.5 -48q117 0 201.5 49.5t84.5 128.5q0 81 -83.5 130.5t-194.5 49.5q-120 0 -191 -49t-71 -131zM268 1087q0 20 19 39l194 181q16 16 39 16t39 -16l195 -181q18 -18 18 -39q0 -17 -14 -28.5 t-33 -11.5q-18 0 -33 12l-172 151l-172 -151q-15 -12 -33 -12q-19 0 -33 11.5t-14 28.5z" />
<glyph unicode="&#xe3;" horiz-adv-x="1056" d="M117 244q0 123 103.5 197.5t273.5 74.5q94 0 170.5 -32.5t115.5 -77.5v120q0 146 -73 214.5t-224 68.5q-124 0 -252 -53q-18 -6 -28 -6q-53 0 -53 51q0 30 30 45q131 67 314 67q195 0 302 -100t107 -285v-483q0 -26 -16.5 -43.5t-44.5 -17.5t-45 17.5t-17 43.5v45 q-103 -115 -305 -115q-162 0 -260 76t-98 193zM229 1104q0 7 2 13.5t6 13.5t7.5 11t9.5 11t8 10q61 76 152 76q50 0 104 -29q12 -6 33 -18.5t30.5 -17.5t23 -10t24.5 -5q20 0 32 8t39 35l21 21q18 18 39 18q18 0 32.5 -11.5t14.5 -29.5q0 -11 -4 -21t-8 -15.5t-13 -15 t-12 -13.5q-65 -72 -139 -72q-31 0 -55 9.5t-66 33.5q-4 2 -16 9t-15.5 8.5t-12.5 6.5t-13 6t-11.5 3.5t-14 3t-13.5 0.5q-42 0 -76 -39l-23 -25q-18 -18 -39 -18q-18 0 -32.5 12.5t-14.5 30.5zM240 244q0 -82 69.5 -130t184.5 -48q117 0 201.5 49.5t84.5 128.5 q0 81 -83.5 130.5t-194.5 49.5q-120 0 -191 -49t-71 -131z" />
<glyph unicode="&#xe4;" horiz-adv-x="1056" d="M117 244q0 123 103.5 197.5t273.5 74.5q94 0 170.5 -32.5t115.5 -77.5v120q0 146 -73 214.5t-224 68.5q-124 0 -252 -53q-18 -6 -28 -6q-53 0 -53 51q0 30 30 45q131 67 314 67q195 0 302 -100t107 -285v-483q0 -26 -16.5 -43.5t-44.5 -17.5t-45 17.5t-17 43.5v45 q-103 -115 -305 -115q-162 0 -260 76t-98 193zM240 244q0 -82 69.5 -130t184.5 -48q117 0 201.5 49.5t84.5 128.5q0 81 -83.5 130.5t-194.5 49.5q-120 0 -191 -49t-71 -131zM276 1157q0 34 24 58t58 24t58 -24t24 -58t-24 -58t-58 -24t-58 24t-24 58zM616 1157q0 34 24 58 t58 24t58 -24t24 -58t-24 -58t-58 -24t-58 24t-24 58z" />
<glyph unicode="&#xe5;" horiz-adv-x="1056" d="M117 244q0 123 103.5 197.5t273.5 74.5q94 0 170.5 -32.5t115.5 -77.5v120q0 146 -73 214.5t-224 68.5q-124 0 -252 -53q-18 -6 -28 -6q-53 0 -53 51q0 30 30 45q131 67 314 67q195 0 302 -100t107 -285v-483q0 -26 -16.5 -43.5t-44.5 -17.5t-45 17.5t-17 43.5v45 q-103 -115 -305 -115q-162 0 -260 76t-98 193zM240 244q0 -82 69.5 -130t184.5 -48q117 0 201.5 49.5t84.5 128.5q0 81 -83.5 130.5t-194.5 49.5q-120 0 -191 -49t-71 -131zM371 1167q0 62 42 104t105 42t105.5 -42t42.5 -104t-42.5 -103.5t-105.5 -41.5t-105 41.5 t-42 103.5zM440 1167q0 -35 22 -59.5t56 -24.5t56 24.5t22 59.5t-22 59.5t-56 24.5t-56 -24.5t-22 -59.5z" />
<glyph unicode="&#xe6;" horiz-adv-x="1775" d="M117 244q0 123 103.5 197.5t273.5 74.5q94 0 170.5 -32.5t115.5 -77.5v120q0 146 -73 214.5t-224 68.5q-124 0 -252 -53q-18 -6 -28 -6q-53 0 -53 51q0 30 30 45q131 67 314 67q286 0 360 -219q125 219 383 219q188 0 309 -130t121 -328q0 -21 -15.5 -36.5t-35.5 -15.5 h-711q0 -64 21 -121t62 -103.5t108.5 -73.5t152.5 -27q169 0 279 131q22 27 47 27q24 0 37.5 -15.5t13.5 -36.5q0 -19 -12 -37q-55 -76 -151.5 -124t-213.5 -48q-133 0 -232.5 53.5t-146.5 131.5q-57 -87 -156 -136t-233 -49q-168 0 -266 75.5t-98 193.5zM240 244 q0 -83 67 -130.5t187 -47.5q117 0 201.5 49.5t84.5 128.5q0 81 -83.5 130.5t-194.5 49.5q-120 0 -191 -49t-71 -131zM909 506h645q-12 132 -99.5 218.5t-217.5 86.5q-133 0 -225 -87t-103 -218z" />
<glyph unicode="&#xe7;" horiz-adv-x="1038" d="M109 444q0 201 134 335t335 134q120 0 215.5 -49t144.5 -123q12 -18 12 -36q0 -23 -17 -37.5t-42 -14.5q-22 0 -43 25q-57 68 -119 98.5t-151 30.5q-149 0 -248 -105.5t-99 -257.5t99 -257t248 -105q89 0 151 30.5t119 98.5q21 25 43 25q25 0 42 -14.5t17 -37.5 q0 -19 -12 -37q-47 -70 -135 -117t-199 -53l-43 -104q32 16 76 16q71 0 113.5 -36.5t42.5 -100.5q0 -67 -52.5 -109t-150.5 -42q-21 0 -45 2t-55.5 8t-51.5 20t-20 33q0 20 16 32.5t39 4.5q64 -23 115 -23q53 0 81.5 19t28.5 53q0 29 -22.5 46.5t-67.5 17.5 q-25 0 -57.5 -7.5t-48.5 -7.5q-18 0 -28.5 11t-10.5 24q0 12 8 31l49 115q-181 19 -296 148t-115 316z" />
<glyph unicode="&#xe8;" horiz-adv-x="1101" d="M106 444q0 125 57 232t163 172t237 65q188 0 309 -130t121 -328q0 -21 -15.5 -36.5t-35.5 -15.5h-711q5 -131 98 -227t246 -96q171 0 279 129q22 27 47 27q24 0 37.5 -15.5t13.5 -36.5q0 -19 -12 -37q-55 -76 -151.5 -124t-213.5 -48q-142 0 -250.5 66t-163.5 171.5 t-55 231.5zM236 506h645q-12 131 -100 218t-218 87q-132 0 -223.5 -88t-103.5 -217zM383 1315q0 21 15 34t36 13q28 0 43 -23l148 -209q12 -18 12 -32q0 -20 -14.5 -34.5t-34.5 -14.5q-30 0 -51 32l-142 199q-12 16 -12 35z" />
<glyph unicode="&#xe9;" horiz-adv-x="1101" d="M106 444q0 125 57 232t163 172t237 65q188 0 309 -130t121 -328q0 -21 -15.5 -36.5t-35.5 -15.5h-711q5 -131 98 -227t246 -96q171 0 279 129q22 27 47 27q24 0 37.5 -15.5t13.5 -36.5q0 -19 -12 -37q-55 -76 -151.5 -124t-213.5 -48q-142 0 -250.5 66t-163.5 171.5 t-55 231.5zM236 506h645q-12 131 -100 218t-218 87q-132 0 -223.5 -88t-103.5 -217zM467 1098q0 14 12 32l148 209q15 23 43 23q21 0 36 -12.5t15 -34.5q0 -19 -12 -35l-142 -199q-24 -32 -51 -32q-20 0 -34.5 14.5t-14.5 34.5z" />
<glyph unicode="&#xea;" horiz-adv-x="1101" d="M106 444q0 125 57 232t163 172t237 65q188 0 309 -130t121 -328q0 -21 -15.5 -36.5t-35.5 -15.5h-711q5 -131 98 -227t246 -96q171 0 279 129q22 27 47 27q24 0 37.5 -15.5t13.5 -36.5q0 -19 -12 -37q-55 -76 -151.5 -124t-213.5 -48q-142 0 -250.5 66t-163.5 171.5 t-55 231.5zM236 506h645q-12 131 -100 218t-218 87q-132 0 -223.5 -88t-103.5 -217zM330 1087q0 21 18 39l195 181q16 16 39 16t39 -16l194 -181q19 -19 19 -39q0 -17 -14.5 -28.5t-33.5 -11.5q-17 0 -32 12l-172 151l-172 -151q-15 -12 -33 -12q-19 0 -33 11.5t-14 28.5z " />
<glyph unicode="&#xeb;" horiz-adv-x="1101" d="M106 444q0 125 57 232t163 172t237 65q188 0 309 -130t121 -328q0 -21 -15.5 -36.5t-35.5 -15.5h-711q5 -131 98 -227t246 -96q171 0 279 129q22 27 47 27q24 0 37.5 -15.5t13.5 -36.5q0 -19 -12 -37q-55 -76 -151.5 -124t-213.5 -48q-142 0 -250.5 66t-163.5 171.5 t-55 231.5zM236 506h645q-12 131 -100 218t-218 87q-132 0 -223.5 -88t-103.5 -217zM324 1157q0 34 24 58t58 24t57.5 -24t23.5 -58t-23.5 -58t-57.5 -24t-58 24t-24 58zM664 1157q0 34 23.5 58t57.5 24t58 -24t24 -58t-24 -58t-58 -24t-57.5 24t-23.5 58z" />
<glyph unicode="&#xec;" horiz-adv-x="450" d="M25 1315q0 21 15 34t36 13q28 0 43 -23l147 -209q13 -20 13 -32q0 -20 -15 -34.5t-35 -14.5q-30 0 -51 32l-141 199q-12 16 -12 35zM164 45v799q0 26 17.5 43.5t43.5 17.5t44 -17.5t18 -43.5v-799q0 -26 -18 -43.5t-44 -17.5t-43.5 17.5t-17.5 43.5z" />
<glyph unicode="&#xed;" horiz-adv-x="450" d="M164 45v799q0 26 17.5 43.5t43.5 17.5t44 -17.5t18 -43.5v-799q0 -26 -18 -43.5t-44 -17.5t-43.5 17.5t-17.5 43.5zM166 1098q0 14 12 32l148 209q15 23 43 23q21 0 36 -12.5t15 -34.5q0 -19 -12 -35l-142 -199q-24 -32 -51 -32q-20 0 -34.5 14.5t-14.5 34.5z" />
<glyph unicode="&#xee;" horiz-adv-x="450" d="M-27 1087q0 20 19 39l194 181q16 16 39 16t39 -16l195 -181q18 -18 18 -39q0 -17 -14 -28.5t-33 -11.5q-18 0 -33 12l-172 151l-172 -151q-15 -12 -33 -12q-19 0 -33 11.5t-14 28.5zM164 45v799q0 26 17.5 43.5t43.5 17.5t44 -17.5t18 -43.5v-799q0 -26 -18 -43.5 t-44 -17.5t-43.5 17.5t-17.5 43.5z" />
<glyph unicode="&#xef;" horiz-adv-x="450" d="M-37 1157q0 34 24 58t58 24t58 -24t24 -58t-24 -58t-58 -24t-58 24t-24 58zM164 45v799q0 26 17.5 43.5t43.5 17.5t44 -17.5t18 -43.5v-799q0 -26 -18 -43.5t-44 -17.5t-43.5 17.5t-17.5 43.5zM303 1157q0 34 24 58t58 24t58 -24t24 -58t-24 -58t-58 -24t-58 24t-24 58z " />
<glyph unicode="&#xf0;" horiz-adv-x="1114" d="M113 412q0 191 121.5 309.5t310.5 118.5q106 0 201 -52t151 -139q-54 253 -246 432l-125 -104q-15 -12 -34 -12q-20 0 -35 13t-15 32q0 22 23 41l115 94q-64 53 -110 81.5t-138 76.5q-27 13 -27 43q0 19 13.5 31t33.5 12q11 0 25 -7q154 -68 278 -176l103 86q19 15 35 15 q17 0 32 -15t15 -32q0 -22 -21 -39l-92 -78q281 -259 281 -682q0 -96 -29.5 -182.5t-85 -154.5t-143 -108.5t-195.5 -40.5q-112 0 -200 40.5t-139 105.5t-77 139.5t-26 151.5zM231 412q0 -145 90 -242.5t234 -97.5q152 0 242 100.5t90 237.5q0 151 -97 242t-229 91 q-157 0 -243.5 -90t-86.5 -241z" />
<glyph unicode="&#xf1;" horiz-adv-x="1157" d="M164 45v799q0 26 17.5 43.5t43.5 17.5t44 -17.5t18 -43.5v-107q50 85 136 130.5t198 45.5q176 0 279.5 -114.5t103.5 -296.5v-457q0 -26 -18 -43.5t-44 -17.5t-43.5 17.5t-17.5 43.5v455q0 141 -73.5 221t-213.5 80q-133 0 -220 -90t-87 -238v-428q0 -26 -18 -43.5 t-44 -17.5t-43.5 17.5t-17.5 43.5zM291 1104q0 9 4 18.5t7 14t11.5 14.5t10.5 12q32 40 66.5 58t84.5 18q51 0 105 -29q12 -7 32.5 -19t30 -17.5t23 -10t24.5 -4.5q20 0 33 8.5t39 34.5l20 21q18 18 39 18q18 0 32.5 -11.5t14.5 -29.5q0 -11 -4 -21t-8 -15.5t-13 -15 t-12 -13.5q-65 -72 -139 -72q-31 0 -55 9.5t-66 33.5q-5 3 -14.5 8.5t-13 7.5t-11.5 6t-11.5 5.5t-10 4t-11.5 3t-11.5 1.5t-12.5 1q-42 0 -76 -39l-22 -25q-18 -18 -39 -18q-18 0 -32.5 12.5t-14.5 30.5z" />
<glyph unicode="&#xf2;" horiz-adv-x="1146" d="M106 444q0 129 59 236t166.5 170t241.5 63t241.5 -63t166.5 -170t59 -236t-59 -236t-166.5 -170t-241.5 -63t-241.5 63t-166.5 170t-59 236zM229 444q0 -156 99 -259t245 -103t245.5 103t99.5 259t-99.5 259.5t-245.5 103.5t-245 -103.5t-99 -259.5zM358 1315 q0 21 15.5 34t36.5 13q28 0 43 -23l147 -209q12 -18 12 -32q0 -20 -14.5 -34.5t-34.5 -14.5q-30 0 -51 32l-141 199q-13 17 -13 35z" />
<glyph unicode="&#xf3;" horiz-adv-x="1146" d="M106 444q0 129 59 236t166.5 170t241.5 63t241.5 -63t166.5 -170t59 -236t-59 -236t-166.5 -170t-241.5 -63t-241.5 63t-166.5 170t-59 236zM229 444q0 -156 99 -259t245 -103t245.5 103t99.5 259t-99.5 259.5t-245.5 103.5t-245 -103.5t-99 -259.5zM483 1098q0 12 13 32 l147 209q15 23 43 23q21 0 36 -12.5t15 -34.5q0 -19 -12 -35l-141 -199q-24 -32 -52 -32q-20 0 -34.5 14.5t-14.5 34.5z" />
<glyph unicode="&#xf4;" horiz-adv-x="1146" d="M106 444q0 129 59 236t166.5 170t241.5 63t241.5 -63t166.5 -170t59 -236t-59 -236t-166.5 -170t-241.5 -63t-241.5 63t-166.5 170t-59 236zM229 444q0 -156 99 -259t245 -103t245.5 103t99.5 259t-99.5 259.5t-245.5 103.5t-245 -103.5t-99 -259.5zM322 1087q0 21 18 39 l195 181q16 16 38 16q23 0 39 -16l195 -181q18 -18 18 -39q0 -17 -14 -28.5t-33 -11.5q-18 0 -33 12l-172 151l-172 -151q-15 -12 -32 -12q-19 0 -33 11.5t-14 28.5z" />
<glyph unicode="&#xf5;" horiz-adv-x="1146" d="M106 444q0 129 59 236t166.5 170t241.5 63t241.5 -63t166.5 -170t59 -236t-59 -236t-166.5 -170t-241.5 -63t-241.5 63t-166.5 170t-59 236zM229 444q0 -156 99 -259t245 -103t245.5 103t99.5 259t-99.5 259.5t-245.5 103.5t-245 -103.5t-99 -259.5zM303 1104q0 9 4 18.5 t7 14t11.5 14.5t10.5 12q32 40 66.5 58t84.5 18q51 0 105 -29q12 -7 32.5 -19t30 -17.5t23 -10t24.5 -4.5q20 0 33 8.5t39 34.5l21 21q18 18 39 18q18 0 32.5 -11.5t14.5 -29.5q0 -10 -4 -20t-8 -15.5t-13 -16t-12 -13.5q-65 -72 -139 -72q-31 0 -55 9.5t-66 33.5 q-3 2 -14 8t-13.5 7.5t-11.5 6t-12 5.5t-10.5 4t-12 3.5t-11 1.5t-12.5 1q-41 0 -75 -39l-23 -25q-18 -18 -39 -18q-18 0 -32.5 12.5t-14.5 30.5z" />
<glyph unicode="&#xf6;" horiz-adv-x="1146" d="M106 444q0 129 59 236t166.5 170t241.5 63t241.5 -63t166.5 -170t59 -236t-59 -236t-166.5 -170t-241.5 -63t-241.5 63t-166.5 170t-59 236zM229 444q0 -156 99 -259t245 -103t245.5 103t99.5 259t-99.5 259.5t-245.5 103.5t-245 -103.5t-99 -259.5zM311 1157q0 34 24 58 t58 24t58 -24t24 -58t-24 -58t-58 -24t-58 24t-24 58zM651 1157q0 34 24 58t58 24t58 -24t24 -58t-24 -58t-58 -24t-58 24t-24 58z" />
<glyph unicode="&#xf7;" horiz-adv-x="1167" d="M133 662q0 24 17.5 39.5t42.5 15.5h782q25 0 42 -15.5t17 -39.5t-17 -40t-42 -16h-782q-25 0 -42.5 16t-17.5 40zM498 301q0 35 25.5 60.5t60.5 25.5t60.5 -25.5t25.5 -60.5t-25.5 -60.5t-60.5 -25.5t-60.5 25.5t-25.5 60.5zM498 1022q0 35 25.5 60.5t60.5 25.5 t60.5 -25.5t25.5 -60.5t-25.5 -60.5t-60.5 -25.5t-60.5 25.5t-25.5 60.5z" />
<glyph unicode="&#xf8;" horiz-adv-x="1146" d="M106 -90q0 14 13 31l129 161q-68 63 -105 152t-37 190q0 129 59 236t166.5 170t241.5 63q145 0 263 -75l129 161q14 17 32 17t29.5 -10.5t13.5 -26.5q0 -17 -10 -29l-131 -164q141 -138 141 -342q0 -129 -59 -236t-166.5 -170t-241.5 -63q-150 0 -262 76l-127 -157 q-18 -21 -34 -21q-15 0 -29.5 10.5t-14.5 26.5zM229 444q0 -148 90 -251l445 557q-82 57 -191 57q-146 0 -245 -103.5t-99 -259.5zM381 139q85 -57 192 -57q146 0 245.5 103t99.5 259q0 147 -93 250z" />
<glyph unicode="&#xf9;" horiz-adv-x="1157" d="M154 387v457q0 26 17.5 43.5t43.5 17.5t43.5 -17.5t17.5 -43.5v-455q0 -141 73.5 -221t213.5 -80q133 0 220 90t87 238v428q0 26 18 43.5t44 17.5t43.5 -17.5t17.5 -43.5v-799q0 -26 -17.5 -43.5t-43.5 -17.5t-44 17.5t-18 43.5v107q-50 -85 -135.5 -131t-197.5 -46 q-176 0 -279.5 115t-103.5 297zM416 1315q0 21 15 34t36 13q28 0 43 -23l147 -209q13 -20 13 -32q0 -20 -14.5 -34.5t-34.5 -14.5q-31 0 -52 32l-141 199q-12 16 -12 35z" />
<glyph unicode="&#xfa;" horiz-adv-x="1157" d="M154 387v457q0 26 17.5 43.5t43.5 17.5t43.5 -17.5t17.5 -43.5v-455q0 -141 73.5 -221t213.5 -80q133 0 220 90t87 238v428q0 26 18 43.5t44 17.5t43.5 -17.5t17.5 -43.5v-799q0 -26 -17.5 -43.5t-43.5 -17.5t-44 17.5t-18 43.5v107q-50 -85 -135.5 -131t-197.5 -46 q-176 0 -279.5 115t-103.5 297zM496 1098q0 14 12 32l147 209q15 23 43 23q22 0 37 -12.5t15 -34.5q0 -18 -13 -35l-141 -199q-24 -32 -51 -32q-20 0 -34.5 14.5t-14.5 34.5z" />
<glyph unicode="&#xfb;" horiz-adv-x="1157" d="M154 387v457q0 26 17.5 43.5t43.5 17.5t43.5 -17.5t17.5 -43.5v-455q0 -141 73.5 -221t213.5 -80q133 0 220 90t87 238v428q0 26 18 43.5t44 17.5t43.5 -17.5t17.5 -43.5v-799q0 -26 -17.5 -43.5t-43.5 -17.5t-44 17.5t-18 43.5v107q-50 -85 -135.5 -131t-197.5 -46 q-176 0 -279.5 115t-103.5 297zM332 1087q0 21 18 39l195 181q16 16 39 16t39 -16l194 -181q19 -19 19 -39q0 -17 -14.5 -28.5t-33.5 -11.5q-17 0 -32 12l-172 151l-172 -151q-15 -12 -33 -12q-19 0 -33 11.5t-14 28.5z" />
<glyph unicode="&#xfc;" horiz-adv-x="1157" d="M154 387v457q0 26 17.5 43.5t43.5 17.5t43.5 -17.5t17.5 -43.5v-455q0 -141 73.5 -221t213.5 -80q133 0 220 90t87 238v428q0 26 18 43.5t44 17.5t43.5 -17.5t17.5 -43.5v-799q0 -26 -17.5 -43.5t-43.5 -17.5t-44 17.5t-18 43.5v107q-50 -85 -135.5 -131t-197.5 -46 q-176 0 -279.5 115t-103.5 297zM328 1157q0 34 24 58t58 24t58 -24t24 -58t-24 -58t-58 -24t-58 24t-24 58zM668 1157q0 34 24 58t58 24t57.5 -24t23.5 -58t-23.5 -58t-57.5 -24t-58 24t-24 58z" />
<glyph unicode="&#xfd;" horiz-adv-x="886" d="M27 850q0 24 15.5 39.5t41.5 15.5q37 0 53 -39l309 -729l304 733q14 35 51 35q26 0 40.5 -15.5t14.5 -39.5q0 -12 -6 -27q-201 -491 -301 -729q-64 -153 -162.5 -279t-228.5 -204q-17 -10 -37 -10q-24 0 -38.5 14.5t-14.5 36.5q0 31 36 51q88 61 154 131t125 172 l-348 813q-8 20 -8 31zM369 1098q0 14 12 32l147 209q15 23 43 23q22 0 37 -12.5t15 -34.5q0 -18 -13 -35l-141 -199q-24 -32 -51 -32q-20 0 -34.5 14.5t-14.5 34.5z" />
<glyph unicode="&#xfe;" horiz-adv-x="1208" d="M164 -338v1657q0 26 17.5 43.5t43.5 17.5t44 -17.5t18 -43.5v-594q125 188 366 188q189 0 319 -133.5t130 -335.5t-130 -335.5t-319 -133.5q-240 0 -366 189v-502q0 -26 -18 -43.5t-44 -17.5t-43.5 17.5t-17.5 43.5zM287 444q0 -153 96.5 -258.5t251.5 -105.5 q153 0 248.5 102t95.5 262q0 161 -95.5 263t-248.5 102q-155 0 -251.5 -106t-96.5 -259z" />
<glyph unicode="&#xff;" horiz-adv-x="886" d="M27 850q0 24 15.5 39.5t41.5 15.5q37 0 53 -39l309 -729l304 733q14 35 51 35q26 0 40.5 -15.5t14.5 -39.5q0 -12 -6 -27q-201 -491 -301 -729q-64 -153 -162.5 -279t-228.5 -204q-17 -10 -37 -10q-24 0 -38.5 14.5t-14.5 36.5q0 31 36 51q88 61 154 131t125 172 l-348 813q-8 20 -8 31zM195 1157q0 34 23.5 58t57.5 24t58 -24t24 -58t-24 -58t-58 -24t-57.5 24t-23.5 58zM535 1157q0 34 23.5 58t57.5 24t58 -24t24 -58t-24 -58t-58 -24t-57.5 24t-23.5 58z" />
<glyph unicode="&#x152;" horiz-adv-x="2355" d="M106 682q0 190 85.5 351t244.5 258.5t359 97.5q179 0 324 -84t237 -230v228q0 26 17.5 43.5t43.5 17.5h789q23 0 39 -16t16 -39t-16 -39.5t-39 -16.5h-727v-493h422q23 0 39 -16t16 -39t-16 -39.5t-39 -16.5h-422v-538h729q23 0 39 -16.5t16 -39.5t-16 -39t-39 -16h-791 q-26 0 -43.5 17.5t-17.5 43.5v228q-89 -145 -235 -229.5t-326 -84.5q-200 0 -359 97.5t-244.5 258.5t-85.5 351zM229 682q0 -118 39.5 -225.5t111 -190.5t179.5 -132.5t236 -49.5t235.5 49.5t177.5 132.5t109 190.5t39 225.5t-39 225.5t-109 190.5t-177.5 132.5t-235.5 49.5 t-236 -49.5t-179.5 -132.5t-111 -190.5t-39.5 -225.5z" />
<glyph unicode="&#x153;" horiz-adv-x="1912" d="M106 444q0 129 59 236t166.5 170t241.5 63q133 0 239.5 -62t166.5 -167q59 105 162 167t233 62q188 0 309 -130t121 -328q0 -21 -15 -36.5t-36 -15.5h-711q5 -131 98 -227t246 -96q171 0 279 129q23 27 47 27t37.5 -15.5t13.5 -36.5q0 -19 -12 -37q-55 -76 -151.5 -124 t-213.5 -48q-140 0 -244.5 62t-162.5 166q-60 -105 -167 -166.5t-239 -61.5q-134 0 -241.5 63t-166.5 170t-59 236zM229 444q0 -156 99 -259t245 -103t245.5 103t99.5 259t-99.5 259.5t-245.5 103.5t-245 -103.5t-99 -259.5zM1047 506h645q-12 131 -100 218t-218 87 q-132 0 -223.5 -88t-103.5 -217z" />
<glyph unicode="&#x178;" horiz-adv-x="1130" d="M10 1325q0 25 16 40t40 15q33 0 53 -28l446 -639l447 639q20 28 53 28q24 0 39.5 -14.5t15.5 -40.5q0 -17 -12 -35l-481 -692v-553q0 -26 -18 -43.5t-44 -17.5t-43.5 17.5t-17.5 43.5v553l-481 692q-13 20 -13 35zM283 1608q0 34 24 58t58 24t57.5 -24t23.5 -58 t-23.5 -58t-57.5 -24t-58 24t-24 58zM684 1608q0 34 24 58t58 24t58 -24t24 -58t-24 -58t-58 -24t-58 24t-24 58z" />
<glyph unicode="&#x2c6;" horiz-adv-x="749" d="M123 1087q0 21 18 39l195 181q16 16 39 16t39 -16l194 -181q19 -19 19 -39q0 -17 -14 -28.5t-33 -11.5q-18 0 -33 12l-172 151l-172 -151q-15 -12 -33 -12q-19 0 -33 11.5t-14 28.5z" />
<glyph unicode="&#x2dc;" horiz-adv-x="823" d="M123 1104q0 9 4 18.5t7 14t11.5 14.5t10.5 12q32 40 66.5 58t84.5 18q51 0 105 -29q12 -7 32.5 -19t30 -17.5t23 -10t24.5 -4.5q20 0 33 8.5t39 34.5l20 21q18 18 39 18q18 0 32.5 -11.5t14.5 -29.5q0 -10 -4 -20.5t-7.5 -15.5t-13 -15.5t-11.5 -13.5q-65 -72 -140 -72 q-31 0 -55 9.5t-66 33.5q-5 3 -14.5 8.5t-13 7.5t-11.5 6t-11.5 5.5t-10 4t-11.5 3t-11.5 1.5t-12.5 1q-42 0 -76 -39l-22 -25q-18 -18 -39 -18q-18 0 -32.5 12.5t-14.5 30.5z" />
<glyph unicode="&#x2000;" horiz-adv-x="859" />
<glyph unicode="&#x2001;" horiz-adv-x="1718" />
<glyph unicode="&#x2002;" horiz-adv-x="859" />
<glyph unicode="&#x2003;" horiz-adv-x="1718" />
<glyph unicode="&#x2004;" horiz-adv-x="572" />
<glyph unicode="&#x2005;" horiz-adv-x="429" />
<glyph unicode="&#x2006;" horiz-adv-x="286" />
<glyph unicode="&#x2007;" horiz-adv-x="286" />
<glyph unicode="&#x2008;" horiz-adv-x="214" />
<glyph unicode="&#x2009;" horiz-adv-x="343" />
<glyph unicode="&#x200a;" horiz-adv-x="95" />
<glyph unicode="&#x2010;" horiz-adv-x="897" d="M143 508q0 24 15.5 37.5t38.5 13.5h503q23 0 38.5 -13.5t15.5 -37.5t-15.5 -37.5t-38.5 -13.5h-503q-23 0 -38.5 13.5t-15.5 37.5z" />
<glyph unicode="&#x2011;" horiz-adv-x="897" d="M143 508q0 24 15.5 37.5t38.5 13.5h503q23 0 38.5 -13.5t15.5 -37.5t-15.5 -37.5t-38.5 -13.5h-503q-23 0 -38.5 13.5t-15.5 37.5z" />
<glyph unicode="&#x2012;" horiz-adv-x="897" d="M143 508q0 24 15.5 37.5t38.5 13.5h503q23 0 38.5 -13.5t15.5 -37.5t-15.5 -37.5t-38.5 -13.5h-503q-23 0 -38.5 13.5t-15.5 37.5z" />
<glyph unicode="&#x2013;" horiz-adv-x="1169" d="M143 508q0 24 15.5 37.5t38.5 13.5h776q23 0 38 -13.5t15 -37.5t-15 -37.5t-38 -13.5h-776q-23 0 -38.5 13.5t-15.5 37.5z" />
<glyph unicode="&#x2014;" horiz-adv-x="1570" d="M143 508q0 24 15.5 37.5t38.5 13.5h1177q23 0 38 -13.5t15 -37.5t-15 -37.5t-38 -13.5h-1177q-23 0 -38.5 13.5t-15.5 37.5z" />
<glyph unicode="&#x2018;" horiz-adv-x="448" d="M154 909v88q0 179 55 328q9 26 22.5 40.5t40.5 14.5q25 0 39.5 -13.5t14.5 -35.5q0 -8 -11 -41q-51 -150 -51 -293v-88q0 -25 -14.5 -41t-40.5 -16t-40.5 16t-14.5 41z" />
<glyph unicode="&#x2019;" horiz-adv-x="448" d="M143 901q0 8 11 41q51 150 51 293v88q0 25 14.5 41t40.5 16t40.5 -16t14.5 -41v-88q0 -179 -55 -328q-9 -26 -22.5 -40.5t-40.5 -14.5q-25 0 -39.5 13.5t-14.5 35.5z" />
<glyph unicode="&#x201a;" horiz-adv-x="421" d="M96 -283q0 11 10 41q52 153 52 293v88q0 25 14.5 41.5t40.5 16.5t40.5 -16.5t14.5 -41.5v-88q0 -178 -55 -327q-19 -56 -63 -56q-25 0 -39.5 13.5t-14.5 35.5z" />
<glyph unicode="&#x201c;" horiz-adv-x="811" d="M154 909v88q0 179 55 328q9 26 22.5 40.5t40.5 14.5q25 0 39.5 -13.5t14.5 -35.5q0 -8 -11 -41q-51 -150 -51 -293v-88q0 -25 -14.5 -41t-40.5 -16t-40.5 16t-14.5 41zM516 909v88q0 179 55 328q19 55 64 55q24 0 38.5 -13.5t14.5 -35.5q0 -11 -10 -41q-51 -150 -51 -293 v-88q0 -25 -15 -41t-41 -16t-40.5 16t-14.5 41z" />
<glyph unicode="&#x201d;" horiz-adv-x="811" d="M143 901q0 8 11 41q51 150 51 293v88q0 25 14.5 41t40.5 16t40.5 -16t14.5 -41v-88q0 -179 -55 -328q-9 -26 -22.5 -40.5t-40.5 -14.5q-25 0 -39.5 13.5t-14.5 35.5zM506 901q0 11 10 41q51 150 51 293v88q0 25 15 41t41 16t40.5 -16t14.5 -41v-88q0 -179 -55 -328 q-19 -55 -64 -55q-24 0 -38.5 13.5t-14.5 35.5z" />
<glyph unicode="&#x201e;" horiz-adv-x="784" d="M96 -283q0 11 10 41q52 153 52 293v88q0 25 14.5 41.5t40.5 16.5t40.5 -16.5t14.5 -41.5v-88q0 -178 -55 -327q-19 -56 -63 -56q-25 0 -39.5 13.5t-14.5 35.5zM459 -283q0 11 10 41q51 150 51 293v88q0 25 14.5 41.5t40.5 16.5t41 -16.5t15 -41.5v-88q0 -175 -56 -327 q-19 -56 -63 -56q-24 0 -38.5 13.5t-14.5 35.5z" />
<glyph unicode="&#x2022;" horiz-adv-x="724" d="M133 657q0 95 67 162.5t162 67.5t162.5 -67.5t67.5 -162.5t-67.5 -162t-162.5 -67t-162 67t-67 162z" />
<glyph unicode="&#x2026;" horiz-adv-x="1437" d="M154 74q0 35 25.5 60.5t60.5 25.5t60.5 -25.5t25.5 -60.5t-25.5 -60.5t-60.5 -25.5t-60.5 25.5t-25.5 60.5zM633 74q0 35 25.5 60.5t60.5 25.5t60.5 -25.5t25.5 -60.5t-25.5 -60.5t-60.5 -25.5t-60.5 25.5t-25.5 60.5zM1112 74q0 35 25.5 60.5t60.5 25.5t60.5 -25.5 t25.5 -60.5t-25.5 -60.5t-60.5 -25.5t-60.5 25.5t-25.5 60.5z" />
<glyph unicode="&#x202f;" horiz-adv-x="343" />
<glyph unicode="&#x2039;" horiz-adv-x="700" d="M123 436q0 21 16 37l324 311q20 17 39 17q23 0 39 -14.5t16 -34.5q0 -23 -20 -43l-289 -273l289 -272q20 -20 20 -43q0 -20 -16 -34.5t-39 -14.5q-20 0 -39 16l-324 311q-16 16 -16 37z" />
<glyph unicode="&#x203a;" horiz-adv-x="700" d="M143 121q0 22 21 43l289 272l-289 273q-21 21 -21 43q0 20 16.5 34.5t39.5 14.5q19 0 39 -17l323 -311q17 -17 17 -37t-17 -37l-323 -311q-19 -16 -39 -16q-23 0 -39.5 14.5t-16.5 34.5z" />
<glyph unicode="&#x205f;" horiz-adv-x="429" />
<glyph unicode="&#x20ac;" horiz-adv-x="1462" d="M82 518q0 21 15.5 34t37.5 13h168q-6 55 -6 117q0 58 6 117h-168q-22 0 -37.5 13t-15.5 34t15.5 34t37.5 13h182q48 224 189 360t352 136q292 0 457 -289q14 -25 14 -41q0 -25 -16 -40t-41 -15q-31 0 -47 28q-74 128 -161 189t-206 61q-163 0 -269 -107.5t-147 -281.5 h459q22 0 37.5 -13t15.5 -34t-15.5 -34t-37.5 -13h-475q-6 -59 -6 -117q0 -62 6 -117h475q22 0 37.5 -13t15.5 -34t-15.5 -34t-37.5 -13h-459q41 -174 147 -281.5t269 -107.5q119 0 206 61t161 189q16 28 47 28q25 0 41 -15t16 -40q0 -17 -14 -41q-165 -289 -457 -289 q-211 0 -352 136t-189 360h-182q-22 0 -37.5 13t-15.5 34z" />
<glyph unicode="&#x2122;" horiz-adv-x="1519" d="M113 1327q0 17 11.5 27t29.5 10h452q18 0 29.5 -10t11.5 -27t-12 -28t-29 -11h-184v-493q0 -18 -11.5 -29.5t-29.5 -11.5q-20 0 -31.5 11t-11.5 30v493h-184q-17 0 -29 11t-12 28zM752 793v540q0 18 10.5 28.5t28.5 10.5q23 0 38 -29l230 -475l229 475q14 29 39 29 q18 0 28.5 -10.5t10.5 -28.5v-540q0 -17 -11 -28t-28 -11t-29 11t-12 28v378l-188 -393q-14 -24 -39 -24t-39 24l-189 393v-378q0 -17 -11.5 -28t-28.5 -11t-28 11t-11 28z" />
<glyph unicode="&#xe000;" horiz-adv-x="901" d="M0 0v901h901v-901h-901z" />
</font>
</defs>
</svg>
