<?xml version="1.0" standalone="no"?>
<!DOCTYPE svg PUBLIC "-//W3C//DTD SVG 1.1//EN" "http://www.w3.org/Graphics/SVG/1.1/DTD/svg11.dtd" >
<svg xmlns="http://www.w3.org/2000/svg">
<metadata>
This is a custom SVG webfont generated by Font Squirrel.
Copyright   : Copyright c 2009 by Jos Buivenga All rights reserved
Designer    : Jos Buivenga
Foundry     : Jos Buivenga
Foundry URL : httpwwwexljbriscom
</metadata>
<defs>
<font id="MuseoSlab300Italic" horiz-adv-x="1241" >
<font-face units-per-em="2048" ascent="1536" descent="-512" />
<missing-glyph horiz-adv-x="512" />
<glyph unicode=" "  horiz-adv-x="512" />
<glyph unicode="&#x09;" horiz-adv-x="512" />
<glyph unicode="&#xa0;" horiz-adv-x="512" />
<glyph unicode="!" horiz-adv-x="487" d="M45 0l33 162h162l-33 -162h-162zM133 377l201 1063h145l-215 -1063h-131z" />
<glyph unicode="&#x22;" horiz-adv-x="653" d="M227 1049l80 411h121l-80 -411h-121zM477 1049l78 411h121l-80 -411h-119z" />
<glyph unicode="#" horiz-adv-x="1486" d="M57 399l43 115h287l150 401h-287l41 115h287l151 410h129l-151 -410h354l151 410h127l-151 -410h285l-41 -115h-285l-150 -401h283l-41 -115h-285l-147 -399h-129l149 399h-354l-147 -399h-129l149 399h-289zM516 514h352l150 401h-354z" />
<glyph unicode="$" horiz-adv-x="1089" d="M20 190l93 93q14 -16 40.5 -41t113.5 -65t182 -40q141 0 249.5 77t108.5 194q0 80 -62.5 140t-150.5 102l-176 87q-88 45 -150.5 122t-62.5 181q0 156 126 265.5t326 124.5l45 223h115l-43 -226q92 -8 171 -40.5t112 -63.5l30 -29l-81 -104q-12 12 -35 30.5t-103 50.5 t-168 32q-152 0 -251 -75t-99 -184q0 -78 62.5 -136t150.5 -98t177 -85t151.5 -120t62.5 -179q0 -164 -130 -283.5t-328 -134.5l-41 -219h-115l41 221q-70 6 -133.5 27.5t-103.5 47.5t-69.5 49.5t-41.5 39.5z" />

<glyph unicode="%" horiz-adv-x="1478" d="M6 0l1362 1440h158l-1362 -1440h-158zM209 1147q0 121 102.5 219t231.5 98q115 0 183.5 -69.5t68.5 -180.5q0 -125 -101.5 -222t-230.5 -97q-115 0 -184.5 68.5t-69.5 183.5zM332 1145q0 -57 39 -96t100 -39q80 0 140.5 61.5t60.5 142.5q0 57 -38 96.5t-99 39.5 q-78 0 -140.5 -62.5t-62.5 -142.5zM729 227q0 121 102.5 219.5t231.5 98.5q115 0 183.5 -69.5t68.5 -180.5q0 -125 -101.5 -222.5t-230.5 -97.5q-115 0 -184.5 68.5t-69.5 183.5zM852 225q0 -59 39 -97t102 -38q80 0 140.5 60.5t60.5 142.5q0 59 -39 98t-100 39 q-78 0 -140.5 -62.5t-62.5 -142.5z" />
<glyph unicode="&#x26;" horiz-adv-x="1329" d="M72 340q0 147 96 272t250 164v4q-6 2 -16.5 7.5t-35 24.5t-44 45t-36 73t-16.5 102q0 188 140.5 310t343.5 122l182 -26l-59 -117q-59 16 -125 16q-135 0 -235.5 -85t-100.5 -222q0 -201 266 -201h303l39 205h141l-39 -205h195l-25 -122h-194l-43 -213 q-100 -518 -553 -519q-203 0 -318.5 100.5t-115.5 264.5zM219 356q0 -115 76 -183.5t213 -68.5q334 0 412 394l41 209h-304q-180 0 -309 -94.5t-129 -256.5z" />
<glyph unicode="'" horiz-adv-x="407" d="M227 1049l80 411h123l-80 -411h-123z" />
<glyph unicode="(" horiz-adv-x="622" d="M143 350q0 639 416 1145h135q-424 -535 -424 -1149q0 -281 97 -541h-125q-99 260 -99 545z" />
<glyph unicode=")" horiz-adv-x="628" d="M-49 -195q424 535 424 1149q0 281 -96 541h124q100 -266 101 -545q0 -637 -418 -1145h-135z" />
<glyph unicode="*" horiz-adv-x="983" d="M193 1108l65 125l272 -109l50 316h139l-74 -316l320 107l18 -129l-324 -90v-4l140 -242l-113 -78l-129 260h-4l-225 -258l-99 80l242 250v4z" />
<glyph unicode="+" d="M70 522l22 119h473l103 522h125l-103 -522h471l-22 -119h-469l-105 -522h-125l103 522h-473z" />
<glyph unicode="," horiz-adv-x="512" d="M-109 -264l226 432h157l-258 -432h-125z" />
<glyph unicode="-" horiz-adv-x="1009" d="M197 518l22 127h582l-23 -127h-581z" />
<glyph unicode="." horiz-adv-x="501" d="M57 0l31 170h168l-33 -170h-166z" />
<glyph unicode="/" horiz-adv-x="851" d="M-37 -86l832 1606h139l-832 -1606h-139z" />
<glyph unicode="0" horiz-adv-x="1275" d="M133 440q0 96 14.5 204t45 225.5t83 222t122 188.5t170 134t216.5 50q406 0 406 -467q0 -119 -19.5 -249t-68.5 -270t-121 -249.5t-186.5 -181.5t-255.5 -72q-406 0 -406 465zM279 440q0 -334 262 -334q106 0 195 62.5t144.5 159t93.5 219.5t53 235.5t15 212.5 q0 338 -262 338q-127 0 -227 -88t-157.5 -226t-87 -288t-29.5 -291z" />
<glyph unicode="1" horiz-adv-x="929" d="M-6 0l22 123h324l203 1040l20 90h-4q-29 -35 -74 -71l-196 -164l-78 98l393 324h131l-256 -1317h316l-25 -123h-776z" />
<glyph unicode="2" horiz-adv-x="1181" d="M12 0q2 123 55.5 226.5t136.5 178t182 141.5l199 127q99 60 181 122.5t133 142.5t51 170q0 102 -65.5 163.5t-184.5 61.5q-182 0 -344 -170l-22 -26l-98 77l22 26.5t62.5 59.5t99.5 77t130 60.5t159 26.5q184 0 288.5 -95t104.5 -251q0 -102 -46 -192t-123 -159 t-169 -130.5t-187.5 -118.5t-177.5 -114.5t-141 -130t-76 -150.5h662l41 201h129l-64 -324h-938z" />
<glyph unicode="3" horiz-adv-x="1155" d="M12 172l92 96q4 -6 14.5 -17t43.5 -39t69.5 -49.5t93 -39t115.5 -17.5q162 0 286 109t124 262q0 123 -85 187.5t-218 64.5l-96 -6l-23 86l475 465l58 43v4q-41 -4 -68 -4h-469l-39 -197h-131l63 320h850l-18 -101l-520 -501q59 -2 117.5 -20.5t118 -55.5t96 -106.5 t36.5 -163.5q0 -209 -161.5 -363t-393.5 -154q-236 0 -401 166z" />
<glyph unicode="4" horiz-adv-x="1206" d="M23 399l16 93l887 948h157l-178 -920h205l-25 -121h-204l-78 -399h-141l77 399h-716zM223 520h541l127 649l24 95h-4q-29 -43 -63 -80l-625 -660v-4z" />
<glyph unicode="5" horiz-adv-x="1144" d="M23 164l92 90q12 -16 35.5 -41t104.5 -66t173 -41q170 0 301 118t131 282q0 127 -85 202.5t-224 75.5q-70 0 -139.5 -19.5t-104.5 -39.5l-35 -20l-88 34l215 701h705l-64 -320h-131l41 197h-448l-117 -375l-31 -86h4q90 53 228 53q186 0 304 -111.5t118 -289.5 q0 -219 -175.5 -376t-410.5 -157q-78 0 -147.5 19.5t-113.5 47.5t-77 55.5t-47 45.5z" />

<glyph unicode="6" horiz-adv-x="1216" d="M121 492q0 137 52 299.5t147.5 315.5t252 255t340.5 102q74 0 142.5 -15t99.5 -30l31 -14l-70 -119q-84 47 -205 47q-213 0 -371.5 -172t-226.5 -407h4q68 78 170.5 123t210.5 45q178 0 283.5 -103.5t105.5 -273.5q0 -221 -149.5 -395.5t-382.5 -174.5q-203 0 -318.5 142 t-115.5 375zM266 465q0 -141 79 -250t214 -109q160 0 270.5 126t110.5 307q0 119 -71.5 188.5t-200.5 69.5q-139 0 -270.5 -96.5t-131.5 -235.5z" />
<glyph unicode="7" horiz-adv-x="1099" d="M106 0l865 1255q29 41 51 62v4q-35 -4 -76 -4h-590l-39 -197h-131l64 320h964l-20 -99l-928 -1341h-160z" />
<glyph unicode="8" horiz-adv-x="1230" d="M82 350q0 252 321 457q8 4 11 6q-137 98 -138 244q0 160 136.5 283.5t355.5 123.5q188 0 292.5 -85t104.5 -232q0 -80 -34.5 -161t-89 -144.5t-85 -93t-59.5 -54.5q164 -106 164 -262q0 -190 -161 -323.5t-384 -133.5q-190 0 -312 100.5t-122 274.5zM231 360 q0 -117 83 -186.5t208 -69.5q150 0 269.5 90.5t119.5 231.5q0 47 -21.5 87t-68.5 72.5t-87 54.5t-110.5 54.5t-105.5 50.5q-287 -164 -287 -385zM422 1059q0 -39 17.5 -73t39 -57.5t65.5 -51t72 -41.5l87 -42l85 -40q37 29 79 69.5t96.5 133t54.5 180.5q0 92 -68.5 145 t-185.5 53q-147 0 -244.5 -80.5t-97.5 -195.5z" />
<glyph unicode="9" horiz-adv-x="1216" d="M82 35l65 119q82 -47 203 -48q213 0 372 173.5t226 408.5h-4q-68 -78 -171 -123t-212 -45q-178 0 -282.5 102.5t-104.5 272.5q0 221 149.5 395t383.5 174q203 0 318.5 -141t115.5 -375q0 -137 -52.5 -300t-147.5 -315.5t-252 -255t-341 -102.5q-74 0 -140.5 14.5 t-96.5 30.5zM319 901q0 -119 72 -188.5t199 -69.5q139 0 272 97.5t133 234.5q0 141 -77.5 249.5t-212.5 108.5q-162 0 -274 -126t-112 -306z" />
<glyph unicode=":" horiz-adv-x="614" d="M109 0l32 170h166l-33 -170h-165zM276 860l33 170h166l-33 -170h-166z" />
<glyph unicode=";" horiz-adv-x="624" d="M-61 -264l215 432h168l-259 -432h-124zM287 860l32 170h166l-32 -170h-166z" />
<glyph unicode="&#x3c;" d="M115 530v103l925 414v-138l-753 -325v-4l753 -326v-137z" />
<glyph unicode="=" d="M133 344v119h954v-119h-954zM133 700v119h954v-119h-954z" />
<glyph unicode="&#x3e;" d="M193 117v137l753 326v4l-753 325v138l925 -414v-103z" />
<glyph unicode="?" horiz-adv-x="952" d="M201 0l35 162h159l-33 -162h-161zM236 1358q16 12 46.5 30.5t120 48t172.5 29.5q162 0 260.5 -86t98.5 -225q0 -100 -45 -183t-112.5 -140.5t-137.5 -109.5t-127 -117.5t-72 -139.5l-18 -88h-137l18 92q18 94 75.5 173t124.5 132l131 106q65 52 107.5 117.5t42.5 143.5 q0 84 -60 138t-163 54q-66 0 -132.5 -21.5t-100.5 -41.5l-33 -23z" />
<glyph unicode="@" horiz-adv-x="1583" d="M70 369q0 231 123.5 434t332.5 323.5t445 120.5q207 0 312.5 -91t105.5 -234q0 -47 -9 -80l-120 -627h145l-23 -115h-532q-162 0 -260 95.5t-98 236.5q0 182 145 318.5t356 136.5h258q2 25 2 43q0 84 -76.5 141t-222.5 57q-297 0 -519 -231t-222 -528q0 -223 135 -362.5 t365 -139.5l-25 -121q-270 0 -444 174.5t-174 448.5zM635 440q0 -98 63.5 -161.5t167.5 -63.5h254l109 563h-250q-135 0 -239.5 -103.5t-104.5 -234.5z" />
<glyph unicode="A" horiz-adv-x="1464" d="M-94 0l22 119h146l741 1321h160l227 -1321h146l-23 -119h-455l23 119h166l-64 370h-561l-207 -370h164l-24 -119h-461zM498 610h481l-98 590l-9 92h-4q-14 -45 -39 -92z" />
<glyph unicode="B" horiz-adv-x="1382" d="M-4 0l24 119h187l233 1202h-188l24 119h627q141 0 236 -47q68 -33 106.5 -103.5t38.5 -163.5q0 -127 -68.5 -223t-183.5 -143v-4q84 -31 131 -104.5t47 -184.5q0 -137 -70.5 -247.5t-185.5 -166.5q-106 -53 -258 -53h-700zM350 123h342q123 0 213 53q68 41 113 121 t45 170q0 106 -62.5 165.5t-173.5 59.5h-366zM485 815h349q127 0 215 84t88 217q0 113 -78 164q-59 37 -154 37h-321z" />
<glyph unicode="C" horiz-adv-x="1521" d="M129 600q0 233 122 434t321.5 315.5t424.5 114.5q74 0 156 -12t170 -41t137 -88t33 -141l-31 -158h-137l23 119q10 53 -23 93t-92.5 60.5t-119.5 29.5t-120 9q-289 0 -503 -216t-214 -509q0 -225 131.5 -365.5t352.5 -140.5q143 0 283.5 51.5t158.5 145.5l23 113h137 l-29 -152q-20 -98 -122.5 -165.5t-220.5 -94.5t-232 -27q-287 0 -458 173t-171 452z" />
<glyph unicode="D" horiz-adv-x="1595" d="M-2 0l22 119h187l233 1202h-186l22 119h592q188 0 324 -49q319 -123 319 -519q0 -252 -129 -471t-344 -319q-170 -82 -397 -82h-643zM350 123h275q207 0 352 72q174 90 281.5 271t107.5 394q0 311 -236 412q-106 45 -274 45h-272z" />
<glyph unicode="E" horiz-adv-x="1284" d="M-4 0l24 119h187l233 1202h-188l24 119h1016l-59 -299h-129l35 176h-555l-103 -531h543l-25 -122h-542l-107 -541h594l37 186h129l-61 -309h-1053z" />
<glyph unicode="F" horiz-adv-x="1171" d="M-4 0l24 119h187l233 1202h-188l24 119h969l-61 -307h-131l37 180h-506l-107 -543h527l-25 -123h-526l-103 -528h201l-25 -119h-530z" />

<glyph unicode="G" horiz-adv-x="1579" d="M127 596q0 354 257 611t620 257q125 0 246.5 -29.5t204.5 -96t67 -156.5l-31 -158h-137l20 109q14 68 -47 115.5t-146 67t-175 19.5q-301 0 -515.5 -219t-214.5 -510q0 -223 138.5 -362.5t371.5 -139.5q150 0 296.5 51.5t166.5 157.5l45 226h-301l23 118h438l-76 -378 q-20 -106 -126.5 -178t-227.5 -99t-246 -27q-299 0 -475 171t-176 450z" />
<glyph unicode="H" horiz-adv-x="1722" d="M-2 0l22 119h187l233 1202h-186l22 119h521l-23 -119h-188l-105 -539h832l104 539h-188l24 119h521l-25 -119h-188l-234 -1202h189l-25 -119h-520l24 119h189l104 540h-831l-107 -540h189l-23 -119h-518z" />
<glyph unicode="I" horiz-adv-x="745" d="M-2 0l22 119h187l233 1202h-186l22 119h521l-23 -119h-190l-234 -1202h189l-23 -119h-518z" />
<glyph unicode="J" horiz-adv-x="1110" d="M6 301q0 33 6 73t13 64l6 23h139q-23 -78 -23 -142q0 -213 211 -213q109 0 198 71t120 224l176 920h-221l24 119h533l-25 -119h-168l-180 -932q-41 -213 -171 -313.5t-290 -100.5q-150 0 -249 81t-99 245z" />
<glyph unicode="K" horiz-adv-x="1372" d="M-2 0l22 119h187l233 1202h-186l22 119h508l-22 -119h-178l-99 -508h201l451 508h-131l24 119h445l-23 -119h-147l-506 -563v-4q25 -16 51 -80l186 -465q18 -49 42 -71.5t79 -22.5l60 4l-23 -119q-2 0 -31.5 -2t-46.5 -2q-98 0 -144 44t-83 138l-172 445q-29 68 -107 67 h-149l-111 -571h187l-23 -119h-516z" />
<glyph unicode="L" horiz-adv-x="1208" d="M-2 0l22 119h187l233 1198h-188l24 123h521l-25 -123h-188l-232 -1194h574l49 239h129l-72 -362h-1034z" />
<glyph unicode="M" horiz-adv-x="1933" d="M-37 0l25 119h184l330 1202h-191l25 119h340l233 -942l15 -84h4q18 37 45 84l602 942h350l-22 -119h-189l-141 -1202h186l-22 -119h-512l22 119h185l116 993l23 102h-4q-27 -61 -47 -96l-549 -844h-133l-222 844l-10 96h-4q-6 -66 -16 -102l-273 -993h185l-23 -119h-512z " />
<glyph unicode="N" horiz-adv-x="1705" d="M-4 0l24 119h187l233 1202h-188l24 119h322l584 -1143l28 -84h4q4 57 13 94l200 1014h-190l23 119h522l-23 -119h-188l-258 -1321h-137l-586 1145l-27 84h-4q-4 -57 -12 -94l-197 -1016h191l-25 -119h-520z" />
<glyph unicode="O" horiz-adv-x="1691" d="M125 598q0 229 125 430t326.5 318.5t424.5 117.5q272 0 443.5 -170t171.5 -436q0 -231 -126 -437t-329 -326t-424 -120q-272 0 -442 175.5t-170 447.5zM270 602q0 -219 134.5 -357.5t345.5 -138.5q176 0 341.5 99.5t271 273.5t105.5 373q0 213 -134 347t-347 134 q-276 0 -496.5 -218t-220.5 -513z" />
<glyph unicode="P" horiz-adv-x="1325" d="M-4 0l24 119h187l233 1202h-188l24 119h648q135 0 209 -29q92 -37 146 -121t54 -209q0 -154 -82 -283.5t-219 -187.5q-92 -41 -233 -41h-361l-88 -450h189l-23 -119h-520zM463 692h328q106 0 184 35q94 43 152.5 136t58.5 208q0 162 -113 215q-66 31 -170 31h-319z" />
<glyph unicode="Q" horiz-adv-x="1693" d="M125 598q0 227 124 429t323.5 319.5t416.5 117.5q279 0 453 -170t174 -436q0 -180 -77 -344t-208 -289l137 -174l-94 -84l-139 178q-225 -170 -485 -170q-279 0 -452 174.5t-173 448.5zM272 602q0 -219 133.5 -357.5t346.5 -138.5q215 0 401 142l-178 227l94 84l176 -229 q223 227 223 522q0 213 -134 347t-345 134q-276 0 -496.5 -218t-220.5 -513z" />
<glyph unicode="R" horiz-adv-x="1419" d="M-4 0l24 119h187l233 1202h-188l24 119h615q174 0 266 -49q152 -84 152 -287q0 -176 -114 -309t-292 -160v-6q29 -35 39 -64l141 -356q18 -49 42 -71.5t79 -22.5l58 4l-23 -119l-31 -2q-29 -2 -47 -2q-98 0 -143 45t-80 137l-133 344q-20 53 -51 70.5t-90 17.5h-218 l-96 -491h187l-25 -119h-516zM471 733h334q143 0 249.5 100.5t106.5 253.5q0 133 -90 189q-68 41 -209 41h-278z" />
<glyph unicode="S" horiz-adv-x="1175" d="M72 274l24 136h137l-22 -119q-18 -94 71 -139.5t222 -45.5q156 0 262 84t106 222q0 70 -35.5 122t-92 82.5t-123.5 57.5l-137 55q-69 29 -125 67t-92 102.5t-36 152.5q0 188 155 300.5t372 112.5q66 0 133 -14t127.5 -42t93.5 -75t21 -104l-29 -144h-137l20 105 q10 51 -32 85t-98 46t-120 12q-147 0 -250.5 -76.5t-103.5 -199.5q0 -63 35 -111.5t91 -77t124.5 -54.5t137.5 -55.5t125 -69.5t91 -107.5t35 -157.5q0 -199 -156.5 -324t-380.5 -125q-74 0 -147.5 15.5t-142 48.5t-103 94t-20.5 141z" />
<glyph unicode="T" horiz-adv-x="1341" d="M156 1083l71 357h1207l-70 -357h-129l45 234h-401l-236 -1198h188l-22 -119h-520l22 119h189l235 1198h-403l-45 -234h-131z" />
<glyph unicode="U" horiz-adv-x="1628" d="M211 1321l22 119h521l-23 -119h-188l-150 -766q-18 -117 -18 -154q0 -137 91 -216t251 -79q186 0 307 97q137 106 178 307l160 811h-188l22 119h520l-22 -119h-189l-164 -829q-55 -279 -251 -410q-160 -106 -377 -106.5t-350.5 111.5t-133.5 298q0 49 21 172l149 764 h-188z" />
<glyph unicode="V" horiz-adv-x="1441" d="M164 1321l22 119h461l-24 -119h-164l164 -1067l6 -94h6q16 49 39 94l581 1067h-163l22 119h469l-22 -119h-148l-731 -1321h-158l-213 1321h-147z" />
<glyph unicode="W" horiz-adv-x="2045" d="M174 1321l25 119h458l-24 -119h-172l53 -1059l-4 -94h6q18 49 39 94l559 1178h133l103 -1178v-94h8q14 49 33 94l464 1059h-172l23 119h469l-23 -119h-145l-594 -1321h-168l-98 1133v94h-6q-14 -51 -35 -94l-539 -1133h-170l-75 1321h-148z" />

<glyph unicode="X" horiz-adv-x="1327" d="M-61 0l24 119h143l498 614l-256 588h-139l24 119h449l-25 -119h-163l192 -457l21 -53h4q14 25 39 53l360 457h-156l23 119h457l-23 -119h-143l-504 -621l254 -581h145l-22 -119h-451l25 119h157l-190 448l-20 56h-5q-18 -27 -41 -56l-354 -448h158l-23 -119h-458z" />
<glyph unicode="Y" horiz-adv-x="1318" d="M162 1321l24 119h449l-25 -119h-159l208 -524l19 -56h4q18 29 39 56l418 524h-162l22 119h461l-24 -119h-142l-559 -703l-98 -499h188l-24 -119h-520l24 119h189l98 499l-289 703h-141z" />
<glyph unicode="Z" horiz-adv-x="1282" d="M4 0l21 100l1001 1149l72 68v4q-39 -4 -80 -4h-619l-45 -234h-131l72 357h1010l-19 -101l-1005 -1149l-72 -67v-4q39 4 80 4h649l47 239h131l-72 -362h-1040z" />
<glyph unicode="[" horiz-adv-x="612" d="M59 -195l328 1690h277l-23 -115h-147l-283 -1460h147l-22 -115h-277z" />
<glyph unicode="\" horiz-adv-x="835" d="M274 1520h125l207 -1606h-125z" />
<glyph unicode="]" horiz-adv-x="612" d="M-33 -195l23 115h147l283 1460h-150l25 115h276l-327 -1690h-277z" />
<glyph unicode="^" d="M31 512l405 928h96l408 -928h-135l-320 758l-319 -758h-135z" />
<glyph unicode="_" horiz-adv-x="1118" d="M-106 -119l20 119h1057l-23 -119h-1054z" />
<glyph unicode="`" horiz-adv-x="1032" d="M242 1784h172l153 -244h-141z" />
<glyph unicode="a" horiz-adv-x="1120" d="M10 233q0 117 66.5 200t179.5 124t222.5 57.5t230.5 16.5h67q16 80 17 117q0 184 -211 184q-166 -2 -310 -96l-43 112q18 12 50 29.5t130.5 47.5t194.5 30q154 0 242 -72t88 -215q0 -66 -51.5 -294t-51.5 -267q0 -57 26 -76.5t71 -19.5l53 4l-23 -115q-41 -4 -77 -4 q-94 0 -145 50q-43 43 -43 123q0 13 1 28h-4q2 0 -14.5 -22.5t-49 -55.5t-75.5 -66t-107.5 -55.5t-132.5 -22.5q-129 0 -215 68.5t-86 189.5zM152 254q0 -72 48 -118t146 -46q135 0 249 122t150 269l11 45h-60q-544 0 -544 -272z" />
<glyph unicode="b" horiz-adv-x="1228" d="M72 0l256 1325h-185l23 115h323l-96 -498l-26 -94h4q55 92 156.5 149.5t213.5 57.5q180 0 280.5 -110.5t100.5 -303.5q0 -287 -169 -476.5t-392 -189.5q-117 0 -204 55.5t-119 155.5h-5q0 -43 -10 -92l-18 -94h-133zM293 391q0 -129 64.5 -210t193.5 -81q162 0 295 147.5 t133 383.5q0 139 -69.5 218t-190.5 79q-182 0 -304 -164t-122 -373z" />
<glyph unicode="c" horiz-adv-x="1134" d="M72 424q0 260 194.5 445.5t454.5 185.5q80 0 158.5 -20.5t138 -75t45.5 -132.5l-21 -108h-129l15 76q10 66 -61.5 100.5t-161.5 34.5q-186 0 -338 -146.5t-152 -351.5q0 -154 94 -243t246 -89q193 0 348 131l15 13l45 -115q-6 -6 -18.5 -16.5t-53.5 -37t-86 -47t-116 -37 t-144 -16.5q-213 0 -343 122t-130 327z" />
<glyph unicode="d" horiz-adv-x="1280" d="M74 389q0 287 168 476.5t395 189.5q113 0 199 -53.5t118 -153.5h4q2 43 9 86l75 391h-184l25 115h323l-229 -1174q-6 -33 -6 -59q0 -57 26.5 -76.5t71.5 -19.5l51 4l-22 -115q-43 -4 -74 -4q-96 0 -148 51q-41 40 -41 108q0 19 3 40h-4q-57 -92 -158 -156t-221 -64 q-182 0 -281.5 110.5t-99.5 303.5zM217 397q0 -139 68.5 -218t191.5 -79q182 0 303 167t121 370q0 127 -65.5 209t-192.5 82q-162 0 -294 -147.5t-132 -383.5z" />
<glyph unicode="e" horiz-adv-x="1132" d="M72 410q0 258 173 451.5t429 193.5q184 0 277 -102.5t93 -270.5q0 -35 -7 -77t-13 -66l-8 -25h-791q-10 -43 -10 -94q0 -139 86 -229.5t244 -90.5q82 0 167 32t128 63l43 30l43 -114q-18 -14 -53 -37t-136.5 -61t-197.5 -38q-211 0 -339 120t-128 315zM250 616h645 q8 37 8 78q0 119 -64.5 181.5t-170.5 62.5q-133 0 -249 -85t-169 -237z" />
<glyph unicode="f" horiz-adv-x="675" d="M117 915l20 115h182l11 45q25 119 78 200t119.5 115.5t118.5 47t104 12.5l75 -6l-26 -119q-18 4 -51 4q-223 0 -277 -252l-10 -47h262l-21 -115h-262l-178 -915h-139l176 915h-182z" />
<glyph unicode="g" horiz-adv-x="1255" d="M14 -344l66 104q115 -68 270 -67q371 0 432 370q8 41 16.5 74t12.5 47l6 13h-4q-125 -190 -344 -191q-182 0 -286.5 111.5t-104.5 298.5q0 152 60.5 294t188.5 243.5t294 101.5q125 0 215 -50.5t112 -138.5h4q-2 14 4 47q10 59 43 88t97 29h186l-20 -115h-127 q-45 0 -56 -43l-166 -858q-45 -229 -198.5 -336.5t-354.5 -107.5q-190 0 -346 86zM221 424q0 -137 72 -215t201 -78t223 90t135 211t41 246q0 252 -264 252q-184 0 -296 -153.5t-112 -352.5z" />
<glyph unicode="h" horiz-adv-x="1286" d="M72 0l256 1325h-176l22 115h315l-106 -559l-27 -93h4q45 88 168 177.5t283 89.5q137 0 211 -68.5t74 -198.5q0 -68 -48.5 -307t-48.5 -274q0 -59 26 -77.5t73 -18.5l51 4l-23 -115q-41 -4 -75 -4q-197 0 -197 176q0 43 48 281.5t48 298.5q0 86 -46 129t-128 43 q-170 0 -304 -132.5t-171 -318.5l-90 -473h-139z" />

<glyph unicode="i" horiz-adv-x="606" d="M106 915l23 115h324l-152 -764q-6 -33 -6 -59q0 -57 26.5 -76.5t71.5 -19.5l51 4l-22 -115q-43 -4 -72 -4q-201 0 -200 180q0 4 10 76l131 663h-185zM348 1266l35 174h158l-35 -174h-158z" />
<glyph unicode="j" horiz-adv-x="565" d="M-238 -416l25 117q16 -4 45 -4q37 0 73 9t80 35t78.5 83t51.5 139l184 952h-184l22 115h324l-207 -1063q-18 -98 -57 -172t-82 -113.5t-96.5 -64.5t-93.5 -32t-81 -7zM358 1266l33 174h158l-35 -174h-156z" />
<glyph unicode="k" horiz-adv-x="1093" d="M70 0l260 1325h-185l23 115h324l-160 -811h141l311 286h-139l23 115h430l-23 -115h-127l-366 -337v-5q27 -20 53 -75l133 -297q20 -47 44 -68.5t77 -21.5l57 4l-22 -115l-27 -2q-29 -2 -47 -2q-51 0 -87 12t-61.5 41t-38 52.5t-34.5 72.5l-133 293q-12 29 -32 38t-58 9 h-95l-102 -514h-139z" />
<glyph unicode="l" horiz-adv-x="561" d="M106 180q0 31 11 78l207 1067h-185l23 115h323l-225 -1166q-8 -49 -8 -67q0 -41 15.5 -62.5t33.5 -25.5t49 -4l51 4l-22 -119q-39 -6 -72 -6q-201 0 -201 186z" />
<glyph unicode="m" horiz-adv-x="2009" d="M117 915l22 115h197q104 0 104 -84q0 -18 -11 -75.5t-23 -88.5h4q53 104 176 188.5t256 84.5q258 0 264 -267h4q63 115 179 191t245 76q137 0 211 -71t74 -198q0 -66 -48.5 -304t-48.5 -275q0 -59 26 -77.5t71 -18.5l53 4l-23 -115q-43 -4 -75 -4q-197 0 -197 176 q0 43 48 282.5t48 295.5q0 178 -180 178q-156 0 -276.5 -136.5t-151.5 -304.5l-94 -487h-140l119 621q18 84 19 137q0 170 -174 170q-156 0 -280 -136.5t-159 -310.5l-94 -481h-139l170 870q1 6 1 11q0 34 -38 34h-139z" />
<glyph unicode="n" horiz-adv-x="1339" d="M117 915l22 115h197q104 0 104 -84q0 -20 -11 -77.5t-23 -86.5h4q43 90 166.5 181.5t291.5 91.5q135 0 208 -68.5t73 -195.5q0 -70 -48 -309.5t-48 -274.5q0 -59 25.5 -77.5t72.5 -18.5l51 4l-22 -115q-41 -4 -76 -4q-197 0 -197 176q0 43 48.5 281.5t48.5 298.5 q0 172 -179 172q-164 0 -300 -133.5t-171 -317.5l-92 -473h-139l170 870q1 7 1 13q0 32 -38 32h-139z" />
<glyph unicode="o" horiz-adv-x="1277" d="M70 426q0 260 194.5 444.5t450.5 184.5q203 0 331 -125t128 -320q0 -262 -197 -448.5t-449 -186.5q-203 0 -330.5 126t-127.5 325zM213 430q0 -145 91 -237.5t237 -92.5q186 0 337.5 148.5t151.5 355.5q0 143 -92 234.5t-238 91.5q-190 0 -338.5 -147.5t-148.5 -352.5z " />
<glyph unicode="p" horiz-adv-x="1282" d="M43 -410l250 1280q1 7 1 13q0 32 -38 32h-139l22 115h195q104 0 104 -82q0 -37 -26 -108h4q59 94 156.5 154.5t222.5 60.5q180 0 280.5 -110.5t100.5 -303.5q0 -285 -168 -475.5t-390 -190.5q-117 0 -202.5 52.5t-120.5 154.5h-4q-2 -45 -12 -98l-97 -494h-139zM348 397 q0 -129 65.5 -213t192.5 -84q162 0 294 147.5t132 383.5q0 139 -68.5 218t-191.5 79q-180 0 -302 -165t-122 -366z" />
<glyph unicode="q" horiz-adv-x="1228" d="M74 387q0 289 169 478.5t396 189.5q117 0 202 -54.5t117 -154.5h5q0 33 8 78l20 106h135l-260 -1327h185l-23 -113h-323l98 496l26 98h-4q-53 -88 -148 -148.5t-222 -60.5q-182 0 -281.5 111t-99.5 301zM217 397q0 -139 69.5 -218t190.5 -79q182 0 303 167t121 370 q0 127 -64.5 209t-191.5 82q-162 0 -295 -147.5t-133 -383.5z" />
<glyph unicode="r" horiz-adv-x="784" d="M115 915l22 115h197q104 0 104 -84q0 -20 -14 -86.5t-27 -101.5h4q59 121 157.5 201.5t219.5 80.5q37 0 62 -6l-27 -137q-29 4 -51 4q-104 0 -197.5 -84t-150 -196.5t-78.5 -231.5l-74 -389h-139l168 870q1 7 1 13q0 32 -38 32h-139z" />
<glyph unicode="s" horiz-adv-x="970" d="M23 219l18 100h127l-14 -77q-8 -45 15.5 -76t67.5 -45t83.5 -19.5t80.5 -5.5q111 0 191 49.5t80 133.5q0 59 -52.5 102t-126 71.5t-147.5 60.5t-126 91.5t-52 143.5q0 141 123 224t291 83q137 0 230 -56.5t73 -152.5l-23 -111h-129l19 86q12 61 -50.5 87t-144.5 26 q-98 0 -174 -46t-76 -128q0 -59 52.5 -101.5t127 -69t148.5 -57t126 -89t52 -142.5q0 -141 -120 -233.5t-314 -92.5q-94 0 -178 24t-139 82t-39 138z" />
<glyph unicode="t" horiz-adv-x="688" d="M94 915l23 115h188l55 285h136l-56 -285h260l-22 -115h-260l-101 -528q-10 -43 -10 -90q0 -186 178 -186l58 4l-25 -119q-23 -4 -51 -4q-301 0 -301 291q0 49 12 112l101 520h-185z" />
<glyph unicode="u" horiz-adv-x="1329" d="M92 915l21 115h323l-119 -614q-18 -96 -18 -144q0 -82 41 -125t139 -43q164 0 296 139.5t167 313.5l68 358h-183l23 115h324l-150 -764q-6 -33 -6 -59q0 -57 26.5 -76.5t71.5 -19.5l51 4l-22 -115q-45 -4 -78 -4q-109 0 -154 64q-31 44 -31 111q0 30 7 65h-4 q-57 -98 -173 -179.5t-274 -81.5q-125 0 -203.5 64.5t-78.5 200.5q0 59 16 137l102 538h-182z" />
<glyph unicode="v" horiz-adv-x="1155" d="M80 915l20 115h422l-22 -115h-148l125 -690l4 -80h6q12 43 35 80l393 690h-149l22 115h433l-23 -115h-135l-528 -915h-150l-170 915h-135z" />
<glyph unicode="w" horiz-adv-x="1748" d="M86 915l20 115h422l-20 -115h-156l82 -692l-2 -80h6q12 43 31 80l416 803h137l100 -803l2 -80h4q12 43 31 80l350 692h-153l22 115h432l-22 -115h-133l-471 -915h-150l-104 772l-4 82h-4q-14 -45 -35 -82l-406 -772h-149l-115 915h-131z" />
<glyph unicode="x" horiz-adv-x="1112" d="M-53 0l20 115h154l344 424l-141 338q-10 25 -20.5 31.5t-35.5 6.5h-135l21 115h180q41 0 59.5 -15.5t36.5 -58.5l109 -266l20 -57h4q16 29 41 59l270 338h252l-22 -115h-164l-322 -389l140 -325q20 -47 45.5 -68.5t83.5 -21.5l71 4l-22 -115q-2 0 -30.5 -2t-49.5 -2 q-55 0 -94 12t-64.5 42t-38 53.5t-32.5 70.5l-80 203l-21 57h-4q-16 -27 -41 -59l-297 -375h-237z" />
<glyph unicode="y" horiz-adv-x="1181" d="M-106 -369l69 105q49 -43 127 -43q129 0 229 164l84 137l-188 921h-135l22 115h426l-22 -115h-150l133 -702l5 -74h4q14 35 37 74l405 702h-149l22 115h432l-22 -115h-136l-653 -1105q-143 -240 -348 -240q-124 0 -192 61z" />

<glyph unicode="z" horiz-adv-x="1060" d="M-20 0l18 98l723 729l92 88v5q-37 -4 -100 -5h-400l-34 -182h-125l57 297h809l-21 -100l-723 -727l-43 -42l-36 -35q-14 -13 -15 -11v-4q41 4 103 4h450l35 182h127l-57 -297h-860z" />
<glyph unicode="{" horiz-adv-x="663" d="M78 598l24 127q6 0 18.5 3t45.5 18.5t60.5 38t55 69.5t40.5 107l34 174q71 361 385 360h21l-23 -115q-29 2 -58.5 -5t-71.5 -28.5t-75.5 -79t-50.5 -143.5l-41 -206q-12 -59 -37.5 -107.5t-55.5 -74t-57.5 -43t-45.5 -23.5l-19 -6v-5q12 -6 33 -19t53.5 -66.5 t32.5 -120.5q0 -27 -6 -60l-43 -217q-10 -57 -10 -92q0 -166 158 -166h12l-25 -115q-12 -2 -31 -2q-31 0 -64.5 9.5t-78.5 33t-73.5 80t-28.5 137.5q0 39 14 115l35 189q6 33 6 61q0 131 -113 168z" />
<glyph unicode="|" horiz-adv-x="653" d="M270 -322v1936h129v-1936h-129z" />
<glyph unicode="}" horiz-adv-x="663" d="M-78 -197l21 115q29 -2 59.5 5t72.5 29.5t75.5 79t50.5 142.5l43 229q18 98 72.5 163t97.5 81l45 17v4l-13 6q-8 4 -28.5 21.5t-35.5 39t-27.5 57t-12.5 76.5q0 25 6 60l37 196q10 43 10 90q0 172 -168 166l23 115h60q34 0 72 -17.5t70.5 -43t53 -77.5t20.5 -120 q0 -39 -14 -115l-31 -164q-6 -37 -6 -63q0 -70 34 -113t69 -51l32 -8l-26 -127q-6 0 -18.5 -3t-45.5 -17.5t-60.5 -38t-55 -69.5t-39.5 -108l-39 -196q-25 -121 -74 -201t-111.5 -111.5t-113 -42t-105.5 -6.5z" />
<glyph unicode="~" horiz-adv-x="1214" d="M137 428q0 162 69.5 239.5t190.5 77.5q61 0 110.5 -21.5t81.5 -52.5l61 -64q30 -32 69 -53.5t86 -21.5q82 0 113.5 63.5t31.5 141.5h121q0 -162 -69.5 -239.5t-190.5 -77.5q-61 0 -110.5 21.5t-80.5 53.5l-62 63q-30 32 -68.5 53.5t-86.5 21.5q-82 0 -113.5 -63.5 t-31.5 -141.5h-121z" />
<glyph unicode="&#xa1;" horiz-adv-x="464" d="M-37 -410l215 1063h129l-201 -1063h-143zM201 868l35 162h159l-33 -162h-161z" />
<glyph unicode="&#xa2;" horiz-adv-x="1132" d="M109 586q0 164 66.5 320.5t196.5 266t294 119.5l32 172h117l-35 -176q78 -12 138.5 -47t93 -77t54 -82t28.5 -66l6 -27l-129 -49q-2 8 -5 23.5t-22.5 53.5t-46.5 67.5t-78 53t-114 23.5q-199 0 -324 -169t-125 -404q0 -141 68.5 -224t207.5 -83q186 0 324 180l27 39 l123 -51q-6 -12 -17.5 -32t-53.5 -70t-90 -89t-126 -73.5t-162 -39.5l-33 -172h-114l32 179q-156 23 -244.5 136.5t-88.5 297.5z" />
<glyph unicode="&#xa3;" horiz-adv-x="1245" d="M-18 0l22 121h180l107 547h-139l22 112h137l64 318q29 156 162 261t309 105q92 0 171 -30.5t113 -61.5l33 -31l-98 -92q-8 10 -26.5 23.5t-76 37t-118.5 23.5q-129 0 -219 -73.5t-111 -182.5l-57 -297h387l-23 -112h-387l-106 -547h596l49 241h129l-70 -362h-1050z" />
<glyph unicode="&#xa5;" horiz-adv-x="1286" d="M199 432l18 105h334l16 79l-39 101h-276l22 104h218l-240 619h156l192 -512l57 -183h5q61 98 120 183l392 512h172l-482 -619h215l-20 -104h-273l-75 -101l-17 -79h330l-18 -105h-330l-86 -432h-144l86 432h-333z" />
<glyph unicode="&#xa7;" horiz-adv-x="827" d="M-14 -37l84 88q59 -55 157 -55q121 0 195 80t78 200l37 887h120l-34 -884q-2 -172 -111 -289t-287 -117q-68 0 -127 22.5t-86 45.5zM199 174l34 885q2 172 111 288.5t287 116.5q68 0 127 -22.5t86 -44.5l26 -23l-86 -88q-57 55 -155 55q-121 0 -195 -79.5t-78 -200.5 l-37 -887h-120z" />
<glyph unicode="&#xa8;" horiz-adv-x="1032" d="M135 1608l35 176h141l-35 -176h-141zM510 1608l35 176h143l-37 -176h-141z" />
<glyph unicode="&#xa9;" horiz-adv-x="1681" d="M137 721q0 309 212 526t511 217q305 0 519 -217t214 -526q0 -313 -213 -529.5t-520 -216.5q-301 0 -512 217.5t-211 528.5zM256 721q0 -268 174 -451.5t430 -183.5q260 0 436.5 183.5t176.5 451.5q0 266 -177.5 449.5t-435.5 183.5q-254 0 -429 -183.5t-175 -449.5z M459 717q0 172 114.5 297t307.5 125q63 0 120.5 -19.5t94.5 -47.5t65.5 -56.5t40.5 -48.5l12 -19l-94 -63q-10 16 -28.5 39.5t-80 62.5t-126.5 39q-141 0 -223 -90t-82 -217t80.5 -217t224.5 -90q135 0 225 127l10 14l94 -64q-4 -8 -13 -20t-40 -45t-66.5 -58.5t-93 -46 t-120.5 -20.5q-195 0 -308.5 123t-113.5 295z" />
<glyph unicode="&#xaa;" horiz-adv-x="882" d="M158 541l18 96h539l-19 -96h-538zM242 952q0 250 426 250h39q4 14 4 17q4 20 3 38q0 43 -21 69q-30 38 -99 38q-41 0 -87 -14.5t-73 -28.5l-24 -14l-39 84q102 70 241 69q215 0 215 -190q0 -35 -10 -80l-78 -395h-108l20 102h-4q-8 -12 -25.5 -31.5t-72.5 -51.5t-115 -32 q-74 0 -133 44t-59 126zM360 965q0 -86 107 -86q78 0 142.5 76.5t80.5 160.5h-26q-304 1 -304 -151z" />
<glyph unicode="&#xab;" horiz-adv-x="1075" d="M94 582l393 417h160l-409 -428l260 -413h-142zM455 582l422 417h161l-440 -428l260 -413h-141z" />
<glyph unicode="&#xac;" horiz-adv-x="1290" d="M160 700v119h954v-495h-125v376h-829z" />
<glyph unicode="&#xad;" horiz-adv-x="1009" d="M197 518l22 127h582l-23 -127h-581z" />
<glyph unicode="&#xae;" horiz-adv-x="1681" d="M137 721q0 309 212 526t511 217q305 0 519 -217t214 -526q0 -313 -213 -529.5t-520 -216.5q-301 0 -512 217.5t-211 528.5zM256 721q0 -268 174 -451.5t430 -183.5q260 0 436.5 183.5t176.5 451.5q0 266 -177.5 449.5t-435.5 183.5q-254 0 -429 -183.5t-175 -449.5z M616 322v798h285q109 0 175.5 -65.5t66.5 -171.5q0 -84 -45 -140.5t-107 -70.5v-4q8 -10 27 -45l156 -301h-130l-157 323h-154v-323h-117zM733 735h150q66 0 103.5 39t37.5 109q0 68 -38 104.5t-103 36.5h-150v-289z" />

<glyph unicode="&#xaf;" horiz-adv-x="1032" d="M147 1608l21 112h506l-21 -112h-506z" />
<glyph unicode="&#xb0;" horiz-adv-x="784" d="M209 1141q0 125 101.5 223t228.5 98q113 0 184.5 -70.5t71.5 -177.5q0 -125 -103.5 -223t-226.5 -98q-113 0 -184.5 69.5t-71.5 178.5zM332 1145q0 -59 38 -98t101 -39q78 0 139.5 61t61.5 141q0 59 -39 98.5t-101 39.5q-78 0 -139 -61.5t-61 -141.5z" />
<glyph unicode="&#xb1;" d="M82 522v119h473v522h125v-522h471v-119h-471v-522h-125v522h-473zM119 -213h995v-119h-995v119z" />
<glyph unicode="&#xb2;" horiz-adv-x="866" d="M188 866q2 113 61.5 200t142.5 141.5t166 101.5t140.5 106.5t57.5 130.5q0 55 -38 91t-102 36q-49 0 -99 -25.5t-77 -50.5l-26 -24l-66 78q12 14 37 35.5t96.5 56.5t141.5 35q117 0 184 -61.5t67 -162.5q0 -90 -50 -161.5t-124.5 -118.5t-151.5 -89t-141.5 -98.5 t-82.5 -121.5h360l23 112h100l-39 -211h-580z" />
<glyph unicode="&#xb3;" horiz-adv-x="823" d="M180 981l80 74q8 -12 24.5 -28.5t73 -45.5t119.5 -29q86 0 152.5 62.5t66.5 152.5q0 63 -51 101.5t-121 38.5h-63l-19 61l265 254l51 41v4q-27 -6 -60 -6h-239l-23 -113h-102l41 209h545l-15 -74l-301 -288q78 -12 143.5 -67.5t65.5 -160.5q0 -127 -99.5 -224t-236.5 -97 q-172 0 -284 123z" />
<glyph unicode="&#xb4;" horiz-adv-x="1032" d="M190 1540l250 244h187l-281 -244h-156z" />
<glyph unicode="&#xb5;" horiz-adv-x="1200" d="M-39 -410l281 1440h139l-119 -612q-16 -72 -16 -142q0 -170 180 -170q168 0 301 137.5t166 313.5l92 473h139l-200 -1030h-138l29 147l27 97h-4q-53 -98 -172 -183.5t-277 -85.5q-150 0 -215 88h-4q-8 -106 -18 -157l-62 -316h-129z" />
<glyph unicode="&#x3bc;" horiz-adv-x="1200" d="M-39 -410l281 1440h139l-119 -612q-16 -72 -16 -142q0 -170 180 -170q168 0 301 137.5t166 313.5l92 473h139l-200 -1030h-138l29 147l27 97h-4q-53 -98 -172 -183.5t-277 -85.5q-150 0 -215 88h-4q-8 -106 -18 -157l-62 -316h-129z" />
<glyph unicode="&#xb6;" horiz-adv-x="1179" d="M150 903q0 215 174 376t389 161h514l-25 -127h-371l-274 -1415h-119l117 596q-164 0 -284.5 117.5t-120.5 291.5zM684 -102l250 1292h117l-250 -1292h-117z" />
<glyph unicode="&#xb7;" horiz-adv-x="569" d="M182 504l33 170h164l-33 -170h-164z" />
<glyph unicode="&#xb8;" horiz-adv-x="1032" d="M197 -418l18 90q35 -10 84 -10q47 0 85 19.5t38 62.5q0 63 -111 63h-28l102 234l78 -14l-2 -17l-53 -129q55 -8 92 -43t37 -92q0 -86 -73 -131t-163 -45q-29 0 -54.5 3t-37.5 5z" />
<glyph unicode="&#xb9;" horiz-adv-x="817" d="M190 866l19 99h215l108 567l19 74h-4q-20 -27 -53 -54l-113 -94l-59 80l264 219h106l-155 -792h211l-21 -99h-537z" />
<glyph unicode="&#xba;" horiz-adv-x="978" d="M168 541l18 96h619l-19 -96h-618zM242 1067q0 160 121.5 277.5t279.5 117.5q129 0 210 -78.5t81 -201.5q0 -164 -123 -281t-281 -117q-129 0 -208.5 79t-79.5 204zM354 1075q0 -84 51.5 -135t135.5 -51q106 0 193 84t87 203q0 82 -52 133t-136 51q-109 0 -194 -84 t-85 -201z" />
<glyph unicode="&#xbb;" horiz-adv-x="1079" d="M33 158l438 428l-260 413h141l262 -424l-419 -417h-162zM422 158l409 428l-260 413h142l262 -424l-391 -417h-162z" />
<glyph unicode="&#xbc;" horiz-adv-x="1923" d="M111 549l18 98h215l109 567l18 74h-4q-20 -27 -53 -53l-113 -94l-59 80l264 219h106l-155 -793h211l-21 -98h-536zM424 0l967 1440h127l-967 -1440h-127zM1094 236l14 75l545 580h112l-108 -559h133l-18 -96h-134l-47 -236h-112l47 236h-432zM1245 332h299l64 330l24 88 h-4q-27 -41 -59 -74l-324 -340v-4z" />
<glyph unicode="&#xbd;" horiz-adv-x="1882" d="M94 549l19 98h215l108 567l19 74h-4q-20 -27 -54 -53l-112 -94l-60 80l264 219h107l-156 -793h211l-20 -98h-537zM410 0l966 1440h127l-966 -1440h-127zM1092 0q2 113 61 200t142 141t166 101t140.5 106.5t57.5 131.5q0 55 -38 91t-101 36q-49 0 -100.5 -24.5 t-76.5 -49.5l-26 -26l-66 77q12 14 37 36t96.5 56.5t141.5 34.5q117 0 184.5 -61.5t67.5 -161.5q0 -90 -50.5 -161.5t-125 -119t-151.5 -89.5t-141.5 -98t-82.5 -122h360l23 113h100l-39 -211h-579z" />
<glyph unicode="&#xbe;" horiz-adv-x="1961" d="M117 664l80 73q8 -12 24.5 -28.5t72.5 -45t120 -28.5q86 0 152.5 62.5t66.5 152.5q0 63 -51.5 101t-120.5 38h-64l-18 62l264 254l51 41v4q-27 -6 -59 -7h-240l-22 -112h-103l41 209h545l-14 -74l-301 -289q78 -12 143.5 -67.5t65.5 -159.5q0 -127 -99.5 -224.5 t-236.5 -97.5q-172 0 -285 123zM455 0l966 1440h127l-966 -1440h-127zM1124 236l15 75l544 580h113l-108 -559h133l-19 -96h-133l-47 -236h-113l47 236h-432zM1276 332h299l63 330l25 88h-4q-27 -41 -60 -74l-323 -340v-4z" />

<glyph unicode="&#xbf;" horiz-adv-x="940" d="M-18 -119q0 100 45 183t112.5 140.5t137 110t126 118t72.5 138.5l19 82h137l-19 -88q-18 -94 -75.5 -172t-123.5 -131l-131 -105q-65 -52 -108 -118t-43 -143q0 -84 60.5 -138.5t164.5 -54.5q63 0 130 21.5t100 42.5l35 22l59 -113q-16 -12 -47 -29.5t-120 -47 t-171 -29.5q-164 0 -262 85t-98 226zM520 868l33 162h162l-33 -162h-162z" />
<glyph unicode="&#xc0;" horiz-adv-x="1464" d="M-94 0l22 119h146l741 1321h160l227 -1321h146l-23 -119h-455l23 119h166l-64 370h-561l-207 -370h164l-24 -119h-461zM498 610h481l-98 590l-9 92h-4q-14 -45 -39 -92zM684 1784h172l154 -244h-142z" />
<glyph unicode="&#xc1;" horiz-adv-x="1464" d="M-94 0l22 119h146l741 1321h160l227 -1321h146l-23 -119h-455l23 119h166l-64 370h-561l-207 -370h164l-24 -119h-461zM498 610h481l-98 590l-9 92h-4q-14 -45 -39 -92zM811 1540l250 244h186l-280 -244h-156z" />
<glyph unicode="&#xc2;" horiz-adv-x="1464" d="M-94 0l22 119h146l741 1321h160l227 -1321h146l-23 -119h-455l23 119h166l-64 370h-561l-207 -370h164l-24 -119h-461zM498 610h481l-98 590l-9 92h-4q-14 -45 -39 -92zM651 1540l221 244h166l123 -244h-135l-78 166h-4l-143 -166h-150z" />
<glyph unicode="&#xc3;" horiz-adv-x="1464" d="M-94 0l22 119h146l741 1321h160l227 -1321h146l-23 -119h-455l23 119h166l-64 370h-561l-207 -370h164l-24 -119h-461zM498 610h481l-98 590l-9 92h-4q-14 -45 -39 -92zM606 1546q23 115 79 177.5t138 62.5q47 0 82 -22.5t51.5 -49t41.5 -48.5q24 -24 51 -24 q74 0 102 138h119q-20 -117 -77.5 -178.5t-139.5 -61.5q-47 0 -82 22.5t-51.5 48t-41 48t-51.5 22.5q-76 0 -102 -135h-119z" />
<glyph unicode="&#xc4;" horiz-adv-x="1464" d="M-94 0l22 119h146l741 1321h160l227 -1321h146l-23 -119h-455l23 119h166l-64 370h-561l-207 -370h164l-24 -119h-461zM498 610h481l-98 590l-9 92h-4q-14 -45 -39 -92zM670 1608l35 176h141l-35 -176h-141zM1044 1608l35 176h144l-37 -176h-142z" />
<glyph unicode="&#xc5;" horiz-adv-x="1464" d="M-94 0l22 119h146l741 1321h160l227 -1321h146l-23 -119h-455l23 119h166l-64 370h-561l-207 -370h164l-24 -119h-461zM498 610h481l-98 590l-9 92h-4q-14 -45 -39 -92zM768 1642q0 74 59.5 125.5t130.5 51.5q66 0 109 -37t43 -99q0 -74 -59.5 -125t-132.5 -51 q-63 0 -106.5 38t-43.5 97zM864 1645q0 -57 60 -58q39 0 64.5 27.5t25.5 68.5q0 57 -62 58q-35 0 -61.5 -27.5t-26.5 -68.5z" />
<glyph unicode="&#xc6;" horiz-adv-x="1900" d="M-86 0l25 119h131l727 1202h-160l22 119h1252l-60 -299h-127l35 176h-555l-104 -531h540l-24 -122h-541l-104 -541h594l34 178h127l-59 -301h-1044l22 119h180l107 547h-381l-328 -547h160l-25 -119h-444zM623 784h333l105 533h-117z" />
<glyph unicode="&#xc7;" horiz-adv-x="1521" d="M129 600q0 233 122 434t321.5 315.5t424.5 114.5q74 0 156 -12t170 -41t137 -88q37 -45 37 -102q0 -19 -4 -39l-31 -158h-137l23 119q2 13 2 24q0 38 -25 69q-33 40 -92.5 60.5t-119.5 29.5t-120 9q-289 0 -503 -216t-214 -509q0 -225 131.5 -365.5t352.5 -140.5 q143 0 283.5 51.5t158.5 145.5l23 113h137l-29 -152q-20 -98 -122.5 -165.5t-220.5 -94.5t-232 -27h-10l-37 -94q55 -8 91 -43t36 -92q0 -86 -72 -131t-162 -45q-29 0 -55.5 3t-38.5 5l-12 4l18 90q35 -10 84 -10q123 0 123 82q0 63 -109 63h-30l75 175q-244 29 -387 196.5 t-143 421.5z" />
<glyph unicode="&#xc8;" horiz-adv-x="1284" d="M-4 0l24 119h187l233 1202h-188l24 119h1016l-59 -299h-129l35 176h-555l-103 -531h543l-25 -122h-542l-107 -541h594l37 186h129l-61 -309h-1053zM608 1784h172l154 -244h-141z" />
<glyph unicode="&#xc9;" horiz-adv-x="1284" d="M-4 0l24 119h187l233 1202h-188l24 119h1016l-59 -299h-129l35 176h-555l-103 -531h543l-25 -122h-542l-107 -541h594l37 186h129l-61 -309h-1053zM733 1540l250 244h186l-280 -244h-156z" />
<glyph unicode="&#xca;" horiz-adv-x="1284" d="M-4 0l24 119h187l233 1202h-188l24 119h1016l-59 -299h-129l35 176h-555l-103 -531h543l-25 -122h-542l-107 -541h594l37 186h129l-61 -309h-1053zM575 1540l222 244h166l122 -244h-135l-78 166h-4l-143 -166h-150z" />
<glyph unicode="&#xcb;" horiz-adv-x="1284" d="M-4 0l24 119h187l233 1202h-188l24 119h1016l-59 -299h-129l35 176h-555l-103 -531h543l-25 -122h-542l-107 -541h594l37 186h129l-61 -309h-1053zM594 1608l35 176h141l-35 -176h-141zM969 1608l35 176h143l-37 -176h-141z" />
<glyph unicode="&#xcc;" horiz-adv-x="745" d="M-2 0l22 119h187l233 1202h-186l22 119h521l-23 -119h-190l-234 -1202h189l-23 -119h-518zM322 1784h172l153 -244h-141z" />
<glyph unicode="&#xcd;" horiz-adv-x="745" d="M-2 0l22 119h187l233 1202h-186l22 119h521l-23 -119h-190l-234 -1202h189l-23 -119h-518zM449 1540l249 244h187l-281 -244h-155z" />
<glyph unicode="&#xce;" horiz-adv-x="745" d="M-2 0l22 119h187l233 1202h-186l22 119h521l-23 -119h-190l-234 -1202h189l-23 -119h-518zM289 1540l221 244h166l123 -244h-135l-78 166h-4l-144 -166h-149z" />
<glyph unicode="&#xcf;" horiz-adv-x="745" d="M-2 0l22 119h187l233 1202h-186l22 119h521l-23 -119h-190l-234 -1202h189l-23 -119h-518zM309 1608l35 176h141l-34 -176h-142zM684 1608l35 176h143l-37 -176h-141z" />

<glyph unicode="&#xd0;" horiz-adv-x="1611" d="M-2 0l22 119h187l106 543h-159l22 122h160l106 537h-188l22 119h625q295 0 461 -146.5t166 -412.5q0 -369 -242 -625t-612 -256h-676zM350 123h307q311 0 517 214t206 535q0 213 -130 329t-359 116h-305l-107 -533h348l-24 -122h-346z" />
<glyph unicode="&#xd1;" horiz-adv-x="1705" d="M-4 0l24 119h187l233 1202h-188l24 119h322l584 -1143l28 -84h4q4 57 13 94l200 1014h-190l23 119h522l-23 -119h-188l-258 -1321h-137l-586 1145l-27 84h-4q-4 -57 -12 -94l-197 -1016h191l-25 -119h-520zM737 1546q23 115 79 177.5t138 62.5q47 0 82 -22.5t51.5 -49 t40.5 -48.5q25 -24 52 -24q74 0 102 138h119q-20 -117 -77.5 -178.5t-139.5 -61.5q-47 0 -82 22.5t-51.5 48t-41 48t-51.5 22.5q-76 0 -102 -135h-119z" />
<glyph unicode="&#xd2;" horiz-adv-x="1691" d="M125 598q0 229 125 430t326.5 318.5t424.5 117.5q272 0 443.5 -170t171.5 -436q0 -231 -126 -437t-329 -326t-424 -120q-272 0 -442 175.5t-170 447.5zM270 602q0 -219 134.5 -357.5t345.5 -138.5q176 0 341.5 99.5t271 273.5t105.5 373q0 213 -134 347t-347 134 q-276 0 -496.5 -218t-220.5 -513zM799 1784h172l153 -244h-141z" />
<glyph unicode="&#xd3;" horiz-adv-x="1691" d="M125 598q0 229 125 430t326.5 318.5t424.5 117.5q272 0 443.5 -170t171.5 -436q0 -231 -126 -437t-329 -326t-424 -120q-272 0 -442 175.5t-170 447.5zM270 602q0 -219 134.5 -357.5t345.5 -138.5q176 0 341.5 99.5t271 273.5t105.5 373q0 213 -134 347t-347 134 q-276 0 -496.5 -218t-220.5 -513zM924 1540l250 244h186l-281 -244h-155z" />
<glyph unicode="&#xd4;" horiz-adv-x="1691" d="M125 598q0 229 125 430t326.5 318.5t424.5 117.5q272 0 443.5 -170t171.5 -436q0 -231 -126 -437t-329 -326t-424 -120q-272 0 -442 175.5t-170 447.5zM270 602q0 -219 134.5 -357.5t345.5 -138.5q176 0 341.5 99.5t271 273.5t105.5 373q0 213 -134 347t-347 134 q-276 0 -496.5 -218t-220.5 -513zM766 1540l221 244h166l123 -244h-135l-78 166h-4l-144 -166h-149z" />
<glyph unicode="&#xd5;" horiz-adv-x="1691" d="M125 598q0 229 125 430t326.5 318.5t424.5 117.5q272 0 443.5 -170t171.5 -436q0 -231 -126 -437t-329 -326t-424 -120q-272 0 -442 175.5t-170 447.5zM270 602q0 -219 134.5 -357.5t345.5 -138.5q176 0 341.5 99.5t271 273.5t105.5 373q0 213 -134 347t-347 134 q-276 0 -496.5 -218t-220.5 -513zM721 1546q23 115 79 177.5t138 62.5q47 0 82 -22.5t51 -49t41 -48.5q25 -24 51 -24q74 0 103 138h118q-20 -117 -77.5 -178.5t-139.5 -61.5q-47 0 -81.5 22.5t-51 48t-41 48t-51.5 22.5q-76 0 -102 -135h-119z" />
<glyph unicode="&#xd6;" horiz-adv-x="1691" d="M125 598q0 229 125 430t326.5 318.5t424.5 117.5q272 0 443.5 -170t171.5 -436q0 -231 -126 -437t-329 -326t-424 -120q-272 0 -442 175.5t-170 447.5zM270 602q0 -219 134.5 -357.5t345.5 -138.5q176 0 341.5 99.5t271 273.5t105.5 373q0 213 -134 347t-347 134 q-276 0 -496.5 -218t-220.5 -513zM784 1608l35 176h142l-35 -176h-142zM1159 1608l35 176h143l-37 -176h-141z" />
<glyph unicode="&#xd7;" d="M94 84l443 498l-443 497l84 84l438 -493l439 493l84 -84l-445 -497l445 -498l-84 -84l-439 494l-438 -494z" />
<glyph unicode="&#xd8;" horiz-adv-x="1693" d="M125 598q0 227 124 429t323.5 319.5t416.5 117.5q223 0 383 -114l129 141l80 -66l-129 -141q164 -170 164 -426q0 -231 -125 -437t-325.5 -326t-415.5 -120q-229 0 -390 119l-131 -143l-82 63l138 150q-160 170 -160 434zM272 602q0 -201 113 -332l891 975 q-121 86 -287 86q-276 0 -496.5 -217t-220.5 -512zM457 199q123 -90 295 -90q274 0 495 222t221 521q0 195 -116 324z" />
<glyph unicode="&#xd9;" horiz-adv-x="1628" d="M211 1321l22 119h521l-23 -119h-188l-150 -766q-18 -117 -18 -154q0 -137 91 -216t251 -79q186 0 307 97q137 106 178 307l160 811h-188l22 119h520l-22 -119h-189l-164 -829q-55 -279 -251 -410q-160 -106 -377 -106.5t-350.5 111.5t-133.5 298q0 49 21 172l149 764 h-188zM764 1784h172l154 -244h-142z" />
<glyph unicode="&#xda;" horiz-adv-x="1628" d="M211 1321l22 119h521l-23 -119h-188l-150 -766q-18 -117 -18 -154q0 -137 91 -216t251 -79q186 0 307 97q137 106 178 307l160 811h-188l22 119h520l-22 -119h-189l-164 -829q-55 -279 -251 -410q-160 -106 -377 -106.5t-350.5 111.5t-133.5 298q0 49 21 172l149 764 h-188zM889 1540l250 244h186l-281 -244h-155z" />
<glyph unicode="&#xdb;" horiz-adv-x="1628" d="M211 1321l22 119h521l-23 -119h-188l-150 -766q-18 -117 -18 -154q0 -137 91 -216t251 -79q186 0 307 97q137 106 178 307l160 811h-188l22 119h520l-22 -119h-189l-164 -829q-55 -279 -251 -410q-160 -106 -377 -106.5t-350.5 111.5t-133.5 298q0 49 21 172l149 764 h-188zM731 1540l221 244h166l123 -244h-135l-78 166h-4l-143 -166h-150z" />
<glyph unicode="&#xdc;" horiz-adv-x="1628" d="M211 1321l22 119h521l-23 -119h-188l-150 -766q-18 -117 -18 -154q0 -137 91 -216t251 -79q186 0 307 97q137 106 178 307l160 811h-188l22 119h520l-22 -119h-189l-164 -829q-55 -279 -251 -410q-160 -106 -377 -106.5t-350.5 111.5t-133.5 298q0 49 21 172l149 764 h-188zM750 1608l34 176h142l-35 -176h-141zM1124 1608l35 176h144l-37 -176h-142z" />
<glyph unicode="&#xdd;" horiz-adv-x="1318" d="M162 1321l24 119h449l-25 -119h-159l208 -524l19 -56h4q18 29 39 56l418 524h-162l22 119h461l-24 -119h-142l-559 -703l-98 -499h188l-24 -119h-520l24 119h189l98 499l-289 703h-141zM735 1540l250 244h186l-280 -244h-156z" />
<glyph unicode="&#xde;" horiz-adv-x="1320" d="M-4 0l24 119h187l233 1202h-188l24 119h521l-25 -119h-188l-35 -166h354q174 0 276.5 -91t102.5 -249q0 -213 -152.5 -346t-363.5 -133h-375l-43 -217h191l-25 -119h-518zM414 455h342q160 0 269.5 98t109.5 264q0 106 -70 162.5t-197 56.5h-342z" />
<glyph unicode="&#xdf;" horiz-adv-x="1193" d="M72 0l213 1104q33 166 166 263t290 97q152 0 241 -75.5t89 -192.5q0 -68 -31.5 -126t-78 -98l-92.5 -76t-77.5 -75t-31.5 -80q0 -43 49 -92t107.5 -90t107.5 -108.5t49 -141.5q0 -133 -111.5 -228t-259.5 -95q-88 0 -165.5 16t-112.5 33l-35 16l25 129q111 -70 280 -69 q88 0 161 51t73 145q0 57 -49.5 113.5t-108.5 95.5t-108.5 97.5t-49.5 119.5q0 70 49.5 133.5t107.5 104.5t107.5 98t49.5 117q0 63 -48.5 108t-140.5 45q-109 0 -202 -70.5t-115 -191.5l-209 -1077h-139z" />
<glyph unicode="&#xe0;" horiz-adv-x="1120" d="M10 233q0 117 66.5 200t179.5 124t222.5 57.5t230.5 16.5h67q16 80 17 117q0 184 -211 184q-166 -2 -310 -96l-43 112q18 12 50 29.5t130.5 47.5t194.5 30q154 0 242 -72t88 -215q0 -66 -51.5 -294t-51.5 -267q0 -57 26 -76.5t71 -19.5l53 4l-23 -115q-41 -4 -77 -4 q-94 0 -145 50q-43 43 -43 123q0 13 1 28h-4q2 0 -14.5 -22.5t-49 -55.5t-75.5 -66t-107.5 -55.5t-132.5 -22.5q-129 0 -215 68.5t-86 189.5zM152 254q0 -72 48 -118t146 -46q135 0 249 122t150 269l11 45h-60q-544 0 -544 -272zM416 1440h172l153 -244h-141z" />

<glyph unicode="&#xe1;" horiz-adv-x="1120" d="M10 233q0 117 66.5 200t179.5 124t222.5 57.5t230.5 16.5h67q16 80 17 117q0 184 -211 184q-166 -2 -310 -96l-43 112q18 12 50 29.5t130.5 47.5t194.5 30q154 0 242 -72t88 -215q0 -66 -51.5 -294t-51.5 -267q0 -57 26 -76.5t71 -19.5l53 4l-23 -115q-41 -4 -77 -4 q-94 0 -145 50q-43 43 -43 123q0 13 1 28h-4q2 0 -14.5 -22.5t-49 -55.5t-75.5 -66t-107.5 -55.5t-132.5 -22.5q-129 0 -215 68.5t-86 189.5zM152 254q0 -72 48 -118t146 -46q135 0 249 122t150 269l11 45h-60q-544 0 -544 -272zM543 1196l250 244h186l-281 -244h-155z" />
<glyph unicode="&#xe2;" horiz-adv-x="1120" d="M10 233q0 117 66.5 200t179.5 124t222.5 57.5t230.5 16.5h67q16 80 17 117q0 184 -211 184q-166 -2 -310 -96l-43 112q18 12 50 29.5t130.5 47.5t194.5 30q154 0 242 -72t88 -215q0 -66 -51.5 -294t-51.5 -267q0 -57 26 -76.5t71 -19.5l53 4l-23 -115q-41 -4 -77 -4 q-94 0 -145 50q-43 43 -43 123q0 13 1 28h-4q2 0 -14.5 -22.5t-49 -55.5t-75.5 -66t-107.5 -55.5t-132.5 -22.5q-129 0 -215 68.5t-86 189.5zM152 254q0 -72 48 -118t146 -46q135 0 249 122t150 269l11 45h-60q-544 0 -544 -272zM385 1196l221 244h166l123 -244h-135 l-78 166h-4l-143 -166h-150z" />
<glyph unicode="&#xe3;" horiz-adv-x="1120" d="M10 233q0 117 66.5 200t179.5 124t222.5 57.5t230.5 16.5h67q16 80 17 117q0 184 -211 184q-166 -2 -310 -96l-43 112q18 12 50 29.5t130.5 47.5t194.5 30q154 0 242 -72t88 -215q0 -66 -51.5 -294t-51.5 -267q0 -57 26 -76.5t71 -19.5l53 4l-23 -115q-41 -4 -77 -4 q-94 0 -145 50q-43 43 -43 123q0 13 1 28h-4q2 0 -14.5 -22.5t-49 -55.5t-75.5 -66t-107.5 -55.5t-132.5 -22.5q-129 0 -215 68.5t-86 189.5zM152 254q0 -72 48 -118t146 -46q135 0 249 122t150 269l11 45h-60q-544 0 -544 -272zM338 1202q23 115 79 177.5t138 62.5 q47 0 82 -22.5t51.5 -49.5t41 -49.5t50.5 -22.5q74 0 103 138h118q-20 -117 -77.5 -178.5t-139.5 -61.5q-47 0 -81.5 22.5t-51 48t-41 48t-51.5 22.5q-76 0 -102 -135h-119z" />
<glyph unicode="&#xe4;" horiz-adv-x="1120" d="M10 233q0 117 66.5 200t179.5 124t222.5 57.5t230.5 16.5h67q16 80 17 117q0 184 -211 184q-166 -2 -310 -96l-43 112q18 12 50 29.5t130.5 47.5t194.5 30q154 0 242 -72t88 -215q0 -66 -51.5 -294t-51.5 -267q0 -57 26 -76.5t71 -19.5l53 4l-23 -115q-41 -4 -77 -4 q-94 0 -145 50q-43 43 -43 123q0 13 1 28h-4q2 0 -14.5 -22.5t-49 -55.5t-75.5 -66t-107.5 -55.5t-132.5 -22.5q-129 0 -215 68.5t-86 189.5zM152 254q0 -72 48 -118t146 -46q135 0 249 122t150 269l11 45h-60q-544 0 -544 -272zM403 1264l35 176h142l-35 -176h-142z M778 1264l35 176h143l-36 -176h-142z" />
<glyph unicode="&#xe5;" horiz-adv-x="1120" d="M10 233q0 117 66.5 200t179.5 124t222.5 57.5t230.5 16.5h67q16 80 17 117q0 184 -211 184q-166 -2 -310 -96l-43 112q18 12 50 29.5t130.5 47.5t194.5 30q154 0 242 -72t88 -215q0 -66 -51.5 -294t-51.5 -267q0 -57 26 -76.5t71 -19.5l53 4l-23 -115q-41 -4 -77 -4 q-94 0 -145 50q-43 43 -43 123q0 13 1 28h-4q2 0 -14.5 -22.5t-49 -55.5t-75.5 -66t-107.5 -55.5t-132.5 -22.5q-129 0 -215 68.5t-86 189.5zM152 254q0 -72 48 -118t146 -46q135 0 249 122t150 269l11 45h-60q-544 0 -544 -272zM502 1298q0 74 59.5 125.5t130.5 51.5 q66 0 109 -37t43 -99q0 -74 -59.5 -125t-133.5 -51q-63 0 -106 38t-43 97zM598 1300q0 -57 59 -57q39 0 65 27.5t26 68.5q0 57 -62 58q-35 0 -61.5 -28t-26.5 -69z" />
<glyph unicode="&#xe6;" horiz-adv-x="1775" d="M14 240q0 94 44 165.5t108.5 112.5t156 65.5t169 32t165.5 7.5h113q14 78 14 122q0 186 -217 187q-74 0 -149.5 -23.5t-114.5 -48.5l-39 -24l-43 112q18 12 50 29.5t126.5 47.5t184.5 30q276 0 315 -199h4q162 199 412 199q184 0 280.5 -101.5t96.5 -273.5 q0 -33 -7.5 -73t-13.5 -62l-6 -25h-776q-10 -45 -10 -96q0 -150 81.5 -238t233.5 -88q82 0 166 31t127 64l43 30l43 -112q-18 -14 -52 -37t-134.5 -61t-196.5 -38q-164 0 -274.5 76t-147.5 205h-4q-12 -29 -41 -67.5t-81 -91t-136 -87.5t-180 -35q-131 0 -220.5 71 t-89.5 194zM158 252q0 -70 51 -115t145 -45q137 0 246 120t141 265l11 41h-121q-473 0 -473 -266zM915 623h627q6 41 6 73q0 121 -66.5 181.5t-168.5 60.5q-133 0 -239 -81.5t-159 -233.5z" />
<glyph unicode="&#xe7;" horiz-adv-x="1134" d="M72 424q0 260 195.5 445.5t455.5 185.5q57 0 116.5 -12.5t116 -38t86.5 -71.5q23 -35 23 -77q0 -14 -2 -29l-21 -108h-129l15 76q1 8 1 16q0 54 -63 84q-72 35 -161 35q-186 0 -338 -146.5t-152 -351.5q0 -154 94 -243t246 -89q193 0 348 131l15 13l45 -115 q-6 -6 -18.5 -16.5t-53.5 -37t-86 -47t-116 -37t-144 -16.5h-8l-39 -94q55 -8 92 -43t37 -92q0 -86 -73 -131t-163 -45q-29 0 -55.5 3t-38.5 5l-12 4l20 90q33 -10 82 -10q125 0 125 82q0 63 -111 63h-28l76 177q-174 27 -275.5 142.5t-101.5 297.5z" />
<glyph unicode="&#xe8;" horiz-adv-x="1132" d="M72 410q0 258 173 451.5t429 193.5q184 0 277 -102.5t93 -270.5q0 -35 -7 -77t-13 -66l-8 -25h-791q-10 -43 -10 -94q0 -139 86 -229.5t244 -90.5q82 0 167 32t128 63l43 30l43 -114q-18 -14 -53 -37t-136.5 -61t-197.5 -38q-211 0 -339 120t-128 315zM250 616h645 q8 37 8 78q0 119 -64.5 181.5t-170.5 62.5q-133 0 -249 -85t-169 -237zM492 1440h172l153 -244h-141z" />
<glyph unicode="&#xe9;" horiz-adv-x="1132" d="M72 410q0 258 173 451.5t429 193.5q184 0 277 -102.5t93 -270.5q0 -35 -7 -77t-13 -66l-8 -25h-791q-10 -43 -10 -94q0 -139 86 -229.5t244 -90.5q82 0 167 32t128 63l43 30l43 -114q-18 -14 -53 -37t-136.5 -61t-197.5 -38q-211 0 -339 120t-128 315zM250 616h645 q8 37 8 78q0 119 -64.5 181.5t-170.5 62.5q-133 0 -249 -85t-169 -237zM618 1196l250 244h187l-281 -244h-156z" />
<glyph unicode="&#xea;" horiz-adv-x="1132" d="M72 410q0 258 173 451.5t429 193.5q184 0 277 -102.5t93 -270.5q0 -35 -7 -77t-13 -66l-8 -25h-791q-10 -43 -10 -94q0 -139 86 -229.5t244 -90.5q82 0 167 32t128 63l43 30l43 -114q-18 -14 -53 -37t-136.5 -61t-197.5 -38q-211 0 -339 120t-128 315zM250 616h645 q8 37 8 78q0 119 -64.5 181.5t-170.5 62.5q-133 0 -249 -85t-169 -237zM459 1196l221 244h166l123 -244h-135l-78 166h-4l-144 -166h-149z" />
<glyph unicode="&#xeb;" horiz-adv-x="1132" d="M72 410q0 258 173 451.5t429 193.5q184 0 277 -102.5t93 -270.5q0 -35 -7 -77t-13 -66l-8 -25h-791q-10 -43 -10 -94q0 -139 86 -229.5t244 -90.5q82 0 167 32t128 63l43 30l43 -114q-18 -14 -53 -37t-136.5 -61t-197.5 -38q-211 0 -339 120t-128 315zM250 616h645 q8 37 8 78q0 119 -64.5 181.5t-170.5 62.5q-133 0 -249 -85t-169 -237zM479 1264l35 176h141l-34 -176h-142zM854 1264l35 176h143l-37 -176h-141z" />
<glyph unicode="&#xec;" horiz-adv-x="606" d="M106 915l23 115h324l-152 -764q-6 -33 -6 -59q0 -57 26.5 -76.5t71.5 -19.5l51 4l-22 -115q-43 -4 -72 -4q-199 0 -198 180q0 18 8 76l131 663h-185zM184 1440h172l154 -244h-141z" />
<glyph unicode="&#xed;" horiz-adv-x="606" d="M106 915l23 115h324l-152 -764q-6 -33 -6 -59q0 -57 26.5 -76.5t71.5 -19.5l51 4l-22 -115q-43 -4 -72 -4q-199 0 -198 180q0 18 8 76l131 663h-185zM309 1196l250 244h186l-280 -244h-156z" />
<glyph unicode="&#xee;" horiz-adv-x="606" d="M106 915l23 115h324l-152 -764q-6 -33 -6 -59q0 -57 26.5 -76.5t71.5 -19.5l51 4l-22 -115q-43 -4 -72 -4q-199 0 -198 180q0 18 8 76l131 663h-185zM152 1196l221 244h166l123 -244h-136l-77 166h-5l-143 -166h-149z" />
<glyph unicode="&#xef;" horiz-adv-x="606" d="M106 915l23 115h324l-152 -764q-6 -33 -6 -59q0 -57 26.5 -76.5t71.5 -19.5l51 4l-22 -115q-43 -4 -72 -4q-199 0 -198 180q0 18 8 76l131 663h-185zM195 1264l36 176h142l-35 -176h-143zM518 1264l37 176h141l-34 -176h-144z" />
<glyph unicode="&#xf0;" horiz-adv-x="1214" d="M70 383q0 221 159.5 397t419.5 176q182 0 281 -108l8 -10h4q-33 205 -194 338l-390 -162l-10 92l311 131q-125 72 -276 113l59 108q217 -59 363 -162l299 123l12 -92l-233 -96q211 -201 211 -508q0 -115 -36 -239t-105.5 -240.5t-192.5 -192.5t-277 -76q-199 0 -306 117 t-107 291zM213 387q0 -123 69.5 -205t200.5 -82q190 0 319.5 163t129.5 333q0 109 -75 175.5t-206 66.5q-182 0 -310 -133.5t-128 -317.5z" />
<glyph unicode="&#xf1;" horiz-adv-x="1339" d="M117 915l22 115h197q104 0 104 -84q0 -20 -11 -77.5t-23 -86.5h4q43 90 166.5 181.5t291.5 91.5q135 0 208 -68.5t73 -195.5q0 -70 -48 -309.5t-48 -274.5q0 -59 25.5 -77.5t72.5 -18.5l51 4l-22 -115q-41 -4 -76 -4q-197 0 -197 176q0 43 48.5 281.5t48.5 298.5 q0 172 -179 172q-164 0 -300 -133.5t-171 -317.5l-92 -473h-139l170 870q1 7 1 13q0 32 -38 32h-139zM510 1202q23 115 79 177.5t138 62.5q47 0 82 -22.5t51.5 -49.5t41 -49.5t50.5 -22.5q74 0 103 138h119q-20 -117 -78 -178.5t-140 -61.5q-47 0 -81.5 22.5t-51 48t-41 48 t-51.5 22.5q-76 0 -102 -135h-119z" />

<glyph unicode="&#xf2;" horiz-adv-x="1277" d="M70 426q0 260 194.5 444.5t450.5 184.5q203 0 331 -125t128 -320q0 -262 -197 -448.5t-449 -186.5q-203 0 -330.5 126t-127.5 325zM213 430q0 -145 91 -237.5t237 -92.5q186 0 337.5 148.5t151.5 355.5q0 143 -92 234.5t-238 91.5q-190 0 -338.5 -147.5t-148.5 -352.5z M524 1440h172l154 -244h-141z" />
<glyph unicode="&#xf3;" horiz-adv-x="1277" d="M70 426q0 260 194.5 444.5t450.5 184.5q203 0 331 -125t128 -320q0 -262 -197 -448.5t-449 -186.5q-203 0 -330.5 126t-127.5 325zM213 430q0 -145 91 -237.5t237 -92.5q186 0 337.5 148.5t151.5 355.5q0 143 -92 234.5t-238 91.5q-190 0 -338.5 -147.5t-148.5 -352.5z M651 1196l250 244h186l-280 -244h-156z" />
<glyph unicode="&#xf4;" horiz-adv-x="1277" d="M70 426q0 260 194.5 444.5t450.5 184.5q203 0 331 -125t128 -320q0 -262 -197 -448.5t-449 -186.5q-203 0 -330.5 126t-127.5 325zM213 430q0 -145 91 -237.5t237 -92.5q186 0 337.5 148.5t151.5 355.5q0 143 -92 234.5t-238 91.5q-190 0 -338.5 -147.5t-148.5 -352.5z M492 1196l221 244h166l122 -244h-135l-78 166h-4l-143 -166h-149z" />
<glyph unicode="&#xf5;" horiz-adv-x="1277" d="M70 426q0 260 194.5 444.5t450.5 184.5q203 0 331 -125t128 -320q0 -262 -197 -448.5t-449 -186.5q-203 0 -330.5 126t-127.5 325zM213 430q0 -145 91 -237.5t237 -92.5q186 0 337.5 148.5t151.5 355.5q0 143 -92 234.5t-238 91.5q-190 0 -338.5 -147.5t-148.5 -352.5z M446 1202q23 115 79.5 177.5t138.5 62.5q47 0 81.5 -22.5t51 -49.5t41 -49.5t51.5 -22.5q74 0 102 138h119q-20 -117 -77.5 -178.5t-139.5 -61.5q-47 0 -82 22.5t-51.5 48t-41 48t-50.5 22.5q-76 0 -103 -135h-119z" />
<glyph unicode="&#xf6;" horiz-adv-x="1277" d="M70 426q0 260 194.5 444.5t450.5 184.5q203 0 331 -125t128 -320q0 -262 -197 -448.5t-449 -186.5q-203 0 -330.5 126t-127.5 325zM213 430q0 -145 91 -237.5t237 -92.5q186 0 337.5 148.5t151.5 355.5q0 143 -92 234.5t-238 91.5q-190 0 -338.5 -147.5t-148.5 -352.5z M510 1264l35 176h141l-35 -176h-141zM885 1264l35 176h143l-37 -176h-141z" />
<glyph unicode="&#xf7;" d="M115 522v119h1003v-119h-1003zM541 125v151h151v-151h-151zM541 887v151h151v-151h-151z" />
<glyph unicode="&#xf8;" horiz-adv-x="1282" d="M74 426q0 258 192.5 443.5t440.5 185.5q166 0 286 -82l107 114l67 -61l-106 -117q117 -131 117 -299q0 -260 -195 -447.5t-438 -187.5q-154 0 -275 74l-106 -115l-66 62l101 110q-125 130 -125 320zM217 430q0 -127 78 -219l606 659q-90 59 -196 60q-190 0 -339 -147.5 t-149 -352.5zM362 150q84 -49 183 -50q186 0 337.5 148.5t151.5 355.5q0 109 -71 201z" />
<glyph unicode="&#xf9;" horiz-adv-x="1329" d="M92 915l21 115h323l-119 -614q-18 -96 -18 -144q0 -82 41 -125t139 -43q164 0 296 139.5t167 313.5l68 358h-183l23 115h324l-150 -764q-6 -33 -6 -59q0 -57 26.5 -76.5t71.5 -19.5l51 4l-22 -115q-45 -4 -78 -4q-109 0 -154 64q-31 44 -31 111q0 30 7 65h-4 q-57 -98 -173 -179.5t-274 -81.5q-125 0 -203.5 64.5t-78.5 200.5q0 59 16 137l102 538h-182zM504 1440h172l153 -244h-141z" />
<glyph unicode="&#xfa;" horiz-adv-x="1329" d="M92 915l21 115h323l-119 -614q-18 -96 -18 -144q0 -82 41 -125t139 -43q164 0 296 139.5t167 313.5l68 358h-183l23 115h324l-150 -764q-6 -33 -6 -59q0 -57 26.5 -76.5t71.5 -19.5l51 4l-22 -115q-45 -4 -78 -4q-109 0 -154 64q-31 44 -31 111q0 30 7 65h-4 q-57 -98 -173 -179.5t-274 -81.5q-125 0 -203.5 64.5t-78.5 200.5q0 59 16 137l102 538h-182zM631 1196l250 244h186l-281 -244h-155z" />
<glyph unicode="&#xfb;" horiz-adv-x="1329" d="M92 915l21 115h323l-119 -614q-18 -96 -18 -144q0 -82 41 -125t139 -43q164 0 296 139.5t167 313.5l68 358h-183l23 115h324l-150 -764q-6 -33 -6 -59q0 -57 26.5 -76.5t71.5 -19.5l51 4l-22 -115q-45 -4 -78 -4q-109 0 -154 64q-31 44 -31 111q0 30 7 65h-4 q-57 -98 -173 -179.5t-274 -81.5q-125 0 -203.5 64.5t-78.5 200.5q0 59 16 137l102 538h-182zM471 1196l221 244h166l123 -244h-135l-78 166h-4l-143 -166h-150z" />
<glyph unicode="&#xfc;" horiz-adv-x="1329" d="M92 915l21 115h323l-119 -614q-18 -96 -18 -144q0 -82 41 -125t139 -43q164 0 296 139.5t167 313.5l68 358h-183l23 115h324l-150 -764q-6 -33 -6 -59q0 -57 26.5 -76.5t71.5 -19.5l51 4l-22 -115q-45 -4 -78 -4q-109 0 -154 64q-31 44 -31 111q0 30 7 65h-4 q-57 -98 -173 -179.5t-274 -81.5q-125 0 -203.5 64.5t-78.5 200.5q0 59 16 137l102 538h-182zM489 1264l35 176h142l-35 -176h-142zM864 1264l35 176h143l-36 -176h-142z" />
<glyph unicode="&#xfd;" horiz-adv-x="1181" d="M-106 -369l69 105q49 -43 127 -43q129 0 229 164l84 137l-188 921h-135l22 115h426l-22 -115h-150l133 -702l5 -74h4q14 35 37 74l405 702h-149l22 115h432l-22 -115h-136l-653 -1105q-143 -240 -348 -240q-124 0 -192 61zM608 1196l250 244h186l-280 -244h-156z" />
<glyph unicode="&#xfe;" horiz-adv-x="1230" d="M-8 -410l336 1735h-176l22 115h315l-98 -504l-22 -86h4q55 86 152.5 145.5t217.5 59.5q180 0 280.5 -110.5t100.5 -303.5q0 -287 -168 -476.5t-389 -189.5q-115 0 -201.5 53.5t-121.5 153.5h-4q-2 -45 -13 -98l-98 -494h-137zM297 397q0 -129 65.5 -213t192.5 -84 q162 0 293 147.5t131 383.5q0 139 -68.5 218t-189.5 79q-180 0 -302 -165t-122 -366z" />
<glyph unicode="&#xff;" horiz-adv-x="1181" d="M-106 -369l69 105q49 -43 127 -43q129 0 229 164l84 137l-188 921h-135l22 115h426l-22 -115h-150l133 -702l5 -74h4q14 35 37 74l405 702h-149l22 115h432l-22 -115h-136l-653 -1105q-143 -240 -348 -240q-124 0 -192 61zM469 1264l35 176h141l-35 -176h-141zM844 1264 l35 176h143l-37 -176h-141z" />
<glyph unicode="&#x152;" horiz-adv-x="1976" d="M127 588q0 231 119 433t317.5 320.5t423.5 118.5q51 0 144.5 -10t128.5 -10h727l-60 -299h-127l35 176h-557l-102 -531h540l-24 -122h-541l-104 -541h593l35 178h127l-59 -301h-742q-29 0 -115.5 -10t-131.5 -10q-285 0 -456 170t-171 438zM274 582q0 -213 129 -344.5 t353 -131.5q35 0 71.5 4.5t57.5 8.5l18 4l232 1194q-63 16 -142 16q-293 0 -506 -221t-213 -530z" />
<glyph unicode="&#x153;" horiz-adv-x="2076" d="M72 426q0 258 193.5 443.5t443.5 185.5q154 0 263 -76t156 -203h5q80 127 205.5 203t275.5 76q184 0 279.5 -102.5t95.5 -270.5q0 -35 -7.5 -78t-15.5 -67l-6 -25h-791q-10 -43 -10 -94q0 -137 86 -227.5t244 -90.5q82 0 166 32t127 63l43 30l45 -114q-18 -14 -52 -37 t-134.5 -61t-198.5 -38q-162 0 -275.5 75t-156.5 208h-4q-86 -129 -225.5 -206t-286.5 -77q-207 0 -336 126t-129 325zM215 430q0 -145 91 -237.5t237 -92.5q186 0 337.5 148.5t151.5 355.5q0 143 -92 234.5t-238 91.5q-190 0 -338.5 -147.5t-148.5 -352.5zM1196 616h643 q8 37 8 78q0 119 -64.5 181.5t-170.5 62.5q-133 0 -248 -85t-168 -237z" />
<glyph unicode="&#x178;" horiz-adv-x="1318" d="M162 1321l24 119h449l-25 -119h-159l208 -524l19 -56h4q18 29 39 56l418 524h-162l22 119h461l-24 -119h-142l-559 -703l-98 -499h188l-24 -119h-520l24 119h189l98 499l-289 703h-141zM596 1608l35 176h141l-35 -176h-141zM971 1608l35 176h143l-37 -176h-141z" />

<glyph unicode="&#x2c6;" horiz-adv-x="1032" d="M117 1540l221 244h166l123 -244h-135l-78 166h-4l-144 -166h-149z" />
<glyph unicode="&#x2dc;" horiz-adv-x="1032" d="M70 1546q23 115 79 177.5t138 62.5q47 0 81.5 -22.5t51 -49t40.5 -48.5q25 -24 52 -24q74 0 102 138h119q-20 -117 -77.5 -178.5t-139.5 -61.5q-47 0 -82 22.5t-51 48t-41 48t-51 22.5q-76 0 -103 -135h-118z" />
<glyph unicode="&#x2013;" horiz-adv-x="1462" d="M203 522l22 119h1022l-20 -119h-1024z" />
<glyph unicode="&#x2014;" horiz-adv-x="1871" d="M203 522l22 119h1432l-21 -119h-1433z" />
<glyph unicode="&#x2018;" horiz-adv-x="460" d="M199 1042l211 416h116l-170 -416h-157z" />
<glyph unicode="&#x2019;" horiz-adv-x="452" d="M205 1042l170 416h157l-210 -416h-117z" />
<glyph unicode="&#x201a;" horiz-adv-x="499" d="M-66 -250l172 418h156l-209 -418h-119z" />
<glyph unicode="&#x201c;" horiz-adv-x="722" d="M199 1042l211 416h116l-170 -416h-157zM461 1042l211 416h116l-172 -416h-155z" />
<glyph unicode="&#x201d;" horiz-adv-x="712" d="M205 1042l170 416h157l-210 -416h-117zM465 1042l172 416h156l-211 -416h-117z" />
<glyph unicode="&#x201e;" horiz-adv-x="761" d="M-66 -250l172 418h156l-209 -418h-119zM197 -250l170 418h157l-211 -418h-116z" />
<glyph unicode="&#x2022;" horiz-adv-x="831" d="M121 596q0 121 86 207t207 86t206 -86t85 -207t-85 -207t-206 -86t-207 86t-86 207z" />
<glyph unicode="&#x2026;" horiz-adv-x="1464" d="M57 0l33 170h164l-33 -170h-164zM539 0l32 170h166l-35 -170h-163zM1020 0l33 170h166l-35 -170h-164z" />
<glyph unicode="&#x2039;" horiz-adv-x="698" d="M94 582l393 417h160l-409 -428l260 -413h-142z" />
<glyph unicode="&#x203a;" horiz-adv-x="702" d="M45 158l410 428l-260 413h141l262 -424l-393 -417h-160z" />
<glyph unicode="&#x20ac;" horiz-adv-x="1228" d="M88 526l21 103h112q2 92 31 207h-109l19 102h125q104 233 315 379.5t457 146.5l213 -28l-58 -123q-74 20 -159 20q-193 0 -358 -108.5t-253 -286.5h627l-41 -102h-629q-29 -106 -34 -207h587l-39 -103h-544q12 -184 126.5 -302t323.5 -118q45 0 92.5 7.5t71.5 13.5l25 8 l6 -131q-86 -29 -203 -29q-258 0 -421 153t-173 398h-131z" />
<glyph unicode="&#x2122;" horiz-adv-x="2097" d="M217 1333v107h756v-107h-320v-790h-116v790h-320zM1049 543l71 897h105l237 -514l29 -84h4q10 45 29 84l235 514h105l71 -897h-114l-49 608l2 59h-5l-229 -499h-96l-230 499h-4l2 -59l-49 -608h-114z" />
<glyph unicode="&#xe000;" horiz-adv-x="1030" d="M0 1030h1030v-1030h-1030v1030z" />

<glyph unicode="&#xfb01;" horiz-adv-x="1222" d="M117 915l20 115h185l10 45q25 119 77 200t119.5 115.5t118.5 47t103 12.5l75 -6l-26 -119q-18 4 -51 4q-223 0 -277 -252l-10 -47h610l-149 -764q-6 -33 -7 -59q0 -57 26 -76.5t71 -19.5l53 4l-23 -115q-45 -4 -73 -4q-199 0 -199 180q0 29 10 76l129 663h-469l-178 -915 h-139l178 915h-184zM969 1266l35 174h157l-37 -174h-155z" />
<glyph unicode="&#xfb02;" horiz-adv-x="1234" d="M115 915l20 115h184l9 39q80 399 499 399q190 0 328 -47l-221 -1147q-8 -49 -8 -67q0 -41 15 -62.5t33.5 -25.5t49.5 -4l53 4l-24 -119q-37 -6 -72 -6q-201 0 -201 186q0 31 11 78l208 1073q-57 23 -182 23q-59 0 -108.5 -10.5t-99.5 -39t-87 -87t-53 -146.5l-8 -41h262 l-21 -115h-262l-178 -915h-139l176 915h-184z" />
<glyph unicode="&#xfb03;" horiz-adv-x="1859" d="M117 915l20 115h182l11 45q25 119 78 200t119.5 115.5t118.5 47t104 12.5l75 -6l-26 -119q-18 4 -51 4q-223 0 -277 -252l-10 -47h497l11 45q25 119 77 200t119.5 115.5t118.5 47t102 12.5l76 -6l-26 -119q-18 4 -52 4q-221 0 -274 -252l-10 -47h608l-149 -764 q-6 -33 -7 -59q0 -57 27 -76.5t72 -19.5l51 4l-23 -115q-45 -4 -71 -4q-201 0 -201 180q0 29 10 76l129 663h-469l-176 -915h-141l176 915h-496l-178 -915h-139l176 915h-182zM1606 1266l34 174h158l-35 -174h-157z" />
<glyph unicode="&#xfb04;" horiz-adv-x="1873" d="M117 915l20 115h182l11 45q25 119 78 200t119.5 115.5t118.5 47t104 12.5l75 -6l-26 -119q-18 4 -51 4q-223 0 -277 -252l-10 -47h497l9 39q78 399 497 399q190 0 330 -47l-221 -1147q-10 -41 -10 -67q0 -41 15 -62.5t33.5 -25.5t49.5 -4l53 4l-24 -119q-37 -6 -72 -6 q-199 0 -199 186q0 20 8 78l209 1073q-55 23 -182 23q-59 0 -108.5 -10.5t-99.5 -39t-87 -87t-53 -146.5l-6 -41h260l-21 -115h-262l-176 -915h-141l176 915h-496l-178 -915h-139l176 915h-182z" />
</font>
</defs>
</svg>
