<?xml version="1.0" standalone="no"?>
<!DOCTYPE svg PUBLIC "-//W3C//DTD SVG 1.1//EN" "http://www.w3.org/Graphics/SVG/1.1/DTD/svg11.dtd" >
<svg xmlns="http://www.w3.org/2000/svg">
<metadata>
This is a custom SVG webfont generated by Font Squirrel.
Copyright   : Copyright c 2009 by Jos Buivenga All rights reserved
Designer    : Jos Buivenga
Foundry     : Jos Buivenga
Foundry URL : httpwwwexljbriscom
</metadata>
<defs>
<font id="MuseoSlab100Italic" horiz-adv-x="1228" >
<font-face units-per-em="2048" ascent="1536" descent="-512" />
<missing-glyph horiz-adv-x="512" />
<glyph unicode=" "  horiz-adv-x="512" />
<glyph unicode="&#x09;" horiz-adv-x="512" />
<glyph unicode="&#xa0;" horiz-adv-x="512" />
<glyph unicode="!" horiz-adv-x="456" d="M49 0l27 125h121l-27 -125h-121zM135 358l211 1076h88l-211 -1076h-88z" />
<glyph unicode="&#x22;" horiz-adv-x="602" d="M238 1061l75 391h88l-75 -391h-88zM451 1061l75 391h88l-75 -391h-88z" />
<glyph unicode="#" horiz-adv-x="1492" d="M63 408l31 81h309l168 453h-309l31 82h309l152 410h90l-152 -410h387l152 410h90l-152 -410h304l-31 -82h-303l-168 -453h303l-31 -81h-303l-152 -408h-90l152 408h-387l-152 -408h-90l152 408h-310zM494 489h387l168 453h-387z" />
<glyph unicode="$" horiz-adv-x="1067" d="M27 184l65 60q14 -16 40 -42t115 -68t187 -42q158 0 276.5 88t118.5 219q0 88 -63.5 153.5t-154.5 108.5l-181 89q-90 45 -153.5 120.5t-63.5 178.5q0 150 122 255q123 105 327 119l45 226h88l-43 -226q184 -10 299 -120l8 -9l-60 -69q-10 12 -31.5 31.5t-101.5 52 t-174 32.5q-170 0 -277.5 -85t-107.5 -205q0 -84 63.5 -146.5t153.5 -104.5l182 -87q91 -45 154.5 -120t63.5 -177q0 -158 -127 -275.5t-322 -132.5l-43 -221h-88l43 221q-113 8 -203 52t-123 83z" />

<glyph unicode="%" horiz-adv-x="1411" d="M-4 0l1356 1434h116l-1357 -1434h-115zM223 1159q0 113 96.5 206t217.5 93q104 0 167.5 -63.5t63.5 -167.5q0 -119 -95 -211t-216 -92q-106 0 -170 63t-64 172zM311 1153q0 -63 41 -105t109 -42q86 0 152.5 66.5t66.5 156.5q0 63 -41 105t-107 42q-86 0 -153.5 -67.5 t-67.5 -155.5zM686 211q0 113 96.5 206t216.5 93q104 0 168 -63.5t64 -167.5q0 -119 -95.5 -211.5t-215.5 -92.5q-106 0 -170 63.5t-64 172.5zM774 205q0 -63 41 -105.5t109 -42.5q86 0 152.5 66.5t66.5 157.5q0 63 -41 105t-107 42q-86 0 -153.5 -67.5t-67.5 -155.5z" />
<glyph unicode="&#x26;" horiz-adv-x="1308" d="M78 326q0 154 98 281.5t256 168.5v4q-6 2 -16 7.5t-37 24.5t-47.5 45t-36.5 74t-16 105q0 176 133 299t333 123q43 0 86 -6t66 -10l23 -6l-41 -80q-68 18 -138 18q-150 0 -259 -94t-109 -246q0 -219 301 -219h334l41 209h88l-41 -209h198l-16 -82h-199l-45 -229 q-104 -528 -542 -529q-193 0 -303.5 96.5t-110.5 254.5zM170 340q0 -129 84 -205t238 -76q367 0 454 445l45 229h-329q-205 0 -348.5 -107.5t-143.5 -285.5z" />
<glyph unicode="'" horiz-adv-x="389" d="M238 1061l75 391h88l-75 -391h-88z" />
<glyph unicode="(" horiz-adv-x="591" d="M150 344q0 627 411 1141h94q-422 -537 -422 -1143q0 -279 97 -537h-86q-94 256 -94 539z" />
<glyph unicode=")" horiz-adv-x="595" d="M-43 -195q422 537 422 1143q0 279 -96 537h86q94 -256 94 -539q0 -627 -412 -1141h-94z" />
<glyph unicode="*" horiz-adv-x="978" d="M205 1124l43 84l295 -110l55 336h96l-76 -336l343 108l12 -86l-342 -100v-4l145 -262l-76 -52l-139 275h-4l-244 -272l-67 53l254 268v4z" />
<glyph unicode="+" d="M74 539l14 82h485l107 538h88l-106 -538h483l-15 -82h-483l-106 -539h-88l106 539h-485z" />
<glyph unicode="," horiz-adv-x="497" d="M-96 -274l215 399h112l-237 -399h-90z" />
<glyph unicode="-" horiz-adv-x="1079" d="M244 539l14 82h565l-14 -82h-565z" />
<glyph unicode="." horiz-adv-x="483" d="M70 0l24 129h125l-24 -129h-125z" />
<glyph unicode="/" horiz-adv-x="823" d="M-29 -86l830 1602h96l-829 -1602h-97z" />
<glyph unicode="0" horiz-adv-x="1267" d="M141 428q0 119 19.5 250t69 272.5t120 252t184 183t252.5 72.5q385 0 385 -457q0 -152 -33.5 -317.5t-104 -330.5t-203 -271.5t-304.5 -106.5q-385 0 -385 453zM231 424q0 -362 297 -363q119 0 217.5 67t159 168t101.5 231t57 249t16 228q0 369 -295 368 q-139 0 -250.5 -92t-174 -238.5t-95.5 -305t-33 -312.5z" />
<glyph unicode="1" horiz-adv-x="874" d="M-10 0l14 82h326l223 1143l20 86h-4q-31 -33 -73 -70l-220 -184l-53 65l371 312h88l-264 -1352h317l-16 -82h-729z" />
<glyph unicode="2" horiz-adv-x="1167" d="M12 0q4 117 59.5 217t140.5 173t188 139l206 129q102 62 187.5 128t137.5 152t52 184q0 113 -72.5 182.5t-205.5 69.5q-63 0 -128 -21.5t-111 -51t-82 -59.5t-54 -50l-19 -23l-63 52q8 10 22.5 25.5t60.5 56t96 72.5t125 57.5t150 25.5q184 0 278.5 -92t94.5 -242 q0 -145 -90 -264t-223 -204l-268 -164q-135 -80 -244 -184.5t-133 -225.5h743l41 207h86l-57 -289h-918z" />
<glyph unicode="3" horiz-adv-x="1136" d="M16 174l70 59q4 -6 14.5 -18t44 -42t70.5 -53.5t96.5 -42t120.5 -18.5q176 0 312.5 122t136.5 294q0 139 -92.5 210t-235.5 71l-102 -6l-17 65l516 496l54 41v4q-39 -4 -62 -4h-543l-41 -207h-86l58 289h821l-12 -62l-564 -536q61 2 125 -14.5t127.5 -52.5t104.5 -109.5 t41 -174.5q0 -209 -160 -359.5t-379 -150.5q-76 0 -147.5 20.5t-118.5 49.5t-83 58.5t-52 50.5z" />
<glyph unicode="4" horiz-adv-x="1179" d="M27 410l12 61l924 963h88l-185 -942h213l-16 -82h-213l-80 -410h-88l80 410h-735zM174 492h604l142 722l20 80h-4q-27 -35 -57 -65l-705 -733v-4z" />
<glyph unicode="5" horiz-adv-x="1128" d="M31 162l65 55q4 -6 12.5 -17.5t38 -38t63.5 -47t89 -38t117 -17.5q186 0 330.5 132.5t144.5 314.5q0 141 -92 226t-242 85q-74 0 -147.5 -21.5t-110.5 -43.5l-37 -23l-63 23l215 682h665l-57 -289h-86l41 207h-500l-133 -424l-31 -88h4q98 61 252 61q184 0 299 -109.5 t115 -283.5q0 -217 -172 -375t-399 -158q-76 0 -143.5 19.5t-109.5 47.5t-72 54.5t-42 46.5z" />

<glyph unicode="6" horiz-adv-x="1204" d="M131 483q0 102 29.5 227.5t94 257.5t154 241.5t219.5 179t277 69.5q72 0 136.5 -14t93.5 -29l28 -14l-53 -76q-82 49 -205 49q-121 0 -230.5 -58.5t-190.5 -154.5t-138 -210.5t-90 -237.5h4q76 90 189.5 143t232.5 53q174 0 278.5 -98t104.5 -266q0 -139 -62.5 -268.5 t-184.5 -215.5t-275 -86q-199 0 -305.5 140.5t-106.5 367.5zM223 453q0 -154 85 -274t233 -120q182 0 307 140.5t125 345.5q0 131 -79 205.5t-216 74.5q-92 0 -195.5 -45t-181.5 -134t-78 -193z" />
<glyph unicode="7" horiz-adv-x="1075" d="M127 0l887 1294l47 58v4q-31 -4 -68 -4h-674l-40 -207h-86l57 289h940l-12 -62l-949 -1372h-102z" />
<glyph unicode="8" horiz-adv-x="1220" d="M92 344q0 80 34 158t77 128t99 97t83 63.5t47 26.5q-143 98 -143 244q0 156 134 276.5t345 120.5q184 0 281.5 -81t97.5 -224q0 -82 -38 -168t-93 -150.5t-89 -98.5t-57 -50q168 -106 168 -260q0 -193 -159.5 -322t-370.5 -129q-178 0 -297 96.5t-119 272.5zM186 344 q0 -131 93.5 -208t228.5 -77q168 0 302 103.5t134 261.5q0 51 -24.5 94t-74.5 78t-96.5 58.5l-121 58.5t-115.5 57q-37 -20 -78 -48t-104.5 -82t-103.5 -132t-40 -164zM383 1063q0 -51 21.5 -92t71.5 -76t89 -56.5t116 -57.5l110 -52q29 21 60.5 50.5t83.5 88t85 134 t33 151.5q0 100 -78 160.5t-207 60.5q-166 0 -275.5 -92t-109.5 -219z" />
<glyph unicode="9" horiz-adv-x="1200" d="M90 33l47 76q82 -49 205 -50q121 0 230.5 58.5t190.5 155t138 211t90 237.5h-4q-76 -90 -189.5 -143.5t-234.5 -53.5q-174 0 -277.5 97.5t-103.5 267.5q0 139 62.5 268t184.5 215t276 86q199 0 305 -140t106 -368q0 -102 -29.5 -227t-94 -257t-153.5 -241.5 t-219.5 -179.5t-277.5 -70q-72 0 -134.5 14.5t-88.5 28.5zM274 889q0 -129 78 -205t211 -76q92 0 196.5 45t184.5 134.5t80 193.5q0 154 -83 273.5t-230 119.5q-182 0 -309.5 -141t-127.5 -344z" />
<glyph unicode=":" horiz-adv-x="626" d="M135 0l25 129h125l-25 -129h-125zM309 895l25 129h125l-25 -129h-125z" />
<glyph unicode=";" horiz-adv-x="638" d="M-33 -274l203 399h125l-238 -399h-90zM319 895l25 129h125l-25 -129h-125z" />
<glyph unicode="&#x3c;" d="M121 543v73l899 404v-98l-772 -340v-4l772 -340v-99z" />
<glyph unicode="=" d="M137 375v82h934v-82h-934zM137 702v82h934v-82h-934z" />
<glyph unicode="&#x3e;" d="M199 139v99l772 340v4l-772 340v98l899 -404v-73z" />
<glyph unicode="?" horiz-adv-x="921" d="M203 0l26 125h121l-26 -125h-121zM240 1362l44.5 26.5t111.5 43t161 26.5q158 0 249 -82t91 -215q0 -100 -46 -183t-114.5 -141.5t-139.5 -112.5t-129 -125t-75 -150l-18 -91h-88l18 91q20 96 78.5 177t128.5 136l136 110q67 55 111 127t44 158q0 94 -67.5 154.5 t-182.5 60.5q-68 0 -137.5 -21.5t-104.5 -43.5l-37 -21z" />
<glyph unicode="@" horiz-adv-x="1550" d="M80 365q0 229 124 434t329.5 325.5t433.5 120.5q195 0 293 -86t98 -219q0 -37 -6 -68l-135 -694h143l-17 -82h-526q-152 0 -247 94.5t-95 237.5q0 184 146.5 325.5t343.5 141.5h299q4 29 4 51q0 90 -77 153.5t-235 63.5q-154 0 -298 -65.5t-250.5 -175t-171 -256 t-64.5 -301.5q0 -236 142.5 -383.5t373.5 -147.5l-16 -84q-256 0 -424 173.5t-168 441.5zM567 434q0 -113 72 -184.5t188 -71.5h297l123 635h-293q-150 0 -268.5 -116t-118.5 -263z" />
<glyph unicode="A" horiz-adv-x="1452" d="M-96 0l16 82h152l770 1352h94l242 -1352h153l-16 -82h-418l16 82h174l-73 414h-608l-236 -414h174l-16 -82h-424zM453 578h546l-118 669l-9 78h-4q-14 -41 -34 -78z" />
<glyph unicode="B" horiz-adv-x="1359" d="M-4 0l16 82h193l248 1270h-195l16 82h629q137 0 227 -52q55 -33 88 -101.5t33 -154.5q0 -131 -70.5 -227t-185.5 -141v-4q80 -29 129.5 -102.5t49.5 -186.5q0 -133 -67 -242.5t-173 -167.5q-102 -55 -250 -55h-688zM293 82h379q135 0 229 55q78 47 129 135t51 189 q0 121 -70.5 186.5t-191.5 65.5h-403zM432 795h389q139 0 238.5 92t99.5 241q0 127 -88 183q-66 41 -168 41h-362z" />
<glyph unicode="C" horiz-adv-x="1525" d="M137 594q0 176 73 338t192.5 275.5t277.5 182t321 68.5q72 0 150 -12t165 -40t135 -88.5t32 -141.5l-27 -138h-90l23 123q10 57 -26 101.5t-100.5 67t-132 33.5t-131.5 11q-199 0 -376 -102.5t-285.5 -281.5t-108.5 -388q0 -242 143.5 -392.5t377.5 -150.5 q94 0 196.5 21.5t191.5 74t103 124.5l23 112h90l-27 -133q-29 -137 -208 -210t-367 -73q-281 0 -448 172.5t-167 446.5z" />
<glyph unicode="D" horiz-adv-x="1587" d="M-4 0l16 82h193l248 1270h-195l16 82h586q188 0 322 -50q311 -123 311 -512q0 -248 -125 -463.5t-332 -320.5q-176 -88 -415 -88h-625zM291 82h311q225 0 383 78q186 94 301 286.5t115 417.5q0 332 -254 439q-119 49 -297 49h-309z" />
<glyph unicode="E" horiz-adv-x="1263" d="M-4 0l16 82h193l248 1270h-195l16 82h990l-54 -267h-86l37 185h-620l-115 -588h571l-16 -82h-571l-117 -600h661l39 197h86l-55 -279h-1028z" />
<glyph unicode="F" horiz-adv-x="1146" d="M-4 0l16 82h193l248 1270h-195l16 82h938l-55 -277h-86l39 195h-569l-117 -598h549l-17 -82h-548l-115 -590h205l-17 -82h-485z" />

<glyph unicode="G" horiz-adv-x="1579" d="M137 590q0 354 255 611t614 257q127 0 246.5 -31.5t197.5 -98t61 -152.5l-26 -138h-90l20 109q20 109 -113 168t-294 59q-317 0 -548 -231.5t-231 -544.5q0 -240 151.5 -389.5t393.5 -149.5q70 0 146.5 12.5t156.5 38t137.5 73.5t69.5 112l51 256h-317l16 82h406 l-70 -354q-16 -80 -80.5 -142.5t-155 -95.5t-181.5 -49.5t-179 -16.5q-293 0 -465 169.5t-172 445.5z" />
<glyph unicode="H" horiz-adv-x="1699" d="M-4 0l16 82h193l248 1270h-195l16 82h478l-17 -82h-194l-115 -592h909l115 592h-195l17 82h477l-16 -82h-195l-248 -1270h195l-17 -82h-477l17 82h194l117 596h-909l-117 -596h194l-16 -82h-475z" />
<glyph unicode="I" horiz-adv-x="702" d="M-4 0l16 82h193l248 1270h-195l16 82h478l-17 -82h-194l-248 -1270h194l-16 -82h-475z" />
<glyph unicode="J" horiz-adv-x="1091" d="M12 285l23 151h88q-20 -76 -21 -137q0 -240 238 -240q121 0 224.5 80t135.5 252l185 961h-228l17 82h489l-16 -82h-174l-189 -973q-41 -211 -165.5 -307.5t-278.5 -96.5q-141 0 -234.5 76t-93.5 234z" />
<glyph unicode="K" horiz-adv-x="1325" d="M-4 0l16 82h193l248 1270h-195l16 82h478l-17 -82h-194l-109 -557h221l496 557h-139l16 82h408l-17 -82h-151l-535 -594v-4q20 -12 45 -72l211 -512q18 -45 44 -68.5t81 -23.5l57 4l-16 -82q-31 -4 -59 -4q-86 0 -126 41t-79 133l-193 475q-14 35 -37.5 51.5t-68.5 16.5 h-174l-123 -631h194l-16 -82h-475z" />
<glyph unicode="L" horiz-adv-x="1181" d="M-4 0l16 82h193l248 1270h-195l16 82h478l-17 -82h-194l-248 -1270h639l49 246h86l-66 -328h-1005z" />
<glyph unicode="M" horiz-adv-x="1904" d="M-39 0l16 82h193l348 1270h-196l16 82h285l266 -996l14 -67h4q16 31 39 67l656 996h292l-16 -82h-197l-147 -1270h195l-17 -82h-477l16 82h195l129 1110l18 86h-4q-25 -53 -43 -80l-610 -922h-90l-254 922l-10 80h-4q-6 -55 -15 -86l-305 -1110h195l-17 -82h-475z" />
<glyph unicode="N" horiz-adv-x="1687" d="M-4 0l16 82h193l248 1270h-195l16 82h273l651 -1231l27 -70h4q2 49 10 80l223 1139h-194l16 82h477l-16 -82h-195l-264 -1352h-80l-653 1233q-14 27 -25 70h-4q-2 -49 -10 -80l-221 -1141h194l-16 -82h-475z" />
<glyph unicode="O" horiz-adv-x="1697" d="M135 590q0 229 126 431t328 319.5t423 117.5q266 0 433 -168t167 -430q0 -233 -126 -439t-329 -326t-422 -120q-266 0 -433 172.5t-167 442.5zM227 590q0 -233 144.5 -382t373.5 -149q190 0 369.5 107.5t292.5 294t113 397.5q0 227 -144.5 371.5t-374.5 144.5 q-195 0 -372.5 -104.5t-289.5 -287.5t-112 -392z" />
<glyph unicode="P" horiz-adv-x="1302" d="M-4 0l16 82h193l248 1270h-195l16 82h639q129 0 201 -29q190 -74 191 -311q0 -150 -79 -276t-210 -183q-92 -41 -230 -41h-393l-100 -512h194l-16 -82h-475zM410 676h368q111 0 199 35q104 45 169.5 147.5t65.5 226.5q0 178 -129 236q-72 31 -186 31h-356z" />
<glyph unicode="Q" horiz-adv-x="1697" d="M135 590q0 229 125 431t325.5 319.5t415.5 117.5q270 0 440.5 -168t170.5 -430q0 -184 -81 -354t-218 -297l141 -186l-61 -54l-144 189q-233 -182 -503.5 -182.5t-440.5 172t-170 442.5zM227 590q0 -233 144.5 -382t373.5 -149q244 0 455 166l-180 238l61 53l181 -240 q119 115 188.5 266.5t69.5 315.5q0 227 -144.5 371.5t-374.5 144.5q-195 0 -372.5 -104.5t-289.5 -287.5t-112 -392z" />
<glyph unicode="R" horiz-adv-x="1386" d="M-4 0l16 82h193l248 1270h-195l16 82h594q180 0 273 -54q137 -82 137 -270q0 -184 -123 -315t-305 -152v-4q20 -33 29 -51l165 -418q18 -47 44 -69.5t81 -22.5l58 4l-17 -82q-31 -4 -61 -4q-86 0 -125 41t-76 133l-147 371q-23 59 -55.5 76.5t-96.5 17.5h-248l-108 -553 h194l-16 -82h-475zM418 717h379q156 0 272.5 110.5t116.5 274.5q0 147 -103 207q-76 43 -231 43h-311z" />
<glyph unicode="S" horiz-adv-x="1148" d="M78 254l24 129h91l-25 -123q-18 -100 77 -150.5t236 -50.5q168 0 287 94.5t119 249.5q0 78 -36 135.5t-92.5 90t-124.5 59.5l-138 55q-70 29 -126.5 65t-92 99.5t-35.5 149.5q0 180 148.5 290.5t354.5 110.5q141 0 258 -60.5t97 -158.5l-27 -129h-90l21 107 q14 80 -74 118.5t-199 38.5q-162 0 -277.5 -88t-115.5 -225q0 -96 66.5 -156.5t160.5 -95.5l189.5 -74t162 -118.5t66.5 -202.5q0 -190 -150.5 -314.5t-363.5 -124.5q-70 0 -139.5 14.5t-134 44t-98 87t-19.5 133.5z" />
<glyph unicode="T" horiz-adv-x="1316" d="M164 1110l63 324h1178l-64 -324h-86l48 242h-459l-248 -1270h195l-17 -82h-477l16 82h195l248 1270h-459l-47 -242h-86z" />
<glyph unicode="U" horiz-adv-x="1613" d="M221 1352l17 82h477l-17 -82h-194l-158 -811q-18 -86 -18 -158q0 -150 99 -237t273 -87q197 0 330 101q158 117 201 342l168 850h-195l17 82h477l-17 -82h-194l-172 -871q-53 -270 -246 -399q-160 -106 -373 -107q-209 0 -333.5 110t-124.5 288q0 47 20 170l158 809h-195 z" />
<glyph unicode="V" horiz-adv-x="1423" d="M168 1352l16 82h416l-16 -82h-170l188 -1174l6 -78h6q16 41 35 78l647 1174h-170l17 82h422l-17 -82h-153l-750 -1352h-102l-221 1352h-154z" />
<glyph unicode="W" horiz-adv-x="2023" d="M180 1352l17 82h413l-16 -82h-172l63 -1162l-2 -77h6q16 41 35 77l598 1244h97l114 -1244l2 -77h6q14 41 31 77l514 1162h-172l17 82h421l-16 -82h-151l-611 -1352h-110l-113 1227v78h-6q-12 -41 -29 -78l-592 -1227h-110l-82 1352h-152z" />

<glyph unicode="X" horiz-adv-x="1280" d="M-68 0l17 82h149l508 643l-256 627h-141l16 82h410l-17 -82h-174l213 -523l19 -51h4q12 25 35 51l407 523h-166l17 82h422l-17 -82h-149l-516 -654l254 -616h149l-16 -82h-410l17 82h165l-210 512l-19 51h-4q-14 -25 -35 -51l-399 -512h166l-17 -82h-422z" />
<glyph unicode="Y" horiz-adv-x="1302" d="M168 1352l16 82h414l-16 -82h-170l237 -588l17 -51h4q20 29 39 51l469 588h-170l16 82h420l-17 -82h-145l-582 -729l-106 -541h194l-16 -82h-477l16 82h195l106 541l-299 729h-145z" />
<glyph unicode="Z" horiz-adv-x="1259" d="M8 0l15 70l1056 1214l70 68v4q-37 -4 -78 -4h-704l-48 -242h-86l64 324h983l-14 -70l-1059 -1214l-70 -68v-4q37 4 78 4h733l49 246h86l-65 -328h-1010z" />
<glyph unicode="[" horiz-adv-x="575" d="M68 -195l325 1680h221l-16 -82h-133l-293 -1516h133l-16 -82h-221z" />
<glyph unicode="\" horiz-adv-x="808" d="M281 1516h86l204 -1602h-86z" />
<glyph unicode="]" horiz-adv-x="573" d="M-23 -195l17 82h133l293 1516h-133l16 82h221l-325 -1680h-222z" />
<glyph unicode="^" d="M39 516l403 918h66l403 -918h-94l-342 795l-342 -795h-94z" />
<glyph unicode="_" horiz-adv-x="1099" d="M-90 -82l14 82h1016l-14 -82h-1016z" />
<glyph unicode="`" horiz-adv-x="1042" d="M266 1763h127l148 -227h-107z" />
<glyph unicode="a" horiz-adv-x="1095" d="M16 227q0 96 47.5 170t118 116t169 68.5t185.5 35t183 8.5h80q18 90 18 131q0 209 -229 209q-80 0 -157 -25t-116 -49l-36 -25l-37 78q16 12 45.5 29.5t123 46.5t187.5 29q309 0 309 -277q0 -66 -55 -311.5t-55 -284.5q0 -63 27.5 -81.5t74.5 -18.5l55 4l-16 -80 q-44 -4 -64 -4q-92 0 -135 56q-31 41 -31 105q0 24 5 52h-4q2 0 -14.5 -23.5t-49.5 -58.5t-78 -69.5t-111.5 -58.5t-136.5 -24q-131 0 -217 67.5t-86 184.5zM107 240q0 -78 56 -131.5t167 -53.5q154 0 277.5 136.5t164.5 302.5l12 51h-65q-612 0 -612 -305z" />
<glyph unicode="b" horiz-adv-x="1204" d="M80 0l262 1354h-195l17 80h280l-100 -523l-29 -94h4q57 102 165 167t231 65q178 0 275 -107.5t97 -296.5q0 -289 -166.5 -479.5t-390.5 -190.5q-123 0 -211 60.5t-118 171.5h-4q0 -47 -11 -101l-20 -106h-86zM250 377q0 -139 70.5 -228.5t209.5 -89.5q178 0 322.5 162 t144.5 420q0 152 -75.5 238t-206.5 86q-139 0 -248 -90.5t-163 -223.5t-54 -274z" />
<glyph unicode="c" horiz-adv-x="1116" d="M80 418q0 264 195.5 447.5t445.5 183.5q123 0 230.5 -54.5t88.5 -156.5l-18 -101h-86l14 80q12 74 -68.5 111t-176.5 37q-199 0 -367 -158t-168 -385q0 -170 102.5 -266.5t264.5 -96.5q98 0 190 37t135 74l43 37l33 -78q-16 -16 -49 -42t-138.5 -69t-218.5 -43 q-201 0 -326.5 119t-125.5 324z" />
<glyph unicode="d" horiz-adv-x="1249" d="M82 379q0 289 167 479.5t390 190.5q121 0 210 -60.5t120 -171.5h4q2 47 10 94l86 443h-195l17 80h280l-233 -1198q-6 -37 -6 -60q0 -63 27.5 -81.5t74.5 -18.5l56 4l-17 -80q-43 -4 -63 -4q-92 0 -137 57q-29 38 -29 92q0 28 8 60h-4q-55 -96 -159.5 -163t-231.5 -67 q-180 0 -277.5 108t-97.5 296zM172 383q0 -152 76 -238t209 -86q137 0 246.5 92.5t163 225.5t53.5 270q0 139 -71 228.5t-210 89.5q-178 0 -322.5 -162t-144.5 -420z" />
<glyph unicode="e" horiz-adv-x="1126" d="M80 403q0 254 173 450t429 196q174 0 262 -99.5t88 -263.5q0 -33 -6 -73t-14 -64l-6 -23h-822q-12 -51 -12 -112q0 -156 94 -255.5t266 -99.5q176 0 332 121l10 8l33 -77q-18 -14 -52 -37t-133 -61t-194 -38q-199 0 -323.5 115.5t-124.5 312.5zM205 606h727q8 39 8 86 q0 137 -72.5 207t-191.5 70q-150 0 -280 -95.5t-191 -267.5z" />
<glyph unicode="f" horiz-adv-x="632" d="M113 944l14 80h192l11 45q25 117 75 198t112.5 114.5t109.5 46t92 12.5l63 -4l-18 -80q-16 4 -45 4q-238 0 -301 -289l-10 -47h272l-14 -80h-273l-182 -944h-88l182 944h-192z" />
<glyph unicode="g" horiz-adv-x="1224" d="M20 -350l50 71q119 -68 266 -67q180 0 307 96t162 313q8 43 17 80t14 52l6 14h-4q-131 -209 -365 -209q-178 0 -282.5 108.5t-104.5 292.5q0 150 59.5 295.5t186.5 249t291 103.5q125 0 218 -47.5t120 -153.5h4q-4 14 2 51q12 68 44.5 96.5t98.5 28.5h152l-15 -80h-139 q-47 0 -55 -45l-174 -903q-43 -219 -190.5 -322.5t-342.5 -103.5q-179 0 -326 80zM176 403q0 -150 80 -234.5t219 -84.5q109 0 195 57.5t138 148.5t78.5 194.5t26.5 205.5q0 274 -286 275q-205 0 -328 -172.5t-123 -389.5z" />
<glyph unicode="h" horiz-adv-x="1255" d="M80 0l262 1354h-184l16 80h270l-110 -580l-27 -94h4q51 100 180.5 194.5t290.5 94.5q137 0 209 -67t72 -191q0 -68 -51 -324t-51 -291q0 -45 17 -68.5t35.5 -27.5t49.5 -4l55 4l-16 -80q-43 -4 -64 -4q-61 0 -114.5 35t-53.5 125q0 37 51.5 293t51.5 323 q0 96 -52.5 144.5t-140.5 48.5q-186 0 -334.5 -142.5t-187.5 -343.5l-92 -479h-86z" />

<glyph unicode="i" horiz-adv-x="557" d="M100 944l17 80h280l-155 -788q-6 -37 -6 -60q0 -63 27.5 -81.5t74.5 -18.5l55 4l-16 -80q-43 -4 -64 -4q-37 0 -70.5 9t-65.5 49t-32 108q0 16 9 61l141 721h-195zM348 1284l31 150h110l-30 -150h-111z" />
<glyph unicode="j" horiz-adv-x="522" d="M-248 -416l17 80q16 -4 45 -4q37 0 74.5 10.5t84.5 38t85 92t57 156.5l190 987h-194l16 80h281l-207 -1065q-23 -119 -71 -201t-107.5 -117.5t-105.5 -48t-93 -12.5zM358 1284l29 150h111l-29 -150h-111z" />
<glyph unicode="k" horiz-adv-x="1048" d="M78 0l266 1354h-194l16 80h280l-159 -813h151l353 323h-150l16 80h404l-17 -80h-135l-393 -362v-4q25 -16 49 -70l154 -340q14 -31 24.5 -47.5t36 -30.5t64.5 -14l57 4l-16 -80q-31 -4 -60 -4q-80 0 -119.5 41t-82.5 133l-150 326q-12 29 -32.5 37t-63.5 8h-105 l-108 -541h-86z" />
<glyph unicode="l" horiz-adv-x="524" d="M117 162q0 18 8 63l219 1129h-194l16 80h280l-231 -1196q-8 -45 -8 -64q0 -43 17.5 -66.5t36 -27.5t48.5 -4l56 4l-17 -80q-35 -4 -63 -4q-37 0 -71 9t-65.5 49t-31.5 108z" />
<glyph unicode="m" horiz-adv-x="1988" d="M111 944l16 80h162q55 0 77.5 -19.5t22.5 -62.5q0 -20 -13.5 -84.5t-27.5 -97.5h4q66 123 192 206t259 83q145 0 206.5 -71t61.5 -208h4q63 121 185 200t256 79q139 0 210.5 -69t71.5 -192q0 -66 -51 -320.5t-51 -291.5q0 -45 17.5 -68.5t35.5 -27.5t49 -4l55 4l-16 -80 q-43 -4 -63 -4q-61 0 -114.5 35t-53.5 125q0 37 51 293t51 319q0 201 -205 201q-170 0 -305 -146.5t-168 -322.5l-96 -500h-86l119 618q18 96 18 156q0 195 -197 195q-170 0 -309 -144.5t-174 -326.5l-96 -498h-86l174 899q1 7 1 13q0 32 -38 32h-149z" />
<glyph unicode="n" horiz-adv-x="1298" d="M111 944l16 80h162q55 0 77.5 -19.5t22.5 -62.5q0 -20 -13.5 -84.5t-27.5 -97.5h4q51 102 180.5 195.5t298.5 93.5q133 0 204 -67t71 -189q0 -68 -51 -325t-51 -292q0 -45 17 -68.5t35.5 -27.5t49.5 -4l55 4l-16 -80q-43 -4 -64 -4q-61 0 -114.5 35t-53.5 125 q0 37 51.5 293t51.5 323q0 193 -197 193q-178 0 -329.5 -143.5t-188.5 -342.5l-92 -479h-86l174 899q1 7 1 13q0 32 -38 32h-149z" />
<glyph unicode="o" horiz-adv-x="1273" d="M80 420q0 258 192.5 443.5t444.5 185.5q197 0 319.5 -123t122.5 -316q0 -260 -193.5 -447.5t-443.5 -187.5q-197 0 -319.5 125t-122.5 320zM170 422q0 -160 101.5 -261.5t260.5 -101.5q205 0 371 163t166 386q0 156 -101.5 256.5t-260.5 100.5q-209 0 -373 -161 t-164 -382z" />
<glyph unicode="p" horiz-adv-x="1249" d="M41 -410l256 1309q1 7 1 13q0 32 -38 32h-149l16 80h162q100 0 100 -82q0 -37 -29 -123h5q57 98 158.5 164t234.5 66q178 0 276.5 -107.5t98.5 -296.5q0 -287 -167 -478.5t-386 -191.5q-125 0 -214.5 59.5t-119.5 172.5h-4q-2 -47 -13 -101l-102 -516h-86zM295 383 q0 -141 71.5 -232.5t208.5 -91.5q178 0 322.5 162t144.5 420q0 152 -75.5 238t-208.5 86q-137 0 -246 -91.5t-163 -222.5t-54 -268z" />
<glyph unicode="q" horiz-adv-x="1204" d="M82 377q0 289 168 480.5t391 191.5q123 0 210 -59.5t118 -170.5h4q2 35 10 82l23 123h86l-265 -1356h195l-16 -78h-281l102 516q10 53 29 101h-4q-59 -100 -159.5 -166t-235.5 -66q-178 0 -276.5 108t-98.5 294zM172 383q0 -150 76 -237t209 -87q137 0 246.5 92.5 t164 225.5t54.5 270q0 139 -71 228.5t-210 89.5q-178 0 -323.5 -162t-145.5 -420z" />
<glyph unicode="r" horiz-adv-x="729" d="M111 944l16 80h162q55 0 77.5 -19.5t22.5 -62.5q0 -20 -16.5 -91t-28.5 -106h4q59 123 158.5 205t222.5 82q29 0 62 -6l-19 -86q-33 4 -45 4q-88 0 -168 -56.5t-133 -143.5t-89 -177t-52 -176l-76 -391h-86l174 899q1 7 1 13q0 32 -38 32h-149z" />
<glyph unicode="s" horiz-adv-x="946" d="M27 207l18 98h86l-16 -88q-10 -49 16.5 -83t74.5 -48t91 -20.5t86 -6.5q121 0 213 57.5t92 153.5q0 68 -53 115t-128 77l-150 61q-75 32 -128 90.5t-53 140.5q0 133 117 214t274 81q131 0 217 -54.5t68 -144.5l-23 -109h-86l21 99q10 47 -28 76.5t-86 39t-103 9.5 q-106 0 -193.5 -53.5t-87.5 -147.5q0 -66 53.5 -112t128 -74.5t149.5 -60.5t128 -89t53 -139q0 -135 -112.5 -224.5t-298.5 -89.5q-150 0 -255 60.5t-85 171.5z" />
<glyph unicode="t" horiz-adv-x="636" d="M94 944l17 80h194l55 285h86l-55 -285h268l-16 -80h-268l-109 -567q-10 -49 -10 -101q0 -205 182 -204l60 4l-17 -80q-16 -4 -43 -4q-268 0 -268 280q0 51 12 119l107 553h-195z" />
<glyph unicode="u" horiz-adv-x="1300" d="M96 944l15 80h280l-119 -614q-20 -98 -20 -164q0 -90 45 -138.5t156 -48.5q180 0 326.5 149.5t181.5 340.5l75 395h-192l14 80h281l-154 -788q-6 -37 -6 -60q0 -63 27.5 -81.5t74.5 -18.5l56 4l-17 -80q-43 -4 -63 -4q-111 0 -148 73q-20 38 -19 86q0 43 15 93h-4 q-55 -98 -175 -185.5t-288 -87.5q-121 0 -197.5 62.5t-76.5 195.5q0 59 16 142l109 569h-193z" />
<glyph unicode="v" horiz-adv-x="1126" d="M86 944l14 80h389l-14 -80h-162l144 -766l6 -65h4q12 35 31 65l442 766h-162l15 80h397l-14 -80h-140l-549 -944h-81l-181 944h-139z" />
<glyph unicode="w" horiz-adv-x="1732" d="M88 944l14 80h390l-15 -80h-166l99 -772l2 -66h4q12 35 28 66l453 848h94l121 -848l4 -66h4q10 35 27 66l401 772h-166l15 80h397l-14 -80h-135l-500 -944h-86l-125 842l-6 67h-4q-14 -37 -31 -67l-453 -842h-86l-131 944h-135z" />
<glyph unicode="x" horiz-adv-x="1083" d="M-63 0l14 80h162l364 459l-147 366q-10 25 -19.5 32t-31.5 7h-148l14 80h168q37 0 53.5 -15.5t32.5 -56.5l121 -299l19 -51h4q12 25 37 53l290 369h232l-15 -80h-178l-336 -416l148 -360q20 -47 48 -69.5t89 -22.5l72 4l-17 -80q-37 -4 -71 -4q-94 0 -136 42t-77 132 l-97 246l-18 51h-4q-14 -23 -37 -53l-323 -414h-213z" />
<glyph unicode="y" horiz-adv-x="1150" d="M-94 -375l49 70q49 -43 119 -43q125 0 239 184l103 168l-191 940h-139l16 80h392l-17 -80h-162l154 -780l4 -58h4q12 27 31 58l457 780h-162l16 80h400l-17 -80h-141l-688 -1159q-127 -215 -303 -215q-107 0 -164 55z" />

<glyph unicode="z" horiz-adv-x="1038" d="M-20 0l12 70l766 780q90 94 96 94v4q-35 -4 -102 -4h-467l-37 -194h-84l53 274h776l-14 -70l-768 -780l-46 -45q-24 -23 -38 -35l-14 -14v-4q37 4 104 4h524l39 194h84l-53 -274h-831z" />
<glyph unicode="{" horiz-adv-x="624" d="M82 616l16 82q8 0 20.5 3.5t45.5 19.5t60.5 39.5t55 72t39.5 109.5l33 166q20 102 58.5 177t76 112t88 57.5t80 24.5t66.5 4l-14 -80q-29 0 -57.5 -7t-73 -33t-81 -90.5t-55.5 -162.5l-37 -190q-12 -61 -38.5 -110.5t-55 -76t-56.5 -45t-44 -24.5l-19 -5v-4q4 -2 12.5 -7 t29 -22.5t36 -39t27.5 -57t12 -76.5q0 -27 -6 -58l-43 -217q-12 -61 -12 -106q0 -186 166 -187l-17 -80q-6 -2 -18 -2q-27 0 -56.5 8.5t-70.5 32t-66.5 78.5t-25.5 135q0 45 14 123l37 193q6 37 6 65q0 70 -34 115t-66 53z" />
<glyph unicode="|" horiz-adv-x="624" d="M276 -317v1925h89v-1925h-89z" />
<glyph unicode="}" horiz-adv-x="626" d="M-78 -197l15 82q31 0 58.5 7.5t72.5 33t80.5 90t54.5 162.5l41 215q12 63 38.5 114.5t55.5 79t56.5 45t43.5 23.5l19 4v5q-12 6 -31.5 19t-51.5 64.5t-32 112.5q0 27 6 57l37 193q12 61 12 107q0 186 -166 186l17 80q29 2 63.5 -4t76.5 -29t69.5 -79t27.5 -140 q0 -43 -14 -123l-33 -168q-6 -37 -6 -66q0 -70 34 -114.5t66 -54.5l33 -9l-16 -82q-8 0 -20.5 -3t-45 -19.5t-60.5 -40t-55.5 -71.5t-39.5 -109l-37 -191q-20 -102 -58 -177t-76 -112.5t-87.5 -59t-81 -26t-66.5 -2.5z" />
<glyph unicode="~" horiz-adv-x="1202" d="M152 436q0 152 64.5 223.5t170.5 71.5q63 0 113.5 -23.5t82.5 -56.5l61 -65q30 -33 72 -56.5t93 -23.5q63 0 100 43t45.5 85t8.5 89h81q0 -152 -64.5 -223.5t-170.5 -71.5q-63 0 -113.5 23.5t-82.5 56.5l-61 65q-30 33 -72 56.5t-93 23.5q-63 0 -100 -43t-45.5 -85 t-8.5 -89h-81z" />
<glyph unicode="&#xa1;" horiz-adv-x="436" d="M-23 -410l211 1076h88l-210 -1076h-89zM215 899l27 125h120l-26 -125h-121z" />
<glyph unicode="&#xa2;" horiz-adv-x="1116" d="M115 569q0 162 61.5 318.5t192.5 273.5t303 125l33 172h88l-35 -174q78 -8 138 -42t93 -74t55.5 -78.5t28.5 -65.5l6 -27l-82 -32q-2 10 -6 25.5t-25.5 56t-50 72.5t-85 57.5t-125.5 25.5q-225 0 -360.5 -185.5t-135.5 -447.5q0 -154 75.5 -246t231.5 -92q68 0 132.5 25 t107.5 59.5t75.5 69.5t49.5 59l14 25l80 -33l-18 -29q-11 -19 -53 -67.5t-89 -86.5t-123 -70.5t-155 -37.5l-33 -172h-88l33 174q-158 18 -246 128t-88 294z" />
<glyph unicode="&#xa3;" horiz-adv-x="1234" d="M-14 0l16 82h184l117 600h-135l16 82h133l68 342q29 147 157 249.5t298 102.5q178 0 290 -100l7 -6l-68 -62q-8 8 -26.5 22.5t-78 37t-124.5 22.5q-147 0 -246.5 -82t-122.5 -203l-63 -323h405l-16 -82h-406l-117 -600h668l49 246h86l-63 -328h-1028z" />
<glyph unicode="&#xa5;" horiz-adv-x="1265" d="M219 455l14 82h334l19 86l-41 98h-275l17 82h225l-256 631h96l226 -566l61 -161h4q61 88 117 159l448 568h109l-502 -631h221l-16 -82h-270l-76 -98l-19 -86h328l-14 -82h-328l-90 -455h-88l90 455h-334z" />
<glyph unicode="&#xa7;" horiz-adv-x="778" d="M-2 -57l61 61q49 -47 131 -47q119 0 197 79t84 195l57 973h86l-53 -968q-8 -154 -110.5 -258.5t-262.5 -104.5q-116 0 -190 70zM193 127l53 969q8 154 110.5 258t261.5 104q117 0 191 -69l-61 -62q-49 47 -132 47q-119 0 -196.5 -78.5t-83.5 -195.5l-57 -973h-86z" />
<glyph unicode="&#xa8;" horiz-adv-x="1042" d="M174 1614l31 149h110l-30 -149h-111zM518 1614l31 149h110l-30 -149h-111z" />
<glyph unicode="&#xa9;" horiz-adv-x="1689" d="M143 717q0 309 211 525t510 216q305 0 517 -216t212 -525q0 -311 -212 -526.5t-517 -215.5q-301 0 -511 215.5t-210 526.5zM236 717q0 -279 181 -467.5t447 -188.5q270 0 453.5 188.5t183.5 467.5q0 276 -183 465.5t-454 189.5q-266 0 -447 -189.5t-181 -465.5zM449 715 q0 174 116.5 303t323.5 129q59 0 115.5 -18.5t94.5 -45t67.5 -53t41.5 -45.5l15 -18l-68 -60q-10 16 -31.5 42t-90 68t-142.5 42q-166 0 -258 -101.5t-92 -240.5t92 -240.5t258 -101.5q76 0 141.5 38t93.5 74l29 39l68 -59q-4 -8 -14.5 -19.5t-43 -43t-68.5 -55t-92.5 -43 t-115.5 -19.5q-207 0 -323.5 127t-116.5 301z" />
<glyph unicode="&#xaa;" horiz-adv-x="884" d="M168 539l14 75h518l-14 -75h-518zM254 950q0 250 432 250h43l2 10q6 29 6 54q0 115 -129 114q-43 0 -90 -15t-72 -30l-26 -14l-35 65q98 70 225 70q207 0 207 -184q0 -37 -10 -82l-78 -393h-80l21 104h-4q-8 -12 -25.5 -31.5t-75 -52.5t-116.5 -33q-74 0 -134.5 43 t-60.5 125zM342 956q0 -43 30.5 -70.5t92.5 -27.5q86 0 158.5 89t91.5 179h-27q-346 0 -346 -170z" />
<glyph unicode="&#xab;" horiz-adv-x="1005" d="M104 584l394 415h116l-407 -426l258 -415h-98zM422 584l418 415h116l-432 -426l258 -415h-98z" />
<glyph unicode="&#xac;" horiz-adv-x="1296" d="M184 702v82h934v-448h-86v366h-848z" />
<glyph unicode="&#xad;" horiz-adv-x="1079" d="M244 539l14 82h565l-14 -82h-565z" />
<glyph unicode="&#xae;" horiz-adv-x="1689" d="M143 717q0 309 211 525t510 216q305 0 517 -216t212 -525q0 -311 -212 -526.5t-517 -215.5q-301 0 -511 215.5t-210 526.5zM236 717q0 -279 181 -467.5t447 -188.5q270 0 453.5 188.5t183.5 467.5q0 276 -183 465.5t-454 189.5q-266 0 -447 -189.5t-181 -465.5zM627 307 v819h272q104 0 171 -65.5t67 -171.5q0 -86 -45 -144.5t-113 -74.5v-4q8 -10 27 -45l161 -314h-100l-174 342h-176v-342h-90zM717 727h172q72 0 113.5 43t41.5 119q0 74 -41.5 114.5t-113.5 40.5h-172v-317z" />

<glyph unicode="&#xaf;" horiz-adv-x="1042" d="M164 1610l14 82h490l-15 -82h-489z" />
<glyph unicode="&#xb0;" horiz-adv-x="761" d="M219 1149q0 119 96.5 212t216.5 93q102 0 167 -65.5t65 -163.5q0 -119 -97.5 -212t-213.5 -93q-104 0 -169 64.5t-65 164.5zM307 1149q0 -63 41 -105.5t109 -42.5q86 0 152.5 67t66.5 157q0 63 -41 105t-107 42q-86 0 -153.5 -67.5t-67.5 -155.5z" />
<glyph unicode="&#xb1;" d="M82 539v82h485v538h88v-538h484v-82h-484v-539h-88v539h-485zM123 -231h975v-82h-975v82z" />
<glyph unicode="&#xb2;" horiz-adv-x="729" d="M137 866q2 90 47 166t109.5 122t139.5 94l138 88q63 40 105.5 97.5t42.5 125.5q0 61 -42 102t-114 41q-51 0 -104 -25.5t-82 -50.5l-27 -27l-43 58q12 12 35 32.5t90.5 53.5t132.5 33q115 0 174.5 -59.5t59.5 -153.5q0 -92 -51.5 -164t-128 -121t-155.5 -93 t-145.5 -106.5t-87.5 -138.5h394l22 117h78l-37 -191h-551z" />
<glyph unicode="&#xb3;" horiz-adv-x="741" d="M139 979l62 49q4 -4 10 -11t27.5 -26.5t46 -34t63.5 -25.5t80 -11q92 0 167 71.5t75 171.5q0 74 -55.5 117t-131.5 43h-65l-15 49l285 273l49 38v5q-23 -6 -55 -7h-279l-22 -116h-78l37 190h520l-10 -53l-322 -309q78 -6 150 -60.5t72 -169.5q0 -125 -97.5 -221 t-226.5 -96q-82 0 -153.5 33.5t-102.5 66.5z" />
<glyph unicode="&#xb4;" horiz-adv-x="1042" d="M225 1536l238 227h139l-258 -227h-119z" />
<glyph unicode="&#xb5;" horiz-adv-x="1179" d="M-29 -410l279 1434h86l-119 -614q-18 -90 -18 -160q0 -90 45 -140.5t157 -50.5q184 0 332 149.5t182 340.5l93 475h86l-199 -1024h-86l33 170l26 94h-4q-55 -104 -181 -196.5t-296 -92.5q-172 0 -240 109h-4q-10 -109 -18 -152l-68 -342h-86z" />
<glyph unicode="&#x3bc;" horiz-adv-x="1179" d="M-29 -410l279 1434h86l-119 -614q-18 -90 -18 -160q0 -90 45 -140.5t157 -50.5q184 0 332 149.5t182 340.5l93 475h86l-199 -1024h-86l33 170l26 94h-4q-55 -104 -181 -196.5t-296 -92.5q-172 0 -240 109h-4q-10 -109 -18 -152l-68 -342h-86z" />
<glyph unicode="&#xb6;" horiz-adv-x="1136" d="M158 899q0 215 175 375t392 160h451l-15 -82h-342l-282 -1454h-86l114 596q-166 0 -286.5 116.5t-120.5 288.5zM664 -102l256 1325h86l-256 -1325h-86z" />
<glyph unicode="&#xb7;" horiz-adv-x="573" d="M207 520l24 129h125l-24 -129h-125z" />
<glyph unicode="&#xb8;" horiz-adv-x="1042" d="M217 -408l16 76q33 -10 80 -10q49 0 88 20.5t39 67.5q0 66 -110 66h-25l92 225l64 -10l-2 -17l-51 -133q51 -8 84.5 -42t33.5 -89q0 -80 -64.5 -122t-146.5 -42z" />
<glyph unicode="&#xb9;" horiz-adv-x="626" d="M131 866l14 74h217l121 629l19 76h-4q-20 -27 -56 -56l-125 -104l-45 59l250 211h78l-160 -815h211l-14 -74h-506z" />
<glyph unicode="&#xba;" horiz-adv-x="985" d="M180 539l15 75h602l-15 -75h-602zM252 1061q0 160 121 277.5t276 117.5q125 0 203 -78t78 -198q0 -162 -122 -279t-278 -117q-125 0 -201.5 78t-76.5 199zM332 1067q0 -92 57 -149.5t150 -57.5q119 0 215 93.5t96 224.5q0 90 -58.5 146t-150.5 56q-121 0 -215 -92 t-94 -221z" />
<glyph unicode="&#xbb;" horiz-adv-x="1007" d="M43 158l432 426l-258 415h98l263 -426l-418 -415h-117zM385 158l408 426l-258 415h98l262 -426l-393 -415h-117z" />
<glyph unicode="&#xbc;" horiz-adv-x="1882" d="M115 545l14 73h217l121 629l18 76h-4q-20 -27 -55 -55l-125 -105l-45 60l250 211h78l-160 -816h211l-14 -73h-506zM416 0l966 1434h95l-965 -1434h-96zM1069 248l10 53l570 588h63l-110 -567h139l-15 -74h-139l-49 -248h-78l49 248h-440zM1192 322h332l69 358l23 84h-4 q-27 -37 -60 -70l-360 -368v-4z" />
<glyph unicode="&#xbd;" horiz-adv-x="1835" d="M98 545l15 73h217l121 629l18 76h-4q-20 -27 -55 -55l-125 -105l-45 60l249 211h78l-159 -816h210l-14 -73h-506zM399 0l967 1434h94l-964 -1434h-97zM1063 0q2 90 47 166t109.5 122t139.5 94l138 88q63 40 105.5 97.5t42.5 124.5q0 61 -42 102.5t-114 41.5 q-51 0 -104.5 -26t-81.5 -52l-27 -25l-43 58q12 12 34.5 32.5t90 53t133.5 32.5q115 0 174 -59t59 -154q0 -92 -51 -163.5t-128 -121t-155.5 -93.5t-145 -106t-87.5 -138h393l23 116h78l-37 -190h-551z" />
<glyph unicode="&#xbe;" horiz-adv-x="1923" d="M121 657l61 50q4 -4 10.5 -11.5t28 -27t46 -33.5t63.5 -25.5t80 -11.5q92 0 166.5 71.5t74.5 172.5q0 74 -55 116.5t-131 42.5h-66l-14 50l285 272l49 39v4q-23 -6 -55 -6h-279l-23 -117h-77l37 191h520l-11 -54l-321 -309q78 -6 149.5 -60.5t71.5 -168.5 q0 -125 -97 -221.5t-226 -96.5q-51 0 -100.5 13.5t-81 33t-57.5 40t-38 32.5zM449 0l966 1434h94l-964 -1434h-96zM1102 248l10 53l569 588h64l-111 -567h140l-15 -74h-139l-49 -248h-78l49 248h-440zM1225 322h331l70 358l23 84h-4q-27 -37 -60 -70l-360 -368v-4z" />

<glyph unicode="&#xbf;" horiz-adv-x="911" d="M-14 -133q0 100 46 183t113.5 141.5t138 112.5t130 125t75.5 151l19 86h88l-18 -86q-20 -96 -80 -177t-128 -137l-136 -110q-67 -55 -110.5 -127t-43.5 -158q0 -94 67.5 -154.5t182.5 -60.5q68 0 137.5 21.5t105.5 43.5l35 21l35 -76q-16 -10 -45 -26.5t-112 -43 t-160 -26.5q-158 0 -249 82t-91 215zM532 899l27 125h121l-27 -125h-121z" />
<glyph unicode="&#xc0;" horiz-adv-x="1452" d="M-96 0l16 82h152l770 1352h94l242 -1352h153l-16 -82h-418l16 82h174l-73 414h-608l-236 -414h174l-16 -82h-424zM453 578h546l-118 669l-9 78h-4q-14 -41 -34 -78zM709 1763h127l147 -227h-106z" />
<glyph unicode="&#xc1;" horiz-adv-x="1452" d="M-96 0l16 82h152l770 1352h94l242 -1352h153l-16 -82h-418l16 82h174l-73 414h-608l-236 -414h174l-16 -82h-424zM453 578h546l-118 669l-9 78h-4q-14 -41 -34 -78zM827 1536l238 227h139l-258 -227h-119z" />
<glyph unicode="&#xc2;" horiz-adv-x="1452" d="M-96 0l16 82h152l770 1352h94l242 -1352h153l-16 -82h-418l16 82h174l-73 414h-608l-236 -414h174l-16 -82h-424zM453 578h546l-118 669l-9 78h-4q-14 -41 -34 -78zM678 1536l209 227h123l118 -227h-102l-82 164h-4l-147 -164h-115z" />
<glyph unicode="&#xc3;" horiz-adv-x="1452" d="M-96 0l16 82h152l770 1352h94l242 -1352h153l-16 -82h-418l16 82h174l-73 414h-608l-236 -414h174l-16 -82h-424zM453 578h546l-118 669l-9 78h-4q-14 -41 -34 -78zM623 1542q41 221 198 221q59 0 96 -36.5t65 -73.5t62 -37q72 0 107 141h90q-20 -109 -71.5 -165 t-127.5 -56q-59 0 -96 37t-64.5 73.5t-62.5 36.5q-76 0 -106 -141h-90z" />
<glyph unicode="&#xc4;" horiz-adv-x="1452" d="M-96 0l16 82h152l770 1352h94l242 -1352h153l-16 -82h-418l16 82h174l-73 414h-608l-236 -414h174l-16 -82h-424zM453 578h546l-118 669l-9 78h-4q-14 -41 -34 -78zM698 1614l31 149h111l-31 -149h-111zM1042 1614l31 149h111l-31 -149h-111z" />
<glyph unicode="&#xc5;" horiz-adv-x="1452" d="M-96 0l16 82h152l770 1352h94l242 -1352h153l-16 -82h-418l16 82h174l-73 414h-608l-236 -414h174l-16 -82h-424zM453 578h546l-118 669l-9 78h-4q-14 -41 -34 -78zM776 1632q0 70 55.5 121t120.5 51q61 0 100.5 -36.5t39.5 -94.5q0 -70 -53.5 -121t-125.5 -51 q-59 0 -98 37t-39 94zM858 1634q0 -57 60 -57q41 0 66.5 27.5t25.5 68.5q0 57 -62 58q-35 0 -62.5 -28t-27.5 -69z" />
<glyph unicode="&#xc6;" horiz-adv-x="1857" d="M-88 0l16 82h138l768 1270h-166l16 82h1174l-54 -267h-86l37 185h-620l-115 -588h571l-16 -82h-571l-117 -600h661l37 186h86l-53 -268h-1020l16 82h185l116 600h-391l-362 -600h166l-17 -82h-399zM575 764h357l115 588h-115z" />
<glyph unicode="&#xc7;" horiz-adv-x="1525" d="M137 594q0 176 73 338t192.5 275.5t277.5 182t321 68.5q72 0 150 -12t165 -40t135 -88q36 -45 36 -102q0 -19 -4 -40l-27 -138h-90l23 123q2 13 2 25q0 42 -28 77q-36 44 -100.5 66.5t-132 33.5t-131.5 11q-199 0 -376 -102.5t-285.5 -281.5t-108.5 -388 q0 -242 143.5 -392.5t377.5 -150.5q94 0 196.5 21.5t191.5 74t103 124.5l23 112h90l-27 -133q-29 -137 -208 -210t-367 -73h-7l-36 -98q51 -8 84.5 -42t33.5 -89q0 -80 -64.5 -122t-146.5 -42l-98 10l17 76q33 -10 79 -10q49 0 88 20.5t39 67.5q0 66 -110 66h-25l68 168 q-248 25 -392.5 191.5t-144.5 422.5z" />
<glyph unicode="&#xc8;" horiz-adv-x="1263" d="M-4 0l16 82h193l248 1270h-195l16 82h990l-54 -267h-86l37 185h-620l-115 -588h571l-16 -82h-571l-117 -600h661l39 197h86l-55 -279h-1028zM621 1763h127l147 -227h-107z" />
<glyph unicode="&#xc9;" horiz-adv-x="1263" d="M-4 0l16 82h193l248 1270h-195l16 82h990l-54 -267h-86l37 185h-620l-115 -588h571l-16 -82h-571l-117 -600h661l39 197h86l-55 -279h-1028zM739 1536l238 227h139l-258 -227h-119z" />
<glyph unicode="&#xca;" horiz-adv-x="1263" d="M-4 0l16 82h193l248 1270h-195l16 82h990l-54 -267h-86l37 185h-620l-115 -588h571l-16 -82h-571l-117 -600h661l39 197h86l-55 -279h-1028zM590 1536l209 227h123l118 -227h-102l-82 164h-4l-147 -164h-115z" />
<glyph unicode="&#xcb;" horiz-adv-x="1263" d="M-4 0l16 82h193l248 1270h-195l16 82h990l-54 -267h-86l37 185h-620l-115 -588h571l-16 -82h-571l-117 -600h661l39 197h86l-55 -279h-1028zM610 1614l31 149h111l-31 -149h-111zM954 1614l31 149h111l-31 -149h-111z" />
<glyph unicode="&#xcc;" horiz-adv-x="702" d="M-4 0l16 82h193l248 1270h-195l16 82h478l-17 -82h-194l-248 -1270h194l-16 -82h-475zM328 1763h127l147 -227h-106z" />
<glyph unicode="&#xcd;" horiz-adv-x="702" d="M-4 0l16 82h193l248 1270h-195l16 82h478l-17 -82h-194l-248 -1270h194l-16 -82h-475zM446 1536l238 227h139l-258 -227h-119z" />
<glyph unicode="&#xce;" horiz-adv-x="702" d="M-4 0l16 82h193l248 1270h-195l16 82h478l-17 -82h-194l-248 -1270h194l-16 -82h-475zM297 1536l209 227h123l119 -227h-103l-82 164h-4l-147 -164h-115z" />
<glyph unicode="&#xcf;" horiz-adv-x="702" d="M-4 0l16 82h193l248 1270h-195l16 82h478l-17 -82h-194l-248 -1270h194l-16 -82h-475zM317 1614l31 149h111l-31 -149h-111zM662 1614l30 149h111l-31 -149h-110z" />

<glyph unicode="&#xd0;" horiz-adv-x="1605" d="M-4 0l16 82h193l117 600h-164l16 82h164l115 588h-195l16 82h625q287 0 449.5 -144.5t162.5 -408.5q0 -369 -240.5 -625t-611.5 -256h-663zM293 82h348q334 0 556 227.5t222 567.5q0 227 -141 351t-389 124h-346l-117 -588h375l-17 -82h-374z" />
<glyph unicode="&#xd1;" horiz-adv-x="1687" d="M-4 0l16 82h193l248 1270h-195l16 82h273l651 -1231l27 -70h4q2 49 10 80l223 1139h-194l16 82h477l-16 -82h-195l-264 -1352h-80l-653 1233q-14 27 -25 70h-4q-2 -49 -10 -80l-221 -1141h194l-16 -82h-475zM750 1542q41 221 198 221q59 0 96 -36.5t65 -73.5t62 -37 q72 0 107 141h90q-20 -109 -71.5 -165t-127.5 -56q-59 0 -96 37t-64.5 73.5t-62.5 36.5q-76 0 -106 -141h-90z" />
<glyph unicode="&#xd2;" horiz-adv-x="1697" d="M135 590q0 229 126 431t328 319.5t423 117.5q266 0 433 -168t167 -430q0 -233 -126 -439t-329 -326t-422 -120q-266 0 -433 172.5t-167 442.5zM227 590q0 -233 144.5 -382t373.5 -149q190 0 369.5 107.5t292.5 294t113 397.5q0 227 -144.5 371.5t-374.5 144.5 q-195 0 -372.5 -104.5t-289.5 -287.5t-112 -392zM831 1763h127l148 -227h-107z" />
<glyph unicode="&#xd3;" horiz-adv-x="1697" d="M135 590q0 229 126 431t328 319.5t423 117.5q266 0 433 -168t167 -430q0 -233 -126 -439t-329 -326t-422 -120q-266 0 -433 172.5t-167 442.5zM227 590q0 -233 144.5 -382t373.5 -149q190 0 369.5 107.5t292.5 294t113 397.5q0 227 -144.5 371.5t-374.5 144.5 q-195 0 -372.5 -104.5t-289.5 -287.5t-112 -392zM950 1536l238 227h139l-258 -227h-119z" />
<glyph unicode="&#xd4;" horiz-adv-x="1697" d="M135 590q0 229 126 431t328 319.5t423 117.5q266 0 433 -168t167 -430q0 -233 -126 -439t-329 -326t-422 -120q-266 0 -433 172.5t-167 442.5zM227 590q0 -233 144.5 -382t373.5 -149q190 0 369.5 107.5t292.5 294t113 397.5q0 227 -144.5 371.5t-374.5 144.5 q-195 0 -372.5 -104.5t-289.5 -287.5t-112 -392zM801 1536l209 227h123l118 -227h-102l-82 164h-4l-148 -164h-114z" />
<glyph unicode="&#xd5;" horiz-adv-x="1697" d="M135 590q0 229 126 431t328 319.5t423 117.5q266 0 433 -168t167 -430q0 -233 -126 -439t-329 -326t-422 -120q-266 0 -433 172.5t-167 442.5zM227 590q0 -233 144.5 -382t373.5 -149q190 0 369.5 107.5t292.5 294t113 397.5q0 227 -144.5 371.5t-374.5 144.5 q-195 0 -372.5 -104.5t-289.5 -287.5t-112 -392zM745 1542q41 221 199 221q59 0 96 -36.5t65 -73.5t62 -37q72 0 107 141h90q-20 -109 -71.5 -165t-127.5 -56q-59 0 -96 37t-64.5 73.5t-62.5 36.5q-76 0 -106 -141h-91z" />
<glyph unicode="&#xd6;" horiz-adv-x="1697" d="M135 590q0 229 126 431t328 319.5t423 117.5q266 0 433 -168t167 -430q0 -233 -126 -439t-329 -326t-422 -120q-266 0 -433 172.5t-167 442.5zM227 590q0 -233 144.5 -382t373.5 -149q190 0 369.5 107.5t292.5 294t113 397.5q0 227 -144.5 371.5t-374.5 144.5 q-195 0 -372.5 -104.5t-289.5 -287.5t-112 -392zM821 1614l31 149h111l-31 -149h-111zM1165 1614l31 149h111l-31 -149h-111z" />
<glyph unicode="&#xd7;" d="M96 57l459 523l-459 522l58 57l456 -518l457 518l57 -57l-460 -522l460 -523l-57 -57l-457 518l-456 -518z" />
<glyph unicode="&#xd8;" horiz-adv-x="1695" d="M135 590q0 229 125 431t325.5 319.5t415.5 117.5q223 0 381 -119l131 144l66 -56l-131 -143q164 -170 164 -424q0 -233 -126 -439t-325.5 -326t-415.5 -120q-227 0 -383 121l-131 -143l-67 53l135 148q-164 170 -164 436zM227 590q0 -225 133 -371l963 1055 q-135 100 -322 100q-195 0 -372.5 -104.5t-289.5 -287.5t-112 -392zM422 162q135 -102 323 -103q190 0 369.5 107.5t292.5 294t113 397.5q0 215 -134 359z" />
<glyph unicode="&#xd9;" horiz-adv-x="1613" d="M221 1352l17 82h477l-17 -82h-194l-158 -811q-18 -86 -18 -158q0 -150 99 -237t273 -87q197 0 330 101q158 117 201 342l168 850h-195l17 82h477l-17 -82h-194l-172 -871q-53 -270 -246 -399q-160 -106 -373 -107q-209 0 -333.5 110t-124.5 288q0 47 20 170l158 809h-195 zM784 1763h127l148 -227h-107z" />
<glyph unicode="&#xda;" horiz-adv-x="1613" d="M221 1352l17 82h477l-17 -82h-194l-158 -811q-18 -86 -18 -158q0 -150 99 -237t273 -87q197 0 330 101q158 117 201 342l168 850h-195l17 82h477l-17 -82h-194l-172 -871q-53 -270 -246 -399q-160 -106 -373 -107q-209 0 -333.5 110t-124.5 288q0 47 20 170l158 809h-195 zM903 1536l238 227h139l-258 -227h-119z" />
<glyph unicode="&#xdb;" horiz-adv-x="1613" d="M221 1352l17 82h477l-17 -82h-194l-158 -811q-18 -86 -18 -158q0 -150 99 -237t273 -87q197 0 330 101q158 117 201 342l168 850h-195l17 82h477l-17 -82h-194l-172 -871q-53 -270 -246 -399q-160 -106 -373 -107q-209 0 -333.5 110t-124.5 288q0 47 20 170l158 809h-195 zM754 1536l209 227h122l119 -227h-102l-82 164h-4l-148 -164h-114z" />
<glyph unicode="&#xdc;" horiz-adv-x="1613" d="M221 1352l17 82h477l-17 -82h-194l-158 -811q-18 -86 -18 -158q0 -150 99 -237t273 -87q197 0 330 101q158 117 201 342l168 850h-195l17 82h477l-17 -82h-194l-172 -871q-53 -270 -246 -399q-160 -106 -373 -107q-209 0 -333.5 110t-124.5 288q0 47 20 170l158 809h-195 zM774 1614l31 149h110l-30 -149h-111zM1118 1614l31 149h111l-31 -149h-111z" />
<glyph unicode="&#xdd;" horiz-adv-x="1302" d="M168 1352l16 82h414l-16 -82h-170l237 -588l17 -51h4q20 29 39 51l469 588h-170l16 82h420l-17 -82h-145l-582 -729l-106 -541h194l-16 -82h-477l16 82h195l106 541l-299 729h-145zM748 1536l237 227h139l-258 -227h-118z" />
<glyph unicode="&#xde;" horiz-adv-x="1302" d="M-4 0l16 82h193l248 1270h-195l16 82h478l-17 -82h-194l-37 -185h373q170 0 272 -92t102 -254q0 -217 -153.5 -355t-360.5 -138h-395l-49 -246h194l-16 -82h-475zM356 410h379q176 0 300 114.5t124 304.5q0 123 -77.5 189.5t-215.5 66.5h-379z" />
<glyph unicode="&#xdf;" horiz-adv-x="1161" d="M80 0l213 1104q33 164 160 259t274 95q143 0 222 -71.5t79 -178.5q0 -84 -52 -155.5t-115.5 -113.5t-116 -96.5t-52.5 -105.5q0 -45 53.5 -95t118 -92t117.5 -111.5t53 -147.5q0 -125 -106.5 -215t-245.5 -90q-90 0 -171 18.5t-118 36.5l-35 16l19 90q119 -78 303 -77 q98 0 180 57t82 164q0 51 -36 99t-86 85l-100 75q-50 38 -86 86t-36 99q0 68 53.5 132.5t115.5 105.5t115.5 103.5t53.5 127.5q0 70 -53.5 120t-155.5 50q-119 0 -221.5 -78.5t-128.5 -212.5l-211 -1083h-86z" />
<glyph unicode="&#xe0;" horiz-adv-x="1095" d="M16 227q0 96 47.5 170t118 116t169 68.5t185.5 35t183 8.5h80q18 90 18 131q0 209 -229 209q-80 0 -157 -25t-116 -49l-36 -25l-37 78q16 12 45.5 29.5t123 46.5t187.5 29q309 0 309 -277q0 -66 -55 -311.5t-55 -284.5q0 -63 27.5 -81.5t74.5 -18.5l55 4l-16 -80 q-44 -4 -64 -4q-92 0 -135 56q-31 41 -31 105q0 24 5 52h-4q2 0 -14.5 -23.5t-49.5 -58.5t-78 -69.5t-111.5 -58.5t-136.5 -24q-131 0 -217 67.5t-86 184.5zM107 240q0 -78 56 -131.5t167 -53.5q154 0 277.5 136.5t164.5 302.5l12 51h-65q-612 0 -612 -305zM440 1434h127 l148 -228h-107z" />

<glyph unicode="&#xe1;" horiz-adv-x="1095" d="M16 227q0 96 47.5 170t118 116t169 68.5t185.5 35t183 8.5h80q18 90 18 131q0 209 -229 209q-80 0 -157 -25t-116 -49l-36 -25l-37 78q16 12 45.5 29.5t123 46.5t187.5 29q309 0 309 -277q0 -66 -55 -311.5t-55 -284.5q0 -63 27.5 -81.5t74.5 -18.5l55 4l-16 -80 q-44 -4 -64 -4q-92 0 -135 56q-31 41 -31 105q0 24 5 52h-4q2 0 -14.5 -23.5t-49.5 -58.5t-78 -69.5t-111.5 -58.5t-136.5 -24q-131 0 -217 67.5t-86 184.5zM107 240q0 -78 56 -131.5t167 -53.5q154 0 277.5 136.5t164.5 302.5l12 51h-65q-612 0 -612 -305zM559 1206 l238 228h139l-258 -228h-119z" />
<glyph unicode="&#xe2;" horiz-adv-x="1095" d="M16 227q0 96 47.5 170t118 116t169 68.5t185.5 35t183 8.5h80q18 90 18 131q0 209 -229 209q-80 0 -157 -25t-116 -49l-36 -25l-37 78q16 12 45.5 29.5t123 46.5t187.5 29q309 0 309 -277q0 -66 -55 -311.5t-55 -284.5q0 -63 27.5 -81.5t74.5 -18.5l55 4l-16 -80 q-44 -4 -64 -4q-92 0 -135 56q-31 41 -31 105q0 24 5 52h-4q2 0 -14.5 -23.5t-49.5 -58.5t-78 -69.5t-111.5 -58.5t-136.5 -24q-131 0 -217 67.5t-86 184.5zM107 240q0 -78 56 -131.5t167 -53.5q154 0 277.5 136.5t164.5 302.5l12 51h-65q-612 0 -612 -305zM410 1206 l209 228h122l119 -228h-102l-82 164h-4l-148 -164h-114z" />
<glyph unicode="&#xe3;" horiz-adv-x="1095" d="M16 227q0 96 47.5 170t118 116t169 68.5t185.5 35t183 8.5h80q18 90 18 131q0 209 -229 209q-80 0 -157 -25t-116 -49l-36 -25l-37 78q16 12 45.5 29.5t123 46.5t187.5 29q309 0 309 -277q0 -66 -55 -311.5t-55 -284.5q0 -63 27.5 -81.5t74.5 -18.5l55 4l-16 -80 q-44 -4 -64 -4q-92 0 -135 56q-31 41 -31 105q0 24 5 52h-4q2 0 -14.5 -23.5t-49.5 -58.5t-78 -69.5t-111.5 -58.5t-136.5 -24q-131 0 -217 67.5t-86 184.5zM107 240q0 -78 56 -131.5t167 -53.5q154 0 277.5 136.5t164.5 302.5l12 51h-65q-612 0 -612 -305zM354 1212 q41 221 199 222q59 0 96 -37t64.5 -74t62.5 -37q72 0 107 141h90q-20 -109 -71.5 -165t-127.5 -56q-59 0 -96 37t-64.5 74t-62.5 37q-76 0 -107 -142h-90z" />
<glyph unicode="&#xe4;" horiz-adv-x="1095" d="M16 227q0 96 47.5 170t118 116t169 68.5t185.5 35t183 8.5h80q18 90 18 131q0 209 -229 209q-80 0 -157 -25t-116 -49l-36 -25l-37 78q16 12 45.5 29.5t123 46.5t187.5 29q309 0 309 -277q0 -66 -55 -311.5t-55 -284.5q0 -63 27.5 -81.5t74.5 -18.5l55 4l-16 -80 q-44 -4 -64 -4q-92 0 -135 56q-31 41 -31 105q0 24 5 52h-4q2 0 -14.5 -23.5t-49.5 -58.5t-78 -69.5t-111.5 -58.5t-136.5 -24q-131 0 -217 67.5t-86 184.5zM107 240q0 -78 56 -131.5t167 -53.5q154 0 277.5 136.5t164.5 302.5l12 51h-65q-612 0 -612 -305zM430 1284l31 150 h110l-30 -150h-111zM774 1284l31 150h110l-30 -150h-111z" />
<glyph unicode="&#xe5;" horiz-adv-x="1095" d="M16 227q0 96 47.5 170t118 116t169 68.5t185.5 35t183 8.5h80q18 90 18 131q0 209 -229 209q-80 0 -157 -25t-116 -49l-36 -25l-37 78q16 12 45.5 29.5t123 46.5t187.5 29q309 0 309 -277q0 -66 -55 -311.5t-55 -284.5q0 -63 27.5 -81.5t74.5 -18.5l55 4l-16 -80 q-44 -4 -64 -4q-92 0 -135 56q-31 41 -31 105q0 24 5 52h-4q2 0 -14.5 -23.5t-49.5 -58.5t-78 -69.5t-111.5 -58.5t-136.5 -24q-131 0 -217 67.5t-86 184.5zM107 240q0 -78 56 -131.5t167 -53.5q154 0 277.5 136.5t164.5 302.5l12 51h-65q-612 0 -612 -305zM508 1303 q0 70 55.5 121t120.5 51q61 0 100 -37t39 -95q0 -70 -53 -121t-125 -51q-59 0 -98 37.5t-39 94.5zM590 1305q0 -57 59 -58q41 0 66.5 28t25.5 68q0 57 -61 58q-35 0 -62.5 -27.5t-27.5 -68.5z" />
<glyph unicode="&#xe6;" horiz-adv-x="1783" d="M20 231q0 383 642 383h131q18 102 18 144q0 207 -240 207q-158 -2 -301 -99l-37 78q16 12 45 29.5t118 46.5t175 29q307 0 322 -222h4q164 221 436 222q176 0 267.5 -98.5t91.5 -266.5q0 -29 -6.5 -66.5t-12.5 -60.5l-6 -22h-805q-12 -53 -12 -115q0 -168 87 -264.5 t253 -96.5q88 0 174 33t127 64l43 32l33 -77q-18 -14 -51 -37t-131.5 -61t-190.5 -38q-168 0 -278.5 82t-139.5 224h-4q-12 -29 -42 -72t-84 -99.5t-140 -95.5t-184 -39q-131 0 -216.5 67.5t-85.5 188.5zM113 238q0 -78 57 -130.5t166 -52.5q156 0 275.5 133.5t156.5 300.5 l10 46h-141q-524 0 -524 -297zM887 614h706q6 45 6 82q0 137 -74.5 205t-191.5 68q-145 0 -266 -91.5t-180 -263.5z" />
<glyph unicode="&#xe7;" horiz-adv-x="1116" d="M80 418q0 264 195.5 447.5t445.5 183.5q123 0 230 -55q92 -46 92 -127q0 -14 -3 -29l-18 -101h-86l14 80q2 10 2 19q0 60 -70 92q-81 37 -177 37q-199 0 -367 -158t-168 -385q0 -170 102.5 -266.5t264.5 -96.5q98 0 190 37t135 74l43 37l33 -78q-16 -16 -49 -42 t-138.5 -69t-218.5 -43h-4l-36 -98q51 -8 84.5 -42t33.5 -89q0 -80 -64.5 -122t-146.5 -42l-98 10l16 76q33 -10 80 -10q49 0 88 20.5t39 67.5q0 66 -110 66h-25l68 170q-170 20 -273.5 135t-103.5 301z" />
<glyph unicode="&#xe8;" horiz-adv-x="1126" d="M80 403q0 254 173 450t429 196q174 0 262 -99.5t88 -263.5q0 -33 -6 -73t-14 -64l-6 -23h-822q-12 -51 -12 -112q0 -156 94 -255.5t266 -99.5q176 0 332 121l10 8l33 -77q-18 -14 -52 -37t-133 -61t-194 -38q-199 0 -323.5 115.5t-124.5 312.5zM205 606h727q8 39 8 86 q0 137 -72.5 207t-191.5 70q-150 0 -280 -95.5t-191 -267.5zM526 1434h127l148 -228h-107z" />
<glyph unicode="&#xe9;" horiz-adv-x="1126" d="M80 403q0 254 173 450t429 196q174 0 262 -99.5t88 -263.5q0 -33 -6 -73t-14 -64l-6 -23h-822q-12 -51 -12 -112q0 -156 94 -255.5t266 -99.5q176 0 332 121l10 8l33 -77q-18 -14 -52 -37t-133 -61t-194 -38q-199 0 -323.5 115.5t-124.5 312.5zM205 606h727q8 39 8 86 q0 137 -72.5 207t-191.5 70q-150 0 -280 -95.5t-191 -267.5zM645 1206l238 228h139l-258 -228h-119z" />
<glyph unicode="&#xea;" horiz-adv-x="1126" d="M80 403q0 254 173 450t429 196q174 0 262 -99.5t88 -263.5q0 -33 -6 -73t-14 -64l-6 -23h-822q-12 -51 -12 -112q0 -156 94 -255.5t266 -99.5q176 0 332 121l10 8l33 -77q-18 -14 -52 -37t-133 -61t-194 -38q-199 0 -323.5 115.5t-124.5 312.5zM205 606h727q8 39 8 86 q0 137 -72.5 207t-191.5 70q-150 0 -280 -95.5t-191 -267.5zM496 1206l209 228h122l119 -228h-102l-82 164h-4l-148 -164h-114z" />
<glyph unicode="&#xeb;" horiz-adv-x="1126" d="M80 403q0 254 173 450t429 196q174 0 262 -99.5t88 -263.5q0 -33 -6 -73t-14 -64l-6 -23h-822q-12 -51 -12 -112q0 -156 94 -255.5t266 -99.5q176 0 332 121l10 8l33 -77q-18 -14 -52 -37t-133 -61t-194 -38q-199 0 -323.5 115.5t-124.5 312.5zM205 606h727q8 39 8 86 q0 137 -72.5 207t-191.5 70q-150 0 -280 -95.5t-191 -267.5zM516 1284l31 150h110l-30 -150h-111zM860 1284l31 150h110l-30 -150h-111z" />
<glyph unicode="&#xec;" horiz-adv-x="557" d="M100 944l17 80h280l-155 -788q-6 -37 -6 -60q0 -63 27.5 -81.5t74.5 -18.5l55 4l-16 -80q-43 -4 -64 -4q-37 0 -70.5 9t-65.5 49t-32 108q0 16 9 61l141 721h-195zM188 1434h127l148 -228h-107z" />
<glyph unicode="&#xed;" horiz-adv-x="557" d="M100 944l17 80h280l-155 -788q-6 -37 -6 -60q0 -63 27.5 -81.5t74.5 -18.5l55 4l-16 -80q-43 -4 -64 -4q-37 0 -70.5 9t-65.5 49t-32 108q0 16 9 61l141 721h-195zM307 1206l238 228h139l-258 -228h-119z" />
<glyph unicode="&#xee;" horiz-adv-x="557" d="M100 944l17 80h280l-155 -788q-6 -37 -6 -60q0 -63 27.5 -81.5t74.5 -18.5l55 4l-16 -80q-43 -4 -64 -4q-37 0 -70.5 9t-65.5 49t-32 108q0 16 9 61l141 721h-195zM158 1206l209 228h122l119 -228h-102l-82 164h-4l-148 -164h-114z" />
<glyph unicode="&#xef;" horiz-adv-x="557" d="M100 944l17 80h280l-155 -788q-6 -37 -6 -60q0 -63 27.5 -81.5t74.5 -18.5l55 4l-16 -80q-43 -4 -64 -4q-37 0 -70.5 9t-65.5 49t-32 108q0 16 9 61l141 721h-195zM203 1284l30 150h111l-31 -150h-110zM498 1284l30 150h111l-31 -150h-110z" />
<glyph unicode="&#xf0;" horiz-adv-x="1210" d="M78 375q0 223 159.5 403t421.5 180q205 0 310 -122l14 -19h4q-35 240 -209 381l-383 -164l-20 76l330 141q-121 72 -293 121l37 72q209 -57 346 -154l284 121l23 -76l-238 -100q217 -195 217 -510q0 -115 -35.5 -240t-105.5 -241.5t-191.5 -192.5t-275.5 -76 q-190 0 -292.5 115t-102.5 285zM168 379q0 -137 80 -229.5t225 -92.5q211 0 355.5 181.5t144.5 369.5q0 121 -85 195t-231 74q-199 0 -344 -147.5t-145 -350.5z" />
<glyph unicode="&#xf1;" horiz-adv-x="1298" d="M111 944l16 80h162q55 0 77.5 -19.5t22.5 -62.5q0 -20 -13.5 -84.5t-27.5 -97.5h4q51 102 180.5 195.5t298.5 93.5q133 0 204 -67t71 -189q0 -68 -51 -325t-51 -292q0 -45 17 -68.5t35.5 -27.5t49.5 -4l55 4l-16 -80q-43 -4 -64 -4q-61 0 -114.5 35t-53.5 125 q0 37 51.5 293t51.5 323q0 193 -197 193q-178 0 -329.5 -143.5t-188.5 -342.5l-92 -479h-86l174 899q1 7 1 13q0 32 -38 32h-149zM514 1212q41 221 199 222q59 0 96 -37t64.5 -74t62.5 -37q72 0 106 141h91q-20 -109 -71.5 -165t-127.5 -56q-59 0 -96 37t-65 74t-62 37 q-76 0 -107 -142h-90z" />

<glyph unicode="&#xf2;" horiz-adv-x="1273" d="M80 420q0 258 192.5 443.5t444.5 185.5q197 0 319.5 -123t122.5 -316q0 -260 -193.5 -447.5t-443.5 -187.5q-197 0 -319.5 125t-122.5 320zM170 422q0 -160 101.5 -261.5t260.5 -101.5q205 0 371 163t166 386q0 156 -101.5 256.5t-260.5 100.5q-209 0 -373 -161 t-164 -382zM555 1434h127l147 -228h-106z" />
<glyph unicode="&#xf3;" horiz-adv-x="1273" d="M80 420q0 258 192.5 443.5t444.5 185.5q197 0 319.5 -123t122.5 -316q0 -260 -193.5 -447.5t-443.5 -187.5q-197 0 -319.5 125t-122.5 320zM170 422q0 -160 101.5 -261.5t260.5 -101.5q205 0 371 163t166 386q0 156 -101.5 256.5t-260.5 100.5q-209 0 -373 -161 t-164 -382zM674 1206l237 228h140l-258 -228h-119z" />
<glyph unicode="&#xf4;" horiz-adv-x="1273" d="M80 420q0 258 192.5 443.5t444.5 185.5q197 0 319.5 -123t122.5 -316q0 -260 -193.5 -447.5t-443.5 -187.5q-197 0 -319.5 125t-122.5 320zM170 422q0 -160 101.5 -261.5t260.5 -101.5q205 0 371 163t166 386q0 156 -101.5 256.5t-260.5 100.5q-209 0 -373 -161 t-164 -382zM524 1206l209 228h123l119 -228h-103l-81 164h-5l-147 -164h-115z" />
<glyph unicode="&#xf5;" horiz-adv-x="1273" d="M80 420q0 258 192.5 443.5t444.5 185.5q197 0 319.5 -123t122.5 -316q0 -260 -193.5 -447.5t-443.5 -187.5q-197 0 -319.5 125t-122.5 320zM170 422q0 -160 101.5 -261.5t260.5 -101.5q205 0 371 163t166 386q0 156 -101.5 256.5t-260.5 100.5q-209 0 -373 -161 t-164 -382zM469 1212q41 221 199 222q59 0 96 -37t64.5 -74t62.5 -37q72 0 106 141h90q-20 -109 -71 -165t-127 -56q-59 0 -96 37t-65 74t-62 37q-76 0 -107 -142h-90z" />
<glyph unicode="&#xf6;" horiz-adv-x="1273" d="M80 420q0 258 192.5 443.5t444.5 185.5q197 0 319.5 -123t122.5 -316q0 -260 -193.5 -447.5t-443.5 -187.5q-197 0 -319.5 125t-122.5 320zM170 422q0 -160 101.5 -261.5t260.5 -101.5q205 0 371 163t166 386q0 156 -101.5 256.5t-260.5 100.5q-209 0 -373 -161 t-164 -382zM545 1284l30 150h111l-31 -150h-110zM889 1284l31 150h110l-31 -150h-110z" />
<glyph unicode="&#xf7;" d="M121 539v82h975v-82h-975zM549 156v120h117v-120h-117zM549 883v121h117v-121h-117z" />
<glyph unicode="&#xf8;" horiz-adv-x="1273" d="M80 420q0 256 191.5 442.5t435.5 186.5q162 0 284 -86l103 112l55 -53l-105 -115q115 -129 115 -297q0 -258 -192.5 -446.5t-434.5 -188.5q-156 0 -270 76l-100 -108l-56 53l99 106q-125 130 -125 318zM170 422q0 -150 94 -254l666 729q-98 68 -223 68q-209 0 -373 -161 t-164 -382zM322 117q94 -57 210 -58q205 0 371 163t166 386q0 131 -86 234z" />
<glyph unicode="&#xf9;" horiz-adv-x="1300" d="M96 944l15 80h280l-119 -614q-20 -98 -20 -164q0 -90 45 -138.5t156 -48.5q180 0 326.5 149.5t181.5 340.5l75 395h-192l14 80h281l-154 -788q-6 -37 -6 -60q0 -63 27.5 -81.5t74.5 -18.5l56 4l-17 -80q-43 -4 -63 -4q-111 0 -148 73q-20 38 -19 86q0 43 15 93h-4 q-55 -98 -175 -185.5t-288 -87.5q-121 0 -197.5 62.5t-76.5 195.5q0 59 16 142l109 569h-193zM524 1434h127l148 -228h-107z" />
<glyph unicode="&#xfa;" horiz-adv-x="1300" d="M96 944l15 80h280l-119 -614q-20 -98 -20 -164q0 -90 45 -138.5t156 -48.5q180 0 326.5 149.5t181.5 340.5l75 395h-192l14 80h281l-154 -788q-6 -37 -6 -60q0 -63 27.5 -81.5t74.5 -18.5l56 4l-17 -80q-43 -4 -63 -4q-111 0 -148 73q-20 38 -19 86q0 43 15 93h-4 q-55 -98 -175 -185.5t-288 -87.5q-121 0 -197.5 62.5t-76.5 195.5q0 59 16 142l109 569h-193zM643 1206l238 228h139l-258 -228h-119z" />
<glyph unicode="&#xfb;" horiz-adv-x="1300" d="M96 944l15 80h280l-119 -614q-20 -98 -20 -164q0 -90 45 -138.5t156 -48.5q180 0 326.5 149.5t181.5 340.5l75 395h-192l14 80h281l-154 -788q-6 -37 -6 -60q0 -63 27.5 -81.5t74.5 -18.5l56 4l-17 -80q-43 -4 -63 -4q-111 0 -148 73q-20 38 -19 86q0 43 15 93h-4 q-55 -98 -175 -185.5t-288 -87.5q-121 0 -197.5 62.5t-76.5 195.5q0 59 16 142l109 569h-193zM494 1206l208 228h123l119 -228h-102l-82 164h-4l-148 -164h-114z" />
<glyph unicode="&#xfc;" horiz-adv-x="1300" d="M96 944l15 80h280l-119 -614q-20 -98 -20 -164q0 -90 45 -138.5t156 -48.5q180 0 326.5 149.5t181.5 340.5l75 395h-192l14 80h281l-154 -788q-6 -37 -6 -60q0 -63 27.5 -81.5t74.5 -18.5l56 4l-17 -80q-43 -4 -63 -4q-111 0 -148 73q-20 38 -19 86q0 43 15 93h-4 q-55 -98 -175 -185.5t-288 -87.5q-121 0 -197.5 62.5t-76.5 195.5q0 59 16 142l109 569h-193zM514 1284l31 150h110l-30 -150h-111zM858 1284l31 150h110l-30 -150h-111z" />
<glyph unicode="&#xfd;" horiz-adv-x="1150" d="M-94 -375l49 70q49 -43 119 -43q125 0 239 184l103 168l-191 940h-139l16 80h392l-17 -80h-162l154 -780l4 -58h4q12 27 31 58l457 780h-162l16 80h400l-17 -80h-141l-688 -1159q-127 -215 -303 -215q-107 0 -164 55zM623 1206l237 228h139l-258 -228h-118z" />
<glyph unicode="&#xfe;" horiz-adv-x="1208" d="M2 -410l340 1764h-184l16 80h270l-100 -523l-25 -92h5q55 96 157.5 163t235.5 67q178 0 276.5 -107.5t98.5 -296.5q0 -287 -167 -478.5t-386 -191.5q-125 0 -214 59.5t-120 172.5h-4q-2 -47 -13 -101l-102 -516h-84zM254 383q0 -141 71.5 -232.5t209.5 -91.5 q178 0 321 162t143 420q0 152 -75.5 238t-206.5 86q-137 0 -246 -91.5t-163 -222.5t-54 -268z" />
<glyph unicode="&#xff;" horiz-adv-x="1150" d="M-94 -375l49 70q49 -43 119 -43q125 0 239 184l103 168l-191 940h-139l16 80h392l-17 -80h-162l154 -780l4 -58h4q12 27 31 58l457 780h-162l16 80h400l-17 -80h-141l-688 -1159q-127 -215 -303 -215q-107 0 -164 55zM494 1284l30 150h111l-31 -150h-110zM838 1284 l30 150h111l-31 -150h-110z" />
<glyph unicode="&#x152;" horiz-adv-x="1949" d="M135 578q0 354 256 615t602 261q39 0 132.5 -10t123.5 -10h701l-54 -267h-86l37 185h-620l-115 -588h571l-16 -82h-571l-117 -600h661l37 186h86l-53 -268h-719q-27 0 -116 -10t-125 -10q-283 0 -449 166t-166 432zM227 567q0 -225 139.5 -364.5t378.5 -139.5l146 17 l248 1274q-66 16 -142 16q-317 0 -543.5 -236.5t-226.5 -566.5z" />
<glyph unicode="&#x153;" horiz-adv-x="2097" d="M80 420q0 256 193.5 442.5t439.5 186.5q162 0 273.5 -83t152.5 -225h4q80 139 212 223.5t292 84.5q178 0 267 -99.5t89 -263.5q0 -33 -6 -73t-15 -64l-6 -23h-821q-12 -51 -12 -112q0 -156 94 -255.5t266 -99.5q176 0 332 121l10 8l33 -77q-18 -14 -51 -37t-131.5 -61 t-192.5 -38q-166 0 -283.5 82t-154.5 228h-4q-86 -139 -232.5 -224.5t-302.5 -85.5q-201 0 -323.5 125t-122.5 320zM170 422q0 -160 101.5 -261.5t260.5 -101.5q205 0 371 163t166 386q0 156 -101.5 256.5t-260.5 100.5q-209 0 -373 -161t-164 -382zM1176 606h727q8 39 8 86 q0 137 -73 207t-191 70q-150 0 -280 -95.5t-191 -267.5z" />
<glyph unicode="&#x178;" horiz-adv-x="1302" d="M168 1352l16 82h414l-16 -82h-170l237 -588l17 -51h4q20 29 39 51l469 588h-170l16 82h420l-17 -82h-145l-582 -729l-106 -541h194l-16 -82h-477l16 82h195l106 541l-299 729h-145zM618 1614l31 149h111l-31 -149h-111zM963 1614l30 149h111l-31 -149h-110z" />

<glyph unicode="&#x2c6;" horiz-adv-x="1040" d="M154 1536l208 227h123l119 -227h-102l-82 164h-4l-148 -164h-114z" />
<glyph unicode="&#x2dc;" horiz-adv-x="1042" d="M98 1542q41 221 199 221q59 0 96 -36.5t64.5 -73.5t62.5 -37q72 0 107 141h90q-20 -109 -71.5 -165t-127.5 -56q-59 0 -96 37t-64.5 73.5t-62.5 36.5q-76 0 -107 -141h-90z" />
<glyph unicode="&#x2013;" horiz-adv-x="1488" d="M244 539l14 82h975l-14 -82h-975z" />
<glyph unicode="&#x2014;" horiz-adv-x="1898" d="M244 539l14 82h1384l-14 -82h-1384z" />
<glyph unicode="&#x2018;" horiz-adv-x="430" d="M209 1059l192 391h84l-161 -391h-115z" />
<glyph unicode="&#x2019;" horiz-adv-x="421" d="M213 1059l162 391h114l-192 -391h-84z" />
<glyph unicode="&#x201a;" horiz-adv-x="491" d="M-51 -266l162 391h114l-192 -391h-84z" />
<glyph unicode="&#x201c;" horiz-adv-x="655" d="M209 1059l192 391h84l-161 -391h-115zM434 1059l193 391h84l-162 -391h-115z" />
<glyph unicode="&#x201d;" horiz-adv-x="647" d="M213 1059l162 391h114l-192 -391h-84zM438 1059l162 391h115l-193 -391h-84z" />
<glyph unicode="&#x201e;" horiz-adv-x="716" d="M-51 -266l162 391h114l-192 -391h-84zM174 -266l162 391h115l-193 -391h-84z" />
<glyph unicode="&#x2022;" horiz-adv-x="808" d="M131 596q0 113 79 191.5t191.5 78.5t191.5 -78.5t79 -191.5t-79 -191.5t-191.5 -78.5t-191.5 78.5t-79 191.5z" />
<glyph unicode="&#x2026;" horiz-adv-x="1357" d="M70 0l26 129h125l-26 -129h-125zM506 0l26 129h125l-26 -129h-125zM942 0l27 129h125l-27 -129h-125z" />
<glyph unicode="&#x2039;" horiz-adv-x="673" d="M104 584l394 415h116l-407 -426l258 -415h-98z" />
<glyph unicode="&#x203a;" horiz-adv-x="677" d="M55 158l408 426l-258 415h98l262 -426l-393 -415h-117z" />
<glyph unicode="&#x20ac;" horiz-adv-x="1222" d="M98 539l15 82h112q6 102 35 223h-110l14 82h125q102 236 315 384t459 148q49 0 97 -6t73 -12l22 -6l-36 -82q-70 20 -158 20q-213 0 -397.5 -124t-278.5 -322h672l-31 -82h-672q-31 -113 -39 -223h629l-29 -82h-602q4 -207 131 -342.5t361 -135.5q47 0 93 6.5t69 14.5 l24 6l8 -86q-86 -27 -196 -27q-260 0 -420 157t-162 407h-123z" />
<glyph unicode="&#x2122;" horiz-adv-x="2082" d="M219 1356v78h737v-78h-329v-815h-80v815h-328zM1040 541l72 893h72l258 -553l28 -82h5q10 41 28 82l258 553h72l72 -893h-78l-58 671l3 58h-5l-260 -561h-69l-260 561h-4l2 -58l-58 -671h-78z" />
<glyph unicode="&#xe000;" horiz-adv-x="1025" d="M0 1025h1025v-1025h-1025v1025z" />

<glyph unicode="&#xfb01;" horiz-adv-x="1142" d="M111 944l14 80h194l11 45q25 117 75 198t111.5 114.5t108.5 46t92 12.5l63 -4l-18 -80q-16 4 -45 4q-238 0 -301 -289l-10 -47h581l-156 -788q-6 -37 -6 -60q0 -63 28 -81.5t75 -18.5l55 4l-16 -80q-43 -4 -64 -4q-37 0 -70.5 9t-65.5 49t-32 108q0 16 8 61l142 721h-494 l-182 -944h-86l182 944h-194zM938 1284l31 150h110l-30 -150h-111z" />
<glyph unicode="&#xfb02;" horiz-adv-x="1157" d="M111 944l14 80h194l9 41q78 393 460 393q76 0 148 -10t104 -21l35 -10l-227 -1179q-8 -45 -8 -64q0 -43 17 -66.5t35.5 -27.5t49.5 -4l55 4l-16 -80q-35 -4 -63 -4q-37 0 -71 9t-65.5 49t-31.5 108q0 18 8 63l219 1131q-53 25 -191 24q-61 0 -111 -10t-105.5 -41 t-95.5 -97.5t-58 -164.5l-8 -43h272l-14 -80h-273l-182 -944h-88l182 944h-194z" />
<glyph unicode="&#xfb03;" horiz-adv-x="1755" d="M113 944l14 80h192l11 45q25 117 75 198t112.5 114.5t109.5 46t92 12.5l63 -4l-18 -80q-16 4 -45 4q-238 0 -301 -289l-10 -47h522l10 45q25 117 75 198t112.5 114.5t109.5 46t92 12.5l64 -4l-19 -80q-16 4 -45 4q-238 0 -301 -289l-10 -47h581l-155 -788q-6 -37 -6 -60 q0 -63 27.5 -81.5t74.5 -18.5l55 4l-16 -80q-43 -4 -63 -4q-37 0 -71 9t-65.5 49t-31.5 108q0 16 8 61l141 721h-493l-183 -944h-88l182 944h-522l-182 -944h-88l182 944h-192zM1550 1284l31 150h111l-31 -150h-111z" />
<glyph unicode="&#xfb04;" horiz-adv-x="1767" d="M113 944l14 80h192l11 45q25 117 75 198t112.5 114.5t109.5 46t92 12.5l63 -4l-18 -80q-16 4 -45 4q-238 0 -301 -289l-10 -47h522l8 41q78 393 461 393q76 0 147.5 -10t104.5 -21l35 -10l-228 -1179q-8 -45 -8 -64q0 -43 17.5 -66.5t36 -27.5t48.5 -4l56 4l-17 -80 q-35 -4 -63 -4q-37 0 -71 9t-65.5 49t-31.5 108q0 18 8 63l219 1131q-53 25 -190 24q-61 0 -111.5 -10t-106 -41t-95.5 -97.5t-58 -164.5l-8 -43h272l-14 -80h-272l-183 -944h-88l182 944h-522l-182 -944h-88l182 944h-192z" />
</font>
</defs>
</svg>
