<?xml version="1.0" standalone="no"?>
<!DOCTYPE svg PUBLIC "-//W3C//DTD SVG 1.1//EN" "http://www.w3.org/Graphics/SVG/1.1/DTD/svg11.dtd" >
<svg xmlns="http://www.w3.org/2000/svg">
<metadata></metadata>
<defs>
<font id="BryantProLightRegular" horiz-adv-x="421" >
<font-face units-per-em="2048" ascent="1536" descent="-512" />
<missing-glyph horiz-adv-x="614" />
<glyph unicode="&#xfb01;" horiz-adv-x="1038" d="M61 866q0 9 7 16t16 7h141v164q0 171 73.5 245t242.5 74h43q9 0 15.5 -6.5t6.5 -15.5t-6.5 -16t-15.5 -7h-47q-140 0 -199 -58.5t-59 -217.5v-162h292q9 0 16 -7t7 -16t-7 -15.5t-16 -6.5h-292v-834q0 -10 -8 -18t-19 -8t-19 8t-8 18v834h-141q-9 0 -16 6.5t-7 15.5z M801 10v869q0 11 7.5 18.5t18.5 7.5t19 -8t8 -18v-869q0 -10 -8 -18t-19 -8t-18.5 8t-7.5 18zM801 1102v141q0 11 8 19t18 8q11 0 19 -8t8 -19v-141q0 -10 -8 -18.5t-19 -8.5q-10 0 -18 8t-8 19z" />
<glyph unicode="&#xfb02;" horiz-adv-x="1038" d="M61 866q0 9 7 16t16 7h141v164q0 171 73.5 245t242.5 74h43q9 0 15.5 -6.5t6.5 -15.5t-6.5 -16t-15.5 -7h-47q-140 0 -199 -58.5t-59 -217.5v-162h292q9 0 16 -7t7 -16t-7 -15.5t-16 -6.5h-292v-834q0 -10 -8 -18t-19 -8t-19 8t-8 18v834h-141q-9 0 -16 6.5t-7 15.5z M801 10v1344q0 10 7.5 18t18.5 8t19 -8t8 -18v-1344q0 -10 -8 -18t-19 -8t-18.5 8t-7.5 18z" />
<glyph horiz-adv-x="0" />
<glyph horiz-adv-x="2048" />
<glyph unicode=" "  horiz-adv-x="614" />
<glyph unicode="&#x09;" horiz-adv-x="614" />
<glyph unicode="&#xa0;" horiz-adv-x="614" />
<glyph unicode="!" horiz-adv-x="524" d="M215 39q0 20 13.5 33.5t33.5 13.5t33.5 -13.5t13.5 -33.5t-13.5 -33.5t-33.5 -13.5t-33.5 13.5t-13.5 33.5zM233 784v570q0 10 8 18t19 8t19 -8t8 -18v-570l-8 -446q0 -10 -5.5 -16.5t-13.5 -6.5q-18 0 -18 23z" />
<glyph unicode="&#x22;" horiz-adv-x="759" d="M184 944v412q0 10 7 17t18 7t17.5 -7t6.5 -17v-412q0 -10 -6.5 -17t-17.5 -7t-18 7t-7 17zM526 944v412q0 10 7 17t18 7t17.5 -7t6.5 -17v-412q0 -10 -6.5 -17t-17.5 -7t-18 7t-7 17z" />
<glyph unicode="#" horiz-adv-x="1398" d="M133 446q0 9 7.5 16t17.5 7h213l49 446h-211q-9 0 -16 7t-7 16t7.5 16t19.5 7h211l45 395q3 24 27 24q22 0 22 -24l-45 -395h524l45 395q3 24 27 24q23 0 23 -24l-45 -395h210q10 0 16.5 -7t6.5 -16t-7.5 -16t-17.5 -7h-213l-49 -446h211q9 0 16 -6.5t7 -16.5 q0 -9 -7.5 -15.5t-17.5 -6.5h-215l-45 -416q-3 -24 -27 -24q-22 0 -22 24l45 416h-524l-45 -416q-3 -24 -27 -24q-23 0 -23 24l46 416h-211q-9 0 -15 6.5t-6 15.5zM420 469h524l49 446h-524z" />
<glyph unicode="$" horiz-adv-x="1228" d="M160 203q12 18 35 2q101 -64 216.5 -101.5t225.5 -37.5q182 0 288.5 73.5t106.5 208.5q0 53 -20 95.5t-51 72t-89 58.5t-111.5 48.5t-142.5 47.5q-230 71 -336 156.5t-106 213.5q0 141 113 220.5t307 82.5v216q0 10 7 17t18 7t17.5 -6.5t6.5 -17.5v-218q106 -5 207 -33.5 t172 -78.5q16 -12 2 -29q-13 -15 -39 0q-171 98 -379 98q-184 0 -281.5 -66.5t-97.5 -187.5q0 -52 17.5 -94t47 -73.5t82 -60t108 -50.5t139.5 -49q263 -85 362.5 -162t99.5 -207q0 -139 -112 -232t-324 -96v-215q0 -11 -6.5 -17.5t-17.5 -6.5t-18 7t-7 17v215 q-117 6 -231 48t-205 104q-19 13 -4 31z" />
<glyph unicode="%" horiz-adv-x="1716" d="M143 1071q0 134 89.5 226t228.5 92t228 -92t89 -226t-89 -225.5t-228 -91.5t-228.5 91.5t-89.5 225.5zM188 1071q0 -121 76 -198.5t197 -77.5t196.5 77.5t75.5 198.5t-75.5 199t-196.5 78t-197 -78t-76 -199zM471 -5q-5 11 0 21l752 1356q7 10 20 10q12 0 18.5 -9.5 t0.5 -22.5l-752 -1356q-7 -10 -21 -10q-13 0 -18 11zM948 293q0 134 89.5 225.5t228.5 91.5t228 -91.5t89 -225.5t-89 -226t-228 -92t-228.5 92t-89.5 226zM993 293q0 -121 76 -199t197 -78t196.5 78t75.5 199t-75.5 198.5t-196.5 77.5t-197 -77.5t-76 -198.5z" />
<glyph unicode="&#x26;" horiz-adv-x="1468" d="M184 340q0 77 27.5 143t83 121.5t120.5 100.5t158 94q-51 74 -78 117.5t-53 110.5t-26 124q0 110 68 174t192 64q119 0 188.5 -65.5t69.5 -172.5q0 -92 -70.5 -187t-224.5 -182l358 -546q90 123 158 301q6 14 21 14q10 0 16 -6.5t6 -14.5q0 -6 -2 -12q-74 -189 -172 -319 q67 -97 114 -139t109 -42q52 0 113 25q12 6 20 6q6 0 11.5 -5.5t5.5 -12.5q0 -12 -15 -21q-59 -35 -135 -35q-42 0 -75.5 11t-65 37.5t-55.5 55.5t-60 79q-72 -83 -177.5 -133t-223.5 -50q-178 0 -292 103t-114 262zM238 342q0 -147 104 -234.5t248 -87.5q107 0 206 49 t169 132q1 -1 -71.5 107.5t-166.5 249.5t-133 202q-72 -43 -118.5 -73t-96 -71t-77.5 -79.5t-46 -88.5t-18 -106zM467 1147q0 -23 3.5 -45.5t14 -49t16.5 -42.5t26 -48.5t26 -42.5t32.5 -49.5t30.5 -46.5q126 67 196.5 152.5t70.5 175.5t-58 141t-151 51q-96 0 -151.5 -50 t-55.5 -146z" />
<glyph unicode="'" horiz-adv-x="417" d="M184 944v412q0 10 7 17t18 7t17.5 -7t6.5 -17v-412q0 -10 -6.5 -17t-17.5 -7t-18 7t-7 17z" />
<glyph unicode="(" horiz-adv-x="665" d="M205 553q0 233 67.5 437.5t223.5 453.5q7 10 20 10q12 0 19.5 -7.5t7.5 -16.5q0 -10 -6 -19q-141 -229 -210 -428.5t-69 -429.5t69 -429.5t210 -428.5q6 -9 6 -19q0 -9 -7.5 -16.5t-19.5 -7.5q-13 0 -20 10q-156 249 -223.5 453.5t-67.5 437.5z" />
<glyph unicode=")" horiz-adv-x="665" d="M123 -324q0 10 6 19q141 229 210 428.5t69 429.5t-69 429.5t-210 428.5q-6 9 -6 19q0 9 7.5 16.5t19.5 7.5q13 0 20 -10q156 -249 223.5 -453.5t67.5 -437.5t-67.5 -437.5t-223.5 -453.5q-7 -10 -20 -10q-12 0 -19.5 7.5t-7.5 16.5z" />
<glyph unicode="*" horiz-adv-x="831" d="M92 1098q0 20 21 20h268l-133 230q-4 8 -4 14q0 18 20 18q12 0 19 -10l133 -233l133 233q7 10 18 10q9 0 15 -5t6 -13q0 -6 -4 -14l-133 -230h268q20 0 20 -20q0 -21 -20 -21h-268l133 -227q4 -8 4 -14q0 -8 -6 -14.5t-15 -6.5q-11 0 -18 10l-133 234l-133 -234 q-5 -10 -19 -10q-9 0 -14.5 6.5t-5.5 14.5q0 6 4 14l133 227h-268q-9 0 -15 6t-6 15z" />
<glyph unicode="+" horiz-adv-x="1228" d="M154 662q0 10 7 17t17 7h410v410q0 10 8 18t18 8q11 0 19 -8t8 -18v-410h410q11 0 17.5 -7t6.5 -17q0 -11 -7 -18t-17 -7h-410v-410q0 -10 -8 -18t-19 -8q-10 0 -18 7.5t-8 18.5v410h-410q-10 0 -17 7t-7 18z" />
<glyph unicode="," d="M123 -303q0 8 6 20q64 131 64 320v96q0 25 22 25q10 0 16.5 -7t6.5 -18v-94q0 -198 -68 -346q-8 -17 -23 -17q-11 0 -17.5 6.5t-6.5 14.5z" />
<glyph unicode="-" horiz-adv-x="878" d="M164 508q0 9 6.5 15.5t15.5 6.5h506q9 0 16 -6.5t7 -15.5t-7 -16t-16 -7h-506q-9 0 -15.5 7t-6.5 16z" />
<glyph unicode="." horiz-adv-x="462" d="M205 18v113q0 11 8 19t18 8q11 0 19 -8t8 -19v-113q0 -10 -8 -18t-19 -8t-18.5 8t-7.5 18z" />
<glyph unicode="/" horiz-adv-x="976" d="M184 -195q0 3 4 15l566 1646q6 19 24 19q10 0 17.5 -7.5t7.5 -17.5l-4 -16l-566 -1645q-6 -18 -22 -18q-13 0 -20 7t-7 17z" />
<glyph unicode="0" horiz-adv-x="1384" d="M143 682q0 107 22.5 209.5t69 192.5t111 158t154 107.5t192.5 39.5t192.5 -39.5t154 -107.5t111 -158t69 -192.5t22.5 -209.5t-22.5 -209.5t-69 -192.5t-111 -158t-154 -107.5t-192.5 -39.5t-192.5 39.5t-154 107.5t-111 158t-69 192.5t-22.5 209.5zM197 682 q0 -130 34.5 -248.5t96.5 -210t157 -146t207 -54.5q149 0 264 93.5t173.5 242.5t58.5 323t-58.5 323t-173.5 242.5t-264 93.5q-112 0 -207 -54.5t-157 -146t-96.5 -210t-34.5 -248.5z" />
<glyph unicode="1" horiz-adv-x="716" d="M57 1235q0 19 19 25l362 114q18 6 27 6q27 0 27 -28v-1342q0 -10 -8 -18t-19 -8t-19 8t-8 18v1311l-336 -104q-15 -5 -20 -5q-10 0 -17.5 6.5t-7.5 16.5z" />
<glyph unicode="2" horiz-adv-x="1286" d="M164 25q0 117 24 202.5t80.5 156t135 126t202.5 117.5q80 40 125.5 64t103.5 57t89 56.5t65 55t50.5 60.5t27 65t10.5 76q0 130 -104.5 206t-294.5 76q-125 0 -239 -39.5t-201 -111.5q-8 -8 -21 -8q-9 0 -15.5 7.5t-6.5 16.5q0 11 12 21q88 73 213 116.5t262 43.5 q204 0 326 -87.5t122 -238.5q0 -51 -12 -94.5t-41 -83t-63.5 -72t-93.5 -70t-117 -69t-146 -76.5q-173 -87 -264 -159t-133.5 -164.5t-42.5 -229.5h903q9 0 16 -6.5t7 -15.5t-7 -16t-16 -7h-932q-9 0 -16.5 8t-7.5 17z" />
<glyph unicode="3" horiz-adv-x="1273" d="M115 168q0 12 7.5 18.5t18.5 6.5q8 0 23 -11q197 -159 444 -159q126 0 227 40.5t161.5 121.5t60.5 190q0 159 -122 255.5t-314 96.5h-138q-9 0 -15.5 7t-6.5 16t6.5 15.5t15.5 6.5h135q155 0 254 83t99 206q0 130 -94.5 205t-260.5 75q-173 0 -327 -94q-9 -6 -21 -6 q-10 0 -17 6t-7 15q0 12 14 22q165 105 358 105q186 0 297 -88t111 -238q0 -103 -67.5 -187t-194.5 -124q147 -23 247.5 -124.5t100.5 -252.5q0 -181 -141 -290.5t-361 -109.5q-148 0 -262 45t-219 125q-12 9 -12 23z" />
<glyph unicode="4" horiz-adv-x="1314" d="M82 430q0 11 8 19l823 917q14 14 25 14q12 0 19.5 -7.5t7.5 -18.5v-901h256q9 0 15.5 -7t6.5 -16t-6.5 -15.5t-15.5 -6.5h-256v-398q0 -10 -8 -18t-19 -8t-19 8t-8 18v398h-807q-9 0 -15.5 6.5t-6.5 15.5zM156 453h755v839z" />
<glyph unicode="5" horiz-adv-x="1308" d="M150 180q0 25 26 25q11 0 23 -12q184 -175 458 -175q198 0 324.5 111.5t126.5 282.5q0 169 -118 274t-298 105q-122 0 -222 -41.5t-194 -126.5q-17 -17 -36 -17q-13 0 -19 9.5t-4 21.5l115 704q3 23 28 23h666q9 0 16 -7t7 -16t-7 -15.5t-16 -6.5h-647l-107 -645 q159 162 414 162q215 0 345 -119t130 -305q0 -85 -33.5 -163.5t-95.5 -140t-159.5 -98.5t-215.5 -37q-155 0 -283 50.5t-216 138.5q-8 8 -8 18z" />
<glyph unicode="6" horiz-adv-x="1325" d="M174 457q0 203 89 393t252 332.5t370 201.5q20 5 24 5q10 0 16.5 -5.5t6.5 -13.5q0 -16 -21 -22q-285 -88 -462 -300t-230 -518q40 135 180 218t306 83q222 0 354.5 -115.5t132.5 -303.5q0 -185 -142.5 -311t-355.5 -126q-245 0 -382.5 132t-137.5 350zM236 408 q0 -170 121.5 -279t336.5 -109q187 0 316 113.5t129 276.5q0 176 -120 276t-314 100q-83 0 -165 -25.5t-150.5 -72t-111 -120t-42.5 -160.5z" />
<glyph unicode="7" horiz-adv-x="1085" d="M61 1341q0 9 7 16t16 7h913q12 0 19.5 -7t7.5 -14q0 -10 -4 -16q-96 -125 -167 -230.5t-139.5 -236t-111.5 -256t-69.5 -278.5t-26.5 -316q0 -11 -7.5 -18.5t-19.5 -7.5q-26 0 -26 26q0 161 25.5 313t69 280t109.5 256.5t137.5 235.5t163.5 224h-874q-9 0 -16 6.5 t-7 15.5z" />
<glyph unicode="8" horiz-adv-x="1351" d="M156 371q0 142 103.5 245t260.5 138q-116 34 -195 117.5t-79 189.5q0 98 59.5 173.5t157 115t213.5 39.5t213.5 -39.5t157 -115t59.5 -173.5q0 -106 -79.5 -189.5t-195.5 -117.5q157 -35 261 -138t104 -245q0 -113 -70 -204t-188.5 -141.5t-261.5 -50.5t-261.5 50.5 t-188.5 141.5t-70 204zM209 371q0 -105 66.5 -186.5t172 -123t228.5 -41.5t228.5 41.5t172 123t66.5 186.5q0 107 -69.5 190.5t-175 125.5t-222.5 42t-222.5 -42t-175 -125.5t-69.5 -190.5zM297 1061q0 -120 112 -203.5t267 -83.5t267 83.5t112 203.5q0 122 -106 202 t-273 80t-273 -80t-106 -202z" />
<glyph unicode="9" horiz-adv-x="1318" d="M133 952q0 185 142.5 311t355.5 126q245 0 382.5 -132t137.5 -350q0 -203 -89 -393t-252 -332.5t-370 -201.5q-20 -5 -24 -5q-10 0 -16.5 5.5t-6.5 13.5q0 16 21 22q285 88 462 300t230 518q-40 -135 -180 -218.5t-305 -83.5q-222 0 -355 116t-133 304zM186 954 q0 -176 120.5 -276t314.5 -100q83 0 165 25.5t150.5 72t111 120t42.5 160.5q0 170 -122 278.5t-337 108.5q-187 0 -316 -113t-129 -276z" />
<glyph unicode=":" d="M184 18v113q0 11 8 19t19 8t19 -8t8 -19v-113q0 -10 -8 -18t-19 -8t-19 8t-8 18zM184 627v112q0 11 8 19t19 8t19 -8t8 -19v-112q0 -11 -8 -19t-19 -8t-19 8t-8 19z" />
<glyph unicode=";" d="M119 -303q0 8 6 20q61 132 61 320v96q0 11 7 18t18 7t18 -7t7 -18v-94q0 -194 -70 -346q-8 -17 -23 -17q-11 0 -17.5 6.5t-6.5 14.5zM184 627v112q0 11 8 19t19 8t19 -8t8 -19v-112q0 -11 -8 -19t-19 -8t-19 8t-8 19z" />
<glyph unicode="&#x3c;" horiz-adv-x="1107" d="M113 662q0 11 18 22l766 442q8 4 14 4q11 0 17 -7.5t6 -14.5q0 -15 -14 -23l-740 -423l740 -422q14 -8 14 -23q0 -7 -6 -14.5t-17 -7.5q-6 0 -14 4l-766 442q-18 11 -18 21z" />
<glyph unicode="=" horiz-adv-x="1095" d="M174 496q0 10 7 17t18 7h698q11 0 18 -7t7 -17t-7 -17.5t-18 -7.5h-698q-11 0 -18 7.5t-7 17.5zM174 827q0 11 7 18t18 7h698q11 0 18 -7t7 -18q0 -10 -7 -17t-18 -7h-698q-11 0 -18 7t-7 17z" />
<glyph unicode="&#x3e;" horiz-adv-x="1107" d="M174 217q0 15 14 23l740 422l-740 423q-14 8 -14 23q0 7 6 14.5t17 7.5q6 0 14 -4l766 -442q18 -11 18 -22q0 -10 -18 -21l-766 -442q-8 -4 -14 -4q-11 0 -17 7.5t-6 14.5z" />
<glyph unicode="?" horiz-adv-x="999" d="M123 1243q0 11 12 21q170 125 393 125q175 0 277 -77.5t102 -217.5q0 -92 -50 -168.5t-167 -177.5q-51 -44 -77 -68t-53.5 -54t-37.5 -49t-19.5 -50.5t-11.5 -62t-2 -79.5v-113q0 -10 -7.5 -18t-18.5 -8t-19 8t-8 18v107q0 104 24 171t58 104.5t127 118.5q7 6 10 9 q109 95 154 159.5t45 150.5q0 124 -87.5 185.5t-242.5 61.5q-195 0 -360 -112q-9 -6 -19 -6q-8 0 -15 6.5t-7 15.5zM416 39q0 20 13.5 33.5t33.5 13.5t33.5 -13.5t13.5 -33.5t-13.5 -33.5t-33.5 -13.5t-33.5 13.5t-13.5 33.5z" />
<glyph unicode="@" horiz-adv-x="1558" d="M143 692q0 146 49.5 274t138.5 221.5t220 147.5t287 54q218 0 329 -111.5t111 -310.5v-574q0 -10 -7 -17t-18 -7t-17.5 6.5t-6.5 17.5v150q-48 -86 -126 -134.5t-175 -48.5q-148 0 -249 102.5t-101 248.5t101 247t249 101q96 0 180 -50.5t121 -129.5v86q0 378 -391 378 q-145 0 -266.5 -51t-203 -139.5t-126.5 -207t-45 -253.5q0 -134 49.5 -255t140.5 -214.5t233.5 -149t315.5 -55.5q259 0 526 105q12 4 17 4q18 0 18 -21q0 -11 -18 -20q-244 -111 -543 -111q-182 0 -334 58t-251 157t-153.5 228.5t-54.5 273.5zM627 711q0 -128 85.5 -218 t215.5 -90q128 0 214.5 90.5t86.5 217.5q0 126 -87.5 215.5t-213.5 89.5q-130 0 -215.5 -88.5t-85.5 -216.5z" />
<glyph unicode="A" horiz-adv-x="1462" d="M102 12q0 5 4 13l601 1339q8 16 24 16q17 0 25 -16l600 -1339q4 -8 4 -13q0 -12 -8 -20t-19 -8q-17 0 -24 14l-201 451h-756l-198 -451q-7 -14 -25 -14q-11 0 -19 8t-8 20zM375 498h712l-356 807z" />
<glyph unicode="B" horiz-adv-x="1341" d="M215 27v1310q0 11 8.5 19t18.5 8h487q166 0 277.5 -90t111.5 -246q0 -100 -58.5 -182.5t-170.5 -122.5q61 -7 118.5 -33.5t105.5 -69.5t77 -109t29 -144q0 -72 -27.5 -137t-81 -117t-141 -82.5t-197.5 -30.5h-530q-10 0 -18.5 8t-8.5 19zM268 47h500q193 0 295 91.5 t102 230.5q0 150 -109 236.5t-296 86.5h-492v-645zM268 739h475q147 0 234.5 84.5t87.5 206.5q0 136 -97.5 211.5t-240.5 75.5h-459v-578z" />
<glyph unicode="C" horiz-adv-x="1495" d="M135 682q0 137 49 265t135 226t214 157t276 59q182 0 327 -82t232 -220q4 -8 4 -16q0 -9 -7 -16.5t-17 -7.5q-16 0 -23 12q-88 133 -218 206.5t-298 73.5q-111 0 -210.5 -36t-173.5 -99t-128 -146t-81.5 -179.5t-27.5 -196.5t27.5 -196.5t81.5 -179.5t128 -146t173.5 -99 t210.5 -36q168 0 298 73.5t218 206.5q7 12 23 12q10 0 17 -7.5t7 -16.5t-4 -17q-87 -138 -231.5 -219.5t-327.5 -81.5q-148 0 -276 59t-214 157t-135 226t-49 265z" />
<glyph unicode="D" horiz-adv-x="1454" d="M215 27v1310q0 11 8.5 19t18.5 8h415q148 0 275.5 -55t214 -148t135.5 -217.5t49 -261.5t-49 -261.5t-135.5 -217.5t-214 -148t-275.5 -55h-415q-10 0 -18.5 8t-8.5 19zM268 49h379q144 0 264.5 52t200 139.5t123 201.5t43.5 240t-43.5 240t-123 201.5t-200 139.5 t-264.5 52h-379v-1266z" />
<glyph unicode="E" horiz-adv-x="1204" d="M215 27v1310q0 11 8.5 19t18.5 8h811q10 0 17 -7t7 -18t-6.5 -17.5t-17.5 -6.5h-785v-565h465q11 0 18 -7t7 -18t-7 -18t-18 -7h-465v-651h813q11 0 18 -7t7 -17q0 -11 -7 -18t-18 -7h-839q-10 0 -18.5 8t-8.5 19z" />
<glyph unicode="F" horiz-adv-x="1110" d="M215 10v1327q0 11 8.5 19t18.5 8h802q10 0 17.5 -7t7.5 -18q0 -10 -7 -17t-18 -7h-776v-565h457q11 0 18 -7t7 -18t-7 -18t-18 -7h-457v-690q0 -10 -8 -18t-18 -8q-11 0 -19 8t-8 18z" />
<glyph unicode="G" horiz-adv-x="1533" d="M135 682q0 140 50 268.5t137 225.5t214 155t273 58q147 0 269.5 -53t209.5 -148q6 -6 6 -19q0 -10 -7 -16t-17 -6q-13 0 -21 8q-175 184 -440 184q-110 0 -208.5 -35.5t-172.5 -98.5t-129 -145.5t-83 -179.5t-28 -198q0 -98 26.5 -193.5t79.5 -179.5t126 -148t174 -101 t215 -37q316 0 506 210v345h-447q-9 0 -15.5 6.5t-6.5 15.5t6.5 16t15.5 7h475q9 0 16 -7t7 -16v-364q0 -15 -8 -27q-218 -234 -549 -234q-149 0 -277.5 59t-214 157t-134 225.5t-48.5 265.5z" />
<glyph unicode="H" horiz-adv-x="1505" d="M215 10v1344q0 10 8 18t19 8q10 0 18 -8t8 -18v-637h969v637q0 10 8 18t19 8q10 0 18 -8t8 -18v-1344q0 -10 -8 -18t-18 -8q-11 0 -19 8t-8 18v658h-969v-658q0 -10 -8 -18t-18 -8q-11 0 -19 8t-8 18z" />
<glyph unicode="I" horiz-adv-x="503" d="M225 10v1344q0 10 8 18t19 8t19 -8t8 -18v-1344q0 -10 -8 -18t-19 -8t-19 8t-8 18z" />
<glyph unicode="J" horiz-adv-x="1210" d="M106 352v6q0 25 25 25q20 0 23 -18q24 -157 126 -248.5t267 -91.5q197 0 301 124t104 351v854q0 10 8 18t19 8t19 -8t8 -18v-856q0 -112 -27.5 -205.5t-82 -165.5t-144 -112t-205.5 -40q-180 0 -296.5 102t-144.5 275z" />
<glyph unicode="K" horiz-adv-x="1361" d="M215 10v1344q0 10 8 18t19 8q10 0 18 -8t8 -18v-854l889 872q8 8 19 8t18.5 -7t7.5 -17q0 -11 -10 -21l-502 -491l527 -819q6 -9 6 -17q0 -10 -8 -17t-19 -7q-13 0 -20 10l-523 815l-385 -379v-420q0 -10 -8 -18t-18 -8q-11 0 -19 8t-8 18z" />
<glyph unicode="L" horiz-adv-x="1198" d="M215 27v1327q0 10 8 18t19 8q10 0 18 -8t8 -18v-1305h803q11 0 18 -7t7 -17q0 -11 -7 -18t-18 -7h-829q-10 0 -18.5 8t-8.5 19z" />
<glyph unicode="M" horiz-adv-x="1720" d="M215 10v1342q0 13 8 20.5t19 7.5q18 0 28 -20l590 -1309l590 1309q10 20 29 20q11 0 18.5 -7.5t7.5 -20.5v-1342q0 -10 -7.5 -18t-18.5 -8t-19 8t-8 18v1237l-559 -1241q-9 -22 -33 -22t-33 22l-559 1241v-1237q0 -10 -8 -18t-18 -8q-11 0 -19 8t-8 18z" />
<glyph unicode="N" horiz-adv-x="1490" d="M215 10v1344q0 12 8 19t19 7q14 0 26 -16l955 -1282v1272q0 10 7.5 18t18.5 8t19 -8t8 -18v-1344q0 -11 -8 -18.5t-21 -7.5q-12 0 -24 16l-955 1280v-1270q0 -10 -8 -18t-18 -8q-11 0 -19 8t-8 18z" />
<glyph unicode="O" horiz-adv-x="1622" d="M135 682q0 136 48 263t133.5 226t214.5 158.5t280 59.5t280 -59.5t214.5 -158.5t133.5 -226t48 -263t-48 -263t-133.5 -226t-214.5 -158.5t-280 -59.5t-280 59.5t-214.5 158.5t-133.5 226t-48 263zM188 682q0 -126 44 -244.5t122.5 -210t197.5 -147t259 -55.5t259 55.5 t197.5 147t122.5 210t44 244.5t-44 244.5t-122.5 210t-197.5 147t-259 55.5t-259 -55.5t-197.5 -147t-122.5 -210t-44 -244.5z" />
<glyph unicode="P" horiz-adv-x="1271" d="M215 10v1327q0 11 8.5 19t18.5 8h573q171 0 273 -104t102 -261q0 -156 -102 -260t-273 -104h-547v-625q0 -10 -8 -18t-18 -8q-11 0 -19 8t-8 18zM268 682h555q139 0 226.5 90t87.5 227t-87.5 227.5t-226.5 90.5h-555v-635z" />
<glyph unicode="Q" horiz-adv-x="1622" d="M135 682q0 136 48 263t133.5 226t214.5 158.5t280 59.5t280 -59.5t214.5 -158.5t133.5 -226t48 -263q0 -181 -82 -341.5t-227 -258.5l149 -248q4 -8 4 -14q0 -9 -7 -17t-17 -8q-13 0 -21 12l-151 250q-148 -82 -324 -82q-151 0 -280 59.5t-214.5 158.5t-133.5 226 t-48 263zM188 682q0 -126 44 -244.5t122.5 -210t197.5 -147t259 -55.5q167 0 299 75l-133 222q-4 8 -4 12q0 10 7.5 17t18.5 7q12 0 21 -12l131 -221q133 90 208 239.5t75 317.5q0 126 -44 244.5t-122.5 210t-197.5 147t-259 55.5t-259 -55.5t-197.5 -147t-122.5 -210 t-44 -244.5z" />
<glyph unicode="R" horiz-adv-x="1409" d="M215 14v1323q0 11 8.5 19t18.5 8h628q171 0 273 -102t102 -258q0 -145 -90 -245.5t-242 -113.5l304 -622q4 -8 4 -15q0 -9 -7 -16.5t-16 -7.5q-20 0 -29 18l-311 641h-590v-629q0 -10 -8 -18t-18 -8q-11 0 -19 8t-8 18zM268 690h611q139 0 226 88.5t87 225.5 q0 136 -86.5 224.5t-226.5 88.5h-611v-627z" />
<glyph unicode="S" horiz-adv-x="1290" d="M130 190q12 18 31 9q4 -1 7 -4q98 -77 232.5 -126t256.5 -49q202 0 329.5 80t127.5 215q0 53 -20 96.5t-55 76.5t-96 64t-130 55.5t-170 54.5q-268 78 -376.5 168t-108.5 231q0 103 67 179t175 112.5t241 36.5q286 0 467 -154q9 -9 4 -23t-20 -14q-10 0 -21 8 q-89 67 -201.5 102t-228.5 35q-125 0 -221.5 -32.5t-152.5 -97.5t-56 -154q0 -41 10.5 -76t28.5 -63t48.5 -53.5t63.5 -45t80 -39.5t92 -35.5t105 -33.5q119 -36 201 -66.5t148 -65.5t103 -74t56.5 -86.5t19.5 -107.5q0 -155 -139 -246.5t-371 -91.5q-145 0 -284 53.5 t-236 131.5q-12 8 -12 18q0 5 5 12z" />
<glyph unicode="T" horiz-adv-x="1196" d="M66 1339q0 11 7 18t17 7h1016q10 0 17 -7t7 -18t-7 -17.5t-17 -6.5h-481v-1305q0 -10 -8 -18t-19 -8t-19 8t-8 18v1305h-481q-10 0 -17 6.5t-7 17.5z" />
<glyph unicode="U" horiz-adv-x="1523" d="M205 535v819q0 10 7.5 18t18.5 8t19 -8t8 -18v-832q0 -222 138 -360.5t366 -138.5t366 138.5t138 360.5v832q0 10 8 18t18 8q11 0 19 -8t8 -18v-819q0 -255 -154 -407.5t-403 -152.5t-403 152.5t-154 407.5z" />
<glyph unicode="V" horiz-adv-x="1343" d="M45 1356q0 10 7 17t16 7q16 0 24 -14l580 -1300l579 1300q8 14 25 14q9 0 15.5 -7t6.5 -17q0 -9 -2 -13l-598 -1341q-9 -18 -26 -18q-18 0 -27 18l-598 1341q-2 4 -2 13z" />
<glyph unicode="W" horiz-adv-x="2007" d="M86 1356q0 10 7 17t18 7q18 0 24 -18l410 -1276l432 1272q6 22 27 22q20 0 26 -22l432 -1272l410 1276q6 18 24 18q11 0 18 -7t7 -17l-2 -8l-432 -1346q-7 -18 -23 -18q-17 0 -24 18l-436 1282l-437 -1282q-7 -18 -24 -18q-16 0 -23 18l-432 1346q-2 6 -2 8z" />
<glyph unicode="X" horiz-adv-x="1437" d="M176 8q0 8 6 17l508 661l-500 651q-6 9 -6 19q0 9 8 15.5t17 6.5q13 0 22 -12l488 -639l487 639q9 12 23 12q9 0 16.5 -6.5t7.5 -15.5q0 -10 -6 -19l-499 -651l507 -661q7 -10 7 -17q0 -10 -7 -17t-16 -7q-18 0 -25 10l-495 651l-496 -651q-7 -10 -24 -10q-9 0 -16 7 t-7 17z" />
<glyph unicode="Y" horiz-adv-x="1208" d="M66 1356q0 10 6.5 17t15.5 7q16 0 27 -14l489 -721l490 721q11 14 26 14q9 0 16 -7t7 -17q0 -8 -6 -17l-506 -741v-588q0 -10 -8 -18t-19 -8q-10 0 -18 8t-8 18v588l-506 741q-6 9 -6 17z" />
<glyph unicode="Z" horiz-adv-x="1277" d="M174 23q0 8 8 20l885 1276h-838q-9 0 -15.5 6.5t-6.5 15.5t6.5 16t15.5 7h877q10 0 17 -7t7 -18t-10 -24l-878 -1270h886q9 0 16 -6.5t7 -15.5t-7 -16t-16 -7h-925q-12 0 -20.5 6.5t-8.5 16.5z" />
<glyph unicode="[" horiz-adv-x="610" d="M215 -279v1657q0 10 8.5 18.5t18.5 8.5h252q10 0 17 -7t7 -18q0 -10 -7 -17t-17 -7h-226v-1612h226q10 0 17 -7t7 -18t-7 -17.5t-17 -6.5h-252q-11 0 -19 8t-8 18z" />
<glyph unicode="\" horiz-adv-x="976" d="M174 1460q0 10 7 17.5t18 7.5q18 0 24 -19l565 -1646l5 -15q0 -10 -7 -17t-20 -7q-17 0 -23 18l-565 1645q-4 10 -4 16z" />
<glyph unicode="]" horiz-adv-x="610" d="M92 -281q0 11 7 18t18 7h225v1612h-225q-11 0 -18 7t-7 17t7 17.5t18 7.5h252q10 0 18 -8t8 -19v-1657q0 -11 -7.5 -18.5t-18.5 -7.5h-252q-11 0 -18 7t-7 17z" />
<glyph unicode="^" horiz-adv-x="1015" d="M154 772q0 4 4 12l325 578q11 18 25 18q13 0 24 -18l326 -578q4 -8 4 -12q0 -10 -7 -17t-17 -7q-13 0 -21 12l-309 555l-309 -555q-8 -12 -21 -12q-10 0 -17 7t-7 17z" />
<glyph unicode="_" horiz-adv-x="847" d="M-2 -27h852v-36h-852v36z" />
<glyph unicode="`" horiz-adv-x="712" d="M266 1311q0 8 7 14t16 6q12 0 20 -12l152 -223q6 -9 6 -17t-6.5 -14t-16.5 -6t-18 10l-154 223q-6 12 -6 19z" />
<glyph unicode="a" horiz-adv-x="1124" d="M154 242q0 125 108.5 194.5t282.5 69.5q111 0 208 -38.5t142 -102.5v165q0 167 -87.5 251.5t-256.5 84.5q-167 0 -297 -65q-16 -8 -25 -8q-11 0 -17.5 7t-6.5 17q0 11 16 21q132 75 332 75q188 0 291.5 -100t103.5 -283v-520q0 -10 -8 -18t-18 -8q-11 0 -19 8t-8 18v109 q-47 -68 -140 -106t-210 -38q-162 0 -276.5 73t-114.5 194zM207 242q0 -70 49 -122.5t124 -77t163 -24.5q145 0 248.5 61.5t103.5 160.5t-102 161t-246 62q-158 0 -249 -58.5t-91 -162.5z" />
<glyph unicode="b" horiz-adv-x="1241" d="M184 10v1344q0 10 8 18t19 8t19 -8t8 -18v-699q62 123 169.5 190.5t245.5 67.5q198 0 333.5 -134.5t135.5 -334.5t-135.5 -334.5t-333.5 -134.5q-138 0 -245.5 67.5t-169.5 190.5v-223q0 -10 -8 -18t-19 -8t-19 8t-8 18zM238 444q0 -180 120.5 -299.5t294.5 -119.5 q176 0 296 119t120 300t-120 300.5t-296 119.5q-174 0 -294.5 -120t-120.5 -300z" />
<glyph unicode="c" horiz-adv-x="1112" d="M123 444q0 197 133 333t336 136q123 0 226.5 -57.5t166.5 -155.5q8 -12 8 -22q0 -9 -7 -16t-17 -7q-14 0 -25 15q-61 93 -151 143.5t-201 50.5q-180 0 -298 -122.5t-118 -297.5t118 -297t298 -122q111 0 201 50.5t151 143.5q10 14 25 14q10 0 17 -6.5t7 -15.5 q0 -11 -8 -23q-63 -98 -166.5 -155.5t-226.5 -57.5q-203 0 -336 136t-133 333z" />
<glyph unicode="d" horiz-adv-x="1241" d="M119 444q0 200 135.5 334.5t333.5 134.5q138 0 246 -67.5t170 -190.5v699q0 10 8 18t18 8q11 0 19 -8t8 -18v-1344q0 -10 -8 -18t-19 -8q-10 0 -18 8t-8 18v223q-62 -123 -170 -190.5t-246 -67.5q-198 0 -333.5 134.5t-135.5 334.5zM172 444q0 -181 120 -300t296 -119 q174 0 295 119.5t121 299.5t-121 300t-295 120q-176 0 -296 -119.5t-120 -300.5z" />
<glyph unicode="e" horiz-adv-x="1132" d="M123 444q0 199 129 334t323 135q188 0 316.5 -132.5t128.5 -319.5q0 -25 -27 -25h-815q0 -172 119 -292.5t295 -120.5q109 0 200.5 51t151.5 145q7 12 21 12q11 0 18.5 -7t7.5 -17t-6 -19q-63 -98 -165.5 -155.5t-227.5 -57.5q-135 0 -243 64t-167 170.5t-59 234.5z M180 483h789q-6 156 -120 270.5t-274 114.5q-161 0 -273.5 -111t-121.5 -274z" />
<glyph unicode="f" horiz-adv-x="616" d="M61 866q0 9 7 16t16 7h141v164q0 171 73.5 245t242.5 74h43q9 0 15.5 -6.5t6.5 -15.5t-6.5 -16t-15.5 -7h-47q-140 0 -199 -58.5t-59 -217.5v-162h292q9 0 16 -7t7 -16t-7 -15.5t-16 -6.5h-292v-834q0 -10 -8 -18t-19 -8t-19 8t-8 18v834h-141q-9 0 -16 6.5t-7 15.5z" />
<glyph unicode="g" horiz-adv-x="1241" d="M119 457q0 199 135 327.5t334 128.5q138 0 249.5 -67.5t166.5 -181.5v215q0 11 8 18.5t18 7.5q11 0 19 -8t8 -18v-803q0 -103 -27.5 -188t-82.5 -150t-145.5 -101t-209.5 -36q-217 0 -371 82q-22 11 -22 24q0 9 5 15t13 6q11 0 25 -7q150 -73 350 -73q108 0 189 32.5 t129 91.5t71 133.5t23 164.5v180q-58 -115 -168 -182.5t-248 -67.5q-199 0 -334 129t-135 328zM172 457q0 -180 120.5 -294t295.5 -114t295.5 115t120.5 293t-120.5 292.5t-295.5 114.5t-295.5 -113.5t-120.5 -293.5z" />
<glyph unicode="h" horiz-adv-x="1181" d="M184 10v1344q0 10 8 18t19 8t19 -8t8 -18v-670q52 111 153 170t219 59q185 0 291.5 -111t106.5 -288v-504q0 -10 -8 -18t-19 -8t-19 8t-8 18v506q0 157 -91.5 251.5t-252.5 94.5q-151 0 -261.5 -102.5t-110.5 -253.5v-496q0 -10 -8 -18t-19 -8t-19 8t-8 18z" />
<glyph unicode="i" d="M184 10v869q0 10 8 18t19 8t19 -8t8 -18v-869q0 -10 -8 -18t-19 -8t-19 8t-8 18zM184 1102v141q0 11 8 19t19 8t19 -8t8 -19v-141q0 -10 -8 -18.5t-19 -8.5t-19 8.5t-8 18.5z" />
<glyph unicode="j" d="M-88 -377q0 9 6.5 16t15.5 7h46q120 0 162 61.5t42 204.5v967q0 10 8 18t19 8t19 -8t8 -18v-965q0 -160 -57.5 -236.5t-198.5 -76.5h-48q-9 0 -15.5 6.5t-6.5 15.5zM184 1102v141q0 11 8 19t19 8t19 -8t8 -19v-141q0 -10 -8 -18.5t-19 -8.5t-19 8.5t-8 18.5z" />
<glyph unicode="k" horiz-adv-x="976" d="M184 10v1344q0 10 8 18t19 8t19 -8t8 -18v-918l573 461q11 8 20 8q11 0 18 -7t7 -17q0 -12 -14 -23l-410 -326l428 -503q10 -12 10 -23q0 -8 -7 -15t-19 -7t-21 12l-430 506l-155 -127v-365q0 -10 -8 -18t-19 -8t-19 8t-8 18z" />
<glyph unicode="l" d="M184 10v1344q0 10 8 18t19 8t19 -8t8 -18v-1344q0 -10 -8 -18t-19 -8t-19 8t-8 18z" />
<glyph unicode="m" horiz-adv-x="1918" d="M184 10v869q0 10 8 18t19 8t19 -8t8 -18v-195q48 106 153 167.5t223 61.5q138 0 230 -70.5t127 -187.5q52 119 163 188.5t234 69.5q180 0 278.5 -111t98.5 -288v-504q0 -10 -8 -18t-19 -8q-10 0 -18 8t-8 18v506q0 154 -83.5 250t-240.5 96q-148 0 -262.5 -103 t-114.5 -249v-500q0 -10 -7.5 -18t-18.5 -8t-19 8t-8 18v506q0 154 -83.5 250t-240.5 96q-154 0 -265 -100.5t-111 -251.5v-500q0 -10 -8 -18t-19 -8t-19 8t-8 18z" />
<glyph unicode="n" horiz-adv-x="1181" d="M184 10v869q0 10 8 18t19 8t19 -8t8 -18v-195q52 111 153 170t219 59q185 0 291.5 -111t106.5 -288v-504q0 -10 -8 -18t-19 -8t-19 8t-8 18v506q0 157 -91.5 251.5t-252.5 94.5q-151 0 -261.5 -102.5t-110.5 -253.5v-496q0 -10 -8 -18t-19 -8t-19 8t-8 18z" />
<glyph unicode="o" horiz-adv-x="1183" d="M123 444q0 129 60.5 236t168.5 170t240 63t240 -63t168.5 -170t60.5 -236t-60.5 -236t-168.5 -170t-240 -63t-240 63t-168.5 170t-60.5 236zM176 444q0 -179 119 -299t297 -120t297 120t119 299t-119 299.5t-297 120.5t-297 -120.5t-119 -299.5z" />
<glyph unicode="p" horiz-adv-x="1241" d="M184 -373v1252q0 10 8 18t19 8t19 -8t8 -18v-224q62 123 169.5 190.5t245.5 67.5q198 0 333.5 -134.5t135.5 -334.5t-135.5 -334.5t-333.5 -134.5q-138 0 -245.5 67.5t-169.5 190.5v-606q0 -10 -8 -18t-19 -8t-19 8t-8 18zM238 444q0 -180 120.5 -299.5t294.5 -119.5 q176 0 296 119t120 300t-120 300.5t-296 119.5q-174 0 -294.5 -120t-120.5 -300z" />
<glyph unicode="q" horiz-adv-x="1241" d="M119 444q0 200 135.5 334.5t333.5 134.5q138 0 246 -67.5t170 -190.5v224q0 11 8 18.5t18 7.5q11 0 19 -8t8 -18v-1252q0 -10 -8 -18t-19 -8q-10 0 -18 7.5t-8 18.5v606q-62 -123 -170 -190.5t-246 -67.5q-198 0 -333.5 134.5t-135.5 334.5zM172 444q0 -181 120 -300 t296 -119q174 0 295 119.5t121 299.5t-121 300t-295 120q-176 0 -296 -119.5t-120 -300.5z" />
<glyph unicode="r" horiz-adv-x="661" d="M184 10v869q0 10 8 18t19 8t19 -8t8 -18v-203q40 99 145 164t225 65q9 0 15 -6.5t6 -15.5q0 -23 -21 -23q-149 0 -259.5 -104t-110.5 -252v-494q0 -10 -8 -18t-19 -8t-19 8t-8 18z" />
<glyph unicode="s" horiz-adv-x="935" d="M123 131q0 11 7 18t17 7t19 -9q63 -59 156 -93t172 -34q133 0 209.5 51.5t76.5 133.5q0 84 -66 133.5t-216 87.5q-183 47 -269 107t-86 157q0 109 94 166t250 57q164 0 299 -82q15 -9 15 -20q0 -10 -7 -17.5t-18 -7.5q-6 0 -16 7q-53 33 -129.5 54t-143.5 21 q-133 0 -211.5 -42.5t-78.5 -133.5q0 -35 13.5 -63.5t36 -49t62.5 -39.5t81 -33t104 -32q190 -54 265 -111.5t75 -156.5q0 -103 -91 -167.5t-249 -64.5q-94 0 -195.5 38.5t-167.5 101.5q-8 8 -8 16z" />
<glyph unicode="t" horiz-adv-x="630" d="M53 866q0 9 7 16t16 7h213v305q0 11 8 19t18 8q11 0 19 -8.5t8 -18.5v-305h254q9 0 15.5 -7t6.5 -16t-6.5 -15.5t-15.5 -6.5h-254v-834q0 -10 -8 -18t-19 -8t-18.5 8t-7.5 18v834h-213q-9 0 -16 6.5t-7 15.5z" />
<glyph unicode="u" horiz-adv-x="1181" d="M174 375v504q0 10 8 18t19 8t18.5 -7.5t7.5 -18.5v-506q0 -157 91.5 -251.5t252.5 -94.5q151 0 262 102.5t111 253.5v496q0 10 8 18t19 8t18.5 -7.5t7.5 -18.5v-869q0 -10 -7.5 -18t-18.5 -8t-19 8t-8 18v195q-52 -111 -153.5 -170.5t-219.5 -59.5q-185 0 -291 111.5 t-106 288.5z" />
<glyph unicode="v" horiz-adv-x="933" d="M57 883q0 22 25 22q17 0 24 -18l361 -815l360 815q7 18 25 18q25 0 25 -22q0 -2 -5 -17l-380 -866q-6 -16 -25 -16t-25 16l-381 866q-4 12 -4 17z" />
<glyph unicode="w" horiz-adv-x="1376" d="M66 883q0 22 26 22q17 0 23 -16l270 -803l279 801q7 18 24 18q18 0 25 -18l278 -801l271 803q6 16 22 16q11 0 19 -6t8 -16q0 -7 -4 -19l-293 -862q-6 -18 -23 -18q-18 0 -24 18l-279 795l-278 -795q-6 -18 -25 -18q-17 0 -23 18l-292 862q-4 12 -4 19z" />
<glyph unicode="x" horiz-adv-x="958" d="M106 6q0 8 7 19l336 421l-332 418q-8 12 -8 19q0 9 7 15.5t17 6.5q13 0 23 -10l323 -408l324 408q10 10 22 10q10 0 17.5 -6.5t7.5 -15.5q0 -7 -8 -19l-332 -418l336 -421q6 -9 6 -19q0 -9 -7.5 -15.5t-17.5 -6.5q-13 0 -22 12l-326 410l-325 -410q-9 -12 -23 -12 q-10 0 -17.5 6.5t-7.5 15.5z" />
<glyph unicode="y" horiz-adv-x="933" d="M66 883q0 22 24 22q18 0 25 -18l360 -821l361 821q7 18 24 18q25 0 25 -22q0 -5 -4 -17l-381 -866q-68 -153 -160.5 -253t-226.5 -142q-12 -4 -21 -4q-11 0 -17.5 7t-6.5 17q0 20 24 27q121 35 203 121.5t151 232.5l-376 860q-4 12 -4 17z" />
<glyph unicode="z" horiz-adv-x="962" d="M139 23q0 6 8 18l625 803h-606q-9 0 -16 6.5t-7 15.5t7 16t16 7h657q10 0 16.5 -6.5t6.5 -14.5q0 -9 -6 -18l-629 -805h616q9 0 16 -6.5t7 -15.5t-7 -16t-16 -7h-665q-9 0 -16 7t-7 16z" />
<glyph unicode="{" horiz-adv-x="647" d="M92 543q0 10 7 17t18 7h22q94 0 134 40.5t40 131.5v514q0 75 32 113.5t108 38.5h88q10 0 17 -7t7 -18q0 -10 -6.5 -17t-17.5 -7h-90q-46 0 -65 -22.5t-19 -69.5v-521q0 -93 -38.5 -142t-121.5 -58q83 -9 121.5 -58.5t38.5 -142.5v-520q0 -47 19 -69.5t65 -22.5h90 q10 0 17 -7t7 -18t-6.5 -17.5t-17.5 -6.5h-88q-76 0 -108 38t-32 113v514q0 91 -40 131.5t-134 40.5h-22q-11 0 -18 7t-7 18z" />
<glyph unicode="|" horiz-adv-x="581" d="M266 -381v1862q0 10 7 17t18 7t17.5 -6.5t6.5 -17.5v-1862q0 -11 -7 -18t-17 -7q-11 0 -18 7t-7 18z" />
<glyph unicode="}" horiz-adv-x="647" d="M82 -295q0 11 7 18t17 7h91q46 0 65 22.5t19 69.5v520q0 93 38.5 142.5t120.5 58.5q-82 9 -120.5 58t-38.5 142v521q0 47 -19 69.5t-65 22.5h-91q-10 0 -17 7t-7 17q0 11 7 18t17 7h89q76 0 107.5 -38.5t31.5 -113.5v-514q0 -91 40 -131.5t134 -40.5h22q11 0 18 -7t7 -17 q0 -11 -7.5 -18t-17.5 -7h-22q-94 0 -134 -40.5t-40 -131.5v-514q0 -75 -31.5 -113t-107.5 -38h-89q-10 0 -17 6.5t-7 17.5z" />
<glyph unicode="~" horiz-adv-x="1093" d="M123 494q0 10 8 18q59 59 114 87t120 28q46 0 99.5 -23t94 -50t91.5 -50t93 -23q69 0 115 31t100 98q6 6 15 6q7 0 12.5 -5t5.5 -11q0 -9 -10 -22q-104 -140 -240 -140q-46 0 -99 22.5t-94 49.5t-92.5 49.5t-93.5 22.5q-60 0 -100.5 -22.5t-101.5 -78.5q-6 -6 -17 -6 q-8 0 -14 6t-6 13z" />
<glyph unicode="&#xa1;" horiz-adv-x="524" d="M215 866q0 20 13.5 33.5t33.5 13.5t33.5 -13.5t13.5 -33.5t-13.5 -33.5t-33.5 -13.5t-33.5 13.5t-13.5 33.5zM233 150l9 446q0 22 18 22q19 0 19 -22l8 -446v-523q0 -10 -8 -18t-19 -8t-19 8t-8 18v523z" />
<glyph unicode="&#xa2;" horiz-adv-x="1228" d="M184 682q0 191 125.5 325.5t319.5 143.5v213q0 11 7 18t17 7q11 0 18 -7.5t7 -17.5v-213q115 -6 212 -63t157 -150q8 -12 8 -23q0 -9 -7.5 -15.5t-17.5 -6.5q-14 0 -24 14q-61 93 -151.5 144t-201.5 51q-180 0 -297.5 -122.5t-117.5 -297.5t117.5 -297.5t297.5 -122.5 q111 0 201.5 51t151.5 144q10 14 24 14q10 0 17.5 -6.5t7.5 -15.5q0 -11 -8 -23q-60 -93 -157 -150t-212 -63v-213q0 -10 -7 -17.5t-18 -7.5q-10 0 -17 7t-7 18v213q-194 9 -319.5 143.5t-125.5 325.5z" />
<glyph unicode="&#xa3;" horiz-adv-x="1302" d="M143 25q0 10 7 17t18 7h356v623h-315q-11 0 -18 7t-7 17t7 17.5t18 7.5h315v242q0 205 98 315.5t293 110.5q139 0 236 -39q18 -7 18 -23q0 -22 -22 -22q-9 0 -17 4q-89 30 -210 30q-180 0 -262.5 -94.5t-82.5 -288.5v-235h498q11 0 18 -7.5t7 -17.5t-7 -17t-18 -7h-495 v-623h536q11 0 18 -7t7 -17q0 -11 -7.5 -18t-17.5 -7h-946q-10 0 -17.5 7t-7.5 18z" />
<glyph unicode="&#xa4;" horiz-adv-x="1427" d="M205 180q0 11 6 17l170 168q-123 129 -123 317q0 182 121 313l-168 168q-6 6 -6 17q0 22 22 22q11 0 19 -8l166 -168q127 111 301 111q175 0 301 -113l168 170q8 8 18 8q23 0 23 -22q0 -11 -6 -17l-170 -168q120 -129 120 -313q0 -182 -123 -315l173 -170q6 -6 6 -17 q0 -22 -23 -22q-10 0 -18 8l-170 170q-125 -109 -299 -109t-299 109l-168 -170q-8 -8 -19 -8q-22 0 -22 22zM307 682q0 -172 117.5 -291t288.5 -119t288 119t117 291t-117 291t-288 119t-288.5 -119t-117.5 -291z" />
<glyph unicode="&#xa5;" horiz-adv-x="1241" d="M123 1356q0 10 6.5 17t15.5 7q18 0 27 -14l449 -721l448 721q10 14 27 14q9 0 15.5 -7t6.5 -17q0 -8 -6 -17l-350 -557h270q11 0 18 -7t7 -17t-7.5 -17.5t-17.5 -7.5h-301l-84 -135v-133h385q10 0 17.5 -7.5t7.5 -17.5t-7 -17t-18 -7h-385v-406q0 -10 -7.5 -18t-18.5 -8 t-19 8t-8 18v406h-383q-11 0 -18 7t-7 17t7 17.5t18 7.5h383v133l-86 135h-297q-11 0 -18 7.5t-7 17.5t7 17t18 7h266l-348 557q-6 9 -6 17z" />
<glyph unicode="&#xa6;" horiz-adv-x="581" d="M266 -381v776q0 11 7 18t18 7q10 0 17 -7t7 -18v-776q0 -11 -7 -18t-17 -7q-11 0 -18 7t-7 18zM266 705v776q0 10 7 17t18 7t17.5 -6.5t6.5 -17.5v-776q0 -11 -7 -18t-17 -7q-11 0 -18 7t-7 18z" />
<glyph unicode="&#xa7;" horiz-adv-x="1228" d="M195 -45q0 25 24 25q12 0 23 -11q169 -149 405 -149q146 0 234 60t88 159q0 25 -5 47.5t-19 42.5t-27 36t-40.5 34t-48 30.5t-60.5 31.5t-67.5 31t-78.5 34q-88 38 -143 64.5t-108.5 59t-82 63t-45.5 69t-17 84.5q0 171 211 266q-69 44 -100 94t-31 117q0 119 103 182.5 t284 63.5q176 0 314 -76q16 -8 16 -23q0 -10 -7 -17t-18 -7q-9 0 -18 6q-126 71 -287 71q-153 0 -243.5 -49.5t-90.5 -148.5q0 -103 92 -170q51 -38 205 -105l2 -1h1h1l1 -1h1l1 -1h1l1 -1h1h1l1 -1h1l1 -1h1l1 -1h1l1 -1h1q112 -49 176 -82.5t114 -74t69.5 -84t19.5 -101.5 q0 -163 -174 -268q73 -43 107 -92.5t34 -120.5q0 -115 -102 -189.5t-275 -74.5q-123 0 -240.5 44.5t-199.5 117.5q-10 10 -10 18zM279 668q0 -49 20.5 -88t68.5 -74t99.5 -61t140.5 -64q204 -91 230 -105q166 90 166 240q0 99 -72 160t-264 141q-124 52 -185 88 q-44 -20 -76 -38.5t-63.5 -47t-48 -66.5t-16.5 -85z" />
<glyph unicode="&#xa8;" horiz-adv-x="735" d="M164 1151q0 22 14.5 36.5t36.5 14.5t36.5 -14.5t14.5 -36.5t-14.5 -36.5t-36.5 -14.5t-36.5 14.5t-14.5 36.5zM469 1151q0 22 14.5 36.5t36.5 14.5t36.5 -14.5t14.5 -36.5t-14.5 -36.5t-36.5 -14.5t-36.5 14.5t-14.5 36.5z" />
<glyph unicode="&#xa9;" horiz-adv-x="1705" d="M143 682q0 147 53 277t146 225t226 150t286 55t286 -55t225 -150t145 -225t53 -277t-53 -277t-145 -225t-225 -150t-286 -55t-286 55t-226 150t-146 225t-53 277zM193 682q0 -184 84 -335t236 -239t341 -88t340.5 88t235 239t83.5 335q0 138 -49.5 260t-135.5 210 t-209 139.5t-265 51.5t-265.5 -51.5t-210 -139.5t-136 -210t-49.5 -260zM547 682q0 141 92.5 237.5t232.5 96.5q81 0 150 -37t111 -105q6 -9 6 -18t-7.5 -15.5t-17.5 -6.5q-16 0 -29 20q-73 113 -213 113q-121 0 -197.5 -83t-76.5 -202t76.5 -202t197.5 -83q140 0 213 113 q13 20 29 20q10 0 17.5 -6.5t7.5 -15.5q0 -10 -6 -19q-42 -68 -111 -104.5t-150 -36.5q-140 0 -232.5 96.5t-92.5 237.5z" />
<glyph unicode="&#xaa;" horiz-adv-x="878" d="M174 940q0 85 72 132.5t188 47.5q69 0 131.5 -23t98.5 -65v103q0 215 -224 215q-110 0 -192 -43q-14 -7 -21 -7q-18 0 -18 19q0 10 12 16q90 54 221 54q124 0 193.5 -67t69.5 -187v-347q0 -20 -21 -20q-8 0 -14 5.5t-6 14.5v62q-31 -40 -92.5 -64t-137.5 -24 q-110 0 -185 48.5t-75 129.5zM217 940q0 -66 64 -104.5t151 -38.5q98 0 165 39.5t67 101.5q0 65 -66.5 106t-161.5 41q-101 0 -160 -39t-59 -106z" />
<glyph unicode="&#xab;" horiz-adv-x="1183" d="M143 436q0 10 7 17l346 340q8 8 18 8q11 0 18 -6.5t7 -16.5q0 -9 -9 -18l-329 -324l329 -323q9 -9 9 -19q0 -22 -25 -22q-10 0 -18 8l-346 340q-7 7 -7 16zM614 436q0 10 7 17l346 340q8 8 18 8q11 0 18 -6.5t7 -16.5q0 -9 -9 -18l-329 -324l329 -323q9 -9 9 -19 q0 -22 -25 -22q-10 0 -18 8l-346 340q-7 7 -7 16z" />
<glyph unicode="&#xac;" horiz-adv-x="1300" d="M154 608q0 11 7 18t17 7h873q10 0 17 -7t7 -18v-434q0 -11 -8 -19t-18 -8q-11 0 -19 8.5t-8 18.5v410h-844q-10 0 -17 7t-7 17z" />
<glyph unicode="&#xad;" horiz-adv-x="878" d="M164 508q0 9 6.5 15.5t15.5 6.5h506q9 0 16 -6.5t7 -15.5t-7 -16t-16 -7h-506q-9 0 -15.5 7t-6.5 16z" />
<glyph unicode="&#xae;" horiz-adv-x="884" d="M102 1049q0 93 43 171t121.5 123.5t175.5 45.5q42 0 81.5 -9t73 -25.5t62.5 -40t51.5 -53t38.5 -63t24.5 -71.5t8.5 -78q0 -93 -43 -171t-121.5 -123.5t-175.5 -45.5t-175.5 45.5t-121.5 123.5t-43 171zM141 1049q0 -83 36.5 -152.5t106 -111.5t158.5 -42t158.5 42 t106 111.5t36.5 152.5q0 62 -21.5 117.5t-60.5 97t-95.5 66t-123.5 24.5q-89 0 -158.5 -41.5t-106 -111t-36.5 -152.5zM342 889v325q0 8 5.5 13.5t12.5 5.5h101q49 0 78.5 -27.5t29.5 -77.5q0 -38 -16 -63t-55 -39l75 -129q5 -11 -1.5 -19t-16 -7t-14.5 10l-80 141h-82v-133 q0 -7 -5.5 -13t-13.5 -6q-7 0 -12.5 5.5t-5.5 13.5zM379 1055h82q37 0 54 20.5t17 52.5t-18.5 52t-52.5 20h-82v-145z" />
<glyph unicode="&#xaf;" horiz-adv-x="796" d="M143 1149q0 9 7 15.5t16 6.5h465q9 0 15.5 -6.5t6.5 -15.5t-6.5 -16t-15.5 -7h-465q-9 0 -16 7t-7 16z" />
<glyph unicode="&#xb0;" horiz-adv-x="638" d="M113 1178q0 91 56 151t150 60t150.5 -60.5t56.5 -150.5t-56.5 -150.5t-150.5 -60.5t-150 60t-56 151zM154 1178q0 -76 45.5 -126.5t119.5 -50.5t120 50.5t46 126.5t-46 126t-120 50t-119.5 -50t-45.5 -126z" />
<glyph unicode="&#xb1;" horiz-adv-x="1310" d="M195 25q0 11 6.5 17.5t17.5 6.5h873q10 0 17 -6.5t7 -17.5t-7 -18t-17 -7h-873q-10 0 -17 7t-7 18zM195 662q0 10 6.5 17t17.5 7h410v410q0 10 7.5 18t18.5 8t19 -8t8 -18v-410h410q10 0 17 -7t7 -17q0 -11 -7 -18t-17 -7h-410v-410q0 -10 -8 -18t-19 -8t-18.5 7.5 t-7.5 18.5v410h-410q-10 0 -17 7t-7 18z" />
<glyph unicode="&#xb2;" horiz-adv-x="976" d="M205 567q0 77 16 132.5t54 97.5t81.5 71t116.5 66q67 34 99.5 52t74 44.5t59.5 47.5t31 49t13 61q0 76 -60.5 119t-171.5 43q-139 0 -258 -88q-11 -7 -16 -7q-8 0 -13.5 5.5t-5.5 13.5q0 10 11 18q56 44 130.5 70.5t155.5 26.5q125 0 199 -53.5t74 -147.5 q0 -38 -12.5 -69.5t-32.5 -56t-60 -52.5t-78 -49.5t-104 -55.5q-101 -51 -152.5 -91t-78.5 -95t-27 -135h530q23 0 23 -19q0 -9 -7 -14.5t-16 -5.5h-553q-22 0 -22 22z" />
<glyph unicode="&#xb3;" horiz-adv-x="933" d="M154 651q0 13 14 19t27 -6q97 -91 260 -91q119 0 189.5 57t70.5 154t-69 148t-183 51h-80q-10 0 -17.5 5.5t-7.5 15.5q0 20 25 20h76q91 0 148 47t57 117q0 77 -53.5 118.5t-151.5 41.5q-101 0 -178 -50q-15 -8 -26 -2.5t-11 17.5q0 9 12 18q83 58 203 58q114 0 182 -53 t68 -148q0 -58 -38.5 -106t-109.5 -74q84 -11 141.5 -71.5t57.5 -152.5q0 -109 -82 -180.5t-223 -71.5q-171 0 -291 101q-10 7 -10 18z" />
<glyph unicode="&#xb4;" horiz-adv-x="712" d="M246 1079q0 8 6 17l151 223q8 12 21 12q9 0 15.5 -6t6.5 -14q0 -7 -6 -19l-153 -223q-7 -10 -19 -10q-10 0 -16 6t-6 14z" />
<glyph unicode="&#xb5;" horiz-adv-x="1181" d="M174 -373v1252q0 10 8 18t19 8t18.5 -7.5t7.5 -18.5v-523q0 -150 92.5 -239.5t251.5 -89.5q151 0 262 102.5t111 253.5v496q0 10 8 18t19 8t18.5 -7.5t7.5 -18.5v-869q0 -10 -7.5 -18t-18.5 -8t-19 8t-8 18v195q-52 -111 -153.5 -170.5t-219.5 -59.5q-120 0 -208 48 t-136 135v-531q0 -11 -7.5 -18.5t-18.5 -7.5t-19 8t-8 18z" />
<glyph unicode="&#xb6;" horiz-adv-x="1116" d="M143 1001q0 161 106.5 262t268.5 101h348q25 0 25 -25v-1331q0 -10 -7 -17t-18 -7q-10 0 -17 7t-7 17v1315h-246v-1698q0 -10 -7 -17t-18 -7t-17.5 6.5t-6.5 17.5v1014h-29q-162 0 -268.5 100.5t-106.5 261.5zM193 1001q0 -144 92 -232.5t235 -88.5h27v643h-29 q-141 0 -233 -89t-92 -233z" />
<glyph unicode="&#xb7;" horiz-adv-x="462" d="M205 539v112q0 11 8 19t18 8q11 0 19 -8t8 -19v-112q0 -11 -8 -19t-19 -8q-10 0 -18 8t-8 19z" />
<glyph unicode="&#xb8;" horiz-adv-x="649" d="M164 -346q0 11 10.5 18.5t24.5 1.5q72 -28 137 -28t98 24t33 66q0 47 -36 69.5t-95 22.5q-23 0 -56 -5t-47 -5q-22 0 -22 18q0 6 4 14l78 152h49l-72 -139q33 8 78 8q73 0 121.5 -33.5t48.5 -99.5q0 -62 -47.5 -99.5t-134.5 -37.5q-81 0 -156 30q-16 6 -16 23z" />
<glyph unicode="&#xb9;" horiz-adv-x="688" d="M175.5 1296q2.5 12 17.5 17l194 59q24 8 31 8q24 0 24 -22v-795q0 -9 -6.5 -15.5t-15.5 -6.5t-16 6.5t-7 15.5v768l-190 -59q-15 -5 -24.5 3.5t-7 20.5z" />
<glyph unicode="&#xba;" horiz-adv-x="894" d="M133 1075q0 132 90.5 223t225.5 91q133 0 223 -91.5t90 -222.5q0 -132 -90 -222.5t-223 -90.5q-136 0 -226 90t-90 223zM176 1075q0 -118 77 -195t196 -77q116 0 193 77t77 195q0 117 -77 195t-193 78q-118 0 -195.5 -78t-77.5 -195z" />
<glyph unicode="&#xbb;" horiz-adv-x="1183" d="M174 94q0 11 8 19l330 323l-330 324q-8 8 -8 18t7 16.5t18 6.5q10 0 18 -8l346 -340q6 -6 6 -17q0 -10 -6 -16l-346 -340q-8 -8 -18 -8q-25 0 -25 22zM645 94q0 11 8 19l330 323l-330 324q-8 8 -8 18t7 16.5t18 6.5q10 0 18 -8l346 -340q6 -6 6 -17q0 -10 -6 -16 l-346 -340q-8 -8 -18 -8q-25 0 -25 22z" />
<glyph unicode="&#xbc;" horiz-adv-x="1783" d="M185.5 1296q2.5 12 17.5 17l194 59q24 8 31 8q25 0 25 -22v-795q0 -9 -7 -15.5t-16 -6.5t-15.5 6.5t-6.5 15.5v768l-191 -59q-15 -5 -24.5 3.5t-7 20.5zM365 -4q0 7 6 16l901 1362q9 15 22 15t19 -10.5t-2 -24.5l-903 -1366q-10 -13 -21 -13q-9 0 -15.5 6t-6.5 15z M924 268q0 9 10 19l487 536q13 13 23 13q20 0 20 -23v-524h144q9 0 15.5 -6t6.5 -15t-6.5 -14.5t-15.5 -5.5h-144v-234q0 -9 -6.5 -15.5t-15.5 -6.5t-16 6.5t-7 15.5v234h-475q-20 0 -20 20zM991 289h428v471z" />
<glyph unicode="&#xbd;" horiz-adv-x="1925" d="M185.5 1296q2.5 12 17.5 17l194 59q24 8 31 8q25 0 25 -22v-795q0 -9 -7 -15.5t-16 -6.5t-15.5 6.5t-6.5 15.5v768l-191 -59q-15 -5 -24.5 3.5t-7 20.5zM365 -4q0 7 6 16l901 1362q9 15 22 15t19 -10.5t-2 -24.5l-903 -1366q-10 -13 -21 -13q-9 0 -15.5 6t-6.5 15z M1153 23q0 77 16 132t54 97t81 71t117 66q67 34 99.5 52t74 44.5t59.5 47.5t31 49t13 61q0 76 -60.5 119t-171.5 43q-139 0 -258 -88q-9 -6 -16 -6q-8 0 -13 5.5t-5 12.5q0 11 10 19q122 96 286 96q125 0 199 -53.5t74 -147.5q0 -38 -12.5 -69.5t-32.5 -56t-60 -52.5 t-78 -49.5t-104 -55.5q-101 -51 -152.5 -91t-78.5 -95t-27 -135h531q22 0 22 -19q0 -9 -6.5 -14.5t-15.5 -5.5h-553q-9 0 -16 6.5t-7 16.5z" />
<glyph unicode="&#xbe;" horiz-adv-x="1992" d="M154 651q0 13 14 19t27 -6q97 -91 260 -91q119 0 189.5 57t70.5 154t-69 148t-183 51h-80q-10 0 -17.5 5.5t-7.5 15.5q0 20 25 20h76q91 0 148 47t57 117q0 77 -53.5 118.5t-151.5 41.5q-101 0 -178 -50q-15 -8 -26 -2.5t-11 17.5q0 9 12 18q83 58 203 58q114 0 182 -53 t68 -148q0 -58 -38.5 -106t-109.5 -74q84 -11 141.5 -71.5t57.5 -152.5q0 -109 -82 -180.5t-223 -71.5q-171 0 -291 101q-10 7 -10 18zM573 -4q0 6 7 16l901 1362q9 15 22 15t19 -10.5t-2 -24.5l-904 -1366q-10 -13 -20 -13q-9 0 -16 6t-7 15zM1133 268q0 9 10 19l487 536 q13 13 23 13q20 0 20 -23v-524h144q9 0 15.5 -6t6.5 -15t-6.5 -14.5t-15.5 -5.5h-144v-234q0 -9 -6.5 -15.5t-15.5 -6.5t-16 6.5t-7 15.5v234h-475q-20 0 -20 20zM1200 289h428v471z" />
<glyph unicode="&#xbf;" horiz-adv-x="999" d="M123 -125q0 93 43 160.5t160 165.5q92 76 130.5 120t54 92t15.5 130v94q0 11 8 19t19 8t19 -8t8 -19v-88q0 -38 -2 -67.5t-10 -57.5t-14 -47t-24 -43.5t-28.5 -38t-39.5 -40.5t-45 -41t-57 -48q-74 -62 -108.5 -98.5t-55 -83.5t-20.5 -107q0 -122 85.5 -174.5 t244.5 -52.5q195 0 360 112q10 7 19 7q8 0 15 -7t7 -16q0 -10 -12 -20q-170 -125 -393 -125q-178 0 -278.5 68t-100.5 206zM506 866q0 20 13.5 33.5t33.5 13.5t33.5 -13.5t13.5 -33.5t-13.5 -33.5t-33.5 -13.5t-33.5 13.5t-13.5 33.5z" />
<glyph unicode="&#xc0;" horiz-adv-x="1462" d="M102 12q0 5 4 13l601 1339q8 16 24 16q17 0 25 -16l600 -1339q4 -8 4 -13q0 -12 -8 -20t-19 -8q-17 0 -24 14l-201 451h-756l-198 -451q-7 -14 -25 -14q-11 0 -19 8t-8 20zM375 498h712l-356 807zM551 1710q0 8 6.5 14.5t13.5 6.5q15 0 23 -11l149 -174q7 -11 7 -14 q0 -8 -6 -14.5t-15 -6.5q-11 0 -22 11l-148 170q-8 8 -8 18z" />
<glyph unicode="&#xc1;" horiz-adv-x="1462" d="M102 12q0 5 4 13l601 1339q8 16 24 16q17 0 25 -16l600 -1339q4 -8 4 -13q0 -12 -8 -20t-19 -8q-17 0 -24 14l-201 451h-756l-198 -451q-7 -14 -25 -14q-11 0 -19 8t-8 20zM375 498h712l-356 807zM696 1532q0 5 6 14l150 174q8 11 22 11q8 0 14.5 -6.5t6.5 -14.5 q0 -10 -8 -18l-148 -170q-11 -11 -22 -11q-9 0 -15 6.5t-6 14.5z" />
<glyph unicode="&#xc2;" horiz-adv-x="1462" d="M102 12q0 5 4 13l601 1339q8 16 24 16q17 0 25 -16l600 -1339q4 -8 4 -13q0 -12 -8 -20t-19 -8q-17 0 -24 14l-201 451h-756l-198 -451q-7 -14 -25 -14q-11 0 -19 8t-8 20zM375 498h712l-356 807zM504 1534q0 8 10 18l188 164q15 15 27 15q7 0 27 -15l188 -164 q10 -10 10 -18q0 -9 -7 -16t-15 -7q-7 0 -12 5l-191 165l-190 -165q-5 -5 -13 -5t-15 7t-7 16z" />
<glyph unicode="&#xc3;" horiz-adv-x="1462" d="M102 12q0 5 4 13l601 1339q8 16 24 16q17 0 25 -16l600 -1339q4 -8 4 -13q0 -12 -8 -20t-19 -8q-17 0 -24 14l-201 451h-756l-198 -451q-7 -14 -25 -14q-11 0 -19 8t-8 20zM375 498h712l-356 807zM465 1554q0 10 6 19q34 43 67 67.5t76 24.5q45 0 120 -45t116 -45 q32 0 54 16.5t54 57.5q9 12 23 12q8 0 14 -6t6 -13q0 -8 -8 -20q-25 -31 -39.5 -46t-42.5 -30.5t-59 -15.5q-9 0 -17 0.5t-16.5 2.5t-14 3t-14 4.5t-12.5 5t-13.5 7t-12 7t-14 8t-13.5 7.5q-8 5 -27 17t-27 15.5t-23 8t-32 4.5q-33 0 -57 -19t-49 -53q-9 -12 -23 -12 q-8 0 -15 5.5t-7 12.5z" />
<glyph unicode="&#xc4;" horiz-adv-x="1462" d="M102 12q0 5 4 13l601 1339q8 16 24 16q17 0 25 -16l600 -1339q4 -8 4 -13q0 -12 -8 -20t-19 -8q-17 0 -24 14l-201 451h-756l-198 -451q-7 -14 -25 -14q-11 0 -19 8t-8 20zM375 498h712l-356 807zM508 1614q0 22 14.5 36.5t36.5 14.5t36.5 -14.5t14.5 -36.5t-14.5 -36.5 t-36.5 -14.5t-36.5 14.5t-14.5 36.5zM854 1614q0 22 14.5 36.5t36.5 14.5t36.5 -14.5t14.5 -36.5t-14.5 -36.5t-36.5 -14.5t-36.5 14.5t-14.5 36.5z" />
<glyph unicode="&#xc5;" horiz-adv-x="1462" d="M102 12q0 5 4 13l592 1321q-45 10 -72.5 45.5t-27.5 83.5q0 56 37.5 94.5t95.5 38.5t95.5 -38.5t37.5 -94.5q0 -47 -28 -82.5t-72 -46.5l592 -1321q4 -8 4 -13q0 -12 -8 -20t-19 -8q-17 0 -24 14l-201 451h-756l-198 -451q-7 -14 -25 -14q-11 0 -19 8t-8 20zM375 498h712 l-356 807zM641 1475q0 -41 25 -68t65 -27t65 27t25 68t-25 67.5t-65 26.5t-65 -26.5t-25 -67.5z" />
<glyph unicode="&#xc6;" horiz-adv-x="1908" d="M102 12q0 5 4 13l601 1323q8 16 24 16h1026q11 0 18 -7t7 -18q0 -10 -7 -17t-18 -7h-987l256 -565h473q11 0 18 -7t7 -18t-7 -18t-18 -7h-450l294 -651h443q10 0 17 -6.5t7 -17.5t-7 -18t-17 -7h-461q-18 0 -25 14l-192 435h-756l-198 -451q-7 -14 -25 -14q-11 0 -19 8 t-8 20zM375 498h712l-356 790z" />
<glyph unicode="&#xc7;" horiz-adv-x="1495" d="M135 682q0 137 49 265t135 226t214 157t276 59q182 0 327 -82t232 -220q4 -8 4 -16q0 -9 -7 -16.5t-17 -7.5q-16 0 -23 12q-88 133 -218 206.5t-298 73.5q-111 0 -210.5 -36t-173.5 -99t-128 -146t-81.5 -179.5t-27.5 -196.5t27.5 -196.5t81.5 -179.5t128 -146t173.5 -99 t210.5 -36q168 0 298 73.5t218 206.5q7 12 23 12q10 0 17 -7.5t7 -16.5t-4 -17q-85 -134 -224.5 -215.5t-316.5 -85.5l-57 -112q33 8 78 8q73 0 121.5 -33.5t48.5 -99.5q0 -62 -47.5 -99.5t-134.5 -37.5q-81 0 -156 30q-16 6 -16 23q0 12 10 19t24 1q72 -28 138 -28 q65 0 98 24t33 66q0 47 -36 69.5t-95 22.5q-23 0 -56 -5t-47 -5q-22 0 -22 18q0 6 4 14l63 127q-113 5 -215 45t-179 107t-133.5 154.5t-86 189.5t-29.5 209z" />
<glyph unicode="&#xc8;" horiz-adv-x="1204" d="M215 27v1310q0 11 8.5 19t18.5 8h811q10 0 17 -7t7 -18t-6.5 -17.5t-17.5 -6.5h-785v-565h465q11 0 18 -7t7 -18t-7 -18t-18 -7h-465v-651h813q11 0 18 -7t7 -17q0 -11 -7 -18t-18 -7h-839q-10 0 -18.5 8t-8.5 19zM487 1710q0 8 6.5 14.5t14.5 6.5q14 0 22 -11l150 -174 q6 -9 6 -14q0 -8 -5.5 -14.5t-14.5 -6.5q-12 0 -23 11l-147 170q-9 9 -9 18z" />
<glyph unicode="&#xc9;" horiz-adv-x="1204" d="M215 27v1310q0 11 8.5 19t18.5 8h811q10 0 17 -7t7 -18t-6.5 -17.5t-17.5 -6.5h-785v-565h465q11 0 18 -7t7 -18t-7 -18t-18 -7h-465v-651h813q11 0 18 -7t7 -17q0 -11 -7 -18t-18 -7h-839q-10 0 -18.5 8t-8.5 19zM584 1532q0 5 6 14l149 174q8 11 23 11q7 0 13.5 -6.5 t6.5 -14.5q0 -10 -8 -18l-147 -170q-11 -11 -23 -11q-9 0 -14.5 6.5t-5.5 14.5z" />
<glyph unicode="&#xca;" horiz-adv-x="1204" d="M215 27v1310q0 11 8.5 19t18.5 8h811q10 0 17 -7t7 -18t-6.5 -17.5t-17.5 -6.5h-785v-565h465q11 0 18 -7t7 -18t-7 -18t-18 -7h-465v-651h813q11 0 18 -7t7 -17q0 -11 -7 -18t-18 -7h-839q-10 0 -18.5 8t-8.5 19zM422 1534q0 8 10 18l189 164q15 15 26 15q7 0 27 -15 l188 -164q10 -10 10 -18q0 -9 -7 -16t-15 -7q-7 0 -12 5l-191 165l-190 -165q-5 -5 -13 -5t-15 7t-7 16z" />
<glyph unicode="&#xcb;" horiz-adv-x="1204" d="M215 27v1310q0 11 8.5 19t18.5 8h811q10 0 17 -7t7 -18t-6.5 -17.5t-17.5 -6.5h-785v-565h465q11 0 18 -7t7 -18t-7 -18t-18 -7h-465v-651h813q11 0 18 -7t7 -17q0 -11 -7 -18t-18 -7h-839q-10 0 -18.5 8t-8.5 19zM434 1614q0 22 14.5 36.5t36.5 14.5t37 -14.5t15 -36.5 t-15 -36.5t-37 -14.5t-36.5 14.5t-14.5 36.5zM780 1614q0 22 14.5 36.5t36.5 14.5t37 -14.5t15 -36.5t-15 -36.5t-37 -14.5t-36.5 14.5t-14.5 36.5z" />
<glyph unicode="&#xcc;" horiz-adv-x="503" d="M94 1710q0 8 7 14.5t14 6.5q14 0 22 -11l150 -174q6 -9 6 -14q0 -8 -6 -14.5t-15 -6.5q-11 0 -22 11l-148 170q-8 8 -8 18zM225 10v1344q0 10 8 18t19 8t19 -8t8 -18v-1344q0 -10 -8 -18t-19 -8t-19 8t-8 18z" />
<glyph unicode="&#xcd;" horiz-adv-x="503" d="M205 1532q0 5 6 14l149 174q8 11 23 11q7 0 13.5 -6.5t6.5 -14.5q0 -10 -8 -18l-147 -170q-11 -11 -23 -11q-9 0 -14.5 6.5t-5.5 14.5zM225 10v1344q0 10 8 18t19 8t19 -8t8 -18v-1344q0 -10 -8 -18t-19 -8t-19 8t-8 18z" />
<glyph unicode="&#xce;" horiz-adv-x="503" d="M27 1534q0 8 10 18l188 164q15 15 27 15q7 0 27 -15l188 -164q10 -10 10 -18q0 -9 -7 -16t-15 -7t-13 5l-190 165l-191 -165q-5 -5 -12 -5q-8 0 -15 7t-7 16zM225 10v1344q0 10 8 18t19 8t19 -8t8 -18v-1344q0 -10 -8 -18t-19 -8t-19 8t-8 18z" />
<glyph unicode="&#xcf;" horiz-adv-x="503" d="M29 1614q0 22 14.5 36.5t36.5 14.5t36.5 -14.5t14.5 -36.5t-14.5 -36.5t-36.5 -14.5t-36.5 14.5t-14.5 36.5zM225 10v1344q0 10 8 18t19 8t19 -8t8 -18v-1344q0 -10 -8 -18t-19 -8t-19 8t-8 18zM375 1614q0 22 14.5 36.5t36.5 14.5t36.5 -14.5t14.5 -36.5t-14.5 -36.5 t-36.5 -14.5t-36.5 14.5t-14.5 36.5z" />
<glyph unicode="&#xd0;" horiz-adv-x="1554" d="M113 682q0 11 7 18t17 7h185v630q0 11 8 19t18 8h434q148 0 272 -55t206 -148.5t127 -217t45 -261.5t-45 -261.5t-127 -217t-206 -148.5t-272 -55h-434q-10 0 -18 8t-8 19v630h-185q-10 0 -17 7t-7 18zM375 49h397q116 0 214.5 33.5t170 93t122 139.5t75 173t24.5 194 t-24.5 194t-75 173t-122 139.5t-170 93t-214.5 33.5h-397v-608h338q10 0 17 -7t7 -18t-7 -18t-17 -7h-338v-608z" />
<glyph unicode="&#xd1;" horiz-adv-x="1490" d="M215 10v1344q0 12 8 19t19 7q14 0 26 -16l955 -1282v1272q0 10 7.5 18t18.5 8t19 -8t8 -18v-1344q0 -11 -8 -18.5t-21 -7.5q-12 0 -24 16l-955 1280v-1270q0 -10 -8 -18t-18 -8q-11 0 -19 8t-8 18zM489 1554q0 8 7 19q34 43 67 67.5t76 24.5q14 0 27 -2t22 -4.5t21.5 -9 t18.5 -10t21 -12.5t21 -13q36 -22 56.5 -30.5t47.5 -8.5q33 0 55 17t54 57q9 12 23 12q8 0 14 -6t6 -13q0 -8 -8 -20q-25 -31 -39.5 -46t-42.5 -30.5t-59 -15.5q-9 0 -17 0.5t-16.5 2.5t-14 3t-14 4.5t-12.5 5t-13.5 7t-12 7t-14 8t-13.5 7.5q-8 5 -27 17t-27 15.5t-23 8 t-32 4.5q-33 0 -57 -19t-49 -53q-9 -12 -23 -12q-8 0 -15.5 5.5t-7.5 12.5z" />
<glyph unicode="&#xd2;" horiz-adv-x="1622" d="M135 682q0 136 48 263t133.5 226t214.5 158.5t280 59.5t280 -59.5t214.5 -158.5t133.5 -226t48 -263t-48 -263t-133.5 -226t-214.5 -158.5t-280 -59.5t-280 59.5t-214.5 158.5t-133.5 226t-48 263zM188 682q0 -126 44 -244.5t122.5 -210t197.5 -147t259 -55.5t259 55.5 t197.5 147t122.5 210t44 244.5t-44 244.5t-122.5 210t-197.5 147t-259 55.5t-259 -55.5t-197.5 -147t-122.5 -210t-44 -244.5zM647 1710q0 8 6.5 14.5t14.5 6.5q14 0 22 -11l150 -174q6 -9 6 -14q0 -8 -6 -14.5t-15 -6.5q-11 0 -22 11l-148 170q-8 8 -8 18z" />
<glyph unicode="&#xd3;" horiz-adv-x="1622" d="M135 682q0 136 48 263t133.5 226t214.5 158.5t280 59.5t280 -59.5t214.5 -158.5t133.5 -226t48 -263t-48 -263t-133.5 -226t-214.5 -158.5t-280 -59.5t-280 59.5t-214.5 158.5t-133.5 226t-48 263zM188 682q0 -126 44 -244.5t122.5 -210t197.5 -147t259 -55.5t259 55.5 t197.5 147t122.5 210t44 244.5t-44 244.5t-122.5 210t-197.5 147t-259 55.5t-259 -55.5t-197.5 -147t-122.5 -210t-44 -244.5zM741 1532q0 3 7 14l149 174q8 11 23 11q7 0 13.5 -6.5t6.5 -14.5q0 -10 -8 -18l-148 -170q-11 -11 -22 -11q-9 0 -15 6.5t-6 14.5z" />
<glyph unicode="&#xd4;" horiz-adv-x="1622" d="M135 682q0 136 48 263t133.5 226t214.5 158.5t280 59.5t280 -59.5t214.5 -158.5t133.5 -226t48 -263t-48 -263t-133.5 -226t-214.5 -158.5t-280 -59.5t-280 59.5t-214.5 158.5t-133.5 226t-48 263zM188 682q0 -126 44 -244.5t122.5 -210t197.5 -147t259 -55.5t259 55.5 t197.5 147t122.5 210t44 244.5t-44 244.5t-122.5 210t-197.5 147t-259 55.5t-259 -55.5t-197.5 -147t-122.5 -210t-44 -244.5zM586 1534q0 8 10 18l188 164q15 15 27 15q7 0 27 -15l188 -164q10 -10 10 -18q0 -9 -7 -16t-15 -7t-13 5l-190 165l-190 -165q-5 -5 -13 -5t-15 7 t-7 16z" />
<glyph unicode="&#xd5;" horiz-adv-x="1622" d="M135 682q0 136 48 263t133.5 226t214.5 158.5t280 59.5t280 -59.5t214.5 -158.5t133.5 -226t48 -263t-48 -263t-133.5 -226t-214.5 -158.5t-280 -59.5t-280 59.5t-214.5 158.5t-133.5 226t-48 263zM188 682q0 -126 44 -244.5t122.5 -210t197.5 -147t259 -55.5t259 55.5 t197.5 147t122.5 210t44 244.5t-44 244.5t-122.5 210t-197.5 147t-259 55.5t-259 -55.5t-197.5 -147t-122.5 -210t-44 -244.5zM553 1554q0 10 6 19q34 43 67 67.5t76 24.5q14 0 27 -2.5t22 -4.5t22 -8.5t18.5 -9.5t21.5 -13t21 -13q36 -22 56.5 -30.5t47.5 -8.5q33 0 55 17 t54 57q9 12 22 12q8 0 14.5 -6t6.5 -13q0 -6 -9 -20q-25 -31 -39.5 -46t-42.5 -30.5t-59 -15.5q-9 0 -17 0.5t-16.5 2.5t-14 3t-14 4.5t-12.5 5t-13.5 7t-12 7t-14 8t-13.5 7.5q-9 5 -27.5 16.5t-26 16t-22.5 8.5t-32 4q-33 0 -57.5 -19t-49.5 -53q-9 -12 -23 -12 q-8 0 -15 5.5t-7 12.5z" />
<glyph unicode="&#xd6;" horiz-adv-x="1622" d="M135 682q0 136 48 263t133.5 226t214.5 158.5t280 59.5t280 -59.5t214.5 -158.5t133.5 -226t48 -263t-48 -263t-133.5 -226t-214.5 -158.5t-280 -59.5t-280 59.5t-214.5 158.5t-133.5 226t-48 263zM188 682q0 -126 44 -244.5t122.5 -210t197.5 -147t259 -55.5t259 55.5 t197.5 147t122.5 210t44 244.5t-44 244.5t-122.5 210t-197.5 147t-259 55.5t-259 -55.5t-197.5 -147t-122.5 -210t-44 -244.5zM588 1614q0 22 14.5 36.5t36.5 14.5t36.5 -14.5t14.5 -36.5t-14.5 -36.5t-36.5 -14.5t-36.5 14.5t-14.5 36.5zM934 1614q0 22 14.5 36.5 t36.5 14.5t36.5 -14.5t14.5 -36.5t-14.5 -36.5t-36.5 -14.5t-36.5 14.5t-14.5 36.5z" />
<glyph unicode="&#xd7;" horiz-adv-x="1097" d="M216 972q1 5 4 10t8 8t10 4.5t11 -0.5t11 -7l289 -289l289 289q11 11 25 6t17.5 -18t-6.5 -25l-288 -288l288 -289q11 -11 6.5 -25t-17 -18t-25.5 6l-289 289l-289 -289q-11 -11 -25.5 -6t-18 17.5t6.5 25.5l289 289l-289 288q-5 5 -6.5 11t-0.5 11z" />
<glyph unicode="&#xd8;" horiz-adv-x="1622" d="M135 -106q0 7 6 16l207 250q-102 99 -157.5 236t-55.5 286q0 136 48 263t133.5 226t214.5 158.5t280 59.5q242 0 430 -156l207 250q8 8 18 8q9 0 15 -6.5t6 -14.5q0 -7 -6 -16l-209 -250q103 -101 159 -237.5t56 -284.5q0 -136 -48 -263t-133.5 -226t-214.5 -158.5 t-280 -59.5q-248 0 -430 154l-205 -246q-8 -10 -20 -10q-8 0 -14.5 6.5t-6.5 14.5zM188 682q0 -137 50.5 -263t142.5 -220l827 995q-168 145 -397 145q-140 0 -259 -55.5t-197.5 -147t-122.5 -210t-44 -244.5zM414 168q166 -143 397 -143q140 0 259 55.5t197.5 147 t122.5 210t44 244.5q0 136 -51 263t-144 220z" />
<glyph unicode="&#xd9;" horiz-adv-x="1523" d="M205 535v819q0 10 7.5 18t18.5 8t19 -8t8 -18v-832q0 -222 138 -360.5t366 -138.5t366 138.5t138 360.5v832q0 10 8 18t18 8q11 0 19 -8t8 -18v-819q0 -255 -154 -407.5t-403 -152.5t-403 152.5t-154 407.5zM623 1710q0 8 6.5 14.5t13.5 6.5q15 0 23 -11l149 -174 q6 -9 6 -14q0 -8 -5.5 -14.5t-14.5 -6.5q-12 0 -23 11l-147 170q-8 8 -8 18z" />
<glyph unicode="&#xda;" horiz-adv-x="1523" d="M205 535v819q0 10 7.5 18t18.5 8t19 -8t8 -18v-832q0 -222 138 -360.5t366 -138.5t366 138.5t138 360.5v832q0 10 8 18t18 8q11 0 19 -8t8 -18v-819q0 -255 -154 -407.5t-403 -152.5t-403 152.5t-154 407.5zM719 1532q0 5 6 14l149 174q8 11 23 11q7 0 14 -6.5t7 -14.5 q0 -9 -9 -18l-147 -170q-11 -11 -23 -11q-9 0 -14.5 6.5t-5.5 14.5z" />
<glyph unicode="&#xdb;" horiz-adv-x="1523" d="M205 535v819q0 10 7.5 18t18.5 8t19 -8t8 -18v-832q0 -222 138 -360.5t366 -138.5t366 138.5t138 360.5v832q0 10 8 18t18 8q11 0 19 -8t8 -18v-819q0 -255 -154 -407.5t-403 -152.5t-403 152.5t-154 407.5zM539 1534q0 8 10 18l188 164q15 15 27 15q7 0 27 -15l188 -164 q10 -10 10 -18q0 -9 -7 -16t-15 -7t-13 5l-190 165l-191 -165q-5 -5 -12 -5q-8 0 -15 7t-7 16z" />
<glyph unicode="&#xdc;" horiz-adv-x="1523" d="M205 535v819q0 10 7.5 18t18.5 8t19 -8t8 -18v-832q0 -222 138 -360.5t366 -138.5t366 138.5t138 360.5v832q0 10 8 18t18 8q11 0 19 -8t8 -18v-819q0 -255 -154 -407.5t-403 -152.5t-403 152.5t-154 407.5zM539 1614q0 22 14.5 36.5t36.5 14.5t36.5 -14.5t14.5 -36.5 t-14.5 -36.5t-36.5 -14.5t-36.5 14.5t-14.5 36.5zM885 1614q0 22 14.5 36.5t36.5 14.5t36.5 -14.5t14.5 -36.5t-14.5 -36.5t-36.5 -14.5t-36.5 14.5t-14.5 36.5z" />
<glyph unicode="&#xdd;" horiz-adv-x="1208" d="M66 1356q0 10 6.5 17t15.5 7q16 0 27 -14l489 -721l490 721q11 14 26 14q9 0 16 -7t7 -17q0 -8 -6 -17l-506 -741v-588q0 -10 -8 -18t-19 -8q-10 0 -18 8t-8 18v588l-506 741q-6 9 -6 17zM565 1532q0 5 6 14l150 174q8 11 22 11q7 0 14 -6.5t7 -14.5q0 -10 -8 -18 l-148 -170q-11 -11 -22 -11q-9 0 -15 6.5t-6 14.5z" />
<glyph unicode="&#xde;" horiz-adv-x="1271" d="M215 10v1344q0 10 8 18t19 8q10 0 18 -8t8 -18v-281h547q171 0 273 -104t102 -260q0 -157 -102 -261t-273 -104h-547v-334q0 -10 -8 -18t-18 -8q-11 0 -19 8t-8 18zM268 391h555q139 0 226.5 90.5t87.5 227.5t-87.5 227t-226.5 90h-555v-635z" />
<glyph unicode="&#xdf;" horiz-adv-x="1261" d="M184 10v996q0 181 95 282t282 101q171 0 271 -74t100 -211q0 -67 -31 -122t-100 -136q-12 -14 -34.5 -40.5t-30 -35.5t-22 -27t-18.5 -26.5t-10.5 -23.5t-8 -27.5t-1.5 -28.5q0 -61 44 -99t154 -79q172 -65 233.5 -119.5t61.5 -151.5q0 -95 -82 -154t-225 -59 q-81 0 -165 29t-146 80q-8 8 -8 16q0 11 7 18t15 7q9 0 21 -8q127 -97 278 -97q119 0 185.5 46.5t66.5 121.5q0 80 -49 123.5t-190 98.5q-71 27 -110.5 45.5t-76.5 45.5t-52 60t-15 78q0 25 7 48.5t13 38.5t30 45.5t34 42t49 56.5q46 53 67 81t38.5 69t17.5 84 q0 121 -87 179t-231 58q-167 0 -245 -88.5t-78 -246.5v-996q0 -10 -8 -18t-19 -8t-19 8t-8 18z" />
<glyph unicode="&#xe0;" horiz-adv-x="1124" d="M154 242q0 125 108.5 194.5t282.5 69.5q111 0 208 -38.5t142 -102.5v165q0 167 -87.5 251.5t-256.5 84.5q-167 0 -297 -65q-16 -8 -25 -8q-11 0 -17.5 7t-6.5 17q0 11 16 21q132 75 332 75q188 0 291.5 -100t103.5 -283v-520q0 -10 -8 -18t-18 -8q-11 0 -19 8t-8 18v109 q-47 -68 -140 -106t-210 -38q-162 0 -276.5 73t-114.5 194zM207 242q0 -70 49 -122.5t124 -77t163 -24.5q145 0 248.5 61.5t103.5 160.5t-102 161t-246 62q-158 0 -249 -58.5t-91 -162.5zM434 1311q0 8 7 14t16 6q12 0 20 -12l152 -223q6 -9 6 -17t-6.5 -14t-16.5 -6t-18 10 l-154 223q-6 12 -6 19z" />
<glyph unicode="&#xe1;" horiz-adv-x="1124" d="M154 242q0 125 108.5 194.5t282.5 69.5q111 0 208 -38.5t142 -102.5v165q0 167 -87.5 251.5t-256.5 84.5q-167 0 -297 -65q-16 -8 -25 -8q-11 0 -17.5 7t-6.5 17q0 11 16 21q132 75 332 75q188 0 291.5 -100t103.5 -283v-520q0 -10 -8 -18t-18 -8q-11 0 -19 8t-8 18v109 q-47 -68 -140 -106t-210 -38q-162 0 -276.5 73t-114.5 194zM207 242q0 -70 49 -122.5t124 -77t163 -24.5q145 0 248.5 61.5t103.5 160.5t-102 161t-246 62q-158 0 -249 -58.5t-91 -162.5zM512 1079q0 8 6 17l152 223q8 12 20 12q9 0 16 -6t7 -14q0 -7 -6 -19l-154 -223 q-7 -10 -18 -10q-10 0 -16.5 6t-6.5 14z" />
<glyph unicode="&#xe2;" horiz-adv-x="1124" d="M154 242q0 125 108.5 194.5t282.5 69.5q111 0 208 -38.5t142 -102.5v165q0 167 -87.5 251.5t-256.5 84.5q-167 0 -297 -65q-16 -8 -25 -8q-11 0 -17.5 7t-6.5 17q0 11 16 21q132 75 332 75q188 0 291.5 -100t103.5 -283v-520q0 -10 -8 -18t-18 -8q-11 0 -19 8t-8 18v109 q-47 -68 -140 -106t-210 -38q-162 0 -276.5 73t-114.5 194zM207 242q0 -70 49 -122.5t124 -77t163 -24.5q145 0 248.5 61.5t103.5 160.5t-102 161t-246 62q-158 0 -249 -58.5t-91 -162.5zM332 1079q0 9 10 19l188 178q14 14 27 14t27 -14l188 -178q10 -10 10 -19t-7 -15.5 t-15 -6.5t-12 4l-191 180l-190 -180q-4 -4 -13 -4q-8 0 -15 6.5t-7 15.5z" />
<glyph unicode="&#xe3;" horiz-adv-x="1124" d="M154 242q0 125 108.5 194.5t282.5 69.5q111 0 208 -38.5t142 -102.5v165q0 167 -87.5 251.5t-256.5 84.5q-167 0 -297 -65q-16 -8 -25 -8q-11 0 -17.5 7t-6.5 17q0 11 16 21q132 75 332 75q188 0 291.5 -100t103.5 -283v-520q0 -10 -8 -18t-18 -8q-11 0 -19 8t-8 18v109 q-47 -68 -140 -106t-210 -38q-162 0 -276.5 73t-114.5 194zM207 242q0 -70 49 -122.5t124 -77t163 -24.5q145 0 248.5 61.5t103.5 160.5t-102 161t-246 62q-158 0 -249 -58.5t-91 -162.5zM289 1104q0 9 6 18q34 43 67 67.5t76 24.5q45 0 120 -45t116 -45q32 0 54 16.5 t54 57.5q9 12 23 12q8 0 14 -5.5t6 -12.5q0 -9 -8 -21q-25 -31 -39.5 -46t-42.5 -30.5t-59 -15.5q-9 0 -17 0.5t-16.5 2.5t-14 3t-14 4.5t-12.5 5t-13.5 7t-12 7t-14 8t-13.5 7.5q-8 5 -27 17t-27 15.5t-23 8t-32 4.5q-33 0 -57 -18.5t-49 -52.5q-10 -13 -23 -13q-8 0 -15 6 t-7 13z" />
<glyph unicode="&#xe4;" horiz-adv-x="1124" d="M154 242q0 125 108.5 194.5t282.5 69.5q111 0 208 -38.5t142 -102.5v165q0 167 -87.5 251.5t-256.5 84.5q-167 0 -297 -65q-16 -8 -25 -8q-11 0 -17.5 7t-6.5 17q0 11 16 21q132 75 332 75q188 0 291.5 -100t103.5 -283v-520q0 -10 -8 -18t-18 -8q-11 0 -19 8t-8 18v109 q-47 -68 -140 -106t-210 -38q-162 0 -276.5 73t-114.5 194zM207 242q0 -70 49 -122.5t124 -77t163 -24.5q145 0 248.5 61.5t103.5 160.5t-102 161t-246 62q-158 0 -249 -58.5t-91 -162.5zM373 1151q0 22 14.5 36.5t36.5 14.5t36.5 -14.5t14.5 -36.5t-14.5 -36.5t-36.5 -14.5 t-36.5 14.5t-14.5 36.5zM678 1151q0 22 14.5 36.5t36.5 14.5t36.5 -14.5t14.5 -36.5t-14.5 -36.5t-36.5 -14.5t-36.5 14.5t-14.5 36.5z" />
<glyph unicode="&#xe5;" horiz-adv-x="1124" d="M154 242q0 125 108.5 194.5t282.5 69.5q111 0 208 -38.5t142 -102.5v165q0 167 -87.5 251.5t-256.5 84.5q-167 0 -297 -65q-16 -8 -25 -8q-11 0 -17.5 7t-6.5 17q0 11 16 21q132 75 332 75q188 0 291.5 -100t103.5 -283v-520q0 -10 -8 -18t-18 -8q-11 0 -19 8t-8 18v109 q-47 -68 -140 -106t-210 -38q-162 0 -276.5 73t-114.5 194zM207 242q0 -70 49 -122.5t124 -77t163 -24.5q145 0 248.5 61.5t103.5 160.5t-102 161t-246 62q-158 0 -249 -58.5t-91 -162.5zM438 1165q0 56 37.5 94.5t95.5 38.5t96 -38.5t38 -94.5t-38 -94.5t-96 -38.5 t-95.5 38.5t-37.5 94.5zM481 1165q0 -41 25 -67.5t65 -26.5t65.5 26.5t25.5 67.5t-25.5 68t-65.5 27t-65 -27t-25 -68z" />
<glyph unicode="&#xe6;" horiz-adv-x="1904" d="M154 242q0 123 109 193.5t282 70.5q111 0 208 -38.5t142 -102.5v165q0 167 -87.5 251.5t-256.5 84.5q-167 0 -297 -65q-16 -8 -25 -8q-11 0 -17.5 7t-6.5 17q0 11 16 21q132 75 332 75q156 0 255.5 -72t125.5 -208q50 126 162.5 203t251.5 77q188 0 316 -132.5 t128 -319.5q0 -25 -27 -25h-815q0 -172 119 -292.5t295 -120.5q109 0 200.5 51t151.5 145q7 12 21 12q11 0 18.5 -7t7.5 -17t-6 -19q-63 -98 -165.5 -155.5t-227.5 -57.5q-141 0 -253.5 73t-170.5 190q-3 -117 -112 -190t-283 -73q-162 0 -276.5 73t-114.5 194zM207 242 q0 -70 49 -122.5t124 -77t163 -24.5q150 0 251 61t101 161q0 99 -102 161t-246 62q-158 0 -249 -58.5t-91 -162.5zM952 483h789q-6 157 -119.5 271t-273.5 114q-161 0 -274 -111t-122 -274z" />
<glyph unicode="&#xe7;" horiz-adv-x="1112" d="M123 444q0 197 133 333t336 136q123 0 226.5 -57.5t166.5 -155.5q8 -12 8 -22q0 -9 -7 -16t-17 -7q-14 0 -25 15q-61 93 -151 143.5t-201 50.5q-180 0 -298 -122.5t-118 -297.5t118 -297t298 -122q111 0 201 50.5t151 143.5q10 14 25 14q10 0 17 -6.5t7 -15.5 q0 -11 -8 -23q-61 -94 -158 -150.5t-215 -62.5l-57 -112q33 8 78 8q73 0 121.5 -33.5t48.5 -99.5q0 -62 -47.5 -99.5t-134.5 -37.5q-81 0 -156 30q-16 6 -16 23q0 12 10 19t24 1q72 -28 138 -28q65 0 98 24t33 66q0 47 -36 69.5t-95 22.5q-23 0 -56 -5t-47 -5q-22 0 -22 18 q0 6 4 14l63 127q-193 9 -316.5 142.5t-123.5 324.5z" />
<glyph unicode="&#xe8;" horiz-adv-x="1132" d="M123 444q0 199 129 334t323 135q188 0 316.5 -132.5t128.5 -319.5q0 -25 -27 -25h-815q0 -172 119 -292.5t295 -120.5q109 0 200.5 51t151.5 145q7 12 21 12q11 0 18.5 -7t7.5 -17t-6 -19q-63 -98 -165.5 -155.5t-227.5 -57.5q-135 0 -243 64t-167 170.5t-59 234.5z M180 483h789q-6 156 -120 270.5t-274 114.5q-161 0 -273.5 -111t-121.5 -274zM446 1311q0 8 7 14t16 6q12 0 20 -12l152 -223q6 -9 6 -17t-6 -14t-16 -6q-11 0 -19 10l-153 223q-7 14 -7 19z" />
<glyph unicode="&#xe9;" horiz-adv-x="1132" d="M123 444q0 199 129 334t323 135q188 0 316.5 -132.5t128.5 -319.5q0 -25 -27 -25h-815q0 -172 119 -292.5t295 -120.5q109 0 200.5 51t151.5 145q7 12 21 12q11 0 18.5 -7t7.5 -17t-6 -19q-63 -98 -165.5 -155.5t-227.5 -57.5q-135 0 -243 64t-167 170.5t-59 234.5z M180 483h789q-6 156 -120 270.5t-274 114.5q-161 0 -273.5 -111t-121.5 -274zM489 1079q0 7 7 17l151 223q8 12 21 12q9 0 15.5 -6t6.5 -14q0 -7 -6 -19l-154 -223q-8 -10 -18 -10t-16.5 6t-6.5 14z" />
<glyph unicode="&#xea;" horiz-adv-x="1132" d="M123 444q0 199 129 334t323 135q188 0 316.5 -132.5t128.5 -319.5q0 -25 -27 -25h-815q0 -172 119 -292.5t295 -120.5q109 0 200.5 51t151.5 145q7 12 21 12q11 0 18.5 -7t7.5 -17t-6 -19q-63 -98 -165.5 -155.5t-227.5 -57.5q-135 0 -243 64t-167 170.5t-59 234.5z M180 483h789q-6 156 -120 270.5t-274 114.5q-161 0 -273.5 -111t-121.5 -274zM356 1079q0 8 11 19l188 178q14 14 27 14q12 0 26 -14l189 -178q10 -10 10 -19t-7.5 -15.5t-15.5 -6.5t-12 4l-190 180l-191 -180q-4 -4 -12 -4t-15.5 6.5t-7.5 15.5z" />
<glyph unicode="&#xeb;" horiz-adv-x="1132" d="M123 444q0 199 129 334t323 135q188 0 316.5 -132.5t128.5 -319.5q0 -25 -27 -25h-815q0 -172 119 -292.5t295 -120.5q109 0 200.5 51t151.5 145q7 12 21 12q11 0 18.5 -7t7.5 -17t-6 -19q-63 -98 -165.5 -155.5t-227.5 -57.5q-135 0 -243 64t-167 170.5t-59 234.5z M180 483h789q-6 156 -120 270.5t-274 114.5q-161 0 -273.5 -111t-121.5 -274zM375 1151q0 22 14.5 36.5t36.5 14.5t36.5 -14.5t14.5 -36.5t-14.5 -36.5t-36.5 -14.5t-36.5 14.5t-14.5 36.5zM680 1151q0 22 14.5 36.5t36.5 14.5t36.5 -14.5t14.5 -36.5t-14.5 -36.5 t-36.5 -14.5t-36.5 14.5t-14.5 36.5z" />
<glyph unicode="&#xec;" d="M43 1311q0 8 7 14t16 6q12 0 20 -12l152 -223q6 -9 6 -17t-6.5 -14t-16.5 -6q-11 0 -18 10l-154 223q-6 12 -6 19zM184 10v869q0 10 8 18t19 8t19 -8t8 -18v-869q0 -10 -8 -18t-19 -8t-19 8t-8 18z" />
<glyph unicode="&#xed;" d="M168 1079q0 8 6 17l152 223q8 12 20 12q9 0 16 -6t7 -14q0 -5 -7 -19l-153 -223q-8 -10 -19 -10q-10 0 -16 6t-6 14zM184 10v869q0 10 8 18t19 8t19 -8t8 -18v-869q0 -10 -8 -18t-19 -8t-19 8t-8 18z" />
<glyph unicode="&#xee;" d="M-14 1079q0 9 10 19l188 178q14 14 27 14t27 -14l188 -178q10 -10 10 -19t-7 -15.5t-15 -6.5q-9 0 -13 4l-190 180l-191 -180q-4 -4 -12 -4t-15 6.5t-7 15.5zM184 10v869q0 10 8 18t19 8t19 -8t8 -18v-869q0 -10 -8 -18t-19 -8t-19 8t-8 18z" />
<glyph unicode="&#xef;" d="M8 1151q0 22 14.5 36.5t36.5 14.5t37 -14.5t15 -36.5t-15 -36.5t-37 -14.5t-36.5 14.5t-14.5 36.5zM184 10v869q0 10 8 18t19 8t19 -8t8 -18v-869q0 -10 -8 -18t-19 -8t-19 8t-8 18zM313 1151q0 22 15 36.5t37 14.5t36.5 -14.5t14.5 -36.5t-14.5 -36.5t-36.5 -14.5 t-37 14.5t-15 36.5z" />
<glyph unicode="&#xf0;" horiz-adv-x="1136" d="M133 410q0 188 124 310t308 122q130 0 231 -62.5t154 -175.5q-16 164 -86.5 308.5t-165.5 234.5l-157 -131q-8 -8 -19 -8q-8 0 -14 6t-6 14q0 9 10 19l158 129q-109 106 -264 174q-15 8 -15 18q0 8 6 14.5t13 6.5q10 0 28 -9q162 -69 269 -176l118 99q11 8 21 8 q15 0 18 -17q0 -12 -14 -24l-115 -94q275 -275 275 -740q0 -130 -52.5 -234t-153.5 -165.5t-235 -61.5q-183 0 -309.5 125t-126.5 310zM186 410q0 -167 110 -277t273 -110q173 0 279 109t106 278q0 164 -113.5 274.5t-275.5 110.5q-163 0 -271 -108t-108 -277z" />
<glyph unicode="&#xf1;" horiz-adv-x="1181" d="M184 10v869q0 10 8 18t19 8t19 -8t8 -18v-195q52 111 153 170t219 59q185 0 291.5 -111t106.5 -288v-504q0 -10 -8 -18t-19 -8t-19 8t-8 18v506q0 157 -91.5 251.5t-252.5 94.5q-151 0 -261.5 -102.5t-110.5 -253.5v-496q0 -10 -8 -18t-19 -8t-19 8t-8 18zM326 1104 q0 9 6 18q34 43 67 67.5t76 24.5q45 0 120 -45t116 -45q32 0 54 16.5t54 57.5q9 12 23 12q8 0 14 -5.5t6 -12.5q0 -9 -8 -21q-25 -31 -39.5 -46t-42.5 -30.5t-59 -15.5q-9 0 -17 0.5t-16.5 2.5t-14 3t-14 4.5t-12.5 5t-13.5 7t-12 7t-14 8t-13.5 7.5q-8 5 -27 17t-27 15.5 t-23 8t-32 4.5q-33 0 -57 -18.5t-49 -52.5q-10 -13 -23 -13q-8 0 -15 6t-7 13z" />
<glyph unicode="&#xf2;" horiz-adv-x="1183" d="M123 444q0 129 60.5 236t168.5 170t240 63t240 -63t168.5 -170t60.5 -236t-60.5 -236t-168.5 -170t-240 -63t-240 63t-168.5 170t-60.5 236zM176 444q0 -179 119 -299t297 -120t297 120t119 299t-119 299.5t-297 120.5t-297 -120.5t-119 -299.5zM446 1311q0 8 7 14t16 6 q12 0 20 -12l152 -223q6 -9 6 -17t-6 -14t-16 -6q-11 0 -19 10l-153 223q-7 14 -7 19z" />
<glyph unicode="&#xf3;" horiz-adv-x="1183" d="M123 444q0 129 60.5 236t168.5 170t240 63t240 -63t168.5 -170t60.5 -236t-60.5 -236t-168.5 -170t-240 -63t-240 63t-168.5 170t-60.5 236zM176 444q0 -179 119 -299t297 -120t297 120t119 299t-119 299.5t-297 120.5t-297 -120.5t-119 -299.5zM526 1079q0 8 6 17 l152 223q8 12 21 12q9 0 15.5 -6t6.5 -14q0 -7 -6 -19l-154 -223q-7 -10 -18 -10q-10 0 -16.5 6t-6.5 14z" />
<glyph unicode="&#xf4;" horiz-adv-x="1183" d="M123 444q0 129 60.5 236t168.5 170t240 63t240 -63t168.5 -170t60.5 -236t-60.5 -236t-168.5 -170t-240 -63t-240 63t-168.5 170t-60.5 236zM176 444q0 -179 119 -299t297 -120t297 120t119 299t-119 299.5t-297 120.5t-297 -120.5t-119 -299.5zM367 1079q0 9 10 19 l188 178q14 14 27 14q12 0 26 -14l189 -178q10 -10 10 -19t-7 -15.5t-15 -6.5q-9 0 -13 4l-190 180l-191 -180q-4 -4 -12 -4t-15 6.5t-7 15.5z" />
<glyph unicode="&#xf5;" horiz-adv-x="1183" d="M123 444q0 129 60.5 236t168.5 170t240 63t240 -63t168.5 -170t60.5 -236t-60.5 -236t-168.5 -170t-240 -63t-240 63t-168.5 170t-60.5 236zM176 444q0 -179 119 -299t297 -120t297 120t119 299t-119 299.5t-297 120.5t-297 -120.5t-119 -299.5zM330 1104q0 9 6 18 q34 43 67 67.5t76 24.5q45 0 120 -45t116 -45q32 0 54 16.5t54 57.5q9 12 23 12q8 0 14 -5.5t6 -12.5q0 -9 -8 -21q-25 -31 -39.5 -46t-42.5 -30.5t-59 -15.5q-9 0 -17 0.5t-16.5 2.5t-14 3t-14 4.5t-12.5 5t-13.5 7t-12 7t-14 8t-13.5 7.5q-8 5 -27 17t-27 15.5t-23 8 t-32 4.5q-33 0 -57 -18.5t-49 -52.5q-10 -13 -23 -13q-8 0 -15 6t-7 13z" />
<glyph unicode="&#xf6;" horiz-adv-x="1183" d="M123 444q0 129 60.5 236t168.5 170t240 63t240 -63t168.5 -170t60.5 -236t-60.5 -236t-168.5 -170t-240 -63t-240 63t-168.5 170t-60.5 236zM176 444q0 -179 119 -299t297 -120t297 120t119 299t-119 299.5t-297 120.5t-297 -120.5t-119 -299.5zM389 1151q0 22 14.5 36.5 t36.5 14.5t37 -14.5t15 -36.5t-15 -36.5t-37 -14.5t-36.5 14.5t-14.5 36.5zM694 1151q0 22 14.5 36.5t36.5 14.5t37 -14.5t15 -36.5t-15 -36.5t-37 -14.5t-36.5 14.5t-14.5 36.5z" />
<glyph unicode="&#xf7;" horiz-adv-x="1249" d="M164 662q0 10 7 17t17 7h873q11 0 17.5 -7t6.5 -17q0 -11 -7 -18t-17 -7h-873q-10 0 -17 7t-7 18zM569 307q0 23 16.5 39t39.5 16t39 -16t16 -39t-16 -39t-39 -16t-39.5 16t-16.5 39zM569 1016q0 23 16.5 39t39.5 16t39 -16t16 -39t-16 -39t-39 -16t-39.5 16t-16.5 39z " />
<glyph unicode="&#xf8;" horiz-adv-x="1183" d="M123 -106q0 7 6 16l147 182q-73 65 -113 156t-40 196q0 129 60.5 236t168.5 170t240 63q157 0 280 -90l150 185q8 8 18 8q9 0 15 -6.5t6 -14.5q0 -7 -6 -16l-150 -182q73 -66 114.5 -157.5t41.5 -195.5q0 -129 -60.5 -236t-168.5 -170t-240 -63q-159 0 -281 88l-147 -180 q-8 -10 -21 -10q-7 0 -13.5 6.5t-6.5 14.5zM176 444q0 -193 133 -313l531 653q-111 80 -248 80q-178 0 -297 -120.5t-119 -299.5zM342 104q108 -79 250 -79q178 0 297 120t119 299q0 92 -35.5 174t-98.5 140z" />
<glyph unicode="&#xf9;" horiz-adv-x="1181" d="M174 375v504q0 10 8 18t19 8t18.5 -7.5t7.5 -18.5v-506q0 -157 91.5 -251.5t252.5 -94.5q151 0 262 102.5t111 253.5v496q0 10 8 18t19 8t18.5 -7.5t7.5 -18.5v-869q0 -10 -7.5 -18t-18.5 -8t-19 8t-8 18v195q-52 -111 -153.5 -170.5t-219.5 -59.5q-185 0 -291 111.5 t-106 288.5zM453 1311q0 8 6.5 14t15.5 6q13 0 21 -12l151 -223q6 -9 6 -17t-6 -14t-16 -6q-11 0 -19 10l-153 223q-6 12 -6 19z" />
<glyph unicode="&#xfa;" horiz-adv-x="1181" d="M174 375v504q0 10 8 18t19 8t18.5 -7.5t7.5 -18.5v-506q0 -157 91.5 -251.5t252.5 -94.5q151 0 262 102.5t111 253.5v496q0 10 8 18t19 8t18.5 -7.5t7.5 -18.5v-869q0 -10 -7.5 -18t-18.5 -8t-19 8t-8 18v195q-52 -111 -153.5 -170.5t-219.5 -59.5q-185 0 -291 111.5 t-106 288.5zM530 1079q0 7 7 17l151 223q8 12 21 12q9 0 15.5 -6t6.5 -14q0 -7 -6 -19l-154 -223q-7 -10 -18 -10q-10 0 -16.5 6t-6.5 14z" />
<glyph unicode="&#xfb;" horiz-adv-x="1181" d="M174 375v504q0 10 8 18t19 8t18.5 -7.5t7.5 -18.5v-506q0 -157 91.5 -251.5t252.5 -94.5q151 0 262 102.5t111 253.5v496q0 10 8 18t19 8t18.5 -7.5t7.5 -18.5v-869q0 -10 -7.5 -18t-18.5 -8t-19 8t-8 18v195q-52 -111 -153.5 -170.5t-219.5 -59.5q-185 0 -291 111.5 t-106 288.5zM371 1079q0 9 10 19l188 178q14 14 27 14t27 -14l188 -178q10 -10 10 -19t-7 -15.5t-15 -6.5q-9 0 -13 4l-190 180l-190 -180q-4 -4 -13 -4q-8 0 -15 6.5t-7 15.5z" />
<glyph unicode="&#xfc;" horiz-adv-x="1181" d="M174 375v504q0 10 8 18t19 8t18.5 -7.5t7.5 -18.5v-506q0 -157 91.5 -251.5t252.5 -94.5q151 0 262 102.5t111 253.5v496q0 10 8 18t19 8t18.5 -7.5t7.5 -18.5v-869q0 -10 -7.5 -18t-18.5 -8t-19 8t-8 18v195q-52 -111 -153.5 -170.5t-219.5 -59.5q-185 0 -291 111.5 t-106 288.5zM391 1151q0 22 14.5 36.5t36.5 14.5t37 -14.5t15 -36.5t-15 -36.5t-37 -14.5t-36.5 14.5t-14.5 36.5zM696 1151q0 22 15 36.5t37 14.5t36.5 -14.5t14.5 -36.5t-14.5 -36.5t-36.5 -14.5t-37 14.5t-15 36.5z" />
<glyph unicode="&#xfd;" horiz-adv-x="933" d="M66 883q0 22 24 22q18 0 25 -18l360 -821l361 821q7 18 24 18q25 0 25 -22q0 -5 -4 -17l-381 -866q-68 -153 -160.5 -253t-226.5 -142q-12 -4 -21 -4q-11 0 -17.5 7t-6.5 17q0 20 24 27q121 35 203 121.5t151 232.5l-376 860q-4 12 -4 17zM432 1079q0 8 6 17l152 223 q8 12 20 12q9 0 16 -6t7 -14q0 -7 -6 -19l-154 -223q-7 -10 -18 -10q-10 0 -16.5 6t-6.5 14z" />
<glyph unicode="&#xfe;" horiz-adv-x="1241" d="M184 -373v1727q0 10 8 18t19 8t19 -8t8 -18v-699q62 123 169.5 190.5t245.5 67.5q198 0 333.5 -134.5t135.5 -334.5t-135.5 -334.5t-333.5 -134.5q-138 0 -245.5 67.5t-169.5 190.5v-606q0 -10 -8 -18t-19 -8t-19 8t-8 18zM238 444q0 -180 120.5 -299.5t294.5 -119.5 q176 0 296 119t120 300t-120 300.5t-296 119.5q-174 0 -294.5 -120t-120.5 -300z" />
<glyph unicode="&#xff;" horiz-adv-x="933" d="M66 883q0 22 24 22q18 0 25 -18l360 -821l361 821q7 18 24 18q25 0 25 -22q0 -5 -4 -17l-381 -866q-68 -153 -160.5 -253t-226.5 -142q-12 -4 -21 -4q-11 0 -17.5 7t-6.5 17q0 20 24 27q121 35 203 121.5t151 232.5l-376 860q-4 12 -4 17zM272 1151q0 22 15 36.5t37 14.5 t36.5 -14.5t14.5 -36.5t-14.5 -36.5t-36.5 -14.5t-37 14.5t-15 36.5zM578 1151q0 22 14.5 36.5t36.5 14.5t36.5 -14.5t14.5 -36.5t-14.5 -36.5t-36.5 -14.5t-36.5 14.5t-14.5 36.5z" />
<glyph unicode="&#x152;" horiz-adv-x="2422" d="M135 682q0 136 48 263t133.5 226t214.5 158.5t280 59.5q221 0 390 -126.5t233 -318.5v393q0 11 8 19t18 8h811q11 0 18 -7t7 -18q0 -10 -7 -17t-18 -7h-784v-565h444q11 0 18 -7t7 -18t-7 -18t-18 -7h-444v-651h813q10 0 17 -6.5t7 -17.5t-7 -18t-17 -7h-840q-10 0 -18 8 t-8 19v391q-71 -191 -237.5 -317t-385.5 -126q-151 0 -280 59.5t-214.5 158.5t-133.5 226t-48 263zM188 682q0 -126 44 -244.5t122.5 -210t197.5 -147t259 -55.5t259 55.5t197.5 147t122.5 210t44 244.5t-44 244.5t-122.5 210t-197.5 147t-259 55.5t-259 -55.5t-197.5 -147 t-122.5 -210t-44 -244.5z" />
<glyph unicode="&#x153;" horiz-adv-x="2017" d="M123 444q0 129 60.5 236t168.5 170t240 63q156 0 274 -86t166 -229q43 140 159.5 227.5t268.5 87.5q188 0 316.5 -132.5t128.5 -319.5q0 -25 -27 -25h-815q0 -173 117.5 -293t296.5 -120q109 0 200.5 51t151.5 145q7 12 20 12q11 0 19 -7t8 -17t-6 -19 q-63 -98 -165.5 -155.5t-227.5 -57.5q-158 0 -280 90.5t-163 225.5q-43 -140 -164.5 -228t-277.5 -88q-132 0 -240 63t-168.5 170t-60.5 236zM176 444q0 -179 119 -299t297 -120t297 120t119 299t-119 299.5t-297 120.5t-297 -120.5t-119 -299.5zM1065 483h788 q-6 157 -119.5 271t-273.5 114q-161 0 -273.5 -111t-121.5 -274z" />
<glyph unicode="&#x178;" horiz-adv-x="1208" d="M66 1356q0 10 6.5 17t15.5 7q16 0 27 -14l489 -721l490 721q11 14 26 14q9 0 16 -7t7 -17q0 -8 -6 -17l-506 -741v-588q0 -10 -8 -18t-19 -8q-10 0 -18 8t-8 18v588l-506 741q-6 9 -6 17zM381 1614q0 22 14.5 36.5t36.5 14.5t36.5 -14.5t14.5 -36.5t-14.5 -36.5 t-36.5 -14.5t-36.5 14.5t-14.5 36.5zM727 1614q0 22 14.5 36.5t36.5 14.5t36.5 -14.5t14.5 -36.5t-14.5 -36.5t-36.5 -14.5t-36.5 14.5t-14.5 36.5z" />
<glyph unicode="&#x2c6;" horiz-adv-x="737" d="M143 1079q0 8 11 19l188 178q14 14 27 14q12 0 26 -14l189 -178q10 -10 10 -19t-7.5 -15.5t-15.5 -6.5t-12 4l-190 180l-191 -180q-4 -4 -12 -4t-15.5 6.5t-7.5 15.5z" />
<glyph unicode="&#x2dc;" horiz-adv-x="823" d="M143 1104q0 8 7 18q34 43 67 67.5t76 24.5q14 0 27 -2t22 -4.5t21.5 -9t18.5 -10t21 -12.5t21 -13q36 -22 56.5 -30.5t47.5 -8.5q33 0 55 17t54 57q9 12 22 12q8 0 14.5 -5.5t6.5 -12.5q0 -9 -8 -21q-25 -30 -40 -45.5t-43 -31t-59 -15.5q-9 0 -17 0.5t-16.5 2.5t-14 3 t-14 4.5t-12.5 5t-13.5 7t-12 7t-14 8t-13.5 7.5q-9 5 -27.5 16.5t-26 16t-22.5 8.5t-32 4q-55 0 -107 -71q-10 -13 -22 -13q-8 0 -15.5 6t-7.5 13z" />
<glyph unicode="&#x2000;" horiz-adv-x="865" />
<glyph unicode="&#x2001;" horiz-adv-x="1731" />
<glyph unicode="&#x2002;" horiz-adv-x="865" />
<glyph unicode="&#x2003;" horiz-adv-x="1731" />
<glyph unicode="&#x2004;" horiz-adv-x="577" />
<glyph unicode="&#x2005;" horiz-adv-x="432" />
<glyph unicode="&#x2006;" horiz-adv-x="288" />
<glyph unicode="&#x2007;" horiz-adv-x="288" />
<glyph unicode="&#x2008;" horiz-adv-x="216" />
<glyph unicode="&#x2009;" horiz-adv-x="346" />
<glyph unicode="&#x200a;" horiz-adv-x="96" />
<glyph unicode="&#x2010;" horiz-adv-x="878" d="M164 508q0 9 6.5 15.5t15.5 6.5h506q9 0 16 -6.5t7 -15.5t-7 -16t-16 -7h-506q-9 0 -15.5 7t-6.5 16z" />
<glyph unicode="&#x2011;" horiz-adv-x="878" d="M164 508q0 9 6.5 15.5t15.5 6.5h506q9 0 16 -6.5t7 -15.5t-7 -16t-16 -7h-506q-9 0 -15.5 7t-6.5 16z" />
<glyph unicode="&#x2012;" horiz-adv-x="878" d="M164 508q0 9 6.5 15.5t15.5 6.5h506q9 0 16 -6.5t7 -15.5t-7 -16t-16 -7h-506q-9 0 -15.5 7t-6.5 16z" />
<glyph unicode="&#x2013;" horiz-adv-x="1083" d="M164 508q0 9 6.5 15.5t15.5 6.5h711q9 0 16 -6.5t7 -15.5t-7 -16t-16 -7h-711q-9 0 -15.5 7t-6.5 16z" />
<glyph unicode="&#x2014;" horiz-adv-x="1472" d="M164 508q0 9 6.5 15.5t15.5 6.5h1100q9 0 16 -6.5t7 -15.5t-7 -16t-16 -7h-1100q-9 0 -15.5 7t-6.5 16z" />
<glyph unicode="&#x2018;" horiz-adv-x="411" d="M174 924v94q0 198 68 346q8 16 22 16q11 0 18 -6t7 -14q0 -9 -6 -21q-64 -131 -64 -319v-96q0 -25 -22 -25q-10 0 -16.5 7t-6.5 18z" />
<glyph unicode="&#x2019;" horiz-adv-x="411" d="M143 920q0 6 7 20q63 128 63 320v96q0 24 23 24q22 0 22 -24v-94q0 -199 -68 -347q-8 -16 -22 -16q-11 0 -18 6.5t-7 14.5z" />
<glyph unicode="&#x201a;" d="M123 -303q0 8 6 20q64 131 64 320v96q0 25 22 25q10 0 16.5 -7t6.5 -18v-94q0 -198 -68 -346q-8 -17 -23 -17q-11 0 -17.5 6.5t-6.5 14.5z" />
<glyph unicode="&#x201c;" horiz-adv-x="733" d="M174 924v94q0 198 68 346q8 16 22 16q11 0 18 -6t7 -14q0 -9 -6 -21q-64 -131 -64 -319v-96q0 -25 -22 -25q-10 0 -16.5 7t-6.5 18zM496 924v94q0 201 67 346q8 16 23 16q24 0 24 -20q0 -9 -6 -21q-63 -128 -63 -319v-96q0 -11 -6.5 -18t-16.5 -7q-22 0 -22 25z" />
<glyph unicode="&#x201d;" horiz-adv-x="733" d="M143 920q0 6 7 20q63 128 63 320v96q0 24 23 24q22 0 22 -24v-94q0 -199 -68 -347q-8 -16 -22 -16q-11 0 -18 6.5t-7 14.5zM465 920q0 8 6 20q64 131 64 320v96q0 24 22 24q23 0 23 -24v-94q0 -199 -68 -347q-8 -16 -23 -16q-11 0 -17.5 6.5t-6.5 14.5z" />
<glyph unicode="&#x201e;" horiz-adv-x="743" d="M123 -303q0 8 6 20q64 131 64 320v96q0 25 22 25q10 0 16.5 -7t6.5 -18v-94q0 -198 -68 -346q-8 -17 -23 -17q-11 0 -17.5 6.5t-6.5 14.5zM444 -303q0 6 7 20q63 128 63 320v96q0 11 6.5 18t16.5 7q22 0 22 -25v-94q0 -201 -67 -346q-8 -17 -23 -17q-11 0 -18 6.5 t-7 14.5z" />
<glyph unicode="&#x2022;" horiz-adv-x="774" d="M174 662q0 89 62 150.5t151 61.5t151 -61.5t62 -150.5t-62 -151t-151 -62t-151 62t-62 151z" />
<glyph unicode="&#x2026;" horiz-adv-x="1388" d="M205 18v113q0 11 8 19t18 8q11 0 19 -8t8 -19v-113q0 -10 -8 -18t-19 -8t-18.5 8t-7.5 18zM668 18v113q0 11 8 19t18 8t18.5 -8t8.5 -19v-113q0 -10 -8 -18t-19 -8q-10 0 -18 8t-8 18zM1130 18v113q0 11 8 19t19 8t19 -8t8 -19v-113q0 -10 -8 -18t-19 -8t-19 8t-8 18z " />
<glyph unicode="&#x202f;" horiz-adv-x="346" />
<glyph unicode="&#x2039;" horiz-adv-x="712" d="M143 436q0 10 7 17l346 340q8 8 18 8q11 0 18 -6.5t7 -16.5q0 -9 -9 -18l-329 -324l329 -323q9 -9 9 -19q0 -22 -25 -22q-10 0 -18 8l-346 340q-7 7 -7 16z" />
<glyph unicode="&#x203a;" horiz-adv-x="712" d="M174 94q0 11 8 19l330 323l-330 324q-8 8 -8 18t7 16.5t18 6.5q10 0 18 -8l346 -340q6 -6 6 -17q0 -10 -6 -16l-346 -340q-8 -8 -18 -8q-25 0 -25 22z" />
<glyph unicode="&#x205f;" horiz-adv-x="432" />
<glyph unicode="&#x20ac;" horiz-adv-x="1480" d="M113 524q0 9 6.5 16t15.5 7h172q-8 57 -8 135q0 75 8 135h-172q-9 0 -15.5 7t-6.5 16t6.5 15.5t15.5 6.5h180q20 111 65.5 205.5t113 167t161.5 113.5t205 41q159 0 275 -82t188 -217q4 -8 4 -17t-7 -16.5t-17 -7.5q-16 0 -23 12q-151 278 -420 278q-98 0 -181.5 -37.5 t-144 -103.5t-102 -151.5t-61.5 -184.5h424q9 0 15.5 -6.5t6.5 -15.5t-6.5 -16t-15.5 -7h-433q-10 -75 -10 -135q0 -63 10 -135h433q9 0 15.5 -7t6.5 -16t-6.5 -15.5t-15.5 -6.5h-424q20 -100 61.5 -185.5t102 -151t144 -103t181.5 -37.5q269 0 420 278q7 12 23 12 q10 0 17 -7.5t7 -16.5t-4 -17q-72 -135 -188 -217t-275 -82q-111 0 -205 41t-161.5 113.5t-113 167t-65.5 205.5h-180q-9 0 -15.5 6.5t-6.5 15.5z" />
<glyph unicode="&#x2122;" horiz-adv-x="1538" d="M133 1346q0 18 21 18h460q21 0 21 -18q0 -9 -6.5 -15t-14.5 -6h-208v-551q0 -20 -21 -20q-9 0 -16 5.5t-7 14.5v551h-208q-8 0 -14.5 6t-6.5 15zM762 774v578q0 20 20 20q14 0 23 -18l258 -541l258 541q9 18 22 18q21 0 21 -20v-578q0 -20 -21 -20q-20 0 -20 20v488 l-238 -492q-8 -16 -22 -16q-15 0 -23 16l-237 492v-488q0 -20 -21 -20q-20 0 -20 20z" />
<glyph unicode="&#xe000;" horiz-adv-x="901" d="M0 0v901h901v-901h-901z" />
</font>
</defs>
</svg>
