<?xml version="1.0" standalone="no"?>
<!DOCTYPE svg PUBLIC "-//W3C//DTD SVG 1.1//EN" "http://www.w3.org/Graphics/SVG/1.1/DTD/svg11.dtd" >
<svg xmlns="http://www.w3.org/2000/svg">
<metadata>
This is a custom SVG webfont generated by Font Squirrel.
Copyright   : Copyright c 2012 by Disney All rights reserved Designed by Michael Cina and Matthew Desmond of Cina Associates
Designer    : Cina Associates
Foundry     : Disney
Foundry URL : httpmichaelcinaassociatescom
</metadata>
<defs>
<font id="MatterhornSemiBold" horiz-adv-x="1654" >
<font-face units-per-em="2048" ascent="1536" descent="-512" />
<missing-glyph horiz-adv-x="552" />
<glyph unicode=" "  horiz-adv-x="552" />
<glyph unicode="&#x09;" horiz-adv-x="552" />
<glyph unicode="&#xa0;" horiz-adv-x="552" />
<glyph unicode="!" horiz-adv-x="571" d="M113 145.5q0 75.5 49 123.5t125 48q74 0 123 -48t49 -123.5t-49.5 -125t-122.5 -49.5q-76 0 -125 49.5t-49 125zM147 1434h277l-25 -936h-227z" />
<glyph unicode="&#x22;" horiz-adv-x="890" d="M113 1462h254l-33 -588h-213zM545 1462h254l-33 -588h-213z" />
<glyph unicode="#" horiz-adv-x="1396" d="M113 375v180h225l43 324h-203v180h228l49 375h200l-49 -375h273l49 375h200l-49 -375h205v-180h-227l-43 -324h205v-180h-228l-49 -375h-203l49 375h-270l-49 -375h-203l49 375h-202zM541 555h270l43 324h-270z" />
<glyph unicode="$" horiz-adv-x="1099" d="M113 66v256q158 -123 356 -123q119 0 187.5 53t68.5 137q0 72 -62.5 127t-151.5 98t-177 93.5t-150.5 139.5t-62.5 212q0 158 94 259t256 132v186h207v-178q160 -18 258 -78v-254q-145 111 -322 111q-102 0 -161.5 -45t-59.5 -119q0 -68 62.5 -122t151.5 -97t177 -95 t150.5 -143.5t62.5 -214.5q0 -154 -91 -261t-240 -146v-236h-207v213q-207 9 -346 95z" />
<glyph unicode="%" horiz-adv-x="1974" d="M113 1026q0 182 101 295t261 113t261.5 -113t101.5 -295t-101.5 -295t-261.5 -113t-261 113t-101 295zM311 1026q0 -109 45 -172t119 -63t118 63.5t44 171.5q0 106 -44 171t-118 65t-119 -65t-45 -171zM537 -29l704 1491h197l-705 -1491h-196zM1137 407.5 q0 182.5 101 295t261 112.5t261.5 -112.5t101.5 -295t-101.5 -295t-261.5 -112.5t-261 112.5t-101 295zM1337 408q0 -109 44 -172.5t118 -63.5t119 63.5t45 172.5q0 106 -45 170.5t-119 64.5t-118 -64.5t-44 -170.5z" />
<glyph unicode="&#x26;" horiz-adv-x="1390" d="M113 346q0 143 83 246.5t228 198.5q-141 180 -141 337q0 137 101 235.5t282 98.5q158 0 258 -79.5t100 -221.5q0 -129 -80 -218t-227 -181l248 -279q39 92 61 213h203q-33 -211 -119 -372l289 -324h-297l-127 145q-170 -174 -426 -174q-201 0 -318.5 103.5t-117.5 271.5z M360 381q0 -92 64.5 -146.5t165.5 -54.5q145 0 256 117l-303 352q-183 -131 -183 -268zM508 1122q0 -102 88 -221q102 68 154.5 125t52.5 127q0 61 -41 100t-103 39q-66 0 -108.5 -46t-42.5 -124z" />
<glyph unicode="'" horiz-adv-x="458" d="M113 1462h254l-33 -588h-213z" />
<glyph unicode="(" horiz-adv-x="841" d="M154 659q0 539 350 959h266q-154 -166 -257 -410.5t-103 -548.5q0 -301 103 -545.5t257 -410.5h-264q-352 413 -352 956z" />
<glyph unicode=")" horiz-adv-x="841" d="M72 -297q154 166 257 410.5t103 545.5q0 303 -103.5 548t-256.5 411h266q350 -420 350 -959q0 -543 -352 -956h-264z" />
<glyph unicode="*" horiz-adv-x="1126" d="M113 1090l61 200l303 -119l-20 324h209l-21 -324l305 119l64 -200l-316 -80l209 -250l-172 -125l-172 274l-172 -274l-172 125l207 250z" />
<glyph unicode="+" horiz-adv-x="1316" d="M113 483v217h436v467h217v-467h438v-217h-438v-469h-217v469h-436z" />
<glyph unicode="," horiz-adv-x="512" d="M80 145q0 76 49 124t125 48q78 0 128 -55t50 -156q0 -117 -68.5 -239.5t-197.5 -220.5l-80 88q143 123 156 237q-70 4 -116 53t-46 121z" />
<glyph unicode="-" horiz-adv-x="763" d="M113 508v211h538v-211h-538z" />
<glyph unicode="." horiz-adv-x="505" d="M80 145.5q0 75.5 49 123.5t125 48q74 0 123 -48t49 -123.5t-49 -125t-123 -49.5q-76 0 -125 49.5t-49 125z" />
<glyph unicode="/" horiz-adv-x="776" d="M31 -152l485 1737h229l-485 -1737h-229z" />
<glyph unicode="0" horiz-adv-x="1337" d="M123 717q0 336 147.5 540.5t397.5 204.5t398 -204.5t148 -540.5t-148 -541t-398 -205t-397.5 205t-147.5 541zM391 716.5q0 -239.5 75 -384t202 -144.5t201.5 144.5t74.5 384t-74.5 384t-201.5 144.5t-202 -144.5t-75 -384z" />
<glyph unicode="1" horiz-adv-x="757" d="M41 1225v209h512v-1434h-254v1225h-258z" />
<glyph unicode="2" horiz-adv-x="1132" d="M61 0v96l396 475q133 162 190.5 263.5t57.5 195.5q0 98 -67 156.5t-181 58.5q-172 0 -355 -145v248q170 115 387 114q215 0 346.5 -117.5t131.5 -306.5q0 -117 -62.5 -234.5t-197.5 -277.5l-269 -315h572v-211h-949z" />
<glyph unicode="3" horiz-adv-x="1120" d="M102 41v225q150 -80 322 -80q143 0 228 72t85 182q0 117 -93 189.5t-273 72.5l-62 -4v117l303 410h-506v209h859v-99l-351 -469q168 -31 275.5 -144.5t107.5 -281.5q0 -203 -144 -336t-402 -133q-193 0 -349 70z" />
<glyph unicode="4" horiz-adv-x="1212" d="M20 285v127l791 1036h123v-961h196v-202h-196v-285h-250v285h-664zM299 487h385v504z" />
<glyph unicode="5" horiz-adv-x="1163" d="M123 43v223q168 -84 332 -84q143 0 232 70t89 190q0 119 -89 188.5t-232 69.5q-129 0 -287 -57l47 791h768v-209h-553l-22 -334q92 10 110 10q225 0 370.5 -126t145.5 -333q0 -203 -149.5 -337t-407.5 -134q-194 0 -354 72z" />
<glyph unicode="6" horiz-adv-x="1210" d="M82 449q0 166 111 321l462 664h306l-373 -508q29 2 51 2q203 0 341 -136.5t138 -342.5q0 -211 -145.5 -344.5t-372.5 -133.5t-372.5 133.5t-145.5 344.5zM342 450.5q0 -120.5 73.5 -196.5t184.5 -76t183.5 76t72.5 196.5t-72.5 196.5t-183.5 76t-184.5 -76t-73.5 -196.5z " />
<glyph unicode="7" horiz-adv-x="1060" d="M45 1225v209h975v-99l-614 -1335h-273l567 1225h-655z" />
<glyph unicode="8" horiz-adv-x="1253" d="M113 375q0 152 93 241t212 132q-119 57 -184.5 133.5t-65.5 201.5q0 180 137 279.5t334 99.5t326 -98t129 -258q0 -131 -79 -217t-179 -131q137 -63 221 -151.5t84 -229.5q0 -182 -146.5 -294t-371.5 -112q-227 0 -368.5 113t-141.5 291zM373 379q0 -92 70.5 -153.5 t183.5 -61.5q111 0 182.5 59.5t71.5 151.5q0 47 -19.5 86t-40 63.5t-71 54t-75 42t-87.5 41.5q-215 -97 -215 -283zM428 1094q0 -88 60.5 -141.5t179.5 -108.5q172 96 172 248q0 78 -55.5 128t-143.5 50t-150.5 -49t-62.5 -127z" />
<glyph unicode="9" horiz-adv-x="1210" d="M92 985q0 211 145.5 344t373 133t372.5 -134t145 -345q0 -160 -112 -319l-463 -664h-305l375 508q-29 -2 -54 -2q-201 0 -339 136t-138 343zM352 983q0 -121 74 -196.5t184.5 -75.5t183 75.5t72.5 196.5t-72.5 195.5t-183 74.5t-184.5 -75.5t-74 -194.5z" />
<glyph unicode=":" horiz-adv-x="571" d="M113 145.5q0 75.5 49 123.5t125 48q74 0 123 -48t49 -123.5t-49.5 -125t-122.5 -49.5q-76 0 -125 49.5t-49 125zM113 854q0 76 49 125t125 49q74 0 123 -49t49 -125t-49.5 -125t-122.5 -49q-76 0 -125 49t-49 125z" />
<glyph unicode=";" horiz-adv-x="577" d="M113 145q0 76 49 124t125 48q78 0 128 -55t50 -156q0 -117 -68.5 -239.5t-197.5 -220.5l-80 88q143 123 155 237q-70 4 -115.5 53t-45.5 121zM113 854q0 76 49 125t125 49q74 0 123 -49t49 -125t-49.5 -125t-122.5 -49q-76 0 -125 49t-49 125z" />
<glyph unicode="&#x3c;" horiz-adv-x="1265" d="M72 481v219l1040 482v-246l-782 -346l782 -344v-246z" />
<glyph unicode="=" horiz-adv-x="1521" d="M195 238v217h1132v-217h-1132zM195 727v217h1132v-217h-1132z" />
<glyph unicode="&#x3e;" horiz-adv-x="1265" d="M154 0v246l780 344l-780 346v246l1040 -482v-219z" />
<glyph unicode="?" horiz-adv-x="878" d="M96 1182v217q147 63 289 63q186 0 300 -91t114 -243q0 -82 -36 -149.5t-87 -114.5t-102.5 -93t-87 -106.5t-35.5 -132.5q0 -23 2 -34h-209q-6 43 -6 77q0 94 46 176.5t100 131.5t100 109.5t46 115.5q0 66 -48 102.5t-136 36.5q-123 1 -250 -65zM174 145.5 q0 75.5 49 123.5t125 48q74 0 123 -48t49 -123.5t-49 -125t-123 -49.5q-76 0 -125 49.5t-49 125z" />
<glyph unicode="@" horiz-adv-x="1875" d="M113 537q0 395 247.5 660t638.5 265q332 0 548 -202.5t216 -522.5q0 -250 -120.5 -402.5t-305.5 -152.5q-152 0 -225 111l-8 12q-125 -98 -258 -98q-150 0 -229.5 96t-79.5 264q0 205 107.5 344.5t266.5 139.5q115 0 199 -88l8 79h191l-54 -567q0 -4 -1 -10t-1 -10 q0 -49 28 -77t73 -28q90 0 149.5 100.5t59.5 280.5q0 254 -157 406.5t-411 152.5q-301 0 -491.5 -212t-190.5 -531q0 -274 163 -426t429 -152q213 0 373 101l90 -150q-215 -127 -479 -127q-344 0 -560 200t-216 544zM748 596q0 -86 35.5 -144.5t115.5 -58.5q86 0 160 56 l37 360q-57 57 -146 57q-98 0 -150 -80.5t-52 -189.5z" />
<glyph unicode="A" horiz-adv-x="1355" d="M2 0l586 1442h180l586 -1442h-277l-104 270h-592l-105 -270h-274zM455 469h442l-219 578z" />
<glyph unicode="B" horiz-adv-x="1327" d="M188 0v1434h480q236 0 362.5 -98.5t126.5 -256.5q0 -109 -60.5 -191.5t-176.5 -113.5v-4q143 -29 229 -130t86 -232q0 -182 -145.5 -295t-407.5 -113h-494zM449 209h221q147 0 221 61.5t74 165.5q0 102 -75 166t-220 64h-221v-457zM449 870h208q117 0 172.5 51.5 t55.5 125.5q0 78 -54.5 128t-173.5 50h-208v-355z" />
<glyph unicode="C" horiz-adv-x="1318" d="M102 717q0 328 199 536.5t510 208.5q219 0 395 -94v-266q-174 133 -375 133q-209 0 -331.5 -141.5t-122.5 -377t123 -376.5t331 -141q205 0 375 131v-264q-168 -94 -395 -95q-311 0 -510 208t-199 538z" />
<glyph unicode="D" horiz-adv-x="1466" d="M188 0v1434h357q410 0 614.5 -193.5t204.5 -523.5t-205 -523.5t-614 -193.5h-357zM449 215h96q272 0 408.5 129t136.5 373t-136.5 373t-408.5 129h-96v-1004z" />
<glyph unicode="E" horiz-adv-x="1181" d="M188 0v1434h861v-215h-600v-359h518v-215h-518v-430h600v-215h-861z" />
<glyph unicode="F" horiz-adv-x="1110" d="M188 0v1434h830v-215h-569v-398h507v-215h-507v-606h-261z" />
<glyph unicode="G" horiz-adv-x="1458" d="M102 717q0 328 205 536.5t524 208.5q240 0 437 -94v-256q-186 123 -416 123q-219 0 -347 -141.5t-128 -377t129 -376.5t350 -141q102 0 188 24v297h-223v201h484v-655q-201 -94 -471 -95q-319 0 -525.5 208t-206.5 538z" />
<glyph unicode="H" horiz-adv-x="1538" d="M188 0v1434h261v-570h638v570h261v-1434h-261v649h-638v-649h-261z" />
<glyph unicode="I" horiz-adv-x="638" d="M188 0v1434h261v-1434h-261z" />
<glyph unicode="J" horiz-adv-x="888" d="M10 12v236q102 -51 228 -51q106 0 159.5 60t53.5 157v1020h260v-1018q0 -217 -121 -331t-318 -114q-164 0 -262 41z" />
<glyph unicode="K" horiz-adv-x="1343" d="M188 0v1434h261v-686l538 686h330l-524 -641l559 -793h-322l-397 596l-184 -164v-432h-261z" />
<glyph unicode="L" horiz-adv-x="1058" d="M188 0v1434h261v-1219h600v-215h-861z" />
<glyph unicode="M" horiz-adv-x="1873" d="M188 0v1442h174l574 -787l573 787h174v-1442h-260v934l-446 -608h-82l-446 608v-934h-261z" />
<glyph unicode="N" horiz-adv-x="1632" d="M188 0v1442h174l820 -973v965h260v-1442h-174l-819 971v-963h-261z" />
<glyph unicode="O" d="M102 717q0 330 202 537.5t523.5 207.5t523 -207.5t201.5 -537.5t-201.5 -538t-523 -208t-523.5 208t-202 538zM377 716.5q0 -235.5 124 -377.5t326.5 -142t326.5 142t124 377.5t-124 377t-326.5 141.5t-326.5 -141.5t-124 -377z" />
<glyph unicode="P" horiz-adv-x="1247" d="M188 0v1434h449q258 0 400.5 -133.5t142.5 -344.5q0 -209 -142.5 -342t-400.5 -133h-188v-481h-261zM449 696h169q287 0 287 260q0 262 -287 263h-169v-523z" />
<glyph unicode="Q" d="M102 717q0 330 202 537.5t523.5 207.5t523 -207.5t201.5 -537.5q0 -309 -182 -518l254 -285h-281l-137 154q-162 -96 -379 -97q-322 0 -523.5 208t-201.5 538zM377 716.5q0 -235.5 124 -377.5t326 -142q119 0 220 55l-209 240l159 129l197 -224q84 133 84 320 q0 236 -124 377t-326.5 141t-326.5 -141.5t-124 -377z" />
<glyph unicode="R" horiz-adv-x="1314" d="M188 0v1434h453q248 0 388 -128t140 -327q0 -133 -65.5 -236.5t-185.5 -158.5l405 -584h-309l-348 526h-217v-526h-261zM449 741h161q285 0 285 238q0 240 -285 240h-161v-478z" />
<glyph unicode="S" horiz-adv-x="1099" d="M113 66v256q154 -123 356 -123q119 0 187.5 53t68.5 137q0 72 -62.5 127t-151.5 98t-177 94.5t-150.5 140.5t-62.5 210q0 188 132 295.5t347 107.5q199 0 336 -82v-252q-152 111 -322 111q-102 0 -162.5 -46t-60.5 -120q0 -68 62.5 -123t151.5 -99t178 -96.5 t151.5 -142.5t62.5 -211q0 -199 -145 -314.5t-367 -115.5q-216 1 -372 95z" />
<glyph unicode="T" horiz-adv-x="1134" d="M4 1219v215h1124v-215h-432v-1219h-260v1219h-432z" />
<glyph unicode="U" horiz-adv-x="1525" d="M178 541v893h260v-895q0 -344 323.5 -344t323.5 344v895h261v-893q0 -283 -157 -426.5t-427 -143.5t-427 141.5t-157 428.5z" />
<glyph unicode="V" horiz-adv-x="1314" d="M2 1434h274l381 -1047l379 1047h277l-565 -1442h-181z" />
<glyph unicode="W" horiz-adv-x="1955" d="M10 1434h264l281 -969l336 977h174l336 -977l280 969h263l-435 -1442h-180l-352 1026l-352 -1026h-181z" />
<glyph unicode="X" horiz-adv-x="1316" d="M35 0l477 741l-446 693h305l286 -486l287 486h307l-448 -693l479 -741h-307l-318 532l-317 -532h-305z" />
<glyph unicode="Y" horiz-adv-x="1189" d="M-4 1434h287l311 -625l311 625h289l-469 -877v-557h-260v557z" />
<glyph unicode="Z" horiz-adv-x="1173" d="M80 0v143l643 1076h-623v215h963v-144l-645 -1075h676v-215h-1014z" />
<glyph unicode="[" horiz-adv-x="905" d="M236 -297v1915h536v-213h-278v-1489h278v-213h-536z" />
<glyph unicode="\" horiz-adv-x="776" d="M31 1585h229l485 -1737h-229z" />
<glyph unicode="]" horiz-adv-x="905" d="M133 -84h279v1489h-279v213h537v-1915h-537v213z" />
<glyph unicode="^" horiz-adv-x="1124" d="M113 756l325 706h248l326 -706h-242l-209 499l-207 -499h-241z" />
<glyph unicode="_" horiz-adv-x="1200" d="M-31 -328h1262v-184h-1262v184z" />
<glyph unicode="`" horiz-adv-x="784" d="M92 1556h336l244 -301h-223z" />
<glyph unicode="a" horiz-adv-x="1124" d="M82 303q0 147 115.5 244.5t316.5 97.5q74 0 186 -22v75q0 195 -225 195q-166 0 -315 -86v217q174 70 360 70q205 0 315.5 -92.5t110.5 -266.5v-446q0 -115 92 -115l45 10v-168q-57 -29 -153 -28q-86 0 -138.5 41t-68.5 102h-2q-109 -160 -307 -160q-150 0 -241 88 t-91 244zM332 315q0 -66 42 -105.5t122 -39.5q137 0 204 115v178q-72 20 -141 20q-102 0 -164.5 -47t-62.5 -121z" />
<glyph unicode="b" horiz-adv-x="1314" d="M154 0q14 113 14 270v1225h246v-514q137 113 317 113q213 0 350.5 -160t137.5 -402q0 -244 -136.5 -402.5t-351.5 -158.5q-213 0 -354 146l-23 -117h-200zM414 279q115 -98 252 -99q135 0 217 92.5t82 259.5q0 170 -85 265.5t-221 95.5q-139 0 -245 -100v-514z" />
<glyph unicode="c" horiz-adv-x="1048" d="M96 532.5q0 253.5 156 407.5t401 154q170 0 293 -64v-221q-123 84 -266 84q-154 0 -242 -96.5t-88 -264t88 -264t242 -96.5q139 0 266 82v-221q-127 -61 -293 -62q-246 0 -401.5 154t-155.5 407.5z" />
<glyph unicode="d" horiz-adv-x="1314" d="M96 532q0 242 137.5 402t350.5 160q180 0 317 -113v514h246v-1225q0 -70 4 -137t8 -100l2 -33h-200q-14 59 -25 117q-57 -59 -150.5 -102.5t-201.5 -43.5q-215 0 -351.5 158.5t-136.5 402.5zM350 532q0 -168 82 -260t217 -92q137 0 252 99v514q-106 100 -246 100 q-135 0 -220 -95.5t-85 -265.5z" />
<glyph unicode="e" horiz-adv-x="1196" d="M96 532q0 246 147.5 404t377.5 158q213 0 345 -133.5t132 -356.5l-6 -125h-736q10 -150 95.5 -229.5t242.5 -79.5q190 0 353 109v-205q-160 -102 -392 -103q-252 0 -405.5 154.5t-153.5 406.5zM360 651h486q0 119 -62.5 185.5t-165.5 66.5q-106 0 -174 -69.5t-84 -182.5z " />
<glyph unicode="f" horiz-adv-x="747" d="M45 866v199h174v100q0 160 83 245t230 85q131 0 191 -27v-200q-70 27 -141 26q-119 0 -119 -123v-106h248v-199h-248v-866h-244v866h-174z" />
<glyph unicode="g" horiz-adv-x="1316" d="M96 545q0 242 133 395.5t346 153.5q215 0 363 -148l25 119h198q-14 -113 -14 -270v-785q0 -244 -151.5 -383t-399.5 -139q-139 0 -252 39t-170 82v225q63 -51 170 -98t234 -47q154 0 238.5 79.5t84.5 231.5v88q-133 -96 -301 -96q-227 0 -365.5 153.5t-138.5 399.5z M350 541q0 -162 79 -255t214 -93q156 0 258 102v483q-117 104 -262 105q-131 0 -210 -89t-79 -253z" />
<glyph unicode="h" horiz-adv-x="1286" d="M168 0v1495h246v-571q141 170 342 170q133 0 220 -63.5t117.5 -148.5t30.5 -188v-694h-245v657q0 113 -57.5 171.5t-157.5 58.5q-76 0 -142.5 -39t-107.5 -84v-764h-246z" />
<glyph unicode="i" horiz-adv-x="583" d="M147 1364q0 61 40 98t103.5 37t103.5 -37t40 -98t-40 -97t-103.5 -36t-103.5 36t-40 97zM168 0v1065h246v-1065h-246z" />
<glyph unicode="j" horiz-adv-x="583" d="M-49 -299q37 -12 90 -12q63 0 95 32.5t32 114.5v1229h246v-1221q0 -186 -76 -272t-244 -86q-35 0 -70.5 5t-54.5 9l-18 4v197zM147 1364q0 61 40 98t103.5 37t103.5 -37t40 -98t-40 -97t-103.5 -36t-103.5 36t-40 97z" />
<glyph unicode="k" horiz-adv-x="1148" d="M168 0v1495h246v-926l401 496h295l-385 -451l424 -614h-285l-286 451l-164 -142v-309h-246z" />
<glyph unicode="l" horiz-adv-x="694" d="M168 340v1155h246v-1163q0 -82 34.5 -115t104.5 -33q29 0 56.5 4.5t41.5 8.5l13 6v-207q-82 -25 -177 -25q-166 0 -242.5 89.5t-76.5 279.5z" />
<glyph unicode="m" horiz-adv-x="1906" d="M154 1065h225q14 -61 24 -150q143 178 330 179q229 0 311 -201q156 201 355 201q182 0 264 -118t82 -282v-694h-246v657q0 115 -51 172.5t-141 57.5q-70 0 -133.5 -41t-98.5 -86q4 -45 4 -66v-694h-245v657q0 115 -51.5 172.5t-141.5 57.5q-127 0 -227 -123v-764h-246 v795q0 70 -4 137t-8 100z" />
<glyph unicode="n" horiz-adv-x="1286" d="M154 1065h225q14 -61 24 -152q152 180 353 181q133 0 220 -63.5t117.5 -148.5t30.5 -188v-694h-245v657q0 113 -57.5 171.5t-157.5 58.5q-76 0 -142.5 -39t-107.5 -84v-764h-246v795q0 70 -4 137t-8 100z" />
<glyph unicode="o" horiz-adv-x="1277" d="M96 532.5q0 247.5 151.5 404.5t391.5 157t390.5 -157t150.5 -404.5t-150.5 -404.5t-390.5 -157t-391.5 157t-151.5 404.5zM352 532.5q0 -167.5 78 -264t209 -96.5t208 96.5t77 264t-77 264t-208 96.5t-209 -96.5t-78 -264z" />
<glyph unicode="p" horiz-adv-x="1314" d="M154 1065h200q14 -59 23 -119q143 147 354 148q213 0 350.5 -160t137.5 -402q0 -244 -136.5 -402.5t-351.5 -158.5q-176 0 -317 111v-594h-246v1307q0 70 -4 137t-8 100zM414 270q106 -100 245 -100q135 0 220.5 95t85.5 267q0 166 -82 258.5t-217 92.5q-143 0 -252 -99 v-514z" />
<glyph unicode="q" horiz-adv-x="1314" d="M96 532q0 242 137.5 402t350.5 160q209 0 352 -148l25 119h200q-14 -113 -14 -270v-1307h-246v594q-141 -111 -317 -111q-215 0 -351.5 158.5t-136.5 402.5zM350 532q0 -172 85 -267t220 -95q139 0 246 100v514q-115 98 -252 99q-135 0 -217 -92.5t-82 -258.5z" />
<glyph unicode="r" horiz-adv-x="841" d="M154 1065h225q18 -80 24 -166h5q117 195 301 195l118 -23v-233q-61 23 -155 22q-150 0 -252 -100l-6 -6v-754h-246v795q0 70 -4 137t-8 100z" />
<glyph unicode="s" horiz-adv-x="966" d="M113 57v217q147 -104 327 -104q84 0 132.5 34t48.5 87q0 51 -51.5 88t-124 65.5t-146.5 64.5t-125 103.5t-51 163.5q0 145 108.5 231.5t282.5 86.5q180 0 297 -72v-219q-55 39 -135 65.5t-152 26.5q-76 0 -116.5 -29.5t-40.5 -74.5q0 -47 51 -82t123.5 -65t146.5 -66.5 t125 -108.5t51 -170q0 -150 -115.5 -239t-302.5 -89q-100 0 -193 26.5t-140 59.5z" />
<glyph unicode="t" horiz-adv-x="790" d="M45 866v199h174v240l246 51v-291h252v-199h-252v-534q0 -150 137 -150l123 19v-207q-86 -23 -180 -23q-326 0 -326 365v530h-174z" />
<glyph unicode="u" horiz-adv-x="1286" d="M160 371v694h246v-659q0 -113 58 -171.5t159 -58.5q76 0 143.5 40t103.5 83v766h246v-795q0 -70 3 -137t7 -100l4 -33h-225q-14 59 -24 150q-150 -178 -351 -179q-195 0 -282.5 118t-87.5 282z" />
<glyph unicode="v" horiz-adv-x="1087" d="M10 1065h254l279 -703l278 703h254l-461 -1073h-141z" />
<glyph unicode="w" horiz-adv-x="1665" d="M10 1065h248l234 -664l268 672h143l271 -672l231 664h248l-396 -1073h-141l-285 721l-284 -721h-141z" />
<glyph unicode="x" horiz-adv-x="1101" d="M18 0l404 551l-377 514h289l217 -328l217 328h287l-377 -514l405 -551h-288l-244 365l-246 -365h-287z" />
<glyph unicode="y" horiz-adv-x="1056" d="M6 -266q49 -20 111 -21q201 0 293 291l12 39l-414 1022h262l269 -721l239 721h258l-379 -1059q-96 -270 -220 -394t-300 -124l-131 25v221z" />
<glyph unicode="z" horiz-adv-x="966" d="M51 0v117l504 755h-483v193h813v-117l-504 -755h524v-193h-854z" />
<glyph unicode="{" horiz-adv-x="835" d="M113 569v183q113 0 158.5 41t45.5 127q0 61 -34.5 204.5t-34.5 212.5q0 141 102.5 211t351.5 70v-184q-104 0 -150 -28t-46 -99q0 -55 30.5 -190.5t30.5 -198.5q0 -111 -60.5 -174.5t-160.5 -75.5v-15q104 -16 162.5 -79.5t58.5 -172.5q0 -61 -30.5 -196t-30.5 -191 q0 -72 46 -99.5t150 -27.5v-184q-250 0 -352 69.5t-102 211.5q0 70 34.5 213t34.5 204q0 86 -45.5 127t-158.5 41z" />
<glyph unicode="|" horiz-adv-x="731" d="M236 -348v2007h260v-2007h-260z" />
<glyph unicode="}" horiz-adv-x="835" d="M133 -113q104 0 149.5 28t45.5 99q0 55 -31 190.5t-31 196.5q0 109 59.5 172.5t161.5 79.5v15q-100 12 -160.5 75.5t-60.5 174.5q0 63 31 198t31 191q0 72 -46 99.5t-149 27.5v184q250 0 352.5 -69.5t102.5 -211.5q0 -70 -35 -213t-35 -204q0 -86 45 -127t160 -41v-183 q-115 0 -160 -41t-45 -127q0 -61 35 -204.5t35 -212.5q0 -141 -102.5 -211t-352.5 -70v184z" />
<glyph unicode="~" horiz-adv-x="1456" d="M154 428q0 178 87 287.5t242 109.5q70 0 141.5 -26.5t120 -58t107.5 -58.5t109 -27q68 0 104.5 47.5t36.5 124.5h201q0 -178 -89.5 -287.5t-244.5 -109.5q-109 0 -258.5 84t-214.5 84q-68 0 -106 -46t-38 -124h-198z" />
<glyph unicode="&#xa1;" horiz-adv-x="571" d="M113 919.5q0 75.5 49 125t123 49.5q76 0 125 -49.5t49 -125t-49.5 -125t-124.5 -49.5q-74 0 -123 49.5t-49 125zM147 -369l25 936h227l25 -936h-277z" />
<glyph unicode="&#xa2;" horiz-adv-x="1054" d="M102 532q0 244 142.5 395.5t376.5 164.5l43 227h190l-47 -242q84 -18 145 -47v-221q-123 84 -268 84q-154 0 -241 -96.5t-87 -264t87 -264t241 -96.5q141 0 268 82v-221q-131 -61 -293 -62q-33 0 -61 4l-37 -200h-188l45 241q-147 63 -231.5 197.5t-84.5 318.5z" />
<glyph unicode="&#xa3;" horiz-adv-x="1146" d="M117 629v164h139q-31 119 -31 254q0 197 130 306t333 109q158 0 270 -67v-217q-115 74 -272 73q-88 0 -143.5 -56t-55.5 -159q0 -133 27 -243h344v-164h-305q14 -82 14 -158q0 -80 -29.5 -142.5t-58.5 -82.5l-28 -23l4 -8q33 12 90 12q47 0 133 -15t137 -15q137 0 219 69 v-213q-6 -8 -20.5 -21.5t-65.5 -35t-110 -21.5q-100 0 -219 41t-191 41q-119 0 -223 -84l-82 133q8 4 22.5 13.5t51 39t65.5 63.5t51.5 87t22.5 111q0 82 -35 209h-184z" />
<glyph unicode="&#xa4;" horiz-adv-x="1308" d="M113 279l147 149q-72 115 -72 252q0 141 72 250l-147 149l141 142l147 -150q113 74 252 74q137 0 250 -74l152 150l141 -142l-149 -149q72 -115 71 -250q0 -137 -71 -252l149 -149l-141 -142l-150 150q-113 -72 -252 -72q-135 0 -252 70l-147 -148zM399 680 q0 -121 72 -200t182 -79q113 0 184.5 79t71.5 200t-71.5 199.5t-184.5 78.5q-111 0 -182.5 -78.5t-71.5 -199.5z" />
<glyph unicode="&#xa5;" horiz-adv-x="1202" d="M2 1434h287l311 -627l311 627h289l-393 -734h258v-157h-334v-135h334v-158h-334v-250h-260v250h-332v158h332v135h-332v157h254z" />
<glyph unicode="&#xa6;" horiz-adv-x="731" d="M236 -348v891h260v-891h-260zM236 768v891h260v-891h-260z" />
<glyph unicode="&#xa7;" horiz-adv-x="1191" d="M154 -109q156 -111 350 -110q119 0 187.5 47t68.5 127q0 63 -61.5 111.5t-149.5 85t-176 82t-149.5 127t-61.5 194.5q0 172 145 268q-145 104 -145 269q0 172 132 271t345 99q203 0 338 -76v-233q-154 102 -320 102q-102 0 -161.5 -42t-59.5 -111q0 -61 62.5 -107.5 t150.5 -84.5t176 -84t150.5 -130t62.5 -198q0 -166 -141 -269q141 -109 141 -266q0 -180 -145 -286.5t-367 -106.5q-215 0 -372 86v235zM416 567q0 -20 7 -38.5t16.5 -33t28.5 -30.5t33.5 -26.5t44 -26t46 -23.5t53.5 -24.5t51 -24.5q84 55 84 149q0 37 -16 67t-60.5 58.5 t-69 41t-95.5 44.5q-20 10 -31 15q-92 -48 -92 -148z" />
<glyph unicode="&#xa8;" horiz-adv-x="919" d="M113 1376.5q0 57.5 37.5 95t95 37.5t94.5 -37.5t37 -95t-37 -95.5t-94.5 -38t-95 38t-37.5 95.5zM541 1376.5q0 57.5 38.5 95t96.5 37.5q55 0 93 -37.5t38 -95t-38 -95.5t-93 -38q-57 0 -96 38t-39 95.5z" />
<glyph unicode="&#xa9;" horiz-adv-x="1757" d="M133 717q0 309 218 527t527.5 218t527.5 -218t218 -527t-218 -527.5t-527.5 -218.5t-527.5 218.5t-218 527.5zM311 717q0 -250 165 -419t402.5 -169t401.5 169t164 419t-164 419t-401.5 169t-402.5 -169t-165 -419zM508 717q0 182 110.5 297.5t284.5 115.5q125 0 223 -55 v-174q-111 86 -211 86q-111 0 -174 -73.5t-63 -196.5t63.5 -197t173.5 -74q104 0 211 86v-174q-92 -55 -223 -55q-174 0 -284.5 115t-110.5 299z" />
<glyph unicode="&#xaa;" horiz-adv-x="940" d="M133 446v132h674v-132h-674zM133 944.5q0 102.5 80 169t215 66.5q68 0 113 -13v33q0 117 -138 117q-29 0 -57.5 -5t-56 -14.5t-43 -16.5t-37.5 -19l-25 -11v156q125 55 248 55q137 0 211 -61.5t74 -175.5v-289q0 -68 51 -68l37 9v-119q-45 -23 -109 -23q-98 0 -135 78 q-76 -88 -199 -88q-102 0 -165.5 58.5t-63.5 161zM311 952q0 -39 28 -63.5t79 -24.5q80 0 123 68v119q-35 10 -82 10q-68 0 -108 -31t-40 -78z" />
<glyph unicode="&#xab;" horiz-adv-x="1224" d="M82 430v219l477 410v-223l-278 -297l278 -295v-224zM553 430v219l477 410v-223l-278 -297l278 -295v-224z" />
<glyph unicode="&#xac;" horiz-adv-x="1433" d="M113 672v221h1167v-612h-221v391h-946z" />
<glyph unicode="&#xad;" horiz-adv-x="763" d="M113 508v211h538v-211h-538z" />
<glyph unicode="&#xae;" horiz-adv-x="1757" d="M133 717q0 309 218 527t527.5 218t527.5 -218t218 -527t-218 -527.5t-527.5 -218.5t-527.5 218.5t-218 527.5zM311 717q0 -248 165 -418t403 -170q236 0 400.5 169t164.5 419q0 248 -165 418t-400.5 170t-401.5 -170t-166 -418zM616 315v793h256q137 0 216 -70.5 t79 -183.5q0 -147 -131 -217l224 -322h-197l-180 285h-105v-285h-162zM778 735h78q141 0 141 119t-141 119h-78v-238z" />
<glyph unicode="&#xaf;" horiz-adv-x="847" d="M113 1307v186h622v-186h-622z" />
<glyph unicode="&#xb0;" horiz-adv-x="827" d="M72 1118.5q0 143.5 98 243.5t241.5 100t244 -100t100.5 -243.5t-100.5 -242t-244 -98.5t-241.5 98.5t-98 242zM256 1118q0 -68 44 -115t112 -47q70 0 114.5 47.5t44.5 114.5q0 72 -45 119t-114 47q-68 0 -112 -47t-44 -119z" />
<glyph unicode="&#xb1;" horiz-adv-x="1480" d="M195 0v207h1091v-207h-1091zM195 657v207h440v316h207v-316h444v-207h-444v-327h-207v327h-440z" />
<glyph unicode="&#xb2;" horiz-adv-x="741" d="M113 680v84l198 237q115 135 115 209q0 37 -24.5 57.5t-67.5 20.5q-78 0 -203 -92v184q102 68 219 68q115 0 186.5 -65.5t71.5 -168.5q0 -117 -133 -268l-94 -110h248v-156h-516z" />
<glyph unicode="&#xb3;" horiz-adv-x="716" d="M113 705v163q109 -43 192 -43q53 0 85 28t32 67q0 102 -209 102v74l135 182h-233v156h473v-84l-152 -203q76 -25 122 -85.5t46 -141.5q0 -111 -77.5 -182.5t-215.5 -71.5q-104 0 -198 39z" />
<glyph unicode="&#xb4;" horiz-adv-x="804" d="M113 1255l243 301h336l-356 -301h-223z" />
<glyph unicode="&#xb5;" horiz-adv-x="1353" d="M168 -367v1432h246v-659q0 -113 58 -171.5t159 -58.5q76 0 143.5 40t104.5 83v766h245v-754q0 -127 111 -127l68 15v-195q-49 -25 -148 -24q-213 0 -260 174h-4q-47 -70 -138 -126.5t-214 -56.5q-68 0 -125 21v-359h-246z" />
<glyph unicode="&#xb6;" horiz-adv-x="1525" d="M113 952q0 219 139 350.5t389 131.5h690v-1946h-231v1741h-217v-1741h-232v985h-10q-250 0 -389 130t-139 349z" />
<glyph unicode="&#xb7;" horiz-adv-x="653" d="M154 698.5q0 75.5 49 123.5t125 48q74 0 123 -48t49 -123.5t-49.5 -125t-122.5 -49.5q-76 0 -125 49.5t-49 125z" />
<glyph unicode="&#xb8;" horiz-adv-x="659" d="M113 -367q68 -35 143 -34q45 0 71.5 22.5t26.5 61.5q0 49 -55 77.5t-152 28.5l119 211h180l-79 -127q84 -18 135 -67.5t51 -122.5q0 -100 -83 -156.5t-198 -56.5q-39 0 -78.5 6t-60.5 12l-20 6v139z" />
<glyph unicode="&#xb9;" horiz-adv-x="528" d="M113 1278v156h303v-754h-176v598h-127z" />
<glyph unicode="&#xba;" horiz-adv-x="980" d="M133 442v136h715v-136h-715zM133 1093.5q0 161.5 100.5 265t258 103.5t257 -103.5t99.5 -264.5q0 -164 -99.5 -266.5t-257 -102.5t-258 103.5t-100.5 265zM315 1094q0 -106 47.5 -166t129 -60t129 59.5t47.5 166.5q0 104 -48.5 164.5t-128 60.5t-128 -60.5t-48.5 -164.5z " />
<glyph unicode="&#xbb;" horiz-adv-x="1224" d="M195 20v224l278 295l-278 297v223l477 -410v-219zM666 20v224l278 295l-278 297v223l477 -410v-219z" />
<glyph unicode="&#xbc;" horiz-adv-x="1546" d="M113 1278v156h303v-754h-176v598h-127zM283 -29l704 1491h199l-705 -1491h-198zM838 141v95l401 524h98v-469h97v-150h-97v-141h-176v141h-323zM1012 291h149v194z" />
<glyph unicode="&#xbd;" horiz-adv-x="1626" d="M113 1278v156h303v-754h-176v598h-127zM283 -29l704 1491h199l-705 -1491h-198zM997 0v84l199 238q115 135 115 208q0 78 -92 78q-78 0 -203 -92v184q102 68 219 68q115 0 186.5 -65.5t71.5 -170.5q0 -111 -133 -266l-94 -110h247v-156h-516z" />
<glyph unicode="&#xbe;" horiz-adv-x="1675" d="M113 705v163q109 -43 192 -43q53 0 85 28t32 67q0 102 -209 102v74l135 182h-233v156h473v-84l-152 -203q76 -25 122 -85.5t46 -141.5q0 -111 -77.5 -182.5t-215.5 -71.5q-104 0 -198 39zM414 -29l704 1491h197l-705 -1491h-196zM969 141v95l399 524h98v-469h97v-150h-97 v-141h-174v141h-323zM1141 291h151v194z" />
<glyph unicode="&#xbf;" horiz-adv-x="925" d="M113 -66q0 84 35.5 152t87 115t102.5 93t87 106.5t36 131.5q0 23 -2 35h209q6 -43 6 -78q0 -94 -46 -177t-100.5 -132t-100.5 -109.5t-46 -115.5q0 -66 49 -102.5t135 -36.5q113 0 248 65v-215q-137 -63 -289 -63q-186 0 -298.5 89.5t-112.5 241.5zM389 919.5 q0 75.5 49 125t125 49.5q74 0 124 -49.5t50 -125t-50 -125t-124 -49.5q-76 0 -125 49.5t-49 125z" />
<glyph unicode="&#xc0;" horiz-adv-x="1355" d="M2 0l586 1442h180l586 -1442h-277l-104 270h-592l-105 -270h-274zM326 1919h336l243 -301h-223zM455 469h442l-219 578z" />
<glyph unicode="&#xc1;" horiz-adv-x="1355" d="M2 0l586 1442h180l586 -1442h-277l-104 270h-592l-105 -270h-274zM449 1618l243 301h336l-356 -301h-223zM455 469h442l-219 578z" />
<glyph unicode="&#xc2;" horiz-adv-x="1355" d="M2 0l586 1442h180l586 -1442h-277l-104 270h-592l-105 -270h-274zM301 1618l250 311h254l250 -311h-224l-153 176l-154 -176h-223zM455 469h442l-219 578z" />
<glyph unicode="&#xc3;" horiz-adv-x="1355" d="M2 0l586 1442h180l586 -1442h-277l-104 270h-592l-105 -270h-274zM270 1632q0 131 62.5 228.5t185.5 97.5q70 0 126 -37t100 -74t85 -37q92 0 97 146h157q0 -135 -62.5 -230.5t-189.5 -95.5q-74 0 -129 37t-98 74t-86 37q-86 0 -90 -146h-158zM455 469h442l-219 578z" />
<glyph unicode="&#xc4;" horiz-adv-x="1355" d="M2 0l586 1442h180l586 -1442h-277l-104 270h-592l-105 -270h-274zM330 1747q0 57 38 95t95 38t94 -38t37 -95t-37 -95t-94 -38t-95 38t-38 95zM455 469h442l-219 578zM758 1747q0 57 39 95t96 38q55 0 93 -38t38 -95t-38 -95t-93 -38q-57 0 -96 38t-39 95z" />
<glyph unicode="&#xc5;" horiz-adv-x="1355" d="M2 0l586 1442h180l586 -1442h-277l-104 270h-592l-105 -270h-274zM412 1614q0 117 74.5 189.5t191.5 72.5t191.5 -72.5t74.5 -189.5q0 -119 -74.5 -192.5t-191.5 -73.5t-191.5 73.5t-74.5 192.5zM455 469h442l-219 578zM565 1614q0 -57 31 -91t82 -34t82 33.5t31 91.5 q0 53 -31 87t-82 34t-82 -34t-31 -87z" />
<glyph unicode="&#xc6;" horiz-adv-x="1941" d="M2 0l875 1434h946v-215h-600v-359h518v-215h-518v-430h600v-215h-860v270h-502l-162 -270h-297zM580 469h383v637z" />
<glyph unicode="&#xc7;" horiz-adv-x="1318" d="M102 717q0 328 199 536.5t510 208.5q219 0 395 -94v-266q-174 133 -375 133q-209 0 -331.5 -141.5t-122.5 -377t123 -376.5t331 -141q205 0 375 131v-264q-168 -94 -395 -95q-311 0 -510 208t-199 538zM541 -367q68 -35 143 -34q45 0 71.5 22.5t26.5 61.5q0 49 -55 77.5 t-152 28.5l119 211h180l-79 -127q84 -18 135 -67.5t51 -122.5q0 -100 -83 -156.5t-198 -56.5q-39 0 -78.5 6t-60.5 12l-20 6v139z" />
<glyph unicode="&#xc8;" horiz-adv-x="1181" d="M188 0v1434h861v-215h-600v-359h518v-215h-518v-430h600v-215h-861zM236 1911h335l244 -301h-223z" />
<glyph unicode="&#xc9;" horiz-adv-x="1181" d="M188 0v1434h861v-215h-600v-359h518v-215h-518v-430h600v-215h-861zM389 1610l244 301h336l-357 -301h-223z" />
<glyph unicode="&#xca;" horiz-adv-x="1181" d="M188 0v1434h861v-215h-600v-359h518v-215h-518v-430h600v-215h-861zM231 1610l250 311h254l250 -311h-223l-154 176l-153 -176h-224z" />
<glyph unicode="&#xcb;" horiz-adv-x="1181" d="M188 0v1434h861v-215h-600v-359h518v-215h-518v-430h600v-215h-861zM272 1738.5q0 57.5 38 95.5t95.5 38t94.5 -38t37 -95.5t-37 -95t-94.5 -37.5t-95.5 37.5t-38 95zM700 1738.5q0 57.5 39 95.5t97 38q55 0 93 -38t38 -95.5t-38 -95t-93 -37.5q-57 0 -96.5 37.5 t-39.5 95z" />
<glyph unicode="&#xcc;" horiz-adv-x="638" d="M-41 1911h336l244 -301h-224zM188 0v1434h261v-1434h-261z" />
<glyph unicode="&#xcd;" horiz-adv-x="638" d="M92 1610l244 301h336l-357 -301h-223zM188 0v1434h261v-1434h-261z" />
<glyph unicode="&#xce;" horiz-adv-x="638" d="M-57 1610l250 311h253l250 -311h-223l-154 176l-153 -176h-223zM188 0v1434h261v-1434h-261z" />
<glyph unicode="&#xcf;" horiz-adv-x="638" d="M-27 1738.5q0 57.5 38 95.5t95.5 38t94.5 -38t37 -95.5t-37 -95t-94.5 -37.5t-95.5 37.5t-38 95zM188 0v1434h261v-1434h-261zM401 1738.5q0 57.5 39 95.5t97 38q55 0 93 -38t38 -95.5t-38 -95t-93 -37.5q-57 0 -96.5 37.5t-39.5 95z" />
<glyph unicode="&#xd0;" horiz-adv-x="1478" d="M31 561v174h170v699h356q410 0 614.5 -193.5t204.5 -523.5t-204.5 -523.5t-614.5 -193.5h-356v561h-170zM461 215h96q272 0 408.5 129t136.5 373t-136.5 373t-408.5 129h-96v-484h264v-174h-264v-346z" />
<glyph unicode="&#xd1;" horiz-adv-x="1632" d="M188 0v1442h174l820 -973v965h260v-1442h-174l-819 971v-963h-261zM399 1620q0 131 62.5 228.5t185.5 97.5q70 0 126 -37t100.5 -74t84.5 -37q92 0 97 146h157q0 -135 -62.5 -230.5t-188.5 -95.5q-74 0 -129.5 37t-98.5 73.5t-86 36.5q-86 0 -90 -145h-158z" />
<glyph unicode="&#xd2;" d="M102 717q0 330 202 537.5t523.5 207.5t523 -207.5t201.5 -537.5t-201.5 -538t-523 -208t-523.5 208t-202 538zM377 716.5q0 -235.5 124 -377.5t326.5 -142t326.5 142t124 377.5t-124 377t-326.5 141.5t-326.5 -141.5t-124 -377zM446 1925h336l244 -301h-223z" />
<glyph unicode="&#xd3;" d="M102 717q0 330 202 537.5t523.5 207.5t523 -207.5t201.5 -537.5t-201.5 -538t-523 -208t-523.5 208t-202 538zM377 716.5q0 -235.5 124 -377.5t326.5 -142t326.5 142t124 377.5t-124 377t-326.5 141.5t-326.5 -141.5t-124 -377zM610 1624l244 301h336l-356 -301h-224z " />
<glyph unicode="&#xd4;" d="M102 717q0 330 202 537.5t523.5 207.5t523 -207.5t201.5 -537.5t-201.5 -538t-523 -208t-523.5 208t-202 538zM377 716.5q0 -235.5 124 -377.5t326.5 -142t326.5 142t124 377.5t-124 377t-326.5 141.5t-326.5 -141.5t-124 -377zM451 1624l249 311h254l250 -311h-223 l-154 176l-153 -176h-223z" />
<glyph unicode="&#xd5;" d="M102 717q0 330 202 537.5t523.5 207.5t523 -207.5t201.5 -537.5t-201.5 -538t-523 -208t-523.5 208t-202 538zM377 716.5q0 -235.5 124 -377.5t326.5 -142t326.5 142t124 377.5t-124 377t-326.5 141.5t-326.5 -141.5t-124 -377zM420 1638q0 131 62.5 228.5t185.5 97.5 q70 0 126 -37t100 -73.5t85 -36.5q92 0 96 145h158q0 -135 -62.5 -230.5t-189.5 -95.5q-74 0 -129 37t-98 74t-86 37q-86 0 -90 -146h-158z" />
<glyph unicode="&#xd6;" d="M102 717q0 330 202 537.5t523.5 207.5t523 -207.5t201.5 -537.5t-201.5 -538t-523 -208t-523.5 208t-202 538zM377 716.5q0 -235.5 124 -377.5t326.5 -142t326.5 142t124 377.5t-124 377t-326.5 141.5t-326.5 -141.5t-124 -377zM489 1753q0 57 38 95t95.5 38t94.5 -38 t37 -95t-37 -95t-94.5 -38t-95.5 38t-38 95zM918 1753q0 57 38.5 95t96.5 38q55 0 93 -38t38 -95t-38 -95t-93 -38q-57 0 -96 38t-39 95z" />
<glyph unicode="&#xd7;" horiz-adv-x="1353" d="M113 180l409 410l-409 411l153 154l410 -412l411 412l154 -154l-412 -411l412 -410l-154 -153l-411 409l-410 -409z" />
<glyph unicode="&#xd8;" d="M102 -29l187 226q-186 205 -187 520q0 330 202 537.5t523 207.5q225 0 406 -114l94 114h225l-184 -227q184 -203 184 -518q0 -330 -201.5 -538t-523.5 -208q-233 0 -405 113l-94 -113h-226zM377 717q0 -184 80 -316l622 758q-106 76 -252 76q-203 0 -326.5 -141 t-123.5 -377zM575 272q106 -76 252 -75q203 0 327 142t124 378q0 182 -80 313z" />
<glyph unicode="&#xd9;" horiz-adv-x="1525" d="M178 541v893h260v-895q0 -344 323.5 -344t323.5 344v895h261v-893q0 -283 -157 -426.5t-427 -143.5t-427 141.5t-157 428.5zM371 1911h336l243 -301h-223z" />
<glyph unicode="&#xda;" horiz-adv-x="1525" d="M178 541v893h260v-895q0 -344 323.5 -344t323.5 344v895h261v-893q0 -283 -157 -426.5t-427 -143.5t-427 141.5t-157 428.5zM555 1610l244 301h336l-357 -301h-223z" />
<glyph unicode="&#xdb;" horiz-adv-x="1525" d="M178 541v893h260v-895q0 -344 323.5 -344t323.5 344v895h261v-893q0 -283 -157 -426.5t-427 -143.5t-427 141.5t-157 428.5zM385 1610l250 311h254l250 -311h-224l-153 176l-154 -176h-223z" />
<glyph unicode="&#xdc;" horiz-adv-x="1536" d="M182 541v893h260v-895q0 -344 324 -344t324 344v895h260v-893q0 -283 -157 -426.5t-427 -143.5t-427 141.5t-157 428.5zM420 1747q0 57 38 95t95 38t94 -38t37 -95t-37 -95t-94 -38t-95 38t-38 95zM848 1747q0 57 39 95t96 38q55 0 93 -38t38 -95t-38 -95t-93 -38 q-57 0 -96 38t-39 95z" />
<glyph unicode="&#xdd;" horiz-adv-x="1189" d="M-4 1434h287l311 -625l311 625h289l-469 -877v-557h-260v557zM438 1610l244 301h336l-356 -301h-224z" />
<glyph unicode="&#xde;" horiz-adv-x="1263" d="M195 0v1434h260v-230h188q258 0 399.5 -127t141.5 -327.5t-141.5 -328.5t-399.5 -128h-188v-293h-260zM455 508h168q287 0 286 242q0 240 -286 239h-168v-481z" />
<glyph unicode="&#xdf;" horiz-adv-x="1341" d="M174 0v1092q0 182 126 292.5t341 110.5q205 0 325.5 -88t120.5 -223q0 -86 -40.5 -151.5t-90 -96.5t-90.5 -70t-41 -78q0 -43 47.5 -77.5t114 -65.5t133 -68.5t113.5 -106.5t47 -161q0 -154 -114.5 -246t-299.5 -92q-182 0 -307 80v203q53 -37 143.5 -65.5t161.5 -28.5 q82 0 126 42t44 101q0 55 -47 96t-114.5 70t-135 61.5t-115 92t-47.5 141.5q0 63 26 110.5t62.5 75t74.5 54t63.5 62.5t25.5 85q0 76 -58 117t-134 41q-84 0 -151.5 -56.5t-67.5 -158.5v-1094h-242z" />
<glyph unicode="&#xe0;" horiz-adv-x="1124" d="M82 303q0 147 115.5 244.5t316.5 97.5q74 0 186 -22v75q0 195 -225 195q-166 0 -315 -86v217q174 70 360 70q205 0 315.5 -92.5t110.5 -266.5v-446q0 -115 92 -115l45 10v-168q-57 -29 -153 -28q-86 0 -138.5 41t-68.5 102h-2q-109 -160 -307 -160q-150 0 -241 88 t-91 244zM188 1556h336l244 -301h-223zM332 315q0 -66 42 -105.5t122 -39.5q137 0 204 115v178q-72 20 -141 20q-102 0 -164.5 -47t-62.5 -121z" />
<glyph unicode="&#xe1;" horiz-adv-x="1124" d="M82 303q0 147 115.5 244.5t316.5 97.5q74 0 186 -22v75q0 195 -225 195q-166 0 -315 -86v217q174 70 360 70q205 0 315.5 -92.5t110.5 -266.5v-446q0 -115 92 -115l45 10v-168q-57 -29 -153 -28q-86 0 -138.5 41t-68.5 102h-2q-109 -160 -307 -160q-150 0 -241 88 t-91 244zM301 1255l244 301h336l-357 -301h-223zM332 315q0 -66 42 -105.5t122 -39.5q137 0 204 115v178q-72 20 -141 20q-102 0 -164.5 -47t-62.5 -121z" />
<glyph unicode="&#xe2;" horiz-adv-x="1124" d="M82 303q0 147 115.5 244.5t316.5 97.5q74 0 186 -22v75q0 195 -225 195q-166 0 -315 -86v217q174 70 360 70q205 0 315.5 -92.5t110.5 -266.5v-446q0 -115 92 -115l45 10v-168q-57 -29 -153 -28q-86 0 -138.5 41t-68.5 102h-2q-109 -160 -307 -160q-150 0 -241 88 t-91 244zM168 1255l250 312h254l250 -312h-224l-153 177l-154 -177h-223zM332 315q0 -66 42 -105.5t122 -39.5q137 0 204 115v178q-72 20 -141 20q-102 0 -164.5 -47t-62.5 -121z" />
<glyph unicode="&#xe3;" horiz-adv-x="1124" d="M82 303q0 147 115.5 244.5t316.5 97.5q74 0 186 -22v75q0 195 -225 195q-166 0 -315 -86v217q174 70 360 70q205 0 315.5 -92.5t110.5 -266.5v-446q0 -115 92 -115l45 10v-168q-57 -29 -153 -28q-86 0 -138.5 41t-68.5 102h-2q-109 -160 -307 -160q-150 0 -241 88 t-91 244zM119 1282q0 131 62.5 228.5t185.5 97.5q70 0 126 -37t100 -74t85 -37q92 0 96 146h158q0 -135 -62.5 -230.5t-189.5 -95.5q-74 0 -129 37t-98 73.5t-86 36.5q-86 0 -91 -145h-157zM332 315q0 -66 42 -105.5t122 -39.5q137 0 204 115v178q-72 20 -141 20 q-102 0 -164.5 -47t-62.5 -121z" />
<glyph unicode="&#xe4;" horiz-adv-x="1124" d="M82 303q0 147 115.5 244.5t316.5 97.5q74 0 186 -22v75q0 195 -225 195q-166 0 -315 -86v217q174 70 360 70q205 0 315.5 -92.5t110.5 -266.5v-446q0 -115 92 -115l45 10v-168q-57 -29 -153 -28q-86 0 -138.5 41t-68.5 102h-2q-109 -160 -307 -160q-150 0 -241 88 t-91 244zM195 1386.5q0 57.5 37.5 95.5t95 38t94.5 -38t37 -95.5t-37 -95.5t-94.5 -38t-95 38t-37.5 95.5zM332 315q0 -66 42 -105.5t122 -39.5q137 0 204 115v178q-72 20 -141 20q-102 0 -164.5 -47t-62.5 -121zM623 1386.5q0 57.5 38.5 95.5t96.5 38q55 0 93 -38t38 -95.5 t-38 -95.5t-93 -38q-57 0 -96 38t-39 95.5z" />
<glyph unicode="&#xe5;" horiz-adv-x="1124" d="M82 303q0 147 115.5 244.5t316.5 97.5q74 0 186 -22v75q0 195 -225 195q-166 0 -315 -86v217q174 70 360 70q205 0 315.5 -92.5t110.5 -266.5v-446q0 -115 92 -115l45 10v-168q-57 -29 -153 -28q-86 0 -138.5 41t-68.5 102h-2q-109 -160 -307 -160q-150 0 -241 88 t-91 244zM264 1470q0 117 75 190t191.5 73t191.5 -73t75 -190q0 -119 -75 -192.5t-191.5 -73.5t-191.5 73.5t-75 192.5zM332 315q0 -66 42 -105.5t122 -39.5q137 0 204 115v178q-72 20 -141 20q-102 0 -164.5 -47t-62.5 -121zM418 1470q0 -57 30.5 -90.5t82 -33.5t82 33.5 t30.5 90.5q0 53 -30.5 87t-82 34t-82 -34t-30.5 -87z" />
<glyph unicode="&#xe6;" horiz-adv-x="1824" d="M96 303q0 154 119 253t326 99q74 0 186 -22v63q0 195 -227 195q-160 0 -326 -96v219q199 80 371 80q248 0 352 -138q143 137 352 138q213 0 346.5 -134.5t133.5 -355.5l-7 -125h-737q23 -309 338 -309q188 0 354 109v-205q-160 -102 -391 -103q-274 0 -426 174 q-94 -94 -189.5 -134t-221.5 -40q-162 0 -257.5 88t-95.5 244zM346 313q0 -66 46 -106.5t130 -40.5q135 0 205 117v186q-84 23 -141 23q-109 0 -174.5 -49.5t-65.5 -129.5zM991 651h484q0 119 -61.5 185.5t-164.5 66.5q-109 0 -176.5 -69.5t-81.5 -182.5z" />
<glyph unicode="&#xe7;" horiz-adv-x="1048" d="M96 532.5q0 253.5 156 407.5t401 154q170 0 293 -64v-221q-123 84 -266 84q-154 0 -242 -96.5t-88 -264t88 -264t242 -96.5q139 0 266 82v-221q-127 -61 -293 -62q-246 0 -401.5 154t-155.5 407.5zM371 -367q68 -35 143 -34q45 0 71.5 22.5t26.5 61.5q0 49 -55 77.5 t-151 28.5l118 211h181l-80 -127q84 -18 135 -67.5t51 -122.5q0 -100 -83 -156.5t-198 -56.5q-39 0 -78.5 6t-60.5 12l-20 6v139z" />
<glyph unicode="&#xe8;" horiz-adv-x="1196" d="M96 532q0 246 147.5 404t377.5 158q213 0 345 -133.5t132 -356.5l-6 -125h-736q10 -150 95.5 -229.5t242.5 -79.5q190 0 353 109v-205q-160 -102 -392 -103q-252 0 -405.5 154.5t-153.5 406.5zM256 1556h336l244 -301h-224zM360 651h486q0 119 -62.5 185.5t-165.5 66.5 q-106 0 -174 -69.5t-84 -182.5z" />
<glyph unicode="&#xe9;" horiz-adv-x="1196" d="M96 532q0 246 147.5 404t377.5 158q213 0 345 -133.5t132 -356.5l-6 -125h-736q10 -150 95.5 -229.5t242.5 -79.5q190 0 353 109v-205q-160 -102 -392 -103q-252 0 -405.5 154.5t-153.5 406.5zM360 651h486q0 119 -62.5 185.5t-165.5 66.5q-106 0 -174 -69.5t-84 -182.5z M369 1255l243 301h336l-356 -301h-223z" />
<glyph unicode="&#xea;" horiz-adv-x="1196" d="M96 532q0 246 147.5 404t377.5 158q213 0 345 -133.5t132 -356.5l-6 -125h-736q10 -150 95.5 -229.5t242.5 -79.5q190 0 353 109v-205q-160 -102 -392 -103q-252 0 -405.5 154.5t-153.5 406.5zM240 1255l249 312h254l250 -312h-223l-154 177l-153 -177h-223zM360 651h486 q0 119 -62.5 185.5t-165.5 66.5q-106 0 -174 -69.5t-84 -182.5z" />
<glyph unicode="&#xeb;" horiz-adv-x="1196" d="M96 532q0 246 147.5 404t377.5 158q213 0 345 -133.5t132 -356.5l-6 -125h-736q10 -150 95.5 -229.5t242.5 -79.5q190 0 353 109v-205q-160 -102 -392 -103q-252 0 -405.5 154.5t-153.5 406.5zM270 1386.5q0 57.5 38 95.5t95.5 38t94.5 -38t37 -95.5t-37 -95.5t-94.5 -38 t-95.5 38t-38 95.5zM360 651h486q0 119 -62.5 185.5t-165.5 66.5q-106 0 -174 -69.5t-84 -182.5zM698 1386.5q0 57.5 39 95.5t97 38q55 0 93 -38t38 -95.5t-38 -95.5t-93 -38q-57 0 -96.5 38t-39.5 95.5z" />
<glyph unicode="&#xec;" horiz-adv-x="583" d="M-49 1556h336l243 -301h-223zM168 0v1065h246v-1065h-246z" />
<glyph unicode="&#xed;" horiz-adv-x="583" d="M63 1255l244 301h336l-356 -301h-224zM168 0v1065h246v-1065h-246z" />
<glyph unicode="&#xee;" horiz-adv-x="583" d="M-84 1255l250 312h254l250 -312h-224l-153 177l-154 -177h-223zM168 0v1065h246v-1065h-246z" />
<glyph unicode="&#xef;" horiz-adv-x="583" d="M-53 1386.5q0 57.5 38 95.5t95 38t94 -38t37 -95.5t-37 -95.5t-94 -38t-95 38t-38 95.5zM168 0v1065h246v-1065h-246zM375 1386.5q0 57.5 39 95.5t96 38q55 0 93 -38t38 -95.5t-38 -95.5t-93 -38q-57 0 -96 38t-39 95.5z" />
<glyph unicode="&#xf0;" horiz-adv-x="1257" d="M96 489q0 223 139.5 370t350.5 147q145 0 268 -97q-41 129 -147 269l-234 -107l-45 98l207 93q-57 61 -123 106l102 127q98 -63 191 -156l217 101l45 -97l-186 -86q131 -156 204.5 -342t73.5 -372q0 -264 -146.5 -418t-387.5 -154q-231 0 -380 145.5t-149 372.5z M352 491.5q0 -149.5 76 -234.5t201 -85t199.5 85t74.5 234.5t-74.5 234.5t-199.5 85t-201 -85t-76 -234.5z" />
<glyph unicode="&#xf1;" horiz-adv-x="1286" d="M154 1065h225q14 -61 24 -152q152 180 353 181q133 0 220 -63.5t117.5 -148.5t30.5 -188v-694h-245v657q0 113 -57.5 171.5t-157.5 58.5q-76 0 -142.5 -39t-107.5 -84v-764h-246v795q0 70 -4 137t-8 100zM238 1282q0 131 62 228.5t185 97.5q70 0 126.5 -37t100.5 -74 t85 -37q92 0 96 146h158q0 -135 -62.5 -230.5t-189.5 -95.5q-74 0 -129.5 37t-98.5 73.5t-86 36.5q-86 0 -90 -145h-157z" />
<glyph unicode="&#xf2;" horiz-adv-x="1277" d="M96 532.5q0 247.5 151.5 404.5t391.5 157t390.5 -157t150.5 -404.5t-150.5 -404.5t-390.5 -157t-391.5 157t-151.5 404.5zM266 1556h336l244 -301h-223zM352 532.5q0 -167.5 78 -264t209 -96.5t208 96.5t77 264t-77 264t-208 96.5t-209 -96.5t-78 -264z" />
<glyph unicode="&#xf3;" horiz-adv-x="1277" d="M96 532.5q0 247.5 151.5 404.5t391.5 157t390.5 -157t150.5 -404.5t-150.5 -404.5t-390.5 -157t-391.5 157t-151.5 404.5zM352 532.5q0 -167.5 78 -264t209 -96.5t208 96.5t77 264t-77 264t-208 96.5t-209 -96.5t-78 -264zM389 1255l244 301h336l-357 -301h-223z" />
<glyph unicode="&#xf4;" horiz-adv-x="1277" d="M96 532.5q0 247.5 151.5 404.5t391.5 157t390.5 -157t150.5 -404.5t-150.5 -404.5t-390.5 -157t-391.5 157t-151.5 404.5zM260 1255l250 312h254l250 -312h-223l-154 177l-154 -177h-223zM352 532.5q0 -167.5 78 -264t209 -96.5t208 96.5t77 264t-77 264t-208 96.5 t-209 -96.5t-78 -264z" />
<glyph unicode="&#xf5;" horiz-adv-x="1277" d="M96 532.5q0 247.5 151.5 404.5t391.5 157t390.5 -157t150.5 -404.5t-150.5 -404.5t-390.5 -157t-391.5 157t-151.5 404.5zM231 1282q0 131 62.5 228.5t185.5 97.5q70 0 126.5 -37t100.5 -74t85 -37q92 0 96 146h157q0 -135 -62 -230.5t-189 -95.5q-74 0 -129.5 37 t-98.5 73.5t-86 36.5q-86 0 -90 -145h-158zM352 532.5q0 -167.5 78 -264t209 -96.5t208 96.5t77 264t-77 264t-208 96.5t-209 -96.5t-78 -264z" />
<glyph unicode="&#xf6;" horiz-adv-x="1277" d="M96 532.5q0 247.5 151.5 404.5t391.5 157t390.5 -157t150.5 -404.5t-150.5 -404.5t-390.5 -157t-391.5 157t-151.5 404.5zM291 1386.5q0 57.5 38 95.5t95 38t94 -38t37 -95.5t-37 -95.5t-94 -38t-95 38t-38 95.5zM352 532.5q0 -167.5 78 -264t209 -96.5t208 96.5t77 264 t-77 264t-208 96.5t-209 -96.5t-78 -264zM719 1386.5q0 57.5 39 95.5t96 38q55 0 93 -38t38 -95.5t-38 -95.5t-93 -38q-57 0 -96 38t-39 95.5z" />
<glyph unicode="&#xf7;" horiz-adv-x="1251" d="M113 485v211h1026v-211h-1026zM451 190.5q0 69.5 50 115.5t124 46q76 0 125 -46t49 -116q0 -72 -49.5 -117.5t-124.5 -45.5q-74 0 -124 47t-50 116.5zM451 993.5q0 69.5 50 116.5t124 47q76 0 125 -46t49 -117.5t-49.5 -118t-124.5 -46.5q-74 0 -124 47.5t-50 117z" />
<glyph unicode="&#xf8;" horiz-adv-x="1277" d="M96 -29l137 170q-137 154 -137 391q0 248 151.5 405t391.5 157q158 0 291 -78l61 78h189l-138 -172q137 -154 138 -390q0 -248 -150.5 -404.5t-390.5 -156.5q-168 0 -293 78l-61 -78h-189zM352 532q0 -115 37 -194l404 508q-63 47 -154 47q-131 0 -209 -96.5t-78 -264.5z M481 217q66 -45 158 -45q131 0 208 96.5t77 263.5q0 111 -37 195z" />
<glyph unicode="&#xf9;" horiz-adv-x="1286" d="M160 371v694h246v-659q0 -113 58 -171.5t159 -58.5q76 0 143.5 40t103.5 83v766h246v-795q0 -70 3 -137t7 -100l4 -33h-225q-14 59 -24 150q-150 -178 -351 -179q-195 0 -282.5 118t-87.5 282zM240 1556h335l244 -301h-223z" />
<glyph unicode="&#xfa;" horiz-adv-x="1286" d="M160 371v694h246v-659q0 -113 58 -171.5t159 -58.5q76 0 143.5 40t103.5 83v766h246v-795q0 -70 3 -137t7 -100l4 -33h-225q-14 59 -24 150q-150 -178 -351 -179q-195 0 -282.5 118t-87.5 282zM414 1255l243 301h336l-356 -301h-223z" />
<glyph unicode="&#xfb;" horiz-adv-x="1286" d="M160 371v694h246v-659q0 -113 58 -171.5t159 -58.5q76 0 143.5 40t103.5 83v766h246v-795q0 -70 3 -137t7 -100l4 -33h-225q-14 59 -24 150q-150 -178 -351 -179q-195 0 -282.5 118t-87.5 282zM264 1255l250 312h254l250 -312h-223l-154 177l-154 -177h-223z" />
<glyph unicode="&#xfc;" horiz-adv-x="1286" d="M160 371v694h246v-659q0 -113 58 -171.5t159 -58.5q76 0 143.5 40t103.5 83v766h246v-795q0 -70 3 -137t7 -100l4 -33h-225q-14 59 -24 150q-150 -178 -351 -179q-195 0 -282.5 118t-87.5 282zM295 1386.5q0 57.5 38 95.5t95 38t94 -38t37 -95.5t-37 -95.5t-94 -38 t-95 38t-38 95.5zM723 1386.5q0 57.5 39 95.5t96 38q55 0 93 -38t38 -95.5t-38 -95.5t-93 -38q-57 0 -96 38t-39 95.5z" />
<glyph unicode="&#xfd;" horiz-adv-x="1056" d="M6 -266q49 -20 111 -21q201 0 293 291l12 39l-414 1022h262l269 -721l239 721h258l-379 -1059q-96 -270 -220 -394t-300 -124l-131 25v221zM338 1255l244 301h336l-357 -301h-223z" />
<glyph unicode="&#xfe;" horiz-adv-x="1325" d="M174 -512v1946h246v-465q133 125 315 125q215 0 351.5 -159t136.5 -402.5t-136.5 -402.5t-351.5 -159q-176 0 -315 109v-592h-246zM420 270q106 -100 246 -100q135 0 219 95t84 267q0 168 -81 259.5t-218 91.5q-141 0 -250 -99v-514z" />
<glyph unicode="&#xff;" horiz-adv-x="1056" d="M6 -266q49 -20 111 -21q201 0 293 291l12 39l-414 1022h262l269 -721l239 721h258l-379 -1059q-96 -270 -220 -394t-300 -124l-131 25v221zM195 1376.5q0 57.5 37.5 95t95 37.5t94.5 -37.5t37 -95t-37 -95.5t-94.5 -38t-95 38t-37.5 95.5zM623 1376.5q0 57.5 38.5 95 t96.5 37.5q55 0 93 -37.5t38 -95t-38 -95.5t-93 -38q-57 0 -96 38t-39 95.5z" />
<glyph unicode="&#x152;" horiz-adv-x="2013" d="M102 717q0 328 202 536.5t515 208.5q102 0 217 -28h860v-215h-600v-359h519v-215h-519v-430h600v-215h-860q-98 -29 -217 -29q-313 0 -515 208t-202 538zM377 716.5q0 -233.5 126 -375.5t335 -142q109 0 198 39v956q-92 41 -198 41q-209 0 -335 -142.5t-126 -376z" />
<glyph unicode="&#x153;" horiz-adv-x="2023" d="M96 532.5q0 247.5 151.5 404.5t391.5 157q260 0 412 -189q150 188 397 189q213 0 345 -133.5t132 -356.5l-6 -125h-735q10 -150 95 -229.5t243 -79.5q190 0 352 109v-205q-160 -102 -391 -103q-281 0 -432 187q-150 -186 -412 -187q-240 0 -391.5 157t-151.5 404.5z M352 532.5q0 -167.5 78 -264t209 -96.5t208 96.5t77 264t-77 264t-208 96.5t-209 -96.5t-78 -264zM1188 651h485q2 119 -61.5 185.5t-165.5 66.5q-106 0 -174 -69.5t-84 -182.5z" />
<glyph unicode="&#x178;" horiz-adv-x="1202" d="M2 1434h287l311 -625l311 625h289l-469 -877v-557h-260v557zM254 1738.5q0 57.5 38 95.5t95 38t94 -38t37 -95.5t-37 -95t-94 -37.5t-95 37.5t-38 95zM682 1738.5q0 57.5 39 95.5t96 38q55 0 93 -38t38 -95.5t-38 -95t-93 -37.5q-57 0 -96 37.5t-39 95z" />
<glyph unicode="&#x2c6;" horiz-adv-x="978" d="M113 1255l249 312h254l250 -312h-223l-154 177l-153 -177h-223z" />
<glyph unicode="&#x2dc;" horiz-adv-x="1038" d="M113 1282q0 131 62.5 228.5t184.5 97.5q70 0 126.5 -37t100.5 -74t85 -37q92 0 96 146h158q0 -135 -62.5 -230.5t-189.5 -95.5q-74 0 -129.5 37t-98.5 73.5t-86 36.5q-86 0 -90 -145h-157z" />
<glyph unicode="&#x2000;" horiz-adv-x="980" />
<glyph unicode="&#x2001;" horiz-adv-x="1964" />
<glyph unicode="&#x2002;" horiz-adv-x="980" />
<glyph unicode="&#x2003;" horiz-adv-x="1964" />
<glyph unicode="&#x2004;" horiz-adv-x="653" />
<glyph unicode="&#x2005;" horiz-adv-x="489" />
<glyph unicode="&#x2006;" horiz-adv-x="325" />
<glyph unicode="&#x2007;" horiz-adv-x="325" />
<glyph unicode="&#x2008;" horiz-adv-x="243" />
<glyph unicode="&#x2009;" horiz-adv-x="391" />
<glyph unicode="&#x200a;" horiz-adv-x="108" />
<glyph unicode="&#x2010;" horiz-adv-x="763" d="M113 508v211h538v-211h-538z" />
<glyph unicode="&#x2011;" horiz-adv-x="763" d="M113 508v211h538v-211h-538z" />
<glyph unicode="&#x2012;" horiz-adv-x="763" d="M113 508v211h538v-211h-538z" />
<glyph unicode="&#x2013;" horiz-adv-x="1306" d="M113 508v211h1081v-211h-1081z" />
<glyph unicode="&#x2014;" horiz-adv-x="2283" d="M113 508v211h2058v-211h-2058z" />
<glyph unicode="&#x2018;" horiz-adv-x="501" d="M35 1001q0 117 69.5 240t196.5 221l80 -88q-143 -123 -156 -237q72 -4 118 -53.5t46 -120.5q0 -76 -50 -124t-124 -48q-80 0 -130 55t-50 155z" />
<glyph unicode="&#x2019;" horiz-adv-x="544" d="M113 1290q0 76 49 124t125 48q78 0 128 -56t50 -157q0 -117 -68.5 -239.5t-197.5 -218.5l-80 86q63 55 106 119.5t49 119.5q-70 4 -115.5 53t-45.5 121z" />
<glyph unicode="&#x201a;" horiz-adv-x="512" d="M80 145q0 76 49 124t125 48q78 0 128 -55t50 -156q0 -117 -68.5 -239.5t-197.5 -220.5l-80 88q143 123 156 237q-70 4 -116 53t-46 121z" />
<glyph unicode="&#x201c;" horiz-adv-x="972" d="M80 1001q0 117 68.5 240t197.5 221l80 -88q-143 -123 -156 -237q70 -4 116 -53.5t46 -120.5q0 -76 -49 -124t-125 -48q-78 0 -128 55t-50 155zM506 1001q0 117 69.5 240t196.5 221l80 -88q-143 -123 -156 -237q72 -4 118 -53.5t46 -120.5q0 -76 -50 -124t-124 -48 q-80 0 -130 55t-50 155z" />
<glyph unicode="&#x201d;" horiz-adv-x="972" d="M113 1290q0 76 49 124t125 48q78 0 128 -56t50 -157q0 -117 -68.5 -239.5t-197.5 -218.5l-80 86q63 55 106 119.5t49 119.5q-70 4 -115.5 53t-45.5 121zM539 1290q0 74 50 123t124 49q80 0 130 -56t50 -157q0 -115 -69.5 -237.5t-196.5 -220.5l-80 86q63 55 106 119.5 t49 119.5q-72 4 -117.5 53t-45.5 121z" />
<glyph unicode="&#x201e;" horiz-adv-x="940" d="M80 145q0 76 49 124t125 48q78 0 128 -55t50 -156q0 -117 -68.5 -239.5t-197.5 -220.5l-80 88q143 123 156 237q-70 4 -116 53t-46 121zM506 145q0 76 50 124t124 48q80 0 130 -55t50 -156q0 -117 -69.5 -239.5t-196.5 -220.5l-80 88q143 123 156 237q-72 4 -118 53 t-46 121z" />
<glyph unicode="&#x2022;" horiz-adv-x="825" d="M154 672q0 111 73.5 185.5t184.5 74.5q109 0 184.5 -76t75.5 -184.5t-76 -183t-184 -74.5q-111 0 -184.5 74.5t-73.5 183.5z" />
<glyph unicode="&#x2026;" horiz-adv-x="1581" d="M80 145.5q0 75.5 49 123.5t125 48q74 0 123 -48t49 -123.5t-49 -125t-123 -49.5q-76 0 -125 49.5t-49 125zM616 145q0 74 50.5 123t124.5 49q76 0 125 -48t49 -123.5t-49.5 -125t-124.5 -49.5q-74 0 -124.5 49t-50.5 125zM1155 145.5q0 75.5 49 123.5t125 48 q74 0 123 -48t49 -123.5t-49 -125t-123 -49.5q-76 0 -125 49.5t-49 125z" />
<glyph unicode="&#x202f;" horiz-adv-x="391" />
<glyph unicode="&#x2039;" horiz-adv-x="753" d="M82 430v219l477 410v-223l-278 -297l278 -295v-224z" />
<glyph unicode="&#x203a;" horiz-adv-x="753" d="M195 20v224l278 295l-278 297v223l477 -410v-219z" />
<glyph unicode="&#x205f;" horiz-adv-x="489" />
<glyph unicode="&#x20ac;" horiz-adv-x="1509" d="M113 481v164h161q-4 25 -4 72q0 45 4 74h-161v163h188q66 231 248 369.5t430 138.5q229 0 418 -108l-107 -201q-135 82 -291 82q-147 0 -254.5 -74t-158.5 -207h602l-84 -163h-555q-4 -29 -4 -74q0 -47 4 -72h477l-84 -164h-356q51 -135 157.5 -208.5t255.5 -73.5 q160 0 291 80l107 -201q-188 -106 -418 -107q-250 0 -431 137.5t-247 372.5h-188z" />
<glyph unicode="&#x2122;" horiz-adv-x="2002" d="M72 1290v144h714v-144h-270v-672h-176v672h-268zM895 618v822h117l342 -457l340 457h114v-822h-174v496l-256 -344h-51l-256 344v-496h-176z" />
<glyph unicode="&#xe000;" horiz-adv-x="1065" d="M0 1065h1065v-1065h-1065v1065z" />
<glyph unicode="&#xfb01;" horiz-adv-x="1345" d="M41 866v199h174v100q0 160 83 245t230 85q131 0 191 -27v-200q-70 27 -141 26q-119 0 -119 -123v-106h248v-199h-248v-866h-244v866h-174zM905 1364q0 61 40 98t103.5 37t103.5 -37t40 -98t-40 -97t-103.5 -36t-103.5 36t-40 97zM926 0v1065h245v-1065h-245z" />
<glyph unicode="&#xfb02;" horiz-adv-x="1456" d="M41 866v199h174v100q0 160 83 245t230 85q131 0 191 -27v-200q-70 27 -141 26q-119 0 -119 -123v-106h248v-199h-248v-866h-244v866h-174zM926 340v1155h245v-1163q0 -82 35 -115t105 -33q29 0 56.5 4.5t41.5 8.5l12 6v-207q-82 -25 -176 -25q-166 0 -242.5 89.5 t-76.5 279.5z" />
<glyph unicode="&#xfb03;" horiz-adv-x="2078" d="M1642 1364q0 61 40 98t103.5 37t103.5 -37t40 -98t-40 -97t-103.5 -36t-103.5 36t-40 97zM1663 0v1065h246v-1065h-246zM793 866v199h174v100q0 160 83 245t230 85q131 0 191 -27v-200q-70 27 -141 26q-119 0 -119 -123v-106h248v-199h-248v-866h-244v866h-174zM45 866 v199h174v100q0 160 83 245t230 85q131 0 191 -27v-200q-70 27 -141 26q-119 0 -119 -123v-106h248v-199h-248v-866h-244v866h-174z" />
<glyph unicode="&#xfb04;" horiz-adv-x="2189" d="M1663 340v1155h246v-1163q0 -82 34.5 -115t104.5 -33q29 0 56.5 4.5t41.5 8.5l13 6v-207q-82 -25 -177 -25q-166 0 -242.5 89.5t-76.5 279.5zM793 866v199h174v100q0 160 83 245t230 85q131 0 191 -27v-200q-70 27 -141 26q-119 0 -119 -123v-106h248v-199h-248v-866 h-244v866h-174zM45 866v199h174v100q0 160 83 245t230 85q131 0 191 -27v-200q-70 27 -141 26q-119 0 -119 -123v-106h248v-199h-248v-866h-244v866h-174z" />
</font>
</defs>
</svg>
