<?xml version="1.0" standalone="no"?>
<!DOCTYPE svg PUBLIC "-//W3C//DTD SVG 1.1//EN" "http://www.w3.org/Graphics/SVG/1.1/DTD/svg11.dtd" >
<svg xmlns="http://www.w3.org/2000/svg">
<metadata>
This is a custom SVG webfont generated by Font Squirrel.
Copyright   : Copyright c 2012 by Disney All rights reserved Designed by Michael Cina and Matthew Desmond of Cina Associates
Designer    : Cina Associates
Foundry     : Disney
Foundry URL : httpmichaelcinaassociatescom
</metadata>
<defs>
<font id="MatterhornRegular" horiz-adv-x="1261" >
<font-face units-per-em="2048" ascent="1536" descent="-512" />
<missing-glyph horiz-adv-x="573" />
<glyph unicode=" "  horiz-adv-x="573" />
<glyph unicode="&#x09;" horiz-adv-x="573" />
<glyph unicode="&#xa0;" horiz-adv-x="573" />
<glyph unicode="!" horiz-adv-x="538" d="M123 118.5q0 63.5 42 104.5t105.5 41t104.5 -41t41 -104.5t-41 -105.5t-104.5 -42t-105.5 42t-42 105.5zM166 1434h209l-21 -957h-168z" />
<glyph unicode="&#x22;" horiz-adv-x="765" d="M123 1462h182l-33 -536h-141zM481 1462h183l-33 -536h-142z" />
<glyph unicode="#" horiz-adv-x="1349" d="M123 401v148h229l45 336h-207v147h228l53 402h154l-54 -402h291l53 402h154l-53 -402h211v-147h-232l-45 -336h209v-148h-227l-53 -401h-154l53 401h-291l-53 -401h-153l53 401h-211zM506 549h291l45 336h-291z" />
<glyph unicode="$" horiz-adv-x="1067" d="M123 63v213q57 -53 152.5 -93t195.5 -40q123 0 202 65.5t79 170.5q0 72 -46.5 129t-115 92t-148.5 81t-148.5 92t-114.5 126t-46 182q0 154 93 251.5t247 121.5v182h168v-178q150 -16 250 -76v-217q-51 49 -139 87t-183 38q-109 0 -171 -54t-62 -140q0 -57 33.5 -105.5 t89 -84.5t121 -69.5t131 -74.5t121 -90t89 -123t33.5 -164q0 -147 -89 -251.5t-236 -143.5v-232h-168v213q-201 6 -338 92z" />
<glyph unicode="%" horiz-adv-x="1871" d="M123 1034q0 180 92 290t241.5 110t242 -110t92.5 -290t-92.5 -289.5t-242 -109.5t-241.5 109.5t-92 289.5zM274 1034.5q0 -116.5 50.5 -187.5t132.5 -71t132 71t50 187.5t-50 187t-132 70.5t-132.5 -70.5t-50.5 -187zM512 -29l707 1491h141l-707 -1491h-141zM1081 399.5 q0 180.5 92.5 290t242 109.5t241.5 -109.5t92 -290t-92 -290t-241.5 -109.5t-242 109.5t-92.5 290zM1233 399.5q0 -116.5 50 -187.5t132 -71t132 71t50 187.5t-50 187t-132 70.5t-132 -70.5t-50 -187z" />
<glyph unicode="&#x26;" horiz-adv-x="1355" d="M123 344q0 147 85 247.5t234 194.5q-143 182 -143 342q0 133 94 233.5t260 100.5q145 0 240.5 -78.5t95.5 -218.5q0 -131 -83 -219t-238 -184l284 -316q47 113 70 250h162q-29 -219 -115 -379l285 -317h-236l-149 172q-174 -201 -432 -201q-188 0 -301 102.5t-113 270.5z M315 369q0 -104 70 -167t180 -63q174 0 297 156l-327 383q-104 -72 -162 -143.5t-58 -165.5zM473 1124q0 -121 102 -256q119 74 180.5 138.5t61.5 150.5q0 74 -45 118t-119 44q-80 0 -130 -54.5t-50 -140.5z" />
<glyph unicode="'" horiz-adv-x="407" d="M123 1462h182l-33 -536h-141z" />
<glyph unicode="(" horiz-adv-x="811" d="M164 659q0 539 350 959h215q-162 -166 -271.5 -410.5t-109.5 -548.5q0 -301 109.5 -545.5t271.5 -410.5h-213q-352 413 -352 956z" />
<glyph unicode=")" horiz-adv-x="811" d="M82 -297q162 166 271.5 410.5t109.5 545.5q0 303 -109.5 548t-271.5 411h215q350 -420 350 -959q0 -543 -352 -956h-213z" />
<glyph unicode="*" horiz-adv-x="1122" d="M123 1112l53 166l318 -125l-21 342h174l-20 -342l319 125l53 -166l-331 -86l219 -264l-142 -103l-184 289l-182 -289l-141 103l217 266z" />
<glyph unicode="+" horiz-adv-x="1296" d="M123 514v156h446v487h156v-487h449v-156h-449v-489h-156v489h-446z" />
<glyph unicode="," horiz-adv-x="485" d="M90 119q0 63 42 104t106 41q68 0 112.5 -49t44.5 -137q0 -104 -65.5 -213t-171.5 -193l-66 72q135 123 150 227q-63 2 -107.5 44.5t-44.5 103.5z" />
<glyph unicode="-" horiz-adv-x="733" d="M123 543v151h487v-151h-487z" />
<glyph unicode="." horiz-adv-x="473" d="M90 118.5q0 63.5 42 104.5t105.5 41t104.5 -41t41 -104.5t-41 -105.5t-104.5 -42t-105.5 42t-42 105.5z" />
<glyph unicode="/" horiz-adv-x="753" d="M41 -152l496 1737h176l-496 -1737h-176z" />
<glyph unicode="0" horiz-adv-x="1314" d="M133 717q0 334 144.5 539.5t380 205.5t380 -205.5t144.5 -539.5t-144.5 -540t-380 -206t-380 206t-144.5 540zM332 717q0 -262 90 -421t235.5 -159t235.5 159t90 421t-90 420.5t-235.5 158.5t-235.5 -158.5t-90 -420.5z" />
<glyph unicode="1" horiz-adv-x="720" d="M51 1276v158h455v-1434h-187v1276h-268z" />
<glyph unicode="2" horiz-adv-x="1122" d="M72 0v61l405 488q135 162 198.5 274.5t63.5 218.5q0 121 -75.5 187.5t-202.5 66.5q-166 0 -340 -133v195q162 104 366.5 104t327.5 -113.5t123 -299.5q0 -119 -60.5 -240t-197.5 -283l-307 -362h616v-164h-917z" />
<glyph unicode="3" horiz-adv-x="1112" d="M113 43v178q154 -84 321 -84q158 0 252 82t94 211q0 135 -102.5 218t-300.5 83l-37 -2v86l319 461h-542v158h827v-62l-360 -512q176 -31 285.5 -146.5t109.5 -283.5q0 -199 -143.5 -329t-389.5 -130q-181 0 -333 72z" />
<glyph unicode="4" horiz-adv-x="1214" d="M31 307v62l825 1093h62v-997h204v-158h-204v-307h-187v307h-700zM281 465h450v594z" />
<glyph unicode="5" horiz-adv-x="1132" d="M133 43v178q154 -84 318 -84q158 0 254 82t96 219q0 135 -96.5 216t-253.5 81q-164 0 -271 -59l43 758h727v-158h-555l-26 -395q53 12 114 12q225 0 367.5 -131t142.5 -324q0 -197 -145.5 -332t-382.5 -135q-180 0 -332 72z" />
<glyph unicode="6" horiz-adv-x="1173" d="M92 451q0 160 92 290l486 693h225l-367 -508q23 4 54 4q211 0 350 -135.5t139 -344t-139 -344t-350 -135.5t-350.5 135.5t-139.5 344.5zM291 450.5q0 -137.5 83 -225.5t208 -88t207.5 88t82.5 225.5t-82.5 225.5t-207.5 88t-208 -88t-83 -225.5z" />
<glyph unicode="7" horiz-adv-x="1052" d="M55 1276v158h946v-62l-632 -1372h-205l590 1276h-699z" />
<glyph unicode="8" horiz-adv-x="1220" d="M123 375q0 82 29.5 148.5t80 109.5t95.5 69.5t94 45.5q-115 57 -179.5 133.5t-64.5 201.5q0 178 131 278.5t313.5 100.5t305.5 -99t123 -257q0 -131 -77 -216t-175 -132q133 -63 216 -151.5t83 -229.5q0 -182 -139.5 -294t-352.5 -112t-348 114t-135 290zM322 379 q0 -113 78.5 -184.5t209.5 -71.5q129 0 210 70.5t81 181.5q0 61 -24.5 108t-82 86t-97.5 57.5t-126 55.5q-37 -14 -72.5 -35.5t-79.5 -57.5t-70.5 -90t-26.5 -120zM375 1094q0 -94 70.5 -153.5t205.5 -117.5q213 100 213 269q0 96 -66.5 157.5t-172.5 61.5 q-104 0 -177 -60.5t-73 -156.5z" />
<glyph unicode="9" horiz-adv-x="1173" d="M102 983q0 209 139.5 344t350.5 135t350 -135t139 -344q0 -160 -92 -291l-485 -692h-225l366 508q-23 -4 -53 -4q-211 0 -350.5 135t-139.5 344zM301 983q0 -137 83 -225t208 -88t208 88t83 225t-83 225t-208 88t-208 -88t-83 -225z" />
<glyph unicode=":" horiz-adv-x="538" d="M123 118.5q0 63.5 42 104.5t105.5 41t104.5 -41t41 -104.5t-41 -105.5t-104.5 -42t-105.5 42t-42 105.5zM123 845.5q0 63.5 42 104.5t105.5 41t104.5 -41t41 -104.5t-41 -105.5t-104.5 -42t-105.5 42t-42 105.5z" />
<glyph unicode=";" horiz-adv-x="550" d="M123 119q0 63 42 104t105 41q68 0 113 -49t45 -137q0 -104 -65.5 -213t-172.5 -193l-65 72q135 123 149 227q-63 2 -107 44.5t-44 103.5zM123 845.5q0 63.5 42 104.5t105.5 41t104.5 -41t41 -104.5t-41 -105.5t-104.5 -42t-105.5 42t-42 105.5z" />
<glyph unicode="&#x3c;" horiz-adv-x="1286" d="M82 512v158l1040 512v-185l-864 -405l864 -408v-184z" />
<glyph unicode="=" horiz-adv-x="1542" d="M205 279v155h1132v-155h-1132zM205 748v155h1132v-155h-1132z" />
<glyph unicode="&#x3e;" horiz-adv-x="1286" d="M164 0v184l864 408l-864 405v185l1040 -512v-158z" />
<glyph unicode="?" horiz-adv-x="856" d="M102 1237v172q135 53 263 53q178 0 289.5 -91t111.5 -241q0 -82 -37 -148.5t-88 -113.5t-103.5 -94t-89 -113.5t-36.5 -148.5q0 -23 2 -35h-152q-6 43 -6 78q0 80 31.5 148.5t76 117.5t89.5 93t76.5 96.5t31.5 107.5q0 82 -61.5 128t-166 46t-231.5 -55zM190 118.5 q0 63.5 42 104.5t105.5 41t104.5 -41t41 -104.5t-41 -105.5t-104.5 -42t-105.5 42t-42 105.5z" />
<glyph unicode="@" horiz-adv-x="1890" d="M123 528q0 406 247.5 670t643.5 264q328 0 540.5 -202.5t212.5 -522.5q0 -246 -114.5 -400.5t-292.5 -154.5q-152 0 -225 111l-9 12q-125 -98 -258 -98q-150 0 -229.5 96t-79.5 264q0 205 107.5 344.5t267.5 139.5q115 0 199 -88l8 79h159l-55 -575q-6 -66 28 -105.5 t99 -39.5q102 0 166 113.5t64 297.5q0 268 -165 428t-431 160q-317 0 -516 -222t-199 -562q0 -283 172 -441.5t450 -158.5q219 0 390 106l75 -123q-215 -127 -477 -127q-344 0 -561 199.5t-217 535.5zM733 592q0 -96 40 -161.5t130 -65.5q96 0 176 61l41 403q-63 63 -162 64 q-109 0 -167 -90t-58 -211z" />
<glyph unicode="A" horiz-adv-x="1302" d="M2 0l612 1450h74l612 -1450h-204l-125 305h-641l-123 -305h-205zM397 469h506l-252 621z" />
<glyph unicode="B" horiz-adv-x="1286" d="M205 0v1434h450q207 0 328 -96.5t121 -250.5q0 -106 -58.5 -186t-168.5 -113v-4q139 -31 223 -136t84 -236q0 -180 -141.5 -296t-372.5 -116h-465zM397 164h279q145 0 227 75.5t82 192.5t-82 192.5t-227 75.5h-279v-536zM397 864h265q121 0 182 56.5t61 146.5 t-61.5 146.5t-181.5 56.5h-265v-406z" />
<glyph unicode="C" horiz-adv-x="1318" d="M113 717q0 330 192.5 537.5t499.5 207.5q213 0 391 -92v-205q-182 125 -387 125q-223 0 -357.5 -155.5t-134.5 -417.5t134.5 -418t357.5 -156q205 0 387 125v-205q-178 -92 -391 -92q-307 0 -499.5 208t-192.5 538z" />
<glyph unicode="D" horiz-adv-x="1447" d="M205 0v1434h340q395 0 592.5 -191.5t197.5 -525.5t-197.5 -525.5t-592.5 -191.5h-340zM397 164h148q293 0 439 142.5t146 410.5t-146 410.5t-439 142.5h-148v-1106z" />
<glyph unicode="E" horiz-adv-x="1146" d="M205 0v1434h799v-164h-607v-420h545v-164h-545v-522h607v-164h-799z" />
<glyph unicode="F" horiz-adv-x="1085" d="M205 0v1434h778v-164h-586v-457h545v-164h-545v-649h-192z" />
<glyph unicode="G" horiz-adv-x="1454" d="M113 717q0 330 197.5 537.5t514.5 207.5q236 0 432 -92v-205q-197 125 -428 125q-233 0 -372.5 -155.5t-139.5 -417.5t146.5 -418t392.5 -156q121 0 242 37v338h-273v164h465v-619q-197 -92 -438 -92q-328 0 -533.5 208t-205.5 538z" />
<glyph unicode="H" horiz-adv-x="1495" d="M205 0v1434h192v-584h701v584h192v-1434h-192v686h-701v-686h-192z" />
<glyph unicode="I" horiz-adv-x="602" d="M205 0v1434h192v-1434h-192z" />
<glyph unicode="J" horiz-adv-x="868" d="M20 10v185q102 -51 230 -52q123 0 177 71t54 171v1049h193v-1049q0 -195 -116 -304.5t-296 -109.5q-148 0 -242 39z" />
<glyph unicode="K" horiz-adv-x="1280" d="M205 0v1434h192v-754l607 754h245l-538 -654l567 -780h-248l-438 637l-195 -176v-461h-192z" />
<glyph unicode="L" horiz-adv-x="1024" d="M205 0v1434h192v-1270h607v-164h-799z" />
<glyph unicode="M" horiz-adv-x="1851" d="M205 0v1450h61l660 -887l659 887h62v-1450h-193v973l-498 -664h-61l-498 664v-973h-192z" />
<glyph unicode="N" horiz-adv-x="1609" d="M205 0v1450h61l946 -1051v1035h193v-1450h-62l-946 1048v-1032h-192z" />
<glyph unicode="O" horiz-adv-x="1642" d="M113 716.5q0 327.5 198.5 536.5t510 209t510 -209t198.5 -536.5t-198.5 -536.5t-510 -209t-510 209t-198.5 536.5zM317 717q0 -258 139.5 -416t365 -158t364.5 158t139 416t-139 415.5t-364.5 157.5t-365 -157.5t-139.5 -415.5z" />
<glyph unicode="P" horiz-adv-x="1198" d="M205 0v1434h387q256 0 397 -124t141 -331t-141 -331t-397 -124h-195v-524h-192zM397 688h195q164 0 249 75t85 216t-85 216t-249 75h-195v-582z" />
<glyph unicode="Q" horiz-adv-x="1642" d="M113 716.5q0 327.5 198.5 536.5t510 209t510 -209t198.5 -536q0 -317 -189 -527l250 -276h-227l-152 168q-168 -111 -391 -111q-311 0 -509.5 209t-198.5 536.5zM317 717q0 -258 139.5 -416t364.5 -158q154 0 271 76l-226 252l131 104l215 -241q113 154 113 383 q0 258 -139 415.5t-364.5 157.5t-365 -157.5t-139.5 -415.5z" />
<glyph unicode="R" horiz-adv-x="1275" d="M205 0v1434h381q244 0 384 -117t140 -313q0 -139 -73.5 -242t-207.5 -150l445 -612h-240l-395 575h-242v-575h-192zM397 737h189q319 0 319 266.5t-319 266.5h-189v-533z" />
<glyph unicode="S" horiz-adv-x="1067" d="M123 63v211q57 -53 152.5 -93t195.5 -40q123 0 203 66.5t80 171.5q0 72 -46 130t-115 94t-150 82t-149.5 92t-114.5 125t-46 179q0 178 121 279.5t313 101.5q186 0 324 -80v-215q-51 49 -139 87t-183 38q-109 0 -172 -55t-63 -141q0 -68 46 -124.5t114.5 -92t149.5 -83.5 t149.5 -96.5t114.5 -130.5t46 -184q0 -186 -136 -300t-343 -114q-102 0 -199.5 29.5t-152.5 62.5z" />
<glyph unicode="T" horiz-adv-x="1093" d="M8 1270v164h1077v-164h-442v-1270h-192v1270h-443z" />
<glyph unicode="U" horiz-adv-x="1495" d="M195 500v934h192v-936q0 -358 360.5 -358.5t360.5 358.5v936h192v-934q0 -262 -148 -395.5t-404 -133.5t-404.5 133.5t-148.5 395.5z" />
<glyph unicode="V" d="M2 1434h205l424 -1084l424 1084h205l-592 -1450h-74z" />
<glyph unicode="W" horiz-adv-x="1941" d="M20 1434h199l316 -1022l405 1038h61l406 -1038l315 1022h199l-457 -1450h-73l-420 1079l-420 -1079h-74z" />
<glyph unicode="X" horiz-adv-x="1257" d="M45 0l479 741l-448 693h225l328 -541l327 541h226l-449 -693l479 -741h-225l-358 588l-359 -588h-225z" />
<glyph unicode="Y" horiz-adv-x="1093" d="M2 1434h213l332 -656l332 656h213l-449 -846v-588h-192v588z" />
<glyph unicode="Z" horiz-adv-x="1142" d="M90 0v61l664 1209h-643v164h911v-62l-666 -1208h697v-164h-963z" />
<glyph unicode="[" horiz-adv-x="866" d="M246 -297v1915h477v-160h-289v-1595h289v-160h-477z" />
<glyph unicode="\" horiz-adv-x="753" d="M41 1585h176l496 -1737h-176z" />
<glyph unicode="]" horiz-adv-x="866" d="M143 -137h289v1595h-289v160h478v-1915h-478v160z" />
<glyph unicode="^" horiz-adv-x="1042" d="M123 776l315 686h166l316 -686h-170l-230 520l-227 -520h-170z" />
<glyph unicode="_" horiz-adv-x="1220" d="M-20 -369h1261v-143h-1261v143z" />
<glyph unicode="`" horiz-adv-x="749" d="M102 1556h275l250 -301h-162z" />
<glyph unicode="a" horiz-adv-x="1095" d="M92 297q0 152 119 247t317 95q86 0 193 -25v91q0 115 -56.5 172t-189.5 57q-154 0 -305 -84v174q166 70 344 70q188 0 287.5 -91.5t99.5 -257.5v-487q0 -66 24.5 -94.5t75.5 -28.5l43 10v-133q-45 -23 -120 -22q-78 0 -130.5 45t-64.5 110h-4q-37 -68 -116 -121t-189 -53 q-152 0 -240 89.5t-88 236.5zM281 305q0 -76 48 -122t142 -46q90 0 155.5 45t94.5 117v178q-86 33 -176 33q-111 0 -187.5 -56.5t-76.5 -148.5z" />
<glyph unicode="b" horiz-adv-x="1294" d="M170 0q14 113 14 270v1225h181v-520q150 119 335 119q219 0 350.5 -157t131.5 -404.5t-131 -404.5t-351 -157q-207 0 -366 142l-25 -113h-139zM365 266q121 -135 299 -135q152 0 238.5 108.5t86.5 293t-87 293t-238 108.5q-174 0 -299 -137v-531z" />
<glyph unicode="c" horiz-adv-x="1044" d="M113 532.5q0 247.5 155.5 404.5t403.5 157q143 0 260 -54v-172q-127 66 -260 66q-168 0 -267.5 -108.5t-99.5 -293t99.5 -293t267.5 -108.5q133 0 260 66v-172q-117 -53 -260 -54q-248 0 -403.5 157t-155.5 404.5z" />
<glyph unicode="d" horiz-adv-x="1294" d="M113 532.5q0 247.5 131 404.5t350 157q186 0 336 -119v520h180v-1225q0 -70 4 -137t8 -100l2 -33h-139q-16 55 -27 113q-160 -141 -364 -142q-219 0 -350 157t-131 404.5zM305 532.5q0 -184.5 87 -293t239 -108.5q170 0 299 135v531q-123 137 -299 137 q-152 0 -239 -108.5t-87 -293z" />
<glyph unicode="e" horiz-adv-x="1198" d="M113 530q0 248 143 406t365 158q211 0 337.5 -132.5t126.5 -355.5l-4 -106h-776q6 -176 97.5 -272.5t265.5 -96.5q180 0 368 109v-172q-166 -96 -379 -97q-248 0 -396 153.5t-148 405.5zM315 651h574q0 141 -76 212t-194.5 71t-197.5 -75t-106 -208z" />
<glyph unicode="f" horiz-adv-x="702" d="M51 913v152h174v121q0 147 73 228t212 81q37 0 78 -5t63 -11l21 -4v-156q-66 20 -133.5 20t-100 -34.5t-32.5 -116.5v-123h256v-152h-256v-913h-181v913h-174z" />
<glyph unicode="g" horiz-adv-x="1294" d="M113 543q0 246 131 398.5t350 152.5q199 0 367 -144q8 61 24 115h139q-14 -113 -14 -270v-795q0 -236 -140.5 -374t-381.5 -138q-223 0 -387 111v174q180 -125 383 -125q168 0 257 94t89 258v109q-147 -117 -336 -117q-219 0 -350 153.5t-131 397.5zM305 542.5 q0 -184.5 86 -287.5t238 -103q172 0 301 135v512q-129 135 -301 135q-152 0 -238 -103.5t-86 -288z" />
<glyph unicode="h" horiz-adv-x="1247" d="M184 0v1495h181v-551q156 150 344 150q190 0 276 -118t86 -282v-694h-180v684q0 117 -64.5 183.5t-173.5 66.5q-143 0 -288 -146v-788h-181z" />
<glyph unicode="i" horiz-adv-x="548" d="M164 1352q0 47 31.5 78.5t79 31.5t79 -31.5t31.5 -78.5t-31.5 -79t-79 -32t-79 32t-31.5 79zM184 0v1065h181v-1065h-181z" />
<glyph unicode="j" horiz-adv-x="548" d="M2 -346q27 -6 68 -6q59 0 86.5 29.5t27.5 115.5v1272h181v-1280q0 -152 -63.5 -224.5t-207.5 -72.5l-92 10v156zM164 1352q0 47 31.5 78.5t79 31.5t79 -31.5t31.5 -78.5t-31.5 -79t-79 -32t-79 32t-31.5 79z" />
<glyph unicode="k" horiz-adv-x="1095" d="M184 0v1495h181v-987l450 557h232l-385 -449l423 -616h-217l-315 492l-188 -181v-311h-181z" />
<glyph unicode="l" horiz-adv-x="653" d="M184 289v1206h181v-1219q0 -84 32.5 -114.5t102.5 -30.5q29 0 56.5 4t39.5 8l12 7v-156q-70 -23 -153 -23q-143 0 -207 78t-64 240z" />
<glyph unicode="m" horiz-adv-x="1871" d="M170 1065h160q14 -51 24 -127q150 156 334 156q219 0 303 -191q29 37 66 72t122 77t175 42q94 0 163.5 -36t106.5 -95.5t54.5 -126t17.5 -142.5v-694h-180v684q0 117 -59.5 183.5t-158.5 66.5q-133 0 -276 -152q8 -57 8 -88v-694h-180v684q0 117 -59.5 183.5t-157.5 66.5 q-133 0 -268 -143v-791h-181v795q0 70 -4 137t-8 100z" />
<glyph unicode="n" horiz-adv-x="1247" d="M170 1065h160q14 -53 24 -131q154 160 355 160q190 0 276 -118t86 -282v-694h-180v684q0 117 -64.5 183.5t-173.5 66.5q-145 0 -288 -143v-791h-181v795q0 70 -4 137t-8 100z" />
<glyph unicode="o" d="M113 532.5q0 247.5 144 404.5t373.5 157t374 -157t144.5 -404.5t-144.5 -404.5t-374 -157t-373.5 157t-144 404.5zM305 532.5q0 -184.5 88 -293t237.5 -108.5t237.5 108.5t88 293t-88 293t-237.5 108.5t-237.5 -108.5t-88 -293z" />
<glyph unicode="p" horiz-adv-x="1294" d="M170 1065h139q16 -55 25 -113q166 141 366 142q219 0 350.5 -157t131.5 -404.5t-131 -404.5t-351 -157q-186 0 -335 119v-602h-181v1307q0 70 -4 137t-8 100zM365 266q121 -135 299 -135q152 0 238.5 108.5t86.5 293t-87 293t-238 108.5q-174 0 -299 -137v-531z" />
<glyph unicode="q" horiz-adv-x="1294" d="M113 532.5q0 247.5 131 404.5t350 157q199 0 364 -142l27 113h139q-14 -113 -14 -270v-1307h-180v602q-150 -119 -336 -119q-219 0 -350 157t-131 404.5zM305 532.5q0 -184.5 87 -293t239 -108.5q170 0 299 135v531q-123 137 -299 137q-152 0 -239 -108.5t-87 -293z" />
<glyph unicode="r" horiz-adv-x="796" d="M170 1065h158q18 -57 28 -139h4q113 168 297 168q33 0 63 -6.5t42 -12.5l14 -6v-184q-68 29 -153 28q-145 0 -250 -116l-8 -11v-786h-181v795q0 70 -4 137t-8 100z" />
<glyph unicode="s" horiz-adv-x="925" d="M123 63v179q133 -113 309 -113q90 0 144.5 44t54.5 112q0 59 -51.5 102t-124 74t-145 66.5t-124 100t-51.5 156.5q0 137 98.5 223.5t253.5 86.5q168 0 275 -76v-184q-121 100 -270 102h-9q-78 0 -121 -37q-45 -39 -45 -96q0 -55 51.5 -96t124 -73t145.5 -70t124 -107.5 t51 -167.5q0 -145 -106.5 -231.5t-276.5 -86.5q-94 0 -178 28.5t-129 63.5z" />
<glyph unicode="t" horiz-adv-x="743" d="M51 913v152h174v235l181 41v-276h256v-152h-256v-634q0 -82 32.5 -117t100.5 -35q31 0 63.5 5t50.5 11l19 4v-155q-78 -20 -162 -21q-139 0 -212 81t-73 229v632h-174z" />
<glyph unicode="u" horiz-adv-x="1247" d="M176 371v694h180v-684q0 -117 64.5 -183.5t173.5 -66.5q152 0 289 143v791h180v-795q0 -70 3 -137t7 -100l4 -33h-159q-16 51 -27 129q-158 -158 -352 -158q-190 0 -276.5 118t-86.5 282z" />
<glyph unicode="v" horiz-adv-x="1040" d="M20 1065h193l307 -750l307 750h193l-471 -1081h-57z" />
<glyph unicode="w" horiz-adv-x="1634" d="M20 1065h189l260 -725l317 741h62l317 -741l260 725h189l-410 -1081h-57l-330 770l-330 -770h-57z" />
<glyph unicode="x" horiz-adv-x="1056" d="M29 0l401 553l-373 512h217l254 -375l254 375h217l-372 -512l401 -553h-217l-283 414l-282 -414h-217z" />
<glyph unicode="y" horiz-adv-x="1011" d="M10 -319q39 -18 84 -19q100 0 178 79t142 271l14 43l-418 1010h201l305 -797l268 797h197l-379 -1053q-90 -252 -204.5 -388t-278.5 -136l-109 23v170z" />
<glyph unicode="z" horiz-adv-x="942" d="M61 0v61l533 852h-512v152h768v-61l-533 -852h553v-152h-809z" />
<glyph unicode="{" horiz-adv-x="841" d="M123 592v139q141 0 188 43t47 129q0 76 -34.5 230.5t-34.5 228.5q0 57 15 99t57 80t126 57.5t211 19.5v-154q-117 0 -168 -27.5t-51 -111.5q0 -53 31 -200.5t31 -215.5q0 -213 -211 -241v-15q211 -35 211 -241q0 -68 -31 -214.5t-31 -199.5q0 -86 51.5 -112.5 t167.5 -26.5v-156q-127 0 -211 20.5t-126 58.5t-57 80t-15 99q0 74 34.5 227.5t34.5 229.5q0 88 -47 131t-188 43z" />
<glyph unicode="|" horiz-adv-x="684" d="M246 -348v2007h192v-2007h-192z" />
<glyph unicode="}" horiz-adv-x="841" d="M143 -141q117 0 168 26.5t51 112.5q0 53 -30.5 199.5t-30.5 214.5q0 207 211 241v15q-211 29 -211 241q0 68 30.5 215.5t30.5 200.5q0 84 -51 111.5t-168 27.5v154q127 0 211 -19.5t126 -57.5t57.5 -80t15.5 -99q0 -74 -35 -228.5t-35 -230.5q0 -86 47.5 -129t188.5 -43 v-139q-141 0 -188.5 -43t-47.5 -131q0 -76 35 -229.5t35 -227.5q0 -57 -15.5 -99t-57.5 -80t-126 -58.5t-211 -20.5v156z" />
<glyph unicode="~" horiz-adv-x="1398" d="M164 444q0 160 83 259.5t220 99.5q86 0 170 -48t157.5 -96.5t137.5 -48.5q72 0 113.5 52.5t41.5 140.5h148q0 -158 -84 -258.5t-223 -100.5q-82 0 -166 48.5t-159 96.5t-136 48q-72 0 -114 -52.5t-42 -140.5h-147z" />
<glyph unicode="&#xa1;" horiz-adv-x="538" d="M123 946.5q0 63.5 41 105.5t104.5 42t105.5 -42t42 -105.5t-42 -104.5t-105.5 -41t-104.5 41t-41 104.5zM164 -369l20 957h168l21 -957h-209z" />
<glyph unicode="&#xa2;" horiz-adv-x="1044" d="M113 532q0 240 146.5 394.5t381.5 165.5l43 227h147l-43 -236q88 -18 144 -43v-172q-127 66 -260 66q-168 0 -267.5 -108.5t-99.5 -293t99.5 -293t267.5 -108.5q133 0 260 66v-172q-117 -53 -260 -54q-49 0 -92 6l-37 -202h-148l45 239q-152 61 -239.5 198.5t-87.5 319.5 z" />
<glyph unicode="&#xa3;" horiz-adv-x="1153" d="M123 639v143h172q-33 131 -33 265q0 197 122 306t310 109q68 0 133.5 -16t96.5 -33l30 -18v-176q-113 76 -264 75q-102 0 -164.5 -68.5t-62.5 -187.5q0 -131 29 -256h372v-143h-338q16 -82 17 -172q0 -168 -119 -264l-14 -10l4 -9q39 12 98 13q55 0 148.5 -18.5 t152.5 -18.5q135 2 217 78v-175q-6 -8 -20.5 -22t-65.5 -36.5t-110 -22.5q-96 0 -213 40.5t-187 40.5q-119 0 -223 -83l-68 110l26 15q15 9 54 42t70 69t55.5 91t24.5 113q0 90 -37 219h-213z" />
<glyph unicode="&#xa4;" horiz-adv-x="1286" d="M123 272l153 154q-76 111 -75 254q0 141 75 252l-153 155l113 113l153 -156q113 78 254 78q139 0 252 -78l156 156l112 -113l-155 -155q78 -113 77.5 -252t-75.5 -252l153 -156l-112 -112l-156 153q-111 -76 -252 -75q-139 0 -254 75l-153 -153zM375 680 q0 -127 75.5 -210t192.5 -83t192.5 83t75.5 210t-75.5 210t-192.5 83t-192.5 -83t-75.5 -210z" />
<glyph unicode="&#xa5;" horiz-adv-x="1093" d="M2 1434h213l332 -658l332 658h213l-392 -736h289v-137h-346v-151h346v-138h-346v-272h-192v272h-347v138h347v151h-347v137h287z" />
<glyph unicode="&#xa6;" horiz-adv-x="684" d="M246 -348v883h192v-883h-192zM246 776v883h192v-883h-192z" />
<glyph unicode="&#xa7;" horiz-adv-x="1159" d="M164 -156q57 -47 152.5 -82.5t195.5 -35.5q123 0 202 58t79 153q0 76 -63.5 133t-155 98t-182.5 87t-154.5 126t-63.5 188q0 178 156 275q-156 106 -156 274q0 160 121 252t313 92q190 0 324 -73v-195q-53 43 -140 78t-182 35q-109 0 -171 -49.5t-62 -127.5 q0 -70 63.5 -125t154.5 -97t182 -90t154.5 -131t63.5 -195q0 -172 -143 -275q143 -115 143 -274q0 -168 -137 -270.5t-342 -102.5q-195 0 -352 84v190zM377 582q0 -39 16.5 -72t58.5 -63.5t69.5 -47t97 -50.5t94.5 -46q80 70 80 182q0 29 -8.5 54.5t-30 49t-38 40t-54 38 t-57 32t-69 34t-65.5 31.5q-94 -59 -94 -182z" />
<glyph unicode="&#xa8;" horiz-adv-x="858" d="M123 1352q0 47 31.5 78.5t79 31.5t79 -31.5t31.5 -78.5t-31.5 -79t-79 -32t-79 32t-31.5 79zM514 1352q0 47 32 78.5t79 31.5t78.5 -31.5t31.5 -78.5t-31.5 -79t-78.5 -32t-79 32t-32 79z" />
<glyph unicode="&#xa9;" horiz-adv-x="1777" d="M143 717q0 309 218.5 527t527.5 218t527 -218t218 -527t-218 -527.5t-527 -218.5t-527.5 218.5t-218.5 527.5zM301 717q0 -252 172 -428t416 -176t416 176t172 428t-172 428t-416 176t-416 -176t-172 -428zM520 716.5q0 186.5 108.5 302.5t282.5 116q123 0 228 -58v-159 q-127 86 -226 86q-111 0 -177 -78t-66 -209t66.5 -209t176.5 -78q106 0 226 88v-162q-104 -57 -228 -57q-174 0 -282.5 115.5t-108.5 302z" />
<glyph unicode="&#xaa;" horiz-adv-x="929" d="M143 463v115h643v-115h-643zM143 942q0 100 81 166t214 66q61 0 107 -11v41q0 131 -142 131q-82 0 -208 -61v139q115 49 233 49q127 0 194.5 -60.5t67.5 -172.5v-309q0 -68 49 -68l43 10v-104q-47 -20 -94 -21q-88 0 -129 76q-72 -88 -190 -88q-104 0 -165 59.5 t-61 157.5zM297 948q0 -43 26.5 -68.5t77.5 -25.5q104 0 144 90v109q-37 14 -96 14q-63 0 -107.5 -33t-44.5 -86z" />
<glyph unicode="&#xab;" horiz-adv-x="1216" d="M92 451v157l467 410v-174l-291 -314l291 -315v-174zM545 451v157l467 410v-174l-291 -314l291 -315v-174z" />
<glyph unicode="&#xac;" horiz-adv-x="1419" d="M123 709v176h1132v-576h-176v400h-956z" />
<glyph unicode="&#xad;" horiz-adv-x="733" d="M123 543v151h487v-151h-487z" />
<glyph unicode="&#xae;" horiz-adv-x="1777" d="M143 717q0 309 218.5 527t527.5 218t527 -218t218 -527t-218 -527.5t-527 -218.5t-527.5 218.5t-218.5 527.5zM301 717q0 -252 172 -428t416 -176t416 176t172 428t-172 428t-416 176t-416 -176t-172 -428zM643 309v799h223q137 0 217 -67.5t80 -178.5q0 -152 -139 -215 l246 -338h-176l-209 305h-101v-305h-141zM784 739h82q150 0 150 123q0 121 -150 121h-82v-244z" />
<glyph unicode="&#xaf;" horiz-adv-x="827" d="M123 1296v146h582v-146h-582z" />
<glyph unicode="&#xb0;" horiz-adv-x="796" d="M82 1145q0 133 92 225t223 92t224.5 -92t93.5 -225q0 -131 -92.5 -223.5t-225.5 -92.5q-131 0 -223 91.5t-92 224.5zM231 1145q0 -74 47.5 -123t118.5 -49q74 0 121 49t47 123t-47 124t-121 50q-72 0 -119 -50t-47 -124z" />
<glyph unicode="&#xb1;" horiz-adv-x="1460" d="M205 0v156h1050v-156h-1050zM205 659v156h446v365h156v-365h448v-156h-448v-366h-156v366h-446z" />
<glyph unicode="&#xb2;" horiz-adv-x="751" d="M123 672v65l207 246q125 147 125 234q0 47 -31 73.5t-80 26.5q-80 0 -197 -92v159q98 63 209 64q109 0 177.5 -63.5t68.5 -165.5q0 -123 -133 -277l-119 -139h279v-131h-506z" />
<glyph unicode="&#xb3;" horiz-adv-x="724" d="M123 702v144q111 -55 194 -55q61 0 99.5 33.5t38.5 84.5q0 57 -58.5 92t-160.5 35v64l145 207h-256v127h461v-64l-160 -227q80 -25 128 -87.5t48 -146.5q0 -109 -74.5 -180.5t-203.5 -71.5q-103 0 -201 45z" />
<glyph unicode="&#xb4;" horiz-adv-x="770" d="M123 1255l250 301h274l-362 -301h-162z" />
<glyph unicode="&#xb5;" horiz-adv-x="1286" d="M184 -367v1432h181v-684q0 -117 64.5 -183.5t172.5 -66.5q152 0 289 143v791h180v-807q0 -66 24.5 -94.5t75.5 -28.5l43 10v-133q-45 -23 -120 -22q-80 0 -131.5 40t-63.5 105h-4q-49 -61 -140 -112.5t-208 -51.5q-109 0 -182 39v-377h-181z" />
<glyph unicode="&#xb6;" horiz-adv-x="1382" d="M123 979q0 207 136 331t382 124h537v-1946h-160v1802h-207v-1802h-160v1036h-10q-246 0 -382 124t-136 331z" />
<glyph unicode="&#xb7;" horiz-adv-x="620" d="M164 692.5q0 63.5 42 104.5t105.5 41t104.5 -41t41 -104.5t-41 -105.5t-104.5 -42t-105.5 42t-42 105.5z" />
<glyph unicode="&#xb8;" horiz-adv-x="638" d="M123 -367q63 -35 133 -34q51 0 80 22.5t29 61.5q0 106 -197 106l119 211h139l-84 -133q82 -16 131 -63.5t49 -120.5q0 -94 -76.5 -147.5t-183.5 -53.5l-139 24v127z" />
<glyph unicode="&#xb9;" horiz-adv-x="520" d="M123 1305v129h274v-762h-139v633h-135z" />
<glyph unicode="&#xba;" horiz-adv-x="976" d="M143 463v115h691v-115h-691zM145 1093.5q0 163.5 96.5 266t247.5 102.5q154 0 249.5 -102.5t95.5 -266t-95.5 -266t-249.5 -102.5q-152 0 -248 102.5t-96 266zM299 1093.5q0 -110.5 52 -176t138 -65.5q88 0 139.5 64.5t51.5 177.5q0 111 -51 176t-140 65 q-86 0 -138 -65.5t-52 -176z" />
<glyph unicode="&#xbb;" horiz-adv-x="1216" d="M205 41v174l291 315l-291 314v174l467 -410v-157zM657 41v174l291 315l-291 314v174l467 -410v-157z" />
<glyph unicode="&#xbc;" horiz-adv-x="1517" d="M123 1305v129h274v-762h-139v633h-135zM293 -29l706 1491h142l-707 -1491h-141zM803 160v55l424 561h65v-495h103v-121h-103v-160h-141v160h-348zM973 281h178v231z" />
<glyph unicode="&#xbd;" horiz-adv-x="1615" d="M123 1305v129h274v-762h-139v633h-135zM293 -29l706 1491h142l-707 -1491h-141zM987 0v66l207 245q125 147 125 232q0 49 -29.5 75.5t-81.5 26.5q-82 0 -196 -94v162q98 63 211 63q109 0 176 -64.5t67 -166.5q0 -115 -133 -275l-116 -139h276v-131h-506z" />
<glyph unicode="&#xbe;" horiz-adv-x="1665" d="M123 702v144q111 -55 194 -55q61 0 99.5 33.5t38.5 84.5q0 57 -58.5 92t-160.5 35v64l145 207h-256v127h461v-64l-160 -227q80 -25 128 -87.5t48 -146.5q0 -109 -74.5 -180.5t-203.5 -71.5q-103 0 -201 45zM440 -29l707 1491h141l-706 -1491h-142zM950 160v55l424 561h66 v-495h102v-121h-102v-160h-142v160h-348zM1120 281h178v231z" />
<glyph unicode="&#xbf;" horiz-adv-x="909" d="M123 -66q0 82 37 149t88 114t103 94t89 113.5t37 148.5q0 23 -2 35h152q6 -43 6 -78q0 -80 -32 -148.5t-77 -117.5t-89 -93.5t-75.5 -96.5t-31.5 -107q0 -82 61.5 -128t165.5 -46t231 55v-172q-135 -53 -262 -53q-178 0 -289.5 90.5t-111.5 240.5zM406 946.5 q0 63.5 40.5 105.5t104 42t105.5 -42t42 -105.5t-42 -104.5t-105.5 -41t-104 41t-40.5 104.5z" />
<glyph unicode="&#xc0;" horiz-adv-x="1302" d="M2 0l612 1450h74l612 -1450h-204l-125 305h-641l-123 -305h-205zM348 1915h275l249 -301h-161zM397 469h506l-252 621z" />
<glyph unicode="&#xc1;" horiz-adv-x="1302" d="M2 0l612 1450h74l612 -1450h-204l-125 305h-641l-123 -305h-205zM397 469h506l-252 621zM430 1614l250 301h274l-362 -301h-162z" />
<glyph unicode="&#xc2;" horiz-adv-x="1302" d="M2 0l612 1450h74l612 -1450h-204l-125 305h-641l-123 -305h-205zM305 1614l250 301h193l249 -301h-182l-164 196l-164 -196h-182zM397 469h506l-252 621z" />
<glyph unicode="&#xc3;" horiz-adv-x="1302" d="M2 0l612 1450h74l612 -1450h-204l-125 305h-641l-123 -305h-205zM276 1614q0 119 58.5 204t171.5 85q68 0 119 -38t93 -75t85 -37q86 0 98 150h125q0 -121 -58.5 -205t-174.5 -84q-55 0 -100.5 23.5t-69 51t-57.5 51t-70 23.5q-84 0 -95 -149h-125zM397 469h506l-252 621 z" />
<glyph unicode="&#xc4;" horiz-adv-x="1302" d="M2 0l612 1450h74l612 -1450h-204l-125 305h-641l-123 -305h-205zM344 1724.5q0 47.5 32 79t79 31.5t78.5 -31.5t31.5 -79t-31.5 -79t-78.5 -31.5t-79 31.5t-32 79zM397 469h506l-252 621zM735 1724.5q0 47.5 32 79t79 31.5t78.5 -31.5t31.5 -79t-31.5 -79t-78.5 -31.5 t-79 31.5t-32 79z" />
<glyph unicode="&#xc5;" horiz-adv-x="1302" d="M2 0l612 1450h74l612 -1450h-204l-125 305h-641l-123 -305h-205zM397 469h506l-252 621zM416 1616q0 104 65.5 169.5t170 65.5t170 -65.5t65.5 -169.5q0 -106 -65.5 -172t-170 -66t-170 66t-65.5 172zM539 1616q0 -57 30.5 -90t81.5 -33t82 33t31 90q0 55 -31 88t-82 33 t-81.5 -33t-30.5 -88z" />
<glyph unicode="&#xc6;" horiz-adv-x="1826" d="M2 0l875 1434h837v-164h-606v-420h545v-164h-545v-522h606v-164h-799v305h-505l-181 -305h-227zM508 469h407v682z" />
<glyph unicode="&#xc7;" horiz-adv-x="1318" d="M113 717q0 330 192.5 537.5t499.5 207.5q213 0 391 -92v-205q-182 125 -387 125q-223 0 -357.5 -155.5t-134.5 -417.5t134.5 -418t357.5 -156q205 0 387 125v-205q-178 -92 -391 -92q-307 0 -499.5 208t-192.5 538zM541 -367q63 -35 133 -34q51 0 79.5 22.5t28.5 61.5 q0 106 -196 106l119 211h139l-84 -133q82 -16 131 -63.5t49 -120.5q0 -94 -77 -147.5t-183 -53.5l-139 24v127z" />
<glyph unicode="&#xc8;" horiz-adv-x="1146" d="M205 0v1434h799v-164h-607v-420h545v-164h-545v-522h607v-164h-799zM274 1898h275l250 -301h-162z" />
<glyph unicode="&#xc9;" horiz-adv-x="1146" d="M205 0v1434h799v-164h-607v-420h545v-164h-545v-522h607v-164h-799zM397 1597l250 301h275l-363 -301h-162z" />
<glyph unicode="&#xca;" horiz-adv-x="1146" d="M205 0v1434h799v-164h-607v-420h545v-164h-545v-522h607v-164h-799zM252 1597l250 301h192l250 -301h-182l-164 197l-164 -197h-182z" />
<glyph unicode="&#xcb;" horiz-adv-x="1146" d="M205 0v1434h799v-164h-607v-420h545v-164h-545v-522h607v-164h-799zM293 1708q0 47 31.5 79t79 32t79 -32t31.5 -79t-31.5 -79t-79 -32t-79 32t-31.5 79zM684 1708q0 47 32 79t79 32t78.5 -32t31.5 -79t-31.5 -79t-78.5 -32t-79 32t-32 79z" />
<glyph unicode="&#xcc;" horiz-adv-x="602" d="M-23 1898h275l250 -301h-162zM205 0v1434h192v-1434h-192z" />
<glyph unicode="&#xcd;" horiz-adv-x="602" d="M100 1597l250 301h275l-363 -301h-162zM205 0v1434h192v-1434h-192z" />
<glyph unicode="&#xce;" horiz-adv-x="602" d="M-45 1597l250 301h192l250 -301h-182l-164 197l-164 -197h-182zM205 0v1434h192v-1434h-192z" />
<glyph unicode="&#xcf;" horiz-adv-x="602" d="M-4 1708q0 47 31.5 79t79 32t79 -32t31.5 -79t-31.5 -79t-79 -32t-79 32t-31.5 79zM205 0v1434h192v-1434h-192zM387 1708q0 47 32 79t79 32t78.5 -32t31.5 -79t-31.5 -79t-78.5 -32t-79 32t-32 79z" />
<glyph unicode="&#xd0;" horiz-adv-x="1468" d="M41 561v150h184v723h340q395 0 593 -191.5t198 -525.5t-197.5 -525.5t-593.5 -191.5h-340v561h-184zM418 164h147q293 0 439.5 142.5t146.5 410.5t-146.5 410.5t-439.5 142.5h-147v-559h295v-150h-295v-397z" />
<glyph unicode="&#xd1;" horiz-adv-x="1609" d="M205 0v1450h61l946 -1051v1035h193v-1450h-62l-946 1048v-1032h-192zM430 1589q0 119 58.5 204t170.5 85q68 0 119 -38t93 -74.5t85 -36.5q86 0 99 149h125q0 -121 -58.5 -205t-175.5 -84q-55 0 -100 23.5t-68.5 51.5t-57.5 51.5t-71 23.5q-84 0 -94 -150h-125z" />
<glyph unicode="&#xd2;" horiz-adv-x="1642" d="M113 716.5q0 327.5 198.5 536.5t510 209t510 -209t198.5 -536.5t-198.5 -536.5t-510 -209t-510 209t-198.5 536.5zM317 717q0 -258 139.5 -416t365 -158t364.5 158t139 416t-139 415.5t-364.5 157.5t-365 -157.5t-139.5 -415.5zM518 1927h275l249 -301h-161z" />
<glyph unicode="&#xd3;" horiz-adv-x="1642" d="M113 716.5q0 327.5 198.5 536.5t510 209t510 -209t198.5 -536.5t-198.5 -536.5t-510 -209t-510 209t-198.5 536.5zM317 717q0 -258 139.5 -416t365 -158t364.5 158t139 416t-139 415.5t-364.5 157.5t-365 -157.5t-139.5 -415.5zM600 1626l250 301h274l-362 -301h-162z " />
<glyph unicode="&#xd4;" horiz-adv-x="1642" d="M113 716.5q0 327.5 198.5 536.5t510 209t510 -209t198.5 -536.5t-198.5 -536.5t-510 -209t-510 209t-198.5 536.5zM317 717q0 -258 139.5 -416t365 -158t364.5 158t139 416t-139 415.5t-364.5 157.5t-365 -157.5t-139.5 -415.5zM475 1626l250 301h193l249 -301h-182 l-164 197l-164 -197h-182z" />
<glyph unicode="&#xd5;" horiz-adv-x="1642" d="M113 716.5q0 327.5 198.5 536.5t510 209t510 -209t198.5 -536.5t-198.5 -536.5t-510 -209t-510 209t-198.5 536.5zM317 717q0 -258 139.5 -416t365 -158t364.5 158t139 416t-139 415.5t-364.5 157.5t-365 -157.5t-139.5 -415.5zM446 1626q0 119 58.5 204t171.5 85 q68 0 119 -38t93 -75t85 -37q86 0 98 150h125q0 -121 -58.5 -205t-174.5 -84q-55 0 -100.5 23.5t-69 51.5t-57.5 51.5t-70 23.5q-84 0 -95 -150h-125z" />
<glyph unicode="&#xd6;" horiz-adv-x="1642" d="M113 716.5q0 327.5 198.5 536.5t510 209t510 -209t198.5 -536.5t-198.5 -536.5t-510 -209t-510 209t-198.5 536.5zM317 717q0 -258 139.5 -416t365 -158t364.5 158t139 416t-139 415.5t-364.5 157.5t-365 -157.5t-139.5 -415.5zM514 1737q0 47 32 78.5t79 31.5 t78.5 -31.5t31.5 -78.5t-31.5 -79t-78.5 -32t-79 32t-32 79zM905 1737q0 47 32 78.5t79 31.5t78.5 -31.5t31.5 -78.5t-31.5 -79t-78.5 -32t-79 32t-32 79z" />
<glyph unicode="&#xd7;" horiz-adv-x="1331" d="M123 160l432 430l-432 432l110 111l433 -433l432 435l110 -111l-432 -434l432 -432l-110 -111l-432 434l-433 -432z" />
<glyph unicode="&#xd8;" horiz-adv-x="1642" d="M113 -29l184 224q-184 207 -184 522q0 328 198.5 536.5t509.5 208.5q238 0 418 -129l107 129h184l-184 -223q184 -207 184 -522q0 -328 -198.5 -537t-510.5 -209q-240 0 -418 127l-106 -127h-184zM317 717q0 -223 105 -373l700 848q-127 98 -301 98q-225 0 -364.5 -157.5 t-139.5 -415.5zM520 242q127 -98 301 -99q225 0 364.5 158t139.5 416q0 217 -104 370z" />
<glyph unicode="&#xd9;" horiz-adv-x="1495" d="M195 500v934h192v-936q0 -358 360.5 -358.5t360.5 358.5v936h192v-934q0 -262 -148 -395.5t-404 -133.5t-404.5 133.5t-148.5 395.5zM383 1898h274l250 -301h-162z" />
<glyph unicode="&#xda;" horiz-adv-x="1495" d="M195 500v934h192v-936q0 -358 360.5 -358.5t360.5 358.5v936h192v-934q0 -262 -148 -395.5t-404 -133.5t-404.5 133.5t-148.5 395.5zM567 1597l250 301h275l-363 -301h-162z" />
<glyph unicode="&#xdb;" horiz-adv-x="1495" d="M195 500v934h192v-936q0 -358 360.5 -358.5t360.5 358.5v936h192v-934q0 -262 -148 -395.5t-404 -133.5t-404.5 133.5t-148.5 395.5zM401 1597l250 301h193l250 -301h-183l-163 197l-164 -197h-183z" />
<glyph unicode="&#xdc;" horiz-adv-x="1495" d="M195 500v934h192v-936q0 -358 360.5 -358.5t360.5 358.5v936h192v-934q0 -262 -148 -395.5t-404 -133.5t-404.5 133.5t-148.5 395.5zM440 1726.5q0 47.5 32 79t79 31.5t79 -31.5t32 -79t-32 -79t-79 -31.5t-79 31.5t-32 79zM831 1726.5q0 47.5 32 79t79 31.5t79 -31.5 t32 -79t-32 -79t-79 -31.5t-79 31.5t-32 79z" />
<glyph unicode="&#xdd;" horiz-adv-x="1093" d="M2 1434h213l332 -656l332 656h213l-449 -846v-588h-192v588zM408 1597l249 301h275l-363 -301h-161z" />
<glyph unicode="&#xde;" horiz-adv-x="1220" d="M205 0v1434h192v-250h195q254 0 396 -119t142 -315.5t-142 -315.5t-396 -119h-195v-315h-192zM397 479h195q164 0 249 69.5t85 201t-85 201t-249 69.5h-195v-541z" />
<glyph unicode="&#xdf;" horiz-adv-x="1259" d="M184 0v1094q0 184 116 292.5t318 108.5q182 0 290 -89t108 -216q0 -74 -29 -131.5t-69.5 -90t-81.5 -59t-70 -58.5t-29 -69q0 -53 46 -92t113 -69.5t133.5 -67.5t112.5 -104.5t46 -159.5q0 -145 -100.5 -231.5t-262.5 -86.5q-182 0 -307 80v172q55 -37 144.5 -65.5 t164.5 -28.5q82 0 129.5 44t47.5 112q0 59 -47.5 102t-115 71.5t-135 62.5t-114.5 95.5t-47 147.5q0 63 28.5 111.5t69.5 77t82 55t69.5 65.5t28.5 92q0 80 -62.5 127t-154.5 47q-94 0 -167.5 -62.5t-73.5 -180.5v-1096h-181z" />
<glyph unicode="&#xe0;" horiz-adv-x="1095" d="M92 297q0 152 119 247t317 95q86 0 193 -25v91q0 115 -56.5 172t-189.5 57q-154 0 -305 -84v174q166 70 344 70q188 0 287.5 -91.5t99.5 -257.5v-487q0 -66 24.5 -94.5t75.5 -28.5l43 10v-133q-45 -23 -120 -22q-78 0 -130.5 45t-64.5 110h-4q-37 -68 -116 -121t-189 -53 q-152 0 -240 89.5t-88 236.5zM233 1556h275l250 -301h-162zM281 305q0 -76 48 -122t142 -46q90 0 155.5 45t94.5 117v178q-86 33 -176 33q-111 0 -187.5 -56.5t-76.5 -148.5z" />
<glyph unicode="&#xe1;" horiz-adv-x="1095" d="M92 297q0 152 119 247t317 95q86 0 193 -25v91q0 115 -56.5 172t-189.5 57q-154 0 -305 -84v174q166 70 344 70q188 0 287.5 -91.5t99.5 -257.5v-487q0 -66 24.5 -94.5t75.5 -28.5l43 10v-133q-45 -23 -120 -22q-78 0 -130.5 45t-64.5 110h-4q-37 -68 -116 -121t-189 -53 q-152 0 -240 89.5t-88 236.5zM281 305q0 -76 48 -122t142 -46q90 0 155.5 45t94.5 117v178q-86 33 -176 33q-111 0 -187.5 -56.5t-76.5 -148.5zM315 1255l250 301h275l-363 -301h-162z" />
<glyph unicode="&#xe2;" horiz-adv-x="1095" d="M92 297q0 152 119 247t317 95q86 0 193 -25v91q0 115 -56.5 172t-189.5 57q-154 0 -305 -84v174q166 70 344 70q188 0 287.5 -91.5t99.5 -257.5v-487q0 -66 24.5 -94.5t75.5 -28.5l43 10v-133q-45 -23 -120 -22q-78 0 -130.5 45t-64.5 110h-4q-37 -68 -116 -121t-189 -53 q-152 0 -240 89.5t-88 236.5zM190 1255l250 301h193l250 -301h-183l-163 197l-164 -197h-183zM281 305q0 -76 48 -122t142 -46q90 0 155.5 45t94.5 117v178q-86 33 -176 33q-111 0 -187.5 -56.5t-76.5 -148.5z" />
<glyph unicode="&#xe3;" horiz-adv-x="1095" d="M92 297q0 152 119 247t317 95q86 0 193 -25v91q0 115 -56.5 172t-189.5 57q-154 0 -305 -84v174q166 70 344 70q188 0 287.5 -91.5t99.5 -257.5v-487q0 -66 24.5 -94.5t75.5 -28.5l43 10v-133q-45 -23 -120 -22q-78 0 -130.5 45t-64.5 110h-4q-37 -68 -116 -121t-189 -53 q-152 0 -240 89.5t-88 236.5zM141 1282q0 119 58.5 204t171.5 85q68 0 119 -38t93 -75t85 -37q86 0 98 150h125q0 -121 -58.5 -205t-175.5 -84q-55 0 -100 23.5t-68.5 51t-57.5 51.5t-71 24q-84 0 -94 -150h-125zM281 305q0 -76 48 -122t142 -46q90 0 155.5 45t94.5 117v178 q-86 33 -176 33q-111 0 -187.5 -56.5t-76.5 -148.5z" />
<glyph unicode="&#xe4;" horiz-adv-x="1095" d="M92 297q0 152 119 247t317 95q86 0 193 -25v91q0 115 -56.5 172t-189.5 57q-154 0 -305 -84v174q166 70 344 70q188 0 287.5 -91.5t99.5 -257.5v-487q0 -66 24.5 -94.5t75.5 -28.5l43 10v-133q-45 -23 -120 -22q-78 0 -130.5 45t-64.5 110h-4q-37 -68 -116 -121t-189 -53 q-152 0 -240 89.5t-88 236.5zM231 1372q0 47 32 79t79 32t79 -32t32 -79t-32 -78.5t-79 -31.5t-79 31.5t-32 78.5zM281 305q0 -76 48 -122t142 -46q90 0 155.5 45t94.5 117v178q-86 33 -176 33q-111 0 -187.5 -56.5t-76.5 -148.5zM623 1372q0 47 31.5 79t78.5 32t79 -32 t32 -79t-32 -78.5t-79 -31.5t-78.5 31.5t-31.5 78.5z" />
<glyph unicode="&#xe5;" horiz-adv-x="1095" d="M92 297q0 152 119 247t317 95q86 0 193 -25v91q0 115 -56.5 172t-189.5 57q-154 0 -305 -84v174q166 70 344 70q188 0 287.5 -91.5t99.5 -257.5v-487q0 -66 24.5 -94.5t75.5 -28.5l43 10v-133q-45 -23 -120 -22q-78 0 -130.5 45t-64.5 110h-4q-37 -68 -116 -121t-189 -53 q-152 0 -240 89.5t-88 236.5zM281 305q0 -76 48 -122t142 -46q90 0 155.5 45t94.5 117v178q-86 33 -176 33q-111 0 -187.5 -56.5t-76.5 -148.5zM281 1432q0 104 65.5 169.5t170 65.5t170 -65.5t65.5 -169.5q0 -106 -65.5 -172t-170 -66t-170 66t-65.5 172zM403 1432 q0 -57 31 -90t82 -33t82 32.5t31 90.5q0 55 -31 87.5t-82 32.5t-82 -32.5t-31 -87.5z" />
<glyph unicode="&#xe6;" horiz-adv-x="1837" d="M123 297q0 152 118.5 247t317.5 95q86 0 193 -25v91q0 115 -56.5 172t-189.5 57q-154 0 -305 -84v174q166 70 344 70q256 0 344 -164q141 164 371 164q211 0 337.5 -132.5t126.5 -355.5l-4 -106h-776q6 -176 97.5 -272.5t265.5 -96.5q180 0 368 109v-172 q-166 -96 -379 -97q-283 0 -434 197q-94 -109 -190.5 -153t-220.5 -44q-152 0 -240 89.5t-88 236.5zM311 305q0 -76 48.5 -122t142.5 -46q90 0 155.5 45t94.5 117v178q-86 33 -177 33q-111 0 -187.5 -56.5t-76.5 -148.5zM954 651h574q0 141 -76 212t-194.5 71t-197.5 -75 t-106 -208z" />
<glyph unicode="&#xe7;" horiz-adv-x="1044" d="M113 532.5q0 247.5 155.5 404.5t403.5 157q143 0 260 -54v-172q-127 66 -260 66q-168 0 -267.5 -108.5t-99.5 -293t99.5 -293t267.5 -108.5q133 0 260 66v-172q-117 -53 -260 -54q-248 0 -403.5 157t-155.5 404.5zM360 -367q63 -35 134 -34q51 0 79.5 22.5t28.5 61.5 q0 106 -196 106l118 211h140l-84 -133q82 -16 131 -63.5t49 -120.5q0 -94 -77 -147.5t-183 -53.5l-140 24v127z" />
<glyph unicode="&#xe8;" horiz-adv-x="1198" d="M113 530q0 248 143 406t365 158q211 0 337.5 -132.5t126.5 -355.5l-4 -106h-776q6 -176 97.5 -272.5t265.5 -96.5q180 0 368 109v-172q-166 -96 -379 -97q-248 0 -396 153.5t-148 405.5zM295 1556h274l250 -301h-162zM315 651h574q0 141 -76 212t-194.5 71t-197.5 -75 t-106 -208z" />
<glyph unicode="&#xe9;" horiz-adv-x="1198" d="M113 530q0 248 143 406t365 158q211 0 337.5 -132.5t126.5 -355.5l-4 -106h-776q6 -176 97.5 -272.5t265.5 -96.5q180 0 368 109v-172q-166 -96 -379 -97q-248 0 -396 153.5t-148 405.5zM315 651h574q0 141 -76 212t-194.5 71t-197.5 -75t-106 -208zM397 1255l250 301 h275l-363 -301h-162z" />
<glyph unicode="&#xea;" horiz-adv-x="1198" d="M113 530q0 248 143 406t365 158q211 0 337.5 -132.5t126.5 -355.5l-4 -106h-776q6 -176 97.5 -272.5t265.5 -96.5q180 0 368 109v-172q-166 -96 -379 -97q-248 0 -396 153.5t-148 405.5zM272 1255l250 301h193l250 -301h-183l-164 197l-163 -197h-183zM315 651h574 q0 141 -76 212t-194.5 71t-197.5 -75t-106 -208z" />
<glyph unicode="&#xeb;" horiz-adv-x="1198" d="M113 530q0 248 143 406t365 158q211 0 337.5 -132.5t126.5 -355.5l-4 -106h-776q6 -176 97.5 -272.5t265.5 -96.5q180 0 368 109v-172q-166 -96 -379 -97q-248 0 -396 153.5t-148 405.5zM313 1372q0 47 32 79t79 32t79 -32t32 -79t-32 -78.5t-79 -31.5t-79 31.5t-32 78.5 zM315 651h574q0 141 -76 212t-194.5 71t-197.5 -75t-106 -208zM705 1372q0 47 31.5 79t78.5 32t79 -32t32 -79t-32 -78.5t-79 -31.5t-78.5 31.5t-31.5 78.5z" />
<glyph unicode="&#xec;" horiz-adv-x="548" d="M-29 1556h275l250 -301h-162zM184 0v1065h181v-1065h-181z" />
<glyph unicode="&#xed;" horiz-adv-x="548" d="M53 1255l250 301h275l-363 -301h-162zM184 0v1065h181v-1065h-181z" />
<glyph unicode="&#xee;" horiz-adv-x="548" d="M-72 1255l250 301h193l250 -301h-183l-164 197l-163 -197h-183zM184 0v1065h181v-1065h-181z" />
<glyph unicode="&#xef;" horiz-adv-x="548" d="M-31 1372q0 47 32 79t79 32t78.5 -32t31.5 -79t-31.5 -78.5t-78.5 -31.5t-79 31.5t-32 78.5zM184 0v1065h181v-1065h-181zM360 1372q0 47 32 79t79 32t79 -32t32 -79t-32 -78.5t-79 -31.5t-79 31.5t-32 78.5z" />
<glyph unicode="&#xf0;" d="M113 489q0 229 144 376t366 147q74 0 140 -25.5t97 -52.5l29 -25q-35 133 -160 295l-244 -112l-45 98l217 98q-63 63 -125 107l82 100q90 -55 181 -143l239 108l45 -96l-209 -96q131 -156 205 -345.5t74 -379.5q0 -276 -141.5 -424t-376.5 -148q-229 0 -373.5 145.5 t-144.5 372.5zM305 491.5q0 -165.5 88 -263t237.5 -97.5t237.5 97.5t88 263t-88 263t-237.5 97.5t-237.5 -97.5t-88 -263z" />
<glyph unicode="&#xf1;" horiz-adv-x="1247" d="M170 1065h160q14 -53 24 -131q154 160 355 160q190 0 276 -118t86 -282v-694h-180v684q0 117 -64.5 183.5t-173.5 66.5q-145 0 -288 -143v-791h-181v795q0 70 -4 137t-8 100zM250 1282q0 119 58.5 204t170.5 85q68 0 119 -38t93 -75t85 -37q86 0 98 150h125 q0 -121 -58 -205t-175 -84q-55 0 -100 23.5t-69 51t-57.5 51.5t-70.5 24q-84 0 -94 -150h-125z" />
<glyph unicode="&#xf2;" d="M113 532.5q0 247.5 144 404.5t373.5 157t374 -157t144.5 -404.5t-144.5 -404.5t-374 -157t-373.5 157t-144 404.5zM305 532.5q0 -184.5 88 -293t237.5 -108.5t237.5 108.5t88 293t-88 293t-237.5 108.5t-237.5 -108.5t-88 -293zM328 1556h274l250 -301h-162z" />
<glyph unicode="&#xf3;" d="M113 532.5q0 247.5 144 404.5t373.5 157t374 -157t144.5 -404.5t-144.5 -404.5t-374 -157t-373.5 157t-144 404.5zM305 532.5q0 -184.5 88 -293t237.5 -108.5t237.5 108.5t88 293t-88 293t-237.5 108.5t-237.5 -108.5t-88 -293zM410 1255l249 301h275l-363 -301h-161z " />
<glyph unicode="&#xf4;" d="M113 532.5q0 247.5 144 404.5t373.5 157t374 -157t144.5 -404.5t-144.5 -404.5t-374 -157t-373.5 157t-144 404.5zM285 1255l250 301h192l250 -301h-182l-164 197l-164 -197h-182zM305 532.5q0 -184.5 88 -293t237.5 -108.5t237.5 108.5t88 293t-88 293t-237.5 108.5 t-237.5 -108.5t-88 -293z" />
<glyph unicode="&#xf5;" d="M113 532.5q0 247.5 144 404.5t373.5 157t374 -157t144.5 -404.5t-144.5 -404.5t-374 -157t-373.5 157t-144 404.5zM256 1282q0 119 58.5 204t170.5 85q68 0 119 -38t93 -75t85 -37q86 0 99 150h125q0 -121 -58.5 -205t-175.5 -84q-55 0 -100 23.5t-68.5 51t-57.5 51.5 t-71 24q-84 0 -94 -150h-125zM305 532.5q0 -184.5 88 -293t237.5 -108.5t237.5 108.5t88 293t-88 293t-237.5 108.5t-237.5 -108.5t-88 -293z" />
<glyph unicode="&#xf6;" d="M113 532.5q0 247.5 144 404.5t373.5 157t374 -157t144.5 -404.5t-144.5 -404.5t-374 -157t-373.5 157t-144 404.5zM305 532.5q0 -184.5 88 -293t237.5 -108.5t237.5 108.5t88 293t-88 293t-237.5 108.5t-237.5 -108.5t-88 -293zM324 1372q0 47 31.5 79t78.5 32t79 -32 t32 -79t-32 -78.5t-79 -31.5t-78.5 31.5t-31.5 78.5zM715 1372q0 47 31.5 79t78.5 32t79 -32t32 -79t-32 -78.5t-79 -31.5t-78.5 31.5t-31.5 78.5z" />
<glyph unicode="&#xf7;" horiz-adv-x="1224" d="M123 514v156h979v-156h-979zM465 208.5q0 63.5 42 104.5t105.5 41t104.5 -41t41 -104.5t-41 -105.5t-104.5 -42t-105.5 42t-42 105.5zM465 976.5q0 63.5 42 104.5t105.5 41t104.5 -41t41 -104.5t-41 -105.5t-104.5 -42t-105.5 42t-42 105.5z" />
<glyph unicode="&#xf8;" d="M113 -29l131 170q-131 154 -131 391q0 248 144 405t374 157q160 0 289 -84l65 84h164l-133 -170q133 -156 133 -392q0 -248 -144.5 -404.5t-373.5 -156.5q-168 0 -289 84l-66 -84h-163zM305 532q0 -143 53 -243l457 585q-76 59 -184 60q-150 0 -238 -109t-88 -293z M444 188q80 -57 187 -57q150 0 237.5 108.5t87.5 292.5q0 145 -55 244z" />
<glyph unicode="&#xf9;" horiz-adv-x="1247" d="M176 371v694h180v-684q0 -117 64.5 -183.5t173.5 -66.5q152 0 289 143v791h180v-795q0 -70 3 -137t7 -100l4 -33h-159q-16 51 -27 129q-158 -158 -352 -158q-190 0 -276.5 118t-86.5 282zM276 1556h275l250 -301h-162z" />
<glyph unicode="&#xfa;" horiz-adv-x="1247" d="M176 371v694h180v-684q0 -117 64.5 -183.5t173.5 -66.5q152 0 289 143v791h180v-795q0 -70 3 -137t7 -100l4 -33h-159q-16 51 -27 129q-158 -158 -352 -158q-190 0 -276.5 118t-86.5 282zM399 1255l250 301h275l-363 -301h-162z" />
<glyph unicode="&#xfb;" horiz-adv-x="1247" d="M176 371v694h180v-684q0 -117 64.5 -183.5t173.5 -66.5q152 0 289 143v791h180v-795q0 -70 3 -137t7 -100l4 -33h-159q-16 51 -27 129q-158 -158 -352 -158q-190 0 -276.5 118t-86.5 282zM274 1255l250 301h193l250 -301h-183l-163 197l-164 -197h-183z" />
<glyph unicode="&#xfc;" horiz-adv-x="1247" d="M176 371v694h180v-684q0 -117 64.5 -183.5t173.5 -66.5q152 0 289 143v791h180v-795q0 -70 3 -137t7 -100l4 -33h-159q-16 51 -27 129q-158 -158 -352 -158q-190 0 -276.5 118t-86.5 282zM315 1372q0 47 32 79t79 32t79 -32t32 -79t-32 -78.5t-79 -31.5t-79 31.5 t-32 78.5zM707 1372q0 47 31.5 79t78.5 32t79 -32t32 -79t-32 -78.5t-79 -31.5t-78.5 31.5t-31.5 78.5z" />
<glyph unicode="&#xfd;" horiz-adv-x="1011" d="M10 -319q39 -18 84 -19q100 0 178 79t142 271l14 43l-418 1010h201l305 -797l268 797h197l-379 -1053q-90 -252 -204.5 -388t-278.5 -136l-109 23v170zM319 1255l250 301h275l-363 -301h-162z" />
<glyph unicode="&#xfe;" horiz-adv-x="1294" d="M184 -512v1946h183v-469q143 129 333 129q219 0 350.5 -157t131.5 -404.5t-131 -404.5t-351 -157q-182 0 -335 117v-600h-181zM365 266q121 -135 299 -135q152 0 238.5 108.5t86.5 293t-87 293t-238 108.5q-174 0 -299 -137v-531z" />
<glyph unicode="&#xff;" horiz-adv-x="1011" d="M10 -319q39 -18 84 -19q100 0 178 79t142 271l14 43l-418 1010h201l305 -797l268 797h197l-379 -1053q-90 -252 -204.5 -388t-278.5 -136l-109 23v170zM213 1352q0 47 31.5 78.5t79 31.5t79 -31.5t31.5 -78.5t-31.5 -79t-79 -32t-79 32t-31.5 79zM604 1352q0 47 32 78.5 t79 31.5t78.5 -31.5t31.5 -78.5t-31.5 -79t-78.5 -32t-79 32t-32 79z" />
<glyph unicode="&#x152;" horiz-adv-x="1941" d="M113 716.5q0 327.5 198.5 536.5t509.5 209q106 0 209 -28h799v-164h-606v-420h544v-164h-544v-522h606v-164h-797q-102 -29 -211 -29q-311 0 -509.5 209t-198.5 536.5zM317 717q0 -258 139.5 -416t364.5 -158q115 0 209 41v1063q-96 43 -209 43q-225 0 -364.5 -157.5 t-139.5 -415.5z" />
<glyph unicode="&#x153;" horiz-adv-x="2043" d="M113 532.5q0 247.5 144 404.5t374 157q276 0 422 -222q145 221 413 222q211 0 338 -132.5t127 -355.5l-4 -106h-776q6 -176 97 -272.5t265 -96.5q180 0 369 109v-172q-166 -96 -379 -97q-301 0 -450 219q-143 -219 -422 -219q-229 0 -373.5 157t-144.5 404.5zM305 532.5 q0 -184.5 88 -293t237.5 -108.5t237.5 108.5t88 293t-88 293t-237.5 108.5t-237.5 -108.5t-88 -293zM1161 651h574q0 141 -76 212t-194.5 71t-197.5 -75t-106 -208z" />
<glyph unicode="&#x178;" horiz-adv-x="1093" d="M2 1434h213l332 -656l332 656h213l-449 -846v-588h-192v588zM240 1708q0 47 31.5 79t78.5 32t79 -32t32 -79t-32 -79t-79 -32t-78.5 32t-31.5 79zM631 1708q0 47 31.5 79t78.5 32t79 -32t32 -79t-32 -79t-79 -32t-78.5 32t-31.5 79z" />
<glyph unicode="&#x2c6;" horiz-adv-x="937" d="M123 1255l250 301h192l250 -301h-182l-164 197l-164 -197h-182z" />
<glyph unicode="&#x2dc;" horiz-adv-x="995" d="M123 1282q0 119 58.5 204t170.5 85q68 0 119 -38t93 -75t85 -37q86 0 99 150h124q0 -121 -58 -205t-175 -84q-55 0 -100 23.5t-69 51t-57.5 51.5t-70.5 24q-84 0 -94 -150h-125z" />
<glyph unicode="&#x2000;" horiz-adv-x="962" />
<glyph unicode="&#x2001;" horiz-adv-x="1927" />
<glyph unicode="&#x2002;" horiz-adv-x="962" />
<glyph unicode="&#x2003;" horiz-adv-x="1927" />
<glyph unicode="&#x2004;" horiz-adv-x="641" />
<glyph unicode="&#x2005;" horiz-adv-x="481" />
<glyph unicode="&#x2006;" horiz-adv-x="319" />
<glyph unicode="&#x2007;" horiz-adv-x="319" />
<glyph unicode="&#x2008;" horiz-adv-x="239" />
<glyph unicode="&#x2009;" horiz-adv-x="385" />
<glyph unicode="&#x200a;" horiz-adv-x="106" />
<glyph unicode="&#x2010;" horiz-adv-x="733" d="M123 543v151h487v-151h-487z" />
<glyph unicode="&#x2011;" horiz-adv-x="733" d="M123 543v151h487v-151h-487z" />
<glyph unicode="&#x2012;" horiz-adv-x="733" d="M123 543v151h487v-151h-487z" />
<glyph unicode="&#x2013;" horiz-adv-x="1327" d="M123 543v151h1081v-151h-1081z" />
<glyph unicode="&#x2014;" horiz-adv-x="2304" d="M123 543v151h2058v-151h-2058z" />
<glyph unicode="&#x2018;" horiz-adv-x="430" d="M2 1057q0 104 65.5 212.5t172.5 192.5l65 -71q-135 -123 -149 -228q63 -2 107 -44t44 -103q0 -63 -42 -104.5t-105 -41.5q-68 0 -113 49.5t-45 137.5z" />
<glyph unicode="&#x2019;" horiz-adv-x="518" d="M123 1317q0 63 42 104t105 41q68 0 113 -49t45 -137q0 -104 -65.5 -213t-172.5 -193l-65 72q135 123 149 227q-63 2 -107 44.5t-44 103.5z" />
<glyph unicode="&#x201a;" horiz-adv-x="485" d="M90 119q0 63 42 104t106 41q68 0 112.5 -49t44.5 -137q0 -104 -65.5 -213t-171.5 -193l-66 72q135 123 150 227q-63 2 -107.5 44.5t-44.5 103.5z" />
<glyph unicode="&#x201c;" horiz-adv-x="890" d="M90 1057q0 104 65.5 212.5t172.5 192.5l65 -71q-135 -123 -149 -228q63 -2 107 -44t44 -103q0 -63 -42 -104.5t-105 -41.5q-68 0 -113 49.5t-45 137.5zM463 1057q0 104 65.5 212.5t171.5 192.5l66 -71q-135 -123 -150 -228q63 -2 107.5 -44t44.5 -103q0 -63 -42 -104.5 t-105 -41.5q-68 0 -113 49.5t-45 137.5z" />
<glyph unicode="&#x201d;" horiz-adv-x="890" d="M123 1317q0 63 42 104t105 41q68 0 113 -49t45 -137q0 -104 -65.5 -213t-172.5 -193l-65 72q135 123 149 227q-63 2 -107 44.5t-44 103.5zM496 1317q0 63 42 104t105 41q68 0 113 -49t45 -137q0 -104 -65.5 -213t-172.5 -193l-65 72q135 123 149 227q-63 2 -107 44.5 t-44 103.5z" />
<glyph unicode="&#x201e;" horiz-adv-x="858" d="M90 119q0 63 42 104t106 41q68 0 112.5 -49t44.5 -137q0 -104 -65.5 -213t-171.5 -193l-66 72q135 123 150 227q-63 2 -107.5 44.5t-44.5 103.5zM463 119q0 63 42 104t105 41q68 0 113 -49t45 -137q0 -104 -65.5 -213t-172.5 -193l-65 72q135 123 149 227 q-63 2 -107 44.5t-44 103.5z" />
<glyph unicode="&#x2022;" horiz-adv-x="751" d="M164 670q0 90 61.5 151.5t149.5 61.5t150.5 -62.5t62.5 -150.5t-61.5 -149.5t-151.5 -61.5q-88 0 -149.5 61.5t-61.5 149.5z" />
<glyph unicode="&#x2026;" horiz-adv-x="1468" d="M90 118.5q0 63.5 42 104.5t105.5 41t104.5 -41t41 -104.5t-41 -105.5t-104.5 -42t-105.5 42t-42 105.5zM588 118.5q0 63.5 42 104.5t105.5 41t104.5 -41t41 -104.5t-41 -105.5t-104.5 -42t-105.5 42t-42 105.5zM1085 118.5q0 63.5 42 104.5t105.5 41t104.5 -41t41 -104.5 t-41 -105.5t-104.5 -42t-105.5 42t-42 105.5z" />
<glyph unicode="&#x202f;" horiz-adv-x="385" />
<glyph unicode="&#x2039;" horiz-adv-x="763" d="M92 451v157l467 410v-174l-291 -314l291 -315v-174z" />
<glyph unicode="&#x203a;" horiz-adv-x="763" d="M205 41v174l291 315l-291 314v174l467 -410v-157z" />
<glyph unicode="&#x205f;" horiz-adv-x="481" />
<glyph unicode="&#x20ac;" horiz-adv-x="1513" d="M123 492v143h188q-4 53 -4 82q0 27 4 84h-188v143h211q61 238 238.5 378t426.5 140q213 0 392 -92l-82 -156q-147 76 -305 76q-170 0 -290 -91t-171 -255h626l-73 -143h-580q-4 -27 -4 -84q0 -29 4 -82h492l-74 -143h-391q51 -166 171 -257.5t290 -91.5q158 0 305 76 l82 -156q-178 -92 -392 -92q-252 0 -428 140.5t-237 380.5h-211z" />
<glyph unicode="&#x2122;" horiz-adv-x="1998" d="M82 1319v115h715v-115h-291v-690h-135v690h-289zM924 629v817h39l397 -520l395 520h39v-817h-133v504l-279 -367h-43l-280 367v-504h-135z" />
<glyph unicode="&#xe000;" horiz-adv-x="1065" d="M0 1065h1065v-1065h-1065v1065z" />
<glyph unicode="&#xfb01;" horiz-adv-x="1251" d="M51 913v152h174v121q0 147 73 228t212 81q37 0 78 -5t63 -11l21 -4v-156q-66 20 -133.5 20t-100 -34.5t-32.5 -116.5v-123h256v-152h-256v-913h-181v913h-174zM866 1352q0 47 32 78.5t79 31.5t78.5 -31.5t31.5 -78.5t-31.5 -79t-78.5 -32t-79 32t-32 79zM887 0v1065h180 v-1065h-180z" />
<glyph unicode="&#xfb02;" horiz-adv-x="1355" d="M51 913v152h174v121q0 147 73 228t212 81q37 0 78 -5t63 -11l21 -4v-156q-66 20 -133.5 20t-100 -34.5t-32.5 -116.5v-123h256v-152h-256v-913h-181v913h-174zM887 289v1206h180v-1219q0 -84 33 -114.5t102 -30.5q29 0 56.5 4t39.5 8l13 7v-156q-70 -23 -154 -23 q-143 0 -206.5 78t-63.5 240z" />
<glyph unicode="&#xfb03;" horiz-adv-x="1953" d="M1569 1352q0 47 31.5 78.5t79 31.5t79 -31.5t31.5 -78.5t-31.5 -79t-79 -32t-79 32t-31.5 79zM1589 0v1065h181v-1065h-181zM753 913v152h174v121q0 147 73 228t212 81q37 0 78 -5t63 -11l21 -4v-156q-66 20 -133.5 20t-100 -34.5t-32.5 -116.5v-123h256v-152h-256v-913 h-181v913h-174zM51 913v152h174v121q0 147 73 228t212 81q37 0 78 -5t63 -11l21 -4v-156q-66 20 -133.5 20t-100 -34.5t-32.5 -116.5v-123h256v-152h-256v-913h-181v913h-174z" />
<glyph unicode="&#xfb04;" horiz-adv-x="2058" d="M1589 289v1206h181v-1219q0 -84 32.5 -114.5t102.5 -30.5q29 0 56.5 4t39.5 8l12 7v-156q-70 -23 -153 -23q-143 0 -207 78t-64 240zM753 913v152h174v121q0 147 73 228t212 81q37 0 78 -5t63 -11l21 -4v-156q-66 20 -133.5 20t-100 -34.5t-32.5 -116.5v-123h256v-152 h-256v-913h-181v913h-174zM51 913v152h174v121q0 147 73 228t212 81q37 0 78 -5t63 -11l21 -4v-156q-66 20 -133.5 20t-100 -34.5t-32.5 -116.5v-123h256v-152h-256v-913h-181v913h-174z" />
</font>
</defs>
</svg>
